<?xml version="1.0" standalone="no"?>
<!DOCTYPE svg PUBLIC "-//W3C//DTD SVG 1.1//EN" "http://www.w3.org/Graphics/SVG/1.1/DTD/svg11.dtd" >
<svg xmlns="http://www.w3.org/2000/svg" xmlns:xlink="http://www.w3.org/1999/xlink" version="1.1">
<metadata>
Created by FontForge 20170924 at Thu Jul 21 23:24:28 2016
 By www-data
Copyright \251 2015 by Radomir Tinkov. All rights reserved.
</metadata>
<defs>
<font id="Gilroy-LightItalic" horiz-adv-x="570" >
  <font-face 
    font-family="Gilroy"
    font-weight="300"
    font-style="italic"
    font-stretch="normal"
    units-per-em="1000"
    panose-1="0 0 4 0 0 0 0 0 0 0"
    ascent="776"
    descent="-224"
    x-height="500"
    cap-height="700"
    bbox="-296 -240 1039 960"
    underline-thickness="50"
    underline-position="-100"
    slope="-10"
    unicode-range="U+0020-FB02"
  />
<missing-glyph horiz-adv-x="500" 
d="M93 800h317v-1000h-317v1000zM333 700v33h-165v-33h65v-37h-66v-33h166v33h-66v37h66zM267 534v70h-100v-104h166v34h-66zM200 570h33v-36h-33v36zM333 440v33h-166v-33h66v-37h-66v-33h100v70h66zM333 313v100h-33v-66h-133v-34h166zM333 178v113h-100v-56h34v23h33v-47
h-100v80h-33v-113h166zM333 5v113h-166v-113h166zM200 85h100v-47h-100v47zM333 -51v33h-166v-33h70l-70 -47v-33h166v33h-102l70 47h32z" />
    <glyph glyph-name="fi" unicode="fi" horiz-adv-x="510" 
d="M386 663c-104 0 -156 -40 -173 -136l-5 -27h270l-88 -500h-51l79 451h-218l-80 -451h-51l80 451h-87l9 49h86l5 27c21 123 99 184 233 184c29 0 61 -4 94 -11l-7 -46c-32 6 -64 9 -96 9z" />
    <glyph glyph-name="fl" unicode="fl" horiz-adv-x="510" 
d="M395 711c37 0 76 -4 118 -11l-123 -700h-51l116 661c-19 3 -42 4 -69 4c-103 0 -156 -42 -173 -138l-5 -27h119l-8 -49h-119l-80 -451h-51l80 451h-87l9 49h86l5 27c21 123 99 184 233 184z" />
    <glyph glyph-name="f_f" unicode="ff" horiz-adv-x="583" 
d="M427 500l6 37c23 128 104 193 233 184l-9 -48c-98 8 -156 -37 -173 -136l-6 -37h149l-9 -49h-149l-79 -451h-51l79 451h-218l-80 -451h-51l80 451h-87l9 49h86l5 27c23 128 104 193 233 184l-9 -48c-98 8 -156 -37 -173 -136l-5 -27h219z" />
    <glyph glyph-name="f_f_i" unicode="ffi" horiz-adv-x="780" 
d="M657 673c-103 0 -156 -40 -173 -136l-6 -37h269l-88 -500h-50l79 451h-219l-79 -451h-51l79 451h-218l-80 -451h-51l80 451h-87l9 49h86l5 27c23 128 104 193 233 184l-9 -48c-98 8 -156 -37 -173 -136l-5 -27h219l6 37c21 123 99 184 233 184c30 0 62 -4 95 -11l-8 -46
c-32 6 -64 9 -96 9z" />
    <glyph glyph-name="f_f_l" unicode="ffl" horiz-adv-x="780" 
d="M666 721c37 0 76 -4 118 -11l-125 -710h-50l118 671c-21 3 -44 4 -69 4c-103 0 -157 -42 -174 -138l-6 -37h119l-9 -49h-119l-79 -451h-51l79 451h-218l-80 -451h-51l80 451h-87l9 49h86l5 27c23 128 104 193 233 184l-9 -48c-98 8 -156 -37 -173 -136l-5 -27h219l6 37
c21 123 99 184 233 184z" />
    <glyph glyph-name=".notdef" horiz-adv-x="500" 
d="M93 800h317v-1000h-317v1000zM333 700v33h-165v-33h65v-37h-66v-33h166v33h-66v37h66zM267 534v70h-100v-104h166v34h-66zM200 570h33v-36h-33v36zM333 440v33h-166v-33h66v-37h-66v-33h100v70h66zM333 313v100h-33v-66h-133v-34h166zM333 178v113h-100v-56h34v23h33v-47
h-100v80h-33v-113h166zM333 5v113h-166v-113h166zM200 85h100v-47h-100v47zM333 -51v33h-166v-33h70l-70 -47v-33h166v33h-102l70 47h32z" />
    <glyph glyph-name="NULL" horiz-adv-x="0" 
 />
    <glyph glyph-name="CR" horiz-adv-x="333" 
 />
    <glyph glyph-name="space" unicode=" " horiz-adv-x="267" 
 />
    <glyph glyph-name="exclam" unicode="!" horiz-adv-x="220" 
d="M118 180h-40l46 320l35 200h60l-35 -200zM64 -10c-25 0 -41 21 -36 46c4 27 25 44 52 44c25 0 42 -21 37 -46c-5 -27 -25 -44 -53 -44z" />
    <glyph glyph-name="quotedbl" unicode="&#x22;" horiz-adv-x="293" 
d="M146 513h-40l26 187h54zM280 513h-40l26 187h53z" />
    <glyph glyph-name="numbersign" unicode="#" horiz-adv-x="603" 
d="M604 463l-16 -46h-118l-46 -134h120l-16 -46h-120l-64 -187h-50l64 187h-154l-64 -187h-50l64 187h-119l15 46h120l46 134h-121l16 46h121l64 187h50l-64 -187h154l64 187h50l-64 -187h118zM220 283h154l46 134h-154z" />
    <glyph glyph-name="dollar" unicode="$" horiz-adv-x="558" 
d="M550 584l-47 -24c-23 55 -61 88 -116 97l-51 -287c82 -33 187 -81 163 -207c-20 -107 -111 -167 -230 -174l-16 -89h-47l16 90c-104 9 -175 61 -199 145l48 24c17 -69 73 -113 160 -118l52 294c-53 21 -83 37 -120 69c-36 33 -51 79 -39 138c10 53 37 95 80 124
c44 30 92 45 145 45l16 89h47l-16 -93c77 -12 128 -53 154 -123zM177 537c-15 -76 31 -112 115 -148l48 271c-39 -1 -75 -13 -106 -36s-50 -52 -57 -87zM446 169c16 73 -31 111 -119 148l-49 -276c91 7 153 55 168 128z" />
    <glyph glyph-name="percent" unicode="%" horiz-adv-x="716" 
d="M246 413c-43 0 -76 15 -101 44c-25 30 -33 66 -26 108s28 77 61 104c34 28 73 42 118 42c43 0 77 -15 101 -45c25 -29 33 -65 26 -107s-28 -77 -61 -105c-33 -27 -73 -41 -118 -41zM184 488c17 -19 40 -29 70 -29s56 10 79 29c23 20 38 45 43 74s0 54 -17 73
c-16 20 -39 30 -69 30s-57 -10 -80 -30c-23 -19 -37 -44 -42 -73s0 -54 16 -74zM105 70l-34 20l569 535l35 -20zM454 -11c-43 0 -76 15 -101 44c-25 30 -33 66 -26 108s28 77 61 104c34 28 73 42 118 42c43 0 77 -15 101 -45c25 -29 33 -65 26 -107s-28 -77 -62 -105
c-33 -27 -72 -41 -117 -41zM376 138c-9 -59 26 -103 86 -103s111 44 122 103s-26 103 -86 103s-111 -44 -122 -103z" />
    <glyph glyph-name="ampersand" unicode="&#x26;" horiz-adv-x="660" 
d="M547 298l41 -27c-18 -55 -44 -106 -79 -151l83 -106l-46 -23l-72 91c-63 -62 -138 -93 -224 -93c-68 0 -121 19 -158 57c-37 39 -49 88 -38 149c15 86 74 152 177 198c-29 46 -40 94 -32 143c9 52 33 94 73 126c41 33 89 49 144 49c93 0 162 -51 190 -132l-46 -25
c-21 65 -74 106 -145 106c-81 0 -149 -51 -162 -128c-9 -47 8 -97 50 -150l175 -223c29 41 52 87 69 139zM254 40c72 0 135 27 190 80l-182 231c0 1 0 1 -1 1c-89 -36 -141 -90 -154 -162c-17 -92 44 -150 147 -150z" />
    <glyph glyph-name="quotesingle" unicode="'" horiz-adv-x="157" 
d="M146 513h-40l26 187h54z" />
    <glyph glyph-name="parenleft" unicode="(" horiz-adv-x="251" 
d="M159 -100h-50c-47 147 -57 298 -30 455c27 156 90 304 189 445h50c-199 -292 -252 -608 -159 -900z" />
    <glyph glyph-name="parenright" unicode=")" horiz-adv-x="251" 
d="M127 800h50c47 -147 57 -298 30 -455c-27 -156 -90 -304 -189 -445h-50c199 292 252 608 159 900z" />
    <glyph glyph-name="asterisk" unicode="*" horiz-adv-x="387" 
d="M292 609l95 2l-7 -43l-95 2l39 -79l-41 -23l-34 84l-63 -84l-38 23l67 79l-95 -2l7 43l95 -2l-40 79l42 23l34 -83l63 83l37 -23z" />
    <glyph glyph-name="plus" unicode="+" horiz-adv-x="533" 
d="M313 374h179l-9 -48h-178l-32 -179h-49l32 179h-179l8 48h179l32 179h49z" />
    <glyph glyph-name="comma" unicode="," horiz-adv-x="223" 
d="M67 68h63l-91 -208h-46z" />
    <glyph glyph-name="hyphen" unicode="-" horiz-adv-x="533" 
d="M453 285h-360l8 48h360z" />
    <glyph glyph-name="period" unicode="." horiz-adv-x="213" 
d="M61 -10c-57 -3 -44 95 15 90c25 0 43 -21 38 -46c-5 -27 -25 -44 -53 -44z" />
    <glyph glyph-name="slash" unicode="/" horiz-adv-x="527" 
d="M580 800l-556 -900h-43l557 900h42z" />
    <glyph glyph-name="zero" unicode="0" horiz-adv-x="632" 
d="M270 -11c-80 0 -138 34 -174 101c-35 68 -43 157 -24 266c19 110 57 197 113 260c57 63 127 95 212 95c80 0 138 -34 173 -102c36 -67 44 -156 25 -265c-19 -110 -57 -197 -114 -260c-56 -63 -126 -95 -211 -95zM542 350c33 196 -23 310 -154 310s-228 -114 -263 -310
c-33 -196 23 -310 154 -310s228 114 263 310z" />
    <glyph glyph-name="one" unicode="1" horiz-adv-x="332" 
d="M85 637l194 63h45l-123 -700h-53l113 640l-171 -50z" />
    <glyph glyph-name="two" unicode="2" horiz-adv-x="527" 
d="M439 0h-440l9 48l303 264c89 77 138 143 148 198c16 93 -40 150 -128 150c-75 0 -137 -36 -184 -107l-42 28c56 85 141 130 233 130c57 0 103 -19 138 -58c35 -38 47 -88 36 -150c-15 -79 -72 -146 -168 -229l-258 -223h362z" />
    <glyph glyph-name="three" unicode="3" horiz-adv-x="539" 
d="M134 700h404l-9 -50l-208 -241c55 -7 99 -29 130 -67c32 -38 43 -86 33 -145c-11 -65 -43 -116 -94 -153s-109 -55 -175 -55c-101 0 -178 48 -199 133l45 25c19 -71 72 -107 161 -107c53 0 99 15 137 44c39 29 62 69 71 118s-1 89 -30 118c-28 29 -68 44 -121 44h-15
l-18 36l218 250h-338z" />
    <glyph glyph-name="four" unicode="4" horiz-adv-x="567" 
d="M449 197h90l-9 -50h-90l-26 -147h-53l26 147h-377l9 50l354 503h60l-353 -503h315l39 220h54z" />
    <glyph glyph-name="five" unicode="5" horiz-adv-x="544" 
d="M554 700l-8 -50h-322l-57 -235h131c62 0 113 -20 153 -61c40 -40 54 -92 43 -157s-42 -116 -93 -153c-50 -37 -109 -55 -176 -55c-103 0 -181 52 -201 141l47 25c13 -75 74 -115 161 -115c53 0 99 15 138 44s62 69 71 118c17 99 -45 162 -152 162h-187l82 336h370z" />
    <glyph glyph-name="six" unicode="6" horiz-adv-x="537" 
d="M303 450c67 0 119 -22 156 -67s50 -101 38 -169s-43 -123 -94 -164c-50 -41 -110 -61 -181 -61c-67 0 -119 22 -156 67s-50 101 -37 168c11 61 37 111 78 150l280 326h65l-223 -259c23 6 48 9 74 9zM444 219c19 107 -38 179 -150 179c-55 0 -102 -17 -141 -50
c-38 -33 -62 -76 -71 -129c-19 -105 38 -179 149 -179c55 0 102 17 140 50c39 33 63 76 73 129z" />
    <glyph glyph-name="seven" unicode="7" horiz-adv-x="490" 
d="M94 650l8 50h424l-9 -50l-383 -650h-58l383 650h-365z" />
    <glyph glyph-name="eight" unicode="8" horiz-adv-x="551" 
d="M532 518c-13 -73 -56 -126 -130 -158c69 -33 107 -99 94 -178c-23 -124 -128 -193 -267 -193c-65 0 -117 18 -156 55c-38 37 -51 87 -40 148c13 81 72 142 155 171c-56 33 -86 92 -74 164c11 59 39 105 84 136c46 32 99 48 158 48c56 0 102 -18 138 -53s49 -81 38 -140z
M299 385c92 0 164 53 180 137c15 87 -42 138 -131 138c-91 0 -165 -51 -181 -138c-15 -84 43 -137 132 -137zM442 187c16 91 -47 146 -152 146c-108 0 -188 -55 -204 -146c-17 -92 44 -147 152 -147c109 0 188 55 204 147z" />
    <glyph glyph-name="nine" unicode="9" horiz-adv-x="539" 
d="M351 711c67 0 119 -23 156 -68s50 -101 38 -169c-10 -57 -34 -104 -73 -143l-285 -331h-64l222 259c-24 -6 -49 -9 -76 -9c-67 0 -120 22 -157 67s-49 102 -37 170s43 122 94 163s111 61 182 61zM492 481c19 105 -39 179 -150 179c-56 0 -103 -17 -142 -50
s-63 -76 -72 -129c-19 -107 39 -179 150 -179c55 0 102 16 141 49s64 77 73 130z" />
    <glyph glyph-name="colon" unicode=":" horiz-adv-x="213" 
d="M135 410c-57 -3 -44 95 15 90c25 0 43 -21 38 -46c-5 -27 -25 -44 -53 -44zM61 -10c-57 -3 -44 95 15 90c25 0 43 -21 38 -46c-5 -27 -25 -44 -53 -44z" />
    <glyph glyph-name="semicolon" unicode=";" horiz-adv-x="230" 
d="M152 410c-57 -3 -44 95 15 90c25 0 43 -21 38 -46c-5 -27 -25 -44 -53 -44zM67 68h63l-91 -208h-46z" />
    <glyph glyph-name="less" unicode="&#x3c;" horiz-adv-x="527" 
d="M86 376l431 178l-11 -59l-367 -148l315 -148l-9 -53l-368 178l4 26z" />
    <glyph glyph-name="equal" unicode="=" horiz-adv-x="537" 
d="M505 426h-410l8 48h410zM469 226h-410l9 48h410z" />
    <glyph glyph-name="greater" unicode="&#x3e;" horiz-adv-x="527" 
d="M108 501l9 53l368 -178l-4 -26l-5 -26l-431 -178l11 59l367 148z" />
    <glyph glyph-name="question" unicode="?" horiz-adv-x="529" 
d="M261 180h-54c12 65 52 123 96 162c66 59 144 113 159 189c13 83 -36 129 -129 129c-75 0 -144 -39 -177 -107l-45 26c44 85 135 132 231 132c56 0 101 -17 136 -50s47 -78 37 -134c-9 -56 -49 -106 -94 -145c-64 -54 -145 -114 -160 -202zM201 -10c-57 -3 -44 95 15 90
c25 0 43 -21 38 -46c-5 -27 -25 -44 -53 -44z" />
    <glyph glyph-name="at" unicode="@" horiz-adv-x="808" 
d="M475 612c69 0 127 -18 176 -53c97 -71 133 -182 113 -294c-25 -141 -96 -204 -175 -204c-53 0 -89 33 -90 89c-35 -40 -78 -60 -131 -60c-45 0 -80 16 -107 48c-26 32 -35 70 -27 115s30 83 65 112c36 30 78 45 125 45c49 0 85 -21 107 -63l10 56h48l-39 -223
c-10 -61 7 -91 50 -91c63 0 116 61 137 181c16 90 -2 165 -53 226s-122 91 -213 91c-95 0 -181 -32 -257 -96c-76 -63 -122 -143 -139 -238c-17 -97 2 -178 58 -243s135 -97 237 -97c67 0 126 9 176 28l-2 -26c-53 -18 -112 -27 -179 -27c-108 0 -193 35 -254 106
s-82 158 -63 263c17 100 67 184 148 252c82 69 175 103 279 103zM379 136c64 0 123 47 135 114s-30 114 -95 114c-33 0 -62 -11 -89 -32c-26 -21 -42 -49 -48 -82c-12 -67 30 -114 97 -114z" />
    <glyph glyph-name="A" unicode="A" horiz-adv-x="629" 
d="M570 0h-54l-36 178h-351l-100 -178h-58l395 700h56zM386 635l-229 -407h312z" />
    <glyph glyph-name="B" unicode="B" horiz-adv-x="623" 
d="M596 512c-11 -65 -55 -122 -116 -151c65 -28 101 -95 89 -174c-8 -52 -33 -96 -75 -133c-42 -36 -92 -54 -151 -54h-300l123 700h265c53 0 96 -19 128 -56c33 -37 45 -81 37 -132zM163 382h226c36 0 69 13 99 39c30 27 48 58 55 95s-1 69 -23 95s-52 39 -91 39h-219z
M403 332h-249l-49 -282h243c41 0 78 14 110 41s51 61 58 100s-1 73 -23 100s-52 41 -90 41z" />
    <glyph glyph-name="C" unicode="C" horiz-adv-x="751" 
d="M365 -11c-105 0 -185 36 -242 108s-76 159 -58 260s66 186 145 253s168 101 268 101c133 0 235 -65 283 -169l-47 -25c-45 95 -124 143 -237 143c-89 0 -168 -30 -236 -90c-67 -59 -109 -133 -124 -220s2 -161 49 -221c47 -59 115 -89 204 -89c113 0 218 56 282 149
l45 -28c-75 -105 -199 -172 -332 -172z" />
    <glyph glyph-name="D" unicode="D" horiz-adv-x="728" 
d="M166 700h263c93 0 165 -35 217 -106s69 -155 52 -252c-17 -98 -63 -180 -136 -245s-158 -97 -256 -97h-263zM646 350c14 84 0 155 -42 213c-41 58 -102 87 -183 87h-211l-105 -600h210c81 0 153 29 215 86c63 58 101 129 116 214z" />
    <glyph glyph-name="E" unicode="E" horiz-adv-x="533" 
d="M564 700l-8 -50h-346l-48 -272h321l-9 -50h-320l-49 -278h350l-9 -50h-403l123 700h398z" />
    <glyph glyph-name="F" unicode="F" horiz-adv-x="518" 
d="M554 700l-9 -50h-335l-49 -280h323l-9 -50h-323l-56 -320h-53l123 700h388z" />
    <glyph glyph-name="G" unicode="G" horiz-adv-x="800" 
d="M416 326h351l-5 -26c-16 -89 -59 -163 -130 -222c-70 -59 -154 -89 -253 -89c-109 0 -193 36 -252 109s-79 161 -61 264c17 99 65 182 144 249s169 100 271 100c135 0 232 -65 284 -169l-47 -25c-48 95 -128 143 -239 143c-90 0 -169 -29 -237 -88s-109 -131 -124 -218
c-15 -88 2 -162 50 -223c49 -61 120 -91 213 -91c81 0 150 22 208 67c59 45 97 102 115 169h-297z" />
    <glyph glyph-name="H" unicode="H" horiz-adv-x="687" 
d="M571 385l55 315h53l-123 -700h-53l59 335h-407l-59 -335h-53l123 700h53l-55 -315h407z" />
    <glyph glyph-name="I" unicode="I" horiz-adv-x="227" 
d="M43 0l123 700h53l-123 -700h-53z" />
    <glyph glyph-name="J" unicode="J" horiz-adv-x="553" 
d="M214 -11c-100 0 -171 41 -195 120l47 26c18 -63 68 -95 151 -95c101 0 179 55 196 152l89 508h53l-89 -509c-12 -67 -41 -117 -88 -151s-101 -51 -164 -51z" />
    <glyph glyph-name="K" unicode="K" horiz-adv-x="571" 
d="M560 700h72l-415 -345l300 -355h-64l-296 349l-61 -349h-53l123 700h53l-57 -326z" />
    <glyph glyph-name="L" unicode="L" horiz-adv-x="493" 
d="M219 700l-114 -650h330l-9 -50h-383l123 700h53z" />
    <glyph glyph-name="M" unicode="M" horiz-adv-x="807" 
d="M731 700h68l-123 -700h-53l108 617l-331 -425h-9l-185 434l-110 -626h-53l123 700h63l178 -417z" />
    <glyph glyph-name="N" unicode="N" horiz-adv-x="687" 
d="M96 0h-53l123 700h42l312 -602l106 602h53l-123 -700h-43l-311 602z" />
    <glyph glyph-name="O" unicode="O" horiz-adv-x="819" 
d="M365 -11c-100 0 -179 36 -238 109s-79 159 -62 260c17 100 66 184 147 251c81 68 172 102 275 102c100 0 179 -37 238 -111c59 -73 80 -160 63 -261c-18 -100 -67 -183 -148 -250c-80 -67 -172 -100 -275 -100zM374 40c88 0 166 29 234 88c69 59 111 132 126 219
s-2 160 -51 221s-117 92 -205 92s-166 -30 -235 -90c-68 -60 -109 -133 -124 -220s1 -160 50 -220s118 -90 205 -90z" />
    <glyph glyph-name="P" unicode="P" horiz-adv-x="586" 
d="M166 700h233c65 0 115 -21 149 -62c35 -41 47 -93 36 -155s-40 -114 -89 -155c-48 -41 -108 -61 -181 -61h-171l-47 -267h-53zM532 490c16 95 -40 160 -137 160h-185l-58 -333h168c56 0 103 16 142 49s62 74 70 124z" />
    <glyph glyph-name="Q" unicode="Q" horiz-adv-x="824" 
d="M788 339c-19 -103 -71 -188 -154 -255l63 -75l-38 -33l-66 79c-70 -44 -146 -66 -228 -66c-100 0 -179 36 -238 109s-79 159 -62 260c17 100 66 184 147 251c81 68 172 102 275 102c100 0 179 -37 238 -111c59 -73 80 -160 63 -261zM561 93l-130 155l38 33l133 -158
c71 58 115 133 132 224c15 87 -2 160 -51 221s-117 92 -205 92s-166 -30 -235 -90c-68 -60 -109 -133 -124 -220s1 -160 50 -220s118 -90 205 -90c66 0 128 18 187 53z" />
    <glyph glyph-name="R" unicode="R" horiz-adv-x="613" 
d="M166 700h276c55 0 100 -22 134 -65c35 -43 47 -92 36 -149c-16 -95 -91 -170 -187 -193l121 -293h-55l-118 287h-3h-224l-50 -287h-53zM434 650h-224l-55 -313h224c43 0 82 15 117 45c35 31 57 68 65 111s-1 80 -26 111s-59 46 -101 46z" />
    <glyph glyph-name="S" unicode="S" horiz-adv-x="573" 
d="M260 -11c-127 0 -214 61 -237 165l47 24c16 -85 83 -138 192 -138c108 0 182 49 198 128c9 47 -2 81 -41 106c-19 13 -37 23 -52 30s-37 16 -66 27c-45 16 -70 25 -110 49c-55 34 -83 82 -72 162c11 54 38 96 82 125c45 29 95 44 150 44c113 0 184 -59 211 -146l-47 -24
c-25 79 -80 119 -167 119c-85 0 -159 -47 -175 -123c-9 -47 3 -80 40 -107c19 -13 37 -23 52 -30s37 -15 66 -26c24 -9 43 -16 57 -22c15 -6 32 -15 53 -28s36 -26 46 -39c21 -27 35 -72 26 -123c-23 -112 -122 -173 -253 -173z" />
    <glyph glyph-name="T" unicode="T" horiz-adv-x="540" 
d="M102 700h494l-9 -50h-220l-114 -650h-54l114 650h-219z" />
    <glyph glyph-name="U" unicode="U" horiz-adv-x="667" 
d="M296 -11c-78 0 -138 23 -179 68c-41 46 -56 105 -43 177l82 466h53l-82 -466c-20 -116 40 -194 168 -194c65 0 119 18 161 54c42 37 68 83 78 140l82 466h53l-82 -466c-13 -75 -46 -135 -99 -179s-117 -66 -192 -66z" />
    <glyph glyph-name="V" unicode="V" horiz-adv-x="605" 
d="M286 0h-56l-138 700h54l121 -633l344 633h59z" />
    <glyph glyph-name="W" unicode="W" horiz-adv-x="993" 
d="M256 0h-64l-80 700h53l71 -631l306 631h63l85 -631l293 631h56l-326 -700h-64l-85 631z" />
    <glyph glyph-name="X" unicode="X" horiz-adv-x="573" 
d="M553 700h63l-281 -343l171 -357h-55l-151 315l-258 -315h-63l298 363l-162 337h55l141 -295z" />
    <glyph glyph-name="Y" unicode="Y" 
d="M573 700h63l-311 -373l-58 -327h-53l58 329l-180 371h55l156 -324z" />
    <glyph glyph-name="Z" unicode="Z" horiz-adv-x="523" 
d="M132 700h427l-8 -50l-482 -600h386l-9 -50h-447l9 50l482 600h-366z" />
    <glyph glyph-name="bracketleft" unicode="[" horiz-adv-x="277" 
d="M354 800l-9 -49h-143l-141 -802h143l-9 -49h-194l159 900h194z" />
    <glyph glyph-name="backslash" unicode="\" horiz-adv-x="527" 
d="M421 -100h-39l-242 900h40z" />
    <glyph glyph-name="bracketright" unicode="]" horiz-adv-x="277" 
d="M117 800h193l-159 -900h-193l9 49h143l141 802h-142z" />
    <glyph glyph-name="asciicircum" unicode="^" horiz-adv-x="502" 
d="M304 700h50l124 -300h-55l-99 243l-185 -243h-63z" />
    <glyph glyph-name="underscore" unicode="_" horiz-adv-x="507" 
d="M399 -133h-427l9 48h426z" />
    <glyph glyph-name="grave" unicode="`" horiz-adv-x="181" 
d="M217 570h-48l-70 127h60z" />
    <glyph glyph-name="a" unicode="a" horiz-adv-x="646" 
d="M541 374l22 126h50l-88 -500h-50l18 102c-56 -75 -133 -113 -231 -113c-71 0 -128 27 -171 81s-59 118 -46 191c14 78 48 139 103 183c55 45 117 67 186 67c95 0 175 -52 207 -137zM517 243c11 65 -1 117 -38 158c-36 41 -83 62 -142 62c-57 0 -109 -19 -155 -56
s-75 -87 -86 -150c-11 -60 1 -112 36 -155s82 -65 142 -65s113 19 159 58s74 88 84 148z" />
    <glyph glyph-name="b" unicode="b" horiz-adv-x="645" 
d="M385 511c70 0 127 -26 170 -79c43 -52 59 -115 46 -188c-13 -74 -48 -135 -104 -183s-122 -72 -197 -72c-92 0 -166 53 -195 136l-22 -125h-50l123 700h50l-54 -306c53 73 137 117 233 117zM550 250c11 59 -1 110 -36 151s-82 62 -141 62s-112 -20 -159 -60
s-75 -90 -86 -150c-11 -59 1 -110 36 -153c35 -42 82 -63 141 -63c60 0 113 20 159 61c47 41 75 92 86 152z" />
    <glyph glyph-name="c" unicode="c" horiz-adv-x="562" 
d="M260 -11c-73 0 -131 26 -173 79c-41 53 -55 116 -42 190s48 135 105 182c58 47 124 71 199 71c96 0 174 -50 201 -127l-43 -23c-23 64 -80 102 -163 102c-61 0 -115 -20 -162 -60s-75 -90 -86 -150c-11 -61 0 -112 33 -154c33 -41 79 -62 140 -62c80 0 155 41 196 105
l40 -27c-51 -79 -141 -126 -245 -126z" />
    <glyph glyph-name="d" unicode="d" horiz-adv-x="646" 
d="M541 375l57 325h50l-123 -700h-50l18 102c-56 -75 -133 -113 -231 -113c-71 0 -128 27 -171 81s-59 118 -46 191c14 78 48 139 103 183c55 45 117 67 186 67c95 0 175 -51 207 -136zM517 243c11 65 -1 117 -38 158c-36 41 -83 62 -142 62c-57 0 -109 -19 -155 -56
s-75 -87 -86 -150c-11 -60 1 -112 36 -155s82 -65 142 -65s113 19 158 58c46 39 74 88 85 148z" />
    <glyph glyph-name="e" unicode="e" horiz-adv-x="588" 
d="M342 511c75 0 131 -26 169 -78c39 -52 51 -114 37 -185c-2 -11 -4 -19 -6 -24h-451c-8 -113 62 -187 177 -187c83 0 146 31 190 92l39 -26c-48 -72 -140 -114 -236 -114c-76 0 -134 25 -175 76s-54 115 -41 192c13 74 48 135 103 182c55 48 120 72 194 72zM99 273h401
c12 120 -54 190 -162 190c-57 0 -108 -17 -151 -52s-73 -81 -88 -138z" />
    <glyph glyph-name="f" unicode="f" horiz-adv-x="314" 
d="M157 500l5 27c23 129 104 193 233 184l-9 -48c-98 8 -156 -37 -173 -136l-5 -27h149l-8 -49h-149l-80 -451h-51l80 451h-87l9 49h86z" />
    <glyph glyph-name="g" unicode="g" horiz-adv-x="650" 
d="M544 375l22 125h51l-84 -476c-27 -149 -136 -235 -287 -235c-108 0 -187 47 -218 120l45 23c21 -56 79 -95 175 -95c129 0 213 68 234 187l14 78c-53 -72 -133 -113 -224 -113c-76 0 -135 26 -178 79c-42 53 -57 117 -45 193c11 75 45 135 101 181s118 69 186 69
c95 0 176 -51 208 -136zM280 37c56 0 106 18 150 53c45 35 74 81 88 138l6 32c6 60 -10 109 -47 146c-37 38 -83 57 -138 57c-57 0 -109 -19 -156 -57s-75 -88 -84 -149c-9 -62 3 -114 37 -157c35 -42 83 -63 144 -63z" />
    <glyph glyph-name="h" unicode="h" horiz-adv-x="564" 
d="M348 511c119 0 183 -79 163 -200l-55 -311h-51l55 311c16 93 -26 152 -121 152c-103 0 -186 -70 -209 -199v1l-47 -265h-50l123 700h50l-50 -287c47 65 111 98 192 98z" />
    <glyph glyph-name="i" unicode="i" horiz-adv-x="204" 
d="M167 621c-23 0 -36 17 -32 40c3 21 22 39 46 39c21 0 37 -18 33 -39c-4 -23 -23 -40 -47 -40zM83 0h-50l88 500h50z" />
    <glyph glyph-name="j" unicode="j" horiz-adv-x="223" 
d="M200 700c21 0 37 -18 33 -39c-4 -23 -23 -40 -47 -40c-23 0 -36 17 -32 40c3 21 22 39 46 39zM42 -57l98 557h50l-98 -557c-19 -114 -84 -165 -193 -154l8 48c76 -8 121 27 135 106z" />
    <glyph glyph-name="k" unicode="k" horiz-adv-x="483" 
d="M424 500h71l-313 -241l234 -259h-62l-227 251l-44 -251h-50l123 700h50l-75 -424z" />
    <glyph glyph-name="l" unicode="l" horiz-adv-x="205" 
d="M84 0h-50l53 306l75 424h50l-74 -424z" />
    <glyph glyph-name="m" unicode="m" horiz-adv-x="857" 
d="M657 511c51 0 91 -17 120 -52c29 -34 39 -81 28 -142l-56 -317h-50l55 317c16 93 -26 146 -107 146c-84 0 -153 -54 -178 -165l-53 -298h-50l55 317c17 93 -23 146 -102 146c-88 0 -165 -62 -186 -182l-50 -281h-50l88 500h50l-14 -77c45 59 103 88 174 88
s124 -35 140 -102c47 68 117 102 186 102z" />
    <glyph glyph-name="n" unicode="n" horiz-adv-x="564" 
d="M348 511c119 0 183 -79 163 -200l-55 -311h-51l55 311c16 93 -26 152 -121 152c-103 0 -186 -70 -209 -199v1l-47 -265h-50l88 500h50l-15 -87c47 65 111 98 192 98z" />
    <glyph glyph-name="o" unicode="o" horiz-adv-x="612" 
d="M264 -11c-71 0 -128 25 -173 74s-60 113 -47 192c14 78 51 140 111 186c60 47 126 70 198 70c70 0 127 -25 170 -75c43 -49 58 -113 45 -190c-14 -79 -50 -142 -109 -188s-124 -69 -195 -69zM269 37c58 0 111 19 159 58c49 39 79 92 90 157c11 63 -1 114 -36 153
s-81 58 -138 58c-58 -1 -111 -20 -160 -59c-48 -39 -78 -90 -89 -154s0 -116 35 -155s82 -58 139 -58z" />
    <glyph glyph-name="p" unicode="p" horiz-adv-x="646" 
d="M384 511c71 0 128 -27 171 -81s59 -118 46 -191c-14 -78 -49 -139 -104 -184c-55 -44 -116 -66 -185 -66c-95 0 -175 52 -207 137l-57 -326h-50l123 700h50l-18 -102c57 75 134 113 231 113zM550 243c11 60 -1 112 -36 155s-82 65 -142 65s-113 -19 -159 -58
c-45 -39 -73 -88 -84 -148c-11 -65 1 -118 37 -159c37 -41 84 -61 143 -61c57 0 109 18 155 55s75 88 86 151z" />
    <glyph glyph-name="q" unicode="q" horiz-adv-x="646" 
d="M541 374l22 126h50l-123 -700h-50l53 302c-56 -75 -133 -113 -231 -113c-71 0 -128 27 -171 81s-59 118 -46 191c14 78 48 139 103 183c55 45 117 67 186 67c95 0 175 -52 207 -137zM517 242c11 65 -1 118 -38 159c-36 41 -83 62 -142 62c-57 0 -109 -19 -155 -56
s-75 -87 -86 -150c-11 -60 1 -112 36 -155s82 -65 142 -65s113 19 159 58s74 88 84 147z" />
    <glyph glyph-name="r" unicode="r" horiz-adv-x="318" 
d="M171 500l-15 -85c45 65 107 95 184 92l-9 -48c-47 0 -90 -15 -127 -46c-37 -30 -61 -75 -72 -135l-49 -278h-50l88 500h50z" />
    <glyph glyph-name="s" unicode="s" horiz-adv-x="472" 
d="M204 -11c-95 0 -154 38 -178 114l45 23c15 -55 64 -89 137 -89s129 33 140 89c9 49 -34 80 -91 97c-81 23 -189 51 -168 158c7 38 27 69 60 93c34 25 75 37 122 37c79 0 139 -37 164 -100l-44 -23c-16 49 -66 75 -122 75c-61 0 -118 -30 -129 -89c-9 -48 34 -78 90 -95
c82 -23 187 -51 168 -161c-13 -80 -89 -129 -194 -129z" />
    <glyph glyph-name="t" unicode="t" horiz-adv-x="377" 
d="M369 451h-149l-58 -325c-7 -41 0 -66 20 -75c21 -9 59 -11 115 -6l-7 -45c-135 -21 -198 17 -178 126l57 325h-110l9 49h110l22 125l53 15l-25 -140h150z" />
    <glyph glyph-name="u" unicode="u" horiz-adv-x="564" 
d="M434 235l47 265h50l-88 -500h-50l15 87c-47 -65 -111 -98 -192 -98c-119 0 -183 79 -163 200l55 311h51l-55 -311c-16 -93 26 -152 121 -152c103 0 186 70 209 199v-1z" />
    <glyph glyph-name="v" unicode="v" horiz-adv-x="477" 
d="M201 54l250 446h57l-283 -500h-61l-107 500h52z" />
    <glyph glyph-name="w" unicode="w" horiz-adv-x="770" 
d="M516 64l210 436h55l-246 -500h-55l-64 426l-214 -426h-55l-70 500h50l57 -436l217 436h52l-1 -2z" />
    <glyph glyph-name="x" unicode="x" horiz-adv-x="507" 
d="M450 500h65l-230 -245l154 -255h-56l-133 218l-205 -218h-66l246 261l-146 239h57l123 -203z" />
    <glyph glyph-name="y" unicode="y" horiz-adv-x="510" 
d="M229 50l255 450h57l-312 -546c-59 -104 -140 -161 -225 -154l8 47c62 -6 118 33 167 117l17 28l-139 508h51z" />
    <glyph glyph-name="z" unicode="z" horiz-adv-x="463" 
d="M101 500h360l-6 -33l-371 -418h307l-8 -49h-380l6 33l370 418h-287z" />
    <glyph glyph-name="braceleft" unicode="{" horiz-adv-x="349" 
d="M274 -60l-8 -48c-109 -9 -159 43 -140 148l32 187c15 77 -14 100 -91 100l9 48c76 0 113 23 126 100l33 187c19 109 83 159 193 148l-9 -49c-79 9 -120 -19 -133 -99l-33 -187c-13 -77 -46 -115 -102 -128c51 -13 70 -53 58 -120l-33 -187c-15 -80 17 -108 98 -100z" />
    <glyph glyph-name="bar" unicode="|" horiz-adv-x="224" 
d="M58 -200h-50l162 920h50z" />
    <glyph glyph-name="braceright" unicode="}" horiz-adv-x="350" 
d="M111 762l8 48c109 9 159 -43 140 -148l-32 -187c-15 -77 14 -100 91 -100l-9 -48c-76 0 -113 -23 -126 -100l-33 -187c-19 -109 -83 -159 -193 -148l9 49c79 -9 120 19 133 99l33 187c13 77 46 115 102 128c-51 13 -70 53 -58 120l33 187c15 80 -17 108 -98 100z" />
    <glyph glyph-name="asciitilde" unicode="~" horiz-adv-x="587" 
d="M117 289l-43 22c37 87 128 153 252 60c81 -59 141 -46 180 40l42 -22c-38 -88 -125 -152 -251 -60c-83 60 -143 47 -180 -40z" />
    <glyph glyph-name="exclamdown" unicode="&#xa1;" horiz-adv-x="220" 
d="M156 510c25 0 41 -21 36 -46c-4 -27 -25 -44 -52 -44c-25 0 -42 21 -37 46c5 27 25 44 53 44zM102 320h40l-46 -320l-35 -200h-60l35 200z" />
    <glyph glyph-name="cent" unicode="&#xa2;" horiz-adv-x="563" 
d="M568 484l-43 -23c-16 44 -46 74 -90 90l-203 -407c16 -5 34 -7 55 -7c80 0 155 41 196 105l40 -27c-51 -79 -141 -126 -245 -126c-25 0 -48 3 -69 10l-49 -99h-43l56 113c-84 43 -129 138 -110 245c13 74 48 135 105 182c58 47 124 71 199 71c17 0 34 -2 53 -5l47 94h43
l-53 -105c56 -22 93 -59 111 -111zM196 158l201 402c-11 2 -22 3 -35 3c-61 0 -115 -20 -162 -60s-75 -90 -86 -150c-15 -85 17 -160 82 -195z" />
    <glyph glyph-name="sterling" unicode="&#xa3;" horiz-adv-x="590" 
d="M407 660c-85 0 -149 -54 -165 -150l-30 -170h241l-9 -47h-240l-43 -242h377l-9 -51h-530l9 51h100l43 242h-80l8 47h80l30 170c23 129 107 201 223 201c85 0 150 -49 177 -130l-44 -24c-25 69 -71 103 -138 103z" />
    <glyph glyph-name="currency" unicode="&#xa4;" horiz-adv-x="553" 
d="M540 583l24 -26l-84 -72c27 -40 36 -86 27 -138c-9 -51 -33 -96 -73 -135l57 -70l-31 -25l-57 69c-44 -31 -93 -47 -146 -47c-49 0 -91 16 -125 48l-83 -70l-24 26l84 71c-27 41 -36 87 -27 139s33 97 73 136l-57 69l30 25l57 -69c45 31 93 47 146 47
c50 0 92 -16 126 -49zM133 350c-9 -45 0 -84 26 -116c26 -31 62 -47 107 -47s86 16 123 47c37 32 59 71 67 116s-1 84 -27 115c-25 32 -61 48 -106 48s-87 -16 -124 -48c-37 -31 -59 -70 -66 -115z" />
    <glyph glyph-name="yen" unicode="&#xa5;" 
d="M573 700h63l-297 -356h175l-8 -45h-186l-14 -77h186l-7 -44h-186l-32 -178h-53l31 178h-184l8 44h184l13 77h-183l7 45h174l-172 356h55l156 -324z" />
    <glyph glyph-name="brokenbar" unicode="&#xa6;" horiz-adv-x="224" 
d="M155 350h-50l65 370h50zM58 -200h-50l65 370h50z" />
    <glyph glyph-name="section" unicode="&#xa7;" horiz-adv-x="511" 
d="M291 449l46 -23c95 -45 146 -90 131 -174c-9 -49 -38 -88 -89 -117c27 -31 37 -67 30 -109c-15 -83 -89 -138 -196 -138c-97 0 -162 47 -189 130l46 25c17 -71 67 -106 149 -106c73 0 129 33 140 94c11 64 -43 100 -143 144c-95 43 -148 89 -133 172c9 49 40 88 94 119
c-26 30 -35 65 -28 106c15 83 89 139 189 139c80 0 142 -42 167 -117l-44 -23c-22 61 -65 92 -129 92c-67 0 -122 -36 -133 -95c-4 -28 8 -54 20 -70c6 -7 17 -16 34 -27s30 -18 38 -22zM418 257c11 59 -29 89 -109 126c-44 19 -77 37 -99 53c-44 -23 -69 -54 -76 -93
c-9 -59 30 -92 109 -125c45 -19 79 -37 102 -53c42 23 66 54 73 92z" />
    <glyph glyph-name="dieresis" unicode="&#xa8;" horiz-adv-x="293" 
d="M85 613c6 48 83 48 73 0c-4 -20 -23 -36 -43 -36s-34 16 -30 36zM265 613c6 48 83 48 73 0c-4 -20 -23 -36 -43 -36s-34 16 -30 36z" />
    <glyph glyph-name="copyright" unicode="&#xa9;" horiz-adv-x="818" 
d="M363 -11c-99 0 -178 36 -237 108s-79 158 -61 258c17 100 67 184 149 253c83 69 175 103 276 103c99 0 177 -36 236 -108s79 -158 62 -258c-18 -100 -68 -184 -150 -253s-174 -103 -275 -103zM367 13c93 0 178 33 254 98c77 66 123 146 140 239s-2 173 -56 238
c-53 66 -126 99 -219 99s-178 -33 -255 -99c-77 -65 -123 -145 -139 -238c-17 -93 2 -173 55 -239c54 -65 127 -98 220 -98zM396 158c-53 0 -96 19 -127 58s-42 86 -33 139c9 54 35 99 76 134c42 35 91 53 147 53c68 0 125 -37 152 -94l-43 -21c-24 45 -63 68 -117 68
c-42 0 -78 -14 -109 -43c-31 -28 -49 -62 -56 -102c-7 -39 0 -73 21 -102c22 -29 53 -43 94 -43c53 0 105 27 136 72l40 -26c-41 -57 -109 -93 -181 -93z" />
    <glyph glyph-name="guillemotleft" unicode="&#xab;" horiz-adv-x="473" 
d="M228 482h66l-141 -177l75 -169h-61l-77 173zM368 482h66l-140 -177l75 -169h-62l-76 173z" />
    <glyph glyph-name="logicalnot" unicode="&#xac;" horiz-adv-x="520" 
d="M86 382h394l-30 -173h-51l22 124h-343z" />
    <glyph glyph-name="registered" unicode="&#xae;" horiz-adv-x="818" 
d="M490 711c99 0 177 -36 236 -108s79 -158 62 -258c-18 -100 -68 -184 -150 -253s-174 -103 -275 -103c-99 0 -178 36 -237 108s-79 158 -61 258c17 100 67 184 149 253c83 69 175 103 276 103zM486 687c-93 0 -178 -33 -255 -99c-77 -65 -123 -145 -139 -238
c-17 -93 2 -173 55 -239c54 -65 127 -98 220 -98s178 33 254 98c77 66 123 146 140 239s-2 173 -56 238c-53 66 -126 99 -219 99zM352 535h113c85 0 125 -55 114 -119c-9 -57 -41 -92 -96 -105l60 -146h-50l-55 139h-13h-66l-24 -139h-48zM531 419c8 43 -16 70 -71 70h-68
l-24 -139h68c56 0 88 23 95 69z" />
    <glyph glyph-name="overscore" unicode="&#xaf;" horiz-adv-x="293" 
d="M333 587h-254l8 44h253z" />
    <glyph glyph-name="degree" unicode="&#xb0;" horiz-adv-x="386" 
d="M240 517c-41 0 -74 15 -98 44c-24 30 -32 65 -25 106s27 75 60 102s72 41 115 41c42 0 75 -15 98 -45c24 -29 32 -64 25 -105c-13 -83 -82 -143 -175 -143zM249 563c57 0 108 44 117 100c11 57 -25 101 -82 101c-59 0 -107 -44 -118 -101c-9 -57 23 -100 83 -100z" />
    <glyph glyph-name="plusminus" unicode="&#xb1;" horiz-adv-x="534" 
d="M355 607l-30 -169h178l-8 -49h-179l-30 -169h-49l30 169h-179l9 49h178l30 169h50zM443 93h-407l8 49h407z" />
    <glyph glyph-name="acute" unicode="&#xb4;" horiz-adv-x="179" 
d="M76 570l100 127h62l-112 -127h-50z" />
    <glyph glyph-name="uni00B5" unicode="&#xb5;" horiz-adv-x="607" 
d="M544 500l-72 -410c-5 -25 9 -41 34 -41h32l-8 -49h-38c-47 0 -77 32 -72 81c-48 -61 -111 -92 -188 -92c-67 0 -113 25 -138 74l-46 -263h-50l123 700h50l-55 -311h1c-16 -93 26 -152 121 -152c97 0 179 63 206 182l49 281h51z" />
    <glyph glyph-name="paragraph" unicode="&#xb6;" 
d="M316 700h290l-9 -47h-59l-150 -853h-50l150 853h-131l-150 -853h-49l90 513c-53 1 -96 20 -127 59s-41 86 -32 139s36 98 80 134c44 37 93 55 147 55z" />
    <glyph glyph-name="middot" unicode="&#xb7;" horiz-adv-x="214" 
d="M116 300c-57 -3 -44 95 15 90c25 0 43 -21 38 -46c-5 -27 -25 -44 -53 -44z" />
    <glyph glyph-name="cedilla" unicode="&#xb8;" horiz-adv-x="235" 
d="M80 0l-10 -56c51 -7 85 -38 78 -79c-11 -61 -81 -87 -209 -76l8 41c95 -9 149 6 156 39c5 29 -27 44 -84 43l16 88h45z" />
    <glyph glyph-name="guillemotright" unicode="&#xbb;" horiz-adv-x="474" 
d="M125 482h62l76 -173l-137 -173h-66l140 177zM266 482h61l77 -173l-138 -173h-66l141 177z" />
    <glyph glyph-name="onequarter" unicode="&#xbc;" horiz-adv-x="829" 
d="M135 300l61 343l-106 -32l-5 44l130 45h39l-71 -400h-48zM89 0l525 700h51l-525 -700h-51zM729 125h54l-8 -45h-54l-14 -80h-48l14 80h-213l7 45l199 275h55l-198 -275h158l18 104h48z" />
    <glyph glyph-name="onehalf" unicode="&#xbd;" horiz-adv-x="815" 
d="M135 300l61 343l-106 -32l-5 44l130 45h39l-71 -400h-48zM89 0l525 700h51l-525 -700h-51zM782 290c-6 -40 -34 -80 -83 -119l-153 -125h199l-7 -46h-276l7 39l202 166c37 29 58 58 63 87c7 43 -20 74 -69 74c-43 0 -78 -23 -103 -68l-39 24c29 55 85 90 148 90
c76 0 122 -53 111 -122z" />
    <glyph glyph-name="threequarters" unicode="&#xbe;" horiz-adv-x="933" 
d="M336 411c-13 -75 -75 -123 -163 -123c-63 0 -105 27 -124 81l42 21c12 -37 42 -56 89 -56c61 0 100 33 108 81c9 48 -20 82 -79 82h-3l-18 35l115 122h-192l8 46h251l-8 -46l-114 -120c64 -12 99 -62 88 -123zM193 0l525 700h51l-525 -700h-51zM833 125h54l-8 -45h-54
l-14 -80h-48l14 80h-213l7 45l199 275h55l-198 -275h158l18 104h48z" />
    <glyph glyph-name="questiondown" unicode="&#xbf;" horiz-adv-x="529" 
d="M328 510c57 3 44 -95 -15 -90c-25 0 -43 21 -38 46c5 27 25 44 53 44zM268 320h54c-12 -65 -52 -123 -97 -163c-65 -57 -143 -113 -158 -188c-13 -83 36 -129 129 -129c75 0 144 39 177 107l45 -26c-44 -85 -135 -132 -231 -132c-56 0 -101 17 -136 50s-47 78 -37 134
c9 56 49 107 93 144c65 56 146 115 161 203z" />
    <glyph glyph-name="Agrave" unicode="&#xc0;" horiz-adv-x="629" 
d="M384 897l58 -127h-48l-70 127h60zM570 0h-54l-36 178h-351l-100 -178h-58l395 700h56zM386 635l-229 -407h312z" />
    <glyph glyph-name="Aacute" unicode="&#xc1;" horiz-adv-x="629" 
d="M465 897h62l-112 -127h-50zM570 0h-54l-36 178h-351l-100 -178h-58l395 700h56zM386 635l-229 -407h312z" />
    <glyph glyph-name="Acircumflex" unicode="&#xc2;" horiz-adv-x="629" 
d="M489 770l-64 95l-97 -95h-60l130 127h59l87 -127h-55zM570 0h-54l-36 178h-351l-100 -178h-58l395 700h56zM386 635l-229 -407h312z" />
    <glyph glyph-name="Atilde" unicode="&#xc3;" horiz-adv-x="629" 
d="M412 811c-51 51 -82 42 -95 -28h-44c19 114 91 134 151 74c51 -51 82 -42 95 28h44c-9 -55 -30 -89 -61 -102s-61 -3 -90 28zM570 0h-54l-36 178h-351l-100 -178h-58l395 700h56zM386 635l-229 -407h312z" />
    <glyph glyph-name="Adieresis" unicode="&#xc4;" horiz-adv-x="629" 
d="M287 813c6 48 83 48 73 0c-4 -20 -23 -36 -43 -36s-34 16 -30 36zM467 813c6 48 83 48 73 0c-4 -20 -23 -36 -43 -36s-34 16 -30 36zM570 0h-54l-36 178h-351l-100 -178h-58l395 700h56zM386 635l-229 -407h312z" />
    <glyph glyph-name="Aring" unicode="&#xc5;" horiz-adv-x="629" 
d="M570 0h-54l-36 178h-351l-100 -178h-58l382 676c-39 13 -57 50 -50 93c9 56 58 95 117 95c61 0 96 -43 88 -99c-7 -43 -38 -77 -81 -90zM346 767c-7 -33 13 -57 49 -57s64 24 71 57c5 35 -15 57 -51 57c-35 0 -64 -22 -69 -57zM386 635l-229 -407h312z" />
    <glyph glyph-name="AE" unicode="&#xc6;" horiz-adv-x="873" 
d="M903 700l-8 -50h-322l-48 -272h304l-9 -50h-303l-49 -278h326l-9 -50h-380l32 183h-270l-144 -183h-64l552 700h392zM515 626l-309 -393h240z" />
    <glyph glyph-name="Ccedilla" unicode="&#xc7;" horiz-adv-x="751" 
d="M477 660c-89 0 -168 -30 -236 -90c-67 -59 -109 -133 -124 -220s2 -161 49 -221c47 -59 115 -89 204 -89c113 0 218 56 282 149l45 -28c-71 -99 -185 -164 -310 -171l-8 -46c51 -7 85 -38 78 -79c-11 -61 -81 -87 -209 -76l8 41c95 -9 149 6 156 39c5 29 -27 44 -84 43
l14 78c-98 5 -173 43 -225 114s-69 155 -52 253c18 101 66 186 145 253s168 101 268 101c133 0 235 -65 283 -169l-47 -25c-45 95 -124 143 -237 143z" />
    <glyph glyph-name="Egrave" unicode="&#xc8;" horiz-adv-x="533" 
d="M353 897l58 -127h-48l-70 127h60zM564 700l-8 -50h-346l-48 -272h321l-9 -50h-320l-49 -278h350l-9 -50h-403l123 700h398z" />
    <glyph glyph-name="Eacute" unicode="&#xc9;" horiz-adv-x="533" 
d="M434 897h62l-112 -127h-50zM564 700l-8 -50h-346l-48 -272h321l-9 -50h-320l-49 -278h350l-9 -50h-403l123 700h398z" />
    <glyph glyph-name="Ecircumflex" unicode="&#xca;" horiz-adv-x="533" 
d="M458 770l-64 95l-97 -95h-60l130 127h59l87 -127h-55zM564 700l-8 -50h-346l-48 -272h321l-9 -50h-320l-49 -278h350l-9 -50h-403l123 700h398z" />
    <glyph glyph-name="Edieresis" unicode="&#xcb;" horiz-adv-x="533" 
d="M256 813c6 48 83 48 73 0c-4 -20 -23 -36 -43 -36s-34 16 -30 36zM436 813c6 48 83 48 73 0c-4 -20 -23 -36 -43 -36s-34 16 -30 36zM564 700l-8 -50h-346l-48 -272h321l-9 -50h-320l-49 -278h350l-9 -50h-403l123 700h398z" />
    <glyph glyph-name="Igrave" unicode="&#xcc;" horiz-adv-x="227" 
d="M240 770h-48l-70 127h60zM166 700l-123 -700h53l123 700h-53z" />
    <glyph glyph-name="Iacute" unicode="&#xcd;" horiz-adv-x="227" 
d="M163 770l100 127h62l-112 -127h-50zM166 700l-123 -700h53l123 700h-53z" />
    <glyph glyph-name="Icircumflex" unicode="&#xce;" horiz-adv-x="227" 
d="M255 897l87 -127h-55l-64 95l-97 -95h-60l130 127h59zM96 0h-53l123 700h53z" />
    <glyph glyph-name="Idieresis" unicode="&#xcf;" horiz-adv-x="227" 
d="M85 813c6 48 83 48 73 0c-4 -20 -23 -36 -43 -36s-34 16 -30 36zM265 813c6 48 83 48 73 0c-4 -20 -23 -36 -43 -36s-34 16 -30 36zM43 0l123 700h53l-123 -700h-53z" />
    <glyph glyph-name="Eth" unicode="&#xd0;" horiz-adv-x="748" 
d="M186 700h263c93 0 165 -35 217 -106s69 -155 52 -252c-17 -98 -63 -180 -136 -245s-158 -97 -256 -97h-263l57 326h-67l8 48h68zM666 350c14 84 0 155 -42 213c-41 58 -102 87 -183 87h-211l-48 -276h239l-8 -48h-240l-48 -276h210c81 0 153 29 215 86
c63 58 101 129 116 214z" />
    <glyph glyph-name="Ntilde" unicode="&#xd1;" horiz-adv-x="687" 
d="M345 783h-44c19 114 91 134 151 74c51 -51 82 -42 95 28h44c-9 -55 -30 -89 -61 -102s-61 -3 -90 28c-51 51 -82 42 -95 -28zM96 0h-53l123 700h42l312 -602l106 602h53l-123 -700h-43l-311 602z" />
    <glyph glyph-name="Ograve" unicode="&#xd2;" horiz-adv-x="819" 
d="M536 770h-48l-70 127h60zM365 -11c103 0 195 33 275 100c81 67 130 150 148 250c17 101 -4 188 -63 261c-59 74 -138 111 -238 111c-103 0 -194 -34 -275 -102c-81 -67 -130 -151 -147 -251c-17 -101 3 -187 62 -260s138 -109 238 -109zM374 40c-87 0 -156 30 -205 90
s-65 133 -50 220s56 160 124 220c69 60 147 90 235 90s156 -31 205 -92s66 -134 51 -221s-57 -160 -126 -219c-68 -59 -146 -88 -234 -88z" />
    <glyph glyph-name="Oacute" unicode="&#xd3;" horiz-adv-x="819" 
d="M459 770l100 127h62l-112 -127h-50zM365 -11c103 0 195 33 275 100c81 67 130 150 148 250c17 101 -4 188 -63 261c-59 74 -138 111 -238 111c-103 0 -194 -34 -275 -102c-81 -67 -130 -151 -147 -251c-17 -101 3 -187 62 -260s138 -109 238 -109zM374 40
c-87 0 -156 30 -205 90s-65 133 -50 220s56 160 124 220c69 60 147 90 235 90s156 -31 205 -92s66 -134 51 -221s-57 -160 -126 -219c-68 -59 -146 -88 -234 -88z" />
    <glyph glyph-name="Ocircumflex" unicode="&#xd4;" horiz-adv-x="819" 
d="M583 770l-64 95l-97 -95h-60l130 127h59l87 -127h-55zM487 711c100 0 179 -37 238 -111c59 -73 80 -160 63 -261c-18 -100 -67 -183 -148 -250c-80 -67 -172 -100 -275 -100c-100 0 -179 36 -238 109s-79 159 -62 260c17 100 66 184 147 251c81 68 172 102 275 102z
M119 350c-15 -87 1 -160 50 -220s118 -90 205 -90c88 0 166 29 234 88c69 59 111 132 126 219s-2 160 -51 221s-117 92 -205 92s-166 -30 -235 -90c-68 -60 -109 -133 -124 -220z" />
    <glyph glyph-name="Otilde" unicode="&#xd5;" horiz-adv-x="819" 
d="M411 783h-44c19 114 91 134 151 74c51 -51 82 -42 95 28h44c-9 -55 -30 -89 -61 -102s-61 -3 -90 28c-51 51 -82 42 -95 -28zM365 -11c-100 0 -179 36 -238 109s-79 159 -62 260c17 100 66 184 147 251c81 68 172 102 275 102c100 0 179 -37 238 -111
c59 -73 80 -160 63 -261c-18 -100 -67 -183 -148 -250c-80 -67 -172 -100 -275 -100zM374 40c88 0 166 29 234 88c69 59 111 132 126 219s-2 160 -51 221s-117 92 -205 92s-166 -30 -235 -90c-68 -60 -109 -133 -124 -220s1 -160 50 -220s118 -90 205 -90z" />
    <glyph glyph-name="Odieresis" unicode="&#xd6;" horiz-adv-x="819" 
d="M381 813c6 48 83 48 73 0c-4 -20 -23 -36 -43 -36s-34 16 -30 36zM561 813c6 48 83 48 73 0c-4 -20 -23 -36 -43 -36s-34 16 -30 36zM365 -11c-100 0 -179 36 -238 109s-79 159 -62 260c17 100 66 184 147 251c81 68 172 102 275 102c100 0 179 -37 238 -111
c59 -73 80 -160 63 -261c-18 -100 -67 -183 -148 -250c-80 -67 -172 -100 -275 -100zM374 40c88 0 166 29 234 88c69 59 111 132 126 219s-2 160 -51 221s-117 92 -205 92s-166 -30 -235 -90c-68 -60 -109 -133 -124 -220s1 -160 50 -220s118 -90 205 -90z" />
    <glyph glyph-name="multiply" unicode="&#xd7;" horiz-adv-x="469" 
d="M422 526l33 -32l-170 -146l119 -142l-37 -32l-119 143l-166 -143l-33 32l170 146l-119 142l37 32l119 -142z" />
    <glyph glyph-name="Oslash" unicode="&#xd8;" horiz-adv-x="829" 
d="M799 677l-70 -69c64 -74 87 -164 69 -269c-18 -100 -67 -183 -148 -250c-80 -67 -172 -100 -275 -100c-79 0 -147 25 -204 74l-64 -63l-35 22l71 69c-63 73 -86 162 -68 267c17 100 66 184 147 251c81 68 172 102 275 102c79 0 146 -25 203 -74l64 63zM129 350
c-16 -87 1 -161 52 -222l481 472c-46 40 -104 60 -174 60c-88 0 -166 -30 -235 -90c-68 -60 -109 -133 -124 -220zM744 347c15 88 -2 163 -53 224l-482 -471c47 -40 106 -60 175 -60c88 0 166 29 234 88c69 59 111 132 126 219z" />
    <glyph glyph-name="Ugrave" unicode="&#xd9;" horiz-adv-x="667" 
d="M458 770h-48l-70 127h60zM296 -11c75 0 139 22 192 66s86 104 99 179l82 466h-53l-82 -466c-10 -57 -36 -103 -78 -140c-42 -36 -96 -54 -161 -54c-128 0 -188 78 -168 194l82 466h-53l-82 -466c-13 -72 2 -131 43 -177c41 -45 101 -68 179 -68z" />
    <glyph glyph-name="Uacute" unicode="&#xda;" horiz-adv-x="667" 
d="M381 770l100 127h62l-112 -127h-50zM296 -11c75 0 139 22 192 66s86 104 99 179l82 466h-53l-82 -466c-10 -57 -36 -103 -78 -140c-42 -36 -96 -54 -161 -54c-128 0 -188 78 -168 194l82 466h-53l-82 -466c-13 -72 2 -131 43 -177c41 -45 101 -68 179 -68z" />
    <glyph glyph-name="Ucircumflex" unicode="&#xdb;" horiz-adv-x="667" 
d="M505 770l-64 95l-97 -95h-60l130 127h59l87 -127h-55zM534 234l82 466h53l-82 -466c-13 -75 -46 -135 -99 -179s-117 -66 -192 -66c-78 0 -138 23 -179 68c-41 46 -56 105 -43 177l82 466h53l-82 -466c-20 -116 40 -194 168 -194c65 0 119 18 161 54c42 37 68 83 78 140z
" />
    <glyph glyph-name="Udieresis" unicode="&#xdc;" horiz-adv-x="667" 
d="M303 813c6 48 83 48 73 0c-4 -20 -23 -36 -43 -36s-34 16 -30 36zM483 813c6 48 83 48 73 0c-4 -20 -23 -36 -43 -36s-34 16 -30 36zM296 -11c-78 0 -138 23 -179 68c-41 46 -56 105 -43 177l82 466h53l-82 -466c-20 -116 40 -194 168 -194c65 0 119 18 161 54
c42 37 68 83 78 140l82 466h53l-82 -466c-13 -75 -46 -135 -99 -179s-117 -66 -192 -66z" />
    <glyph glyph-name="Yacute" unicode="&#xdd;" 
d="M433 897h62l-112 -127h-50zM573 700h63l-311 -373l-58 -327h-53l58 329l-180 371h55l156 -324z" />
    <glyph glyph-name="Thorn" unicode="&#xde;" horiz-adv-x="587" 
d="M196 567h181c65 0 115 -21 149 -62s46 -93 35 -155c-10 -62 -39 -114 -88 -155s-109 -62 -182 -62h-172l-23 -133h-53l123 700h53zM509 357c17 95 -38 160 -137 160h-185l-59 -334h169c56 0 103 16 142 49s62 74 70 125z" />
    <glyph glyph-name="germandbls" unicode="&#xdf;" horiz-adv-x="516" 
d="M245 -4l8 46c95 -7 159 30 170 99c7 44 -20 97 -51 132c-29 35 -59 83 -52 120c9 61 110 96 122 173c11 59 -32 97 -103 97c-77 0 -148 -48 -165 -148l-91 -515h-50l91 518c23 128 109 193 221 193c51 0 91 -15 118 -44c28 -29 38 -64 30 -106
c-11 -72 -120 -142 -122 -174c-7 -63 120 -133 102 -251c-16 -95 -96 -149 -228 -140z" />
    <glyph glyph-name="agrave" unicode="&#xe0;" horiz-adv-x="646" 
d="M339 697l58 -127h-48l-70 127h60zM541 374l22 126h50l-88 -500h-50l18 102c-56 -75 -133 -113 -231 -113c-71 0 -128 27 -171 81s-59 118 -46 191c14 78 48 139 103 183c55 45 117 67 186 67c95 0 175 -52 207 -137zM517 243c11 65 -1 117 -38 158c-36 41 -83 62 -142 62
c-57 0 -109 -19 -155 -56s-75 -87 -86 -150c-11 -60 1 -112 36 -155s82 -65 142 -65s113 19 159 58s74 88 84 148z" />
    <glyph glyph-name="aacute" unicode="&#xe1;" horiz-adv-x="646" 
d="M420 697h62l-112 -127h-50zM541 374l22 126h50l-88 -500h-50l18 102c-56 -75 -133 -113 -231 -113c-71 0 -128 27 -171 81s-59 118 -46 191c14 78 48 139 103 183c55 45 117 67 186 67c95 0 175 -52 207 -137zM517 243c11 65 -1 117 -38 158c-36 41 -83 62 -142 62
c-57 0 -109 -19 -155 -56s-75 -87 -86 -150c-11 -60 1 -112 36 -155s82 -65 142 -65s113 19 159 58s74 88 84 148z" />
    <glyph glyph-name="acircumflex" unicode="&#xe2;" horiz-adv-x="646" 
d="M444 570l-64 95l-97 -95h-60l130 127h59l87 -127h-55zM541 374l22 126h50l-88 -500h-50l18 102c-56 -75 -133 -113 -231 -113c-71 0 -128 27 -171 81s-59 118 -46 191c14 78 48 139 103 183c55 45 117 67 186 67c95 0 175 -52 207 -137zM517 243c11 65 -1 117 -38 158
c-36 41 -83 62 -142 62c-57 0 -109 -19 -155 -56s-75 -87 -86 -150c-11 -60 1 -112 36 -155s82 -65 142 -65s113 19 159 58s74 88 84 148z" />
    <glyph glyph-name="atilde" unicode="&#xe3;" horiz-adv-x="646" 
d="M367 611c-51 51 -82 42 -95 -28h-44c19 114 91 134 151 74c51 -51 82 -42 95 28h44c-9 -55 -30 -89 -61 -102s-61 -3 -90 28zM541 374l22 126h50l-88 -500h-50l18 102c-56 -75 -133 -113 -231 -113c-71 0 -128 27 -171 81s-59 118 -46 191c14 78 48 139 103 183
c55 45 117 67 186 67c95 0 175 -52 207 -137zM517 243c11 65 -1 117 -38 158c-36 41 -83 62 -142 62c-57 0 -109 -19 -155 -56s-75 -87 -86 -150c-11 -60 1 -112 36 -155s82 -65 142 -65s113 19 159 58s74 88 84 148z" />
    <glyph glyph-name="adieresis" unicode="&#xe4;" horiz-adv-x="646" 
d="M242 613c6 48 83 48 73 0c-4 -20 -23 -36 -43 -36s-34 16 -30 36zM422 613c6 48 83 48 73 0c-4 -20 -23 -36 -43 -36s-34 16 -30 36zM541 374l22 126h50l-88 -500h-50l18 102c-56 -75 -133 -113 -231 -113c-71 0 -128 27 -171 81s-59 118 -46 191c14 78 48 139 103 183
c55 45 117 67 186 67c95 0 175 -52 207 -137zM517 243c11 65 -1 117 -38 158c-36 41 -83 62 -142 62c-57 0 -109 -19 -155 -56s-75 -87 -86 -150c-11 -60 1 -112 36 -155s82 -65 142 -65s113 19 159 58s74 88 84 148z" />
    <glyph glyph-name="aring" unicode="&#xe5;" horiz-adv-x="646" 
d="M361 553c-61 0 -96 43 -87 99s58 95 117 95c61 0 96 -43 88 -99c-9 -56 -58 -95 -118 -95zM317 650c-7 -33 13 -57 49 -57s64 24 71 57c5 35 -15 57 -51 57c-35 0 -64 -22 -69 -57zM541 374l22 126h50l-88 -500h-50l18 102c-56 -75 -133 -113 -231 -113
c-71 0 -128 27 -171 81s-59 118 -46 191c14 78 48 139 103 183c55 45 117 67 186 67c95 0 175 -52 207 -137zM517 243c11 65 -1 117 -38 158c-36 41 -83 62 -142 62c-57 0 -109 -19 -155 -56s-75 -87 -86 -150c-11 -60 1 -112 36 -155s82 -65 142 -65s113 19 159 58
s74 88 84 148z" />
    <glyph glyph-name="ae" unicode="&#xe6;" horiz-adv-x="1062" 
d="M824 511c71 0 125 -26 162 -79s49 -114 36 -184c-1 -8 -3 -16 -6 -24h-450c-9 -113 60 -187 175 -187c83 0 151 35 191 91l40 -26c-53 -69 -139 -113 -234 -113c-97 0 -166 47 -193 127l-20 -116h-50l18 105c-53 -73 -138 -116 -234 -116c-71 0 -127 26 -170 79
c-42 53 -57 116 -44 190c14 77 49 139 105 184c57 46 119 69 188 69c93 0 172 -49 204 -132l21 121h50l-20 -112c56 82 133 123 231 123zM271 37c59 0 113 20 160 60s76 90 87 149c11 65 -1 117 -37 157c-35 40 -82 60 -141 60c-57 0 -110 -19 -157 -58
c-47 -38 -76 -89 -87 -152c-11 -60 1 -111 34 -153c34 -42 81 -63 141 -63zM574 273h400c12 119 -56 190 -160 190c-58 0 -109 -18 -153 -53c-43 -35 -72 -81 -87 -137z" />
    <glyph glyph-name="ccedilla" unicode="&#xe7;" horiz-adv-x="562" 
d="M344 463c-61 0 -115 -20 -162 -60s-75 -90 -86 -150c-11 -61 0 -112 33 -154c33 -41 79 -62 140 -62c80 0 155 41 196 105l40 -27c-48 -73 -131 -119 -227 -126l-8 -45c51 -7 85 -38 78 -79c-11 -61 -81 -87 -209 -76l8 41c95 -9 149 6 156 39c5 29 -27 44 -84 43l14 78
c-65 7 -116 36 -152 87s-48 112 -36 181c13 74 48 135 105 182c58 47 124 71 199 71c96 0 174 -50 201 -127l-43 -23c-23 64 -80 102 -163 102z" />
    <glyph glyph-name="egrave" unicode="&#xe8;" horiz-adv-x="588" 
d="M335 697l58 -127h-48l-70 127h60zM342 511c75 0 131 -26 169 -78c39 -52 51 -114 37 -185c-2 -11 -4 -19 -6 -24h-451c-8 -113 62 -187 177 -187c83 0 146 31 190 92l39 -26c-48 -72 -140 -114 -236 -114c-76 0 -134 25 -175 76s-54 115 -41 192c13 74 48 135 103 182
c55 48 120 72 194 72zM99 273h401c12 120 -54 190 -162 190c-57 0 -108 -17 -151 -52s-73 -81 -88 -138z" />
    <glyph glyph-name="eacute" unicode="&#xe9;" horiz-adv-x="588" 
d="M416 697h62l-112 -127h-50zM342 511c75 0 131 -26 169 -78c39 -52 51 -114 37 -185c-2 -11 -4 -19 -6 -24h-451c-8 -113 62 -187 177 -187c83 0 146 31 190 92l39 -26c-48 -72 -140 -114 -236 -114c-76 0 -134 25 -175 76s-54 115 -41 192c13 74 48 135 103 182
c55 48 120 72 194 72zM99 273h401c12 120 -54 190 -162 190c-57 0 -108 -17 -151 -52s-73 -81 -88 -138z" />
    <glyph glyph-name="ecircumflex" unicode="&#xea;" horiz-adv-x="588" 
d="M440 570l-64 95l-97 -95h-60l130 127h59l87 -127h-55zM342 511c75 0 131 -26 169 -78c39 -52 51 -114 37 -185c-2 -11 -4 -19 -6 -24h-451c-8 -113 62 -187 177 -187c83 0 146 31 190 92l39 -26c-48 -72 -140 -114 -236 -114c-76 0 -134 25 -175 76s-54 115 -41 192
c13 74 48 135 103 182c55 48 120 72 194 72zM99 273h401c12 120 -54 190 -162 190c-57 0 -108 -17 -151 -52s-73 -81 -88 -138z" />
    <glyph glyph-name="edieresis" unicode="&#xeb;" horiz-adv-x="588" 
d="M238 613c6 48 83 48 73 0c-4 -20 -23 -36 -43 -36s-34 16 -30 36zM418 613c6 48 83 48 73 0c-4 -20 -23 -36 -43 -36s-34 16 -30 36zM342 511c75 0 131 -26 169 -78c39 -52 51 -114 37 -185c-2 -11 -4 -19 -6 -24h-451c-8 -113 62 -187 177 -187c83 0 146 31 190 92
l39 -26c-48 -72 -140 -114 -236 -114c-76 0 -134 25 -175 76s-54 115 -41 192c13 74 48 135 103 182c55 48 120 72 194 72zM99 273h401c12 120 -54 190 -162 190c-57 0 -108 -17 -151 -52s-73 -81 -88 -138z" />
    <glyph glyph-name="igrave" unicode="&#xec;" horiz-adv-x="204" 
d="M185 570h-49l-45 127h61zM83 0l88 500h-50l-88 -500h50z" />
    <glyph glyph-name="iacute" unicode="&#xed;" horiz-adv-x="204" 
d="M132 570l77 127h60l-88 -127h-49zM33 0h50l88 500h-50z" />
    <glyph glyph-name="icircumflex" unicode="&#xee;" horiz-adv-x="204" 
d="M210 697l63 -127h-57l-42 86l-72 -86h-57l106 127h59zM83 0h-50l88 500h50z" />
    <glyph glyph-name="idieresis" unicode="&#xef;" horiz-adv-x="204" 
d="M94 577c-21 0 -35 16 -31 36c4 21 23 37 44 37c20 0 33 -16 30 -37c-4 -20 -23 -36 -43 -36zM226 577c-21 0 -34 16 -31 36c4 21 23 37 44 37c20 0 34 -16 30 -37c-4 -20 -23 -36 -43 -36zM83 0h-50l88 500h50z" />
    <glyph glyph-name="eth" unicode="&#xf0;" horiz-adv-x="588" 
d="M378 606l136 -237c26 -45 34 -96 25 -153c-13 -72 -46 -128 -98 -168c-52 -39 -113 -59 -183 -59c-67 0 -124 25 -169 74s-60 110 -47 181c11 67 42 120 93 159s109 59 174 59c43 0 81 -9 112 -28l-83 149l-139 -77l8 47l112 62l-47 85h52l36 -62l121 67l-9 -47zM488 220
c8 50 3 90 -14 120c-31 51 -84 77 -161 77c-115 0 -201 -68 -220 -177c-11 -57 1 -106 35 -145c35 -39 81 -58 139 -58c55 0 103 16 144 49s67 77 77 134z" />
    <glyph glyph-name="ntilde" unicode="&#xf1;" horiz-adv-x="564" 
d="M340 611c-51 51 -82 42 -95 -28h-44c19 114 91 134 151 74c51 -51 82 -42 95 28h44c-9 -55 -30 -89 -61 -102s-61 -3 -90 28zM348 511c119 0 183 -79 163 -200l-55 -311h-51l55 311c16 93 -26 152 -121 152c-103 0 -186 -70 -209 -199v1l-47 -265h-50l88 500h50l-15 -87
c47 65 111 98 192 98z" />
    <glyph glyph-name="ograve" unicode="&#xf2;" horiz-adv-x="612" 
d="M396 570h-48l-70 127h60zM264 -11c71 0 136 23 195 69s95 109 109 188c13 77 -2 141 -45 190c-43 50 -100 75 -170 75c-72 0 -138 -23 -198 -70c-60 -46 -97 -108 -111 -186c-13 -79 2 -143 47 -192s102 -74 173 -74zM269 37c-57 0 -104 19 -139 58s-46 91 -35 155
s41 115 89 154c49 39 102 58 160 59c57 0 103 -19 138 -58s47 -90 36 -153c-11 -65 -41 -118 -90 -157c-48 -39 -101 -58 -159 -58z" />
    <glyph glyph-name="oacute" unicode="&#xf3;" horiz-adv-x="612" 
d="M319 570l100 127h62l-112 -127h-50zM264 -11c71 0 136 23 195 69s95 109 109 188c13 77 -2 141 -45 190c-43 50 -100 75 -170 75c-72 0 -138 -23 -198 -70c-60 -46 -97 -108 -111 -186c-13 -79 2 -143 47 -192s102 -74 173 -74zM269 37c-57 0 -104 19 -139 58
s-46 91 -35 155s41 115 89 154c49 39 102 58 160 59c57 0 103 -19 138 -58s47 -90 36 -153c-11 -65 -41 -118 -90 -157c-48 -39 -101 -58 -159 -58z" />
    <glyph glyph-name="ocircumflex" unicode="&#xf4;" horiz-adv-x="612" 
d="M443 570l-64 95l-97 -95h-60l130 127h59l87 -127h-55zM353 511c70 0 127 -25 170 -75c43 -49 58 -113 45 -190c-14 -79 -50 -142 -109 -188s-124 -69 -195 -69s-128 25 -173 74s-60 113 -47 192c14 78 51 140 111 186c60 47 126 70 198 70zM518 252c11 63 -1 114 -36 153
s-81 58 -138 58c-58 -1 -111 -20 -160 -59c-48 -39 -78 -90 -89 -154s0 -116 35 -155s82 -58 139 -58c58 0 111 19 159 58c49 39 79 92 90 157z" />
    <glyph glyph-name="otilde" unicode="&#xf5;" horiz-adv-x="612" 
d="M271 583h-44c19 114 91 134 151 74c51 -51 82 -42 95 28h44c-9 -55 -30 -89 -61 -102s-61 -3 -90 28c-51 51 -82 42 -95 -28zM264 -11c-71 0 -128 25 -173 74s-60 113 -47 192c14 78 51 140 111 186c60 47 126 70 198 70c70 0 127 -25 170 -75c43 -49 58 -113 45 -190
c-14 -79 -50 -142 -109 -188s-124 -69 -195 -69zM269 37c58 0 111 19 159 58c49 39 79 92 90 157c11 63 -1 114 -36 153s-81 58 -138 58c-58 -1 -111 -20 -160 -59c-48 -39 -78 -90 -89 -154s0 -116 35 -155s82 -58 139 -58z" />
    <glyph glyph-name="odieresis" unicode="&#xf6;" horiz-adv-x="612" 
d="M241 613c6 48 83 48 73 0c-4 -20 -23 -36 -43 -36s-34 16 -30 36zM421 613c6 48 83 48 73 0c-4 -20 -23 -36 -43 -36s-34 16 -30 36zM264 -11c-71 0 -128 25 -173 74s-60 113 -47 192c14 78 51 140 111 186c60 47 126 70 198 70c70 0 127 -25 170 -75
c43 -49 58 -113 45 -190c-14 -79 -50 -142 -109 -188s-124 -69 -195 -69zM269 37c58 0 111 19 159 58c49 39 79 92 90 157c11 63 -1 114 -36 153s-81 58 -138 58c-58 -1 -111 -20 -160 -59c-48 -39 -78 -90 -89 -154s0 -116 35 -155s82 -58 139 -58z" />
    <glyph glyph-name="divide" unicode="&#xf7;" horiz-adv-x="580" 
d="M296 539c4 25 25 43 52 43c25 0 42 -22 38 -47c-5 -25 -28 -43 -53 -43s-42 22 -37 47zM530 326h-453l8 48h453zM230 165c4 25 25 43 52 43c25 0 42 -22 38 -47c-5 -25 -28 -43 -53 -43s-42 22 -37 47z" />
    <glyph glyph-name="oslash" unicode="&#xf8;" horiz-adv-x="612" 
d="M552 503l32 -20l-56 -52c39 -50 53 -112 40 -185c-14 -79 -50 -142 -109 -188s-124 -69 -195 -69c-60 0 -111 18 -153 54l-49 -46l-32 20l56 52c-41 50 -55 112 -42 186c14 78 51 140 111 186c60 47 126 70 198 70c59 0 109 -18 150 -54zM95 250c-10 -59 0 -107 29 -146
l341 318c-33 27 -73 41 -121 41c-58 -1 -111 -20 -160 -59c-48 -39 -78 -90 -89 -154zM518 252c10 57 1 105 -28 143l-341 -317c31 -27 71 -41 120 -41c58 0 111 19 159 58c49 39 79 92 90 157z" />
    <glyph glyph-name="ugrave" unicode="&#xf9;" horiz-adv-x="564" 
d="M308 697l58 -127h-48l-70 127h60zM434 235l47 265h50l-88 -500h-50l15 87c-47 -65 -111 -98 -192 -98c-119 0 -183 79 -163 200l55 311h51l-55 -311c-16 -93 26 -152 121 -152c103 0 186 70 209 199v-1z" />
    <glyph glyph-name="uacute" unicode="&#xfa;" horiz-adv-x="564" 
d="M389 697h62l-112 -127h-50zM434 235l47 265h50l-88 -500h-50l15 87c-47 -65 -111 -98 -192 -98c-119 0 -183 79 -163 200l55 311h51l-55 -311c-16 -93 26 -152 121 -152c103 0 186 70 209 199v-1z" />
    <glyph glyph-name="ucircumflex" unicode="&#xfb;" horiz-adv-x="564" 
d="M413 570l-64 95l-97 -95h-60l130 127h59l87 -127h-55zM434 235l47 265h50l-88 -500h-50l15 87c-47 -65 -111 -98 -192 -98c-119 0 -183 79 -163 200l55 311h51l-55 -311c-16 -93 26 -152 121 -152c103 0 186 70 209 199v-1z" />
    <glyph glyph-name="udieresis" unicode="&#xfc;" horiz-adv-x="564" 
d="M211 613c6 48 83 48 73 0c-4 -20 -23 -36 -43 -36s-34 16 -30 36zM391 613c6 48 83 48 73 0c-4 -20 -23 -36 -43 -36s-34 16 -30 36zM434 235l47 265h50l-88 -500h-50l15 87c-47 -65 -111 -98 -192 -98c-119 0 -183 79 -163 200l55 311h51l-55 -311
c-16 -93 26 -152 121 -152c103 0 186 70 209 199v-1z" />
    <glyph glyph-name="yacute" unicode="&#xfd;" horiz-adv-x="510" 
d="M354 697h62l-112 -127h-50zM229 50l255 450h57l-312 -546c-59 -104 -140 -161 -225 -154l8 47c62 -6 118 33 167 117l17 28l-139 508h51z" />
    <glyph glyph-name="thorn" unicode="&#xfe;" horiz-adv-x="646" 
d="M384 511c71 0 128 -27 171 -81s59 -118 46 -191c-14 -78 -49 -139 -104 -184c-55 -44 -116 -66 -185 -66c-95 0 -175 51 -207 136l-57 -325h-50l158 900h50l-53 -302c56 75 133 113 231 113zM550 243c11 60 -1 112 -36 155s-82 65 -142 65s-113 -19 -159 -58
c-45 -39 -73 -88 -84 -148c-11 -65 1 -118 37 -159c37 -41 84 -61 143 -61c57 0 109 18 155 55s75 88 86 151z" />
    <glyph glyph-name="ydieresis" unicode="&#xff;" horiz-adv-x="510" 
d="M176 613c6 48 83 48 73 0c-4 -20 -23 -36 -43 -36s-34 16 -30 36zM356 613c6 48 83 48 73 0c-4 -20 -23 -36 -43 -36s-34 16 -30 36zM229 50l255 450h57l-312 -546c-59 -104 -140 -161 -225 -154l8 47c62 -6 118 33 167 117l17 28l-139 508h51z" />
    <glyph glyph-name="Amacron" unicode="&#x100;" horiz-adv-x="629" 
d="M290 831h253l-7 -44h-254zM570 0h-54l-36 178h-351l-100 -178h-58l395 700h56zM386 635l-229 -407h312z" />
    <glyph glyph-name="amacron" unicode="&#x101;" horiz-adv-x="646" 
d="M245 631h253l-7 -44h-254zM541 374l22 126h50l-88 -500h-50l18 102c-56 -75 -133 -113 -231 -113c-71 0 -128 27 -171 81s-59 118 -46 191c14 78 48 139 103 183c55 45 117 67 186 67c95 0 175 -52 207 -137zM517 243c11 65 -1 117 -38 158c-36 41 -83 62 -142 62
c-57 0 -109 -19 -155 -56s-75 -87 -86 -150c-11 -60 1 -112 36 -155s82 -65 142 -65s113 19 159 58s74 88 84 148z" />
    <glyph glyph-name="Abreve" unicode="&#x102;" horiz-adv-x="629" 
d="M407 765c-79 0 -126 47 -113 122h48c-9 -52 15 -78 71 -78c53 0 90 29 99 78h48c-13 -76 -69 -122 -153 -122zM570 0h-54l-36 178h-351l-100 -178h-58l395 700h56zM386 635l-229 -407h312z" />
    <glyph glyph-name="abreve" unicode="&#x103;" horiz-adv-x="646" 
d="M362 565c-79 0 -126 47 -113 122h48c-9 -52 15 -78 71 -78c53 0 90 29 99 78h48c-13 -76 -69 -122 -153 -122zM541 374l22 126h50l-88 -500h-50l18 102c-56 -75 -133 -113 -231 -113c-71 0 -128 27 -171 81s-59 118 -46 191c14 78 48 139 103 183c55 45 117 67 186 67
c95 0 175 -52 207 -137zM517 243c11 65 -1 117 -38 158c-36 41 -83 62 -142 62c-57 0 -109 -19 -155 -56s-75 -87 -86 -150c-11 -60 1 -112 36 -155s82 -65 142 -65s113 19 159 58s74 88 84 148z" />
    <glyph glyph-name="Aogonek" unicode="&#x104;" horiz-adv-x="629" 
d="M464 -130c-4 -25 7 -38 34 -38c17 0 31 3 44 8l-7 -41c-15 -7 -34 -10 -56 -10c-47 0 -73 32 -65 76c7 43 41 88 102 137l-36 176h-351l-100 -178h-58l395 700h56l148 -700c-63 -49 -99 -93 -106 -130zM386 635l-229 -407h312z" />
    <glyph glyph-name="aogonek" unicode="&#x105;" horiz-adv-x="647" 
d="M613 500l-88 -500c-65 -51 -100 -94 -106 -131c-4 -25 7 -37 34 -37c14 0 29 3 44 9l-7 -42c-16 -7 -35 -10 -56 -10c-48 0 -73 32 -65 76c7 42 43 91 108 147l16 90c-56 -75 -133 -113 -231 -113c-71 0 -128 27 -171 81s-59 118 -46 191c14 78 48 139 103 183
c55 45 117 67 186 67c95 0 175 -52 207 -137l22 126h50zM517 243c11 65 -1 117 -38 158c-36 41 -83 62 -142 62c-57 0 -109 -19 -155 -56s-75 -87 -86 -150c-11 -60 1 -112 36 -155s82 -65 142 -65s113 19 159 58s74 88 84 148z" />
    <glyph glyph-name="Cacute" unicode="&#x106;" horiz-adv-x="751" 
d="M461 770l100 127h62l-112 -127h-50zM365 -11c133 0 257 67 332 172l-45 28c-64 -93 -169 -149 -282 -149c-89 0 -157 30 -204 89c-47 60 -64 134 -49 221s57 161 124 220c68 60 147 90 236 90c113 0 192 -48 237 -143l47 25c-48 104 -150 169 -283 169
c-100 0 -189 -34 -268 -101s-127 -152 -145 -253s1 -188 58 -260s137 -108 242 -108z" />
    <glyph glyph-name="cacute" unicode="&#x107;" horiz-adv-x="562" 
d="M309 570l100 127h62l-112 -127h-50zM260 -11c104 0 194 47 245 126l-40 27c-41 -64 -116 -105 -196 -105c-61 0 -107 21 -140 62c-33 42 -44 93 -33 154c11 60 39 110 86 150s101 60 162 60c83 0 140 -38 163 -102l43 23c-27 77 -105 127 -201 127
c-75 0 -141 -24 -199 -71c-57 -47 -92 -108 -105 -182s1 -137 42 -190c42 -53 100 -79 173 -79z" />
    <glyph glyph-name="Cdotaccent" unicode="&#x10a;" horiz-adv-x="751" 
d="M464 820c4 27 29 47 54 47c43 0 54 -51 19 -81c-30 -29 -85 -6 -73 34zM365 -11c-105 0 -185 36 -242 108s-76 159 -58 260s66 186 145 253s168 101 268 101c133 0 235 -65 283 -169l-47 -25c-45 95 -124 143 -237 143c-89 0 -168 -30 -236 -90
c-67 -59 -109 -133 -124 -220s2 -161 49 -221c47 -59 115 -89 204 -89c113 0 218 56 282 149l45 -28c-75 -105 -199 -172 -332 -172z" />
    <glyph glyph-name="cdotaccent" unicode="&#x10b;" horiz-adv-x="562" 
d="M312 620c4 27 29 47 54 47c43 0 54 -51 19 -81c-30 -29 -85 -6 -73 34zM260 -11c-73 0 -131 26 -173 79c-41 53 -55 116 -42 190s48 135 105 182c58 47 124 71 199 71c96 0 174 -50 201 -127l-43 -23c-23 64 -80 102 -163 102c-61 0 -115 -20 -162 -60s-75 -90 -86 -150
c-11 -61 0 -112 33 -154c33 -41 79 -62 140 -62c80 0 155 41 196 105l40 -27c-51 -79 -141 -126 -245 -126z" />
    <glyph glyph-name="Ccaron" unicode="&#x10c;" horiz-adv-x="751" 
d="M532 770h-59l-86 127h54l64 -94l96 94h61zM477 660c-89 0 -168 -30 -236 -90c-67 -59 -109 -133 -124 -220s2 -161 49 -221c47 -59 115 -89 204 -89c113 0 218 56 282 149l45 -28c-75 -105 -199 -172 -332 -172c-105 0 -185 36 -242 108s-76 159 -58 260s66 186 145 253
s168 101 268 101c133 0 235 -65 283 -169l-47 -25c-45 95 -124 143 -237 143z" />
    <glyph glyph-name="ccaron" unicode="&#x10d;" horiz-adv-x="562" 
d="M380 570h-59l-86 127h54l64 -94l96 94h61zM344 463c-61 0 -115 -20 -162 -60s-75 -90 -86 -150c-11 -61 0 -112 33 -154c33 -41 79 -62 140 -62c80 0 155 41 196 105l40 -27c-51 -79 -141 -126 -245 -126c-73 0 -131 26 -173 79c-41 53 -55 116 -42 190s48 135 105 182
c58 47 124 71 199 71c96 0 174 -50 201 -127l-43 -23c-23 64 -80 102 -163 102z" />
    <glyph glyph-name="Dcaron" unicode="&#x10e;" horiz-adv-x="728" 
d="M461 770h-59l-86 127h54l64 -94l96 94h61zM166 700h263c93 0 165 -35 217 -106s69 -155 52 -252c-17 -98 -63 -180 -136 -245s-158 -97 -256 -97h-263zM646 350c14 84 0 155 -42 213c-41 58 -102 87 -183 87h-211l-105 -600h210c81 0 153 29 215 86
c63 58 101 129 116 214z" />
    <glyph glyph-name="dcaron" unicode="&#x10f;" horiz-adv-x="697" 
d="M541 375l57 325h50l-123 -700h-50l18 102c-56 -75 -133 -113 -231 -113c-71 0 -128 27 -171 81s-59 118 -46 191c14 78 48 139 103 183c55 45 117 67 186 67c95 0 175 -51 207 -136zM692 530l40 170h51l-55 -170h-36zM517 243c11 65 -1 117 -38 158
c-36 41 -83 62 -142 62c-57 0 -109 -19 -155 -56s-75 -87 -86 -150c-11 -60 1 -112 36 -155s82 -65 142 -65s113 19 158 58c46 39 74 88 85 148z" />
    <glyph glyph-name="Dcroat" unicode="&#x110;" horiz-adv-x="748" 
d="M186 700h263c93 0 165 -35 217 -106s69 -155 52 -252c-17 -98 -63 -180 -136 -245s-158 -97 -256 -97h-263l57 326h-67l8 48h68zM666 350c14 84 0 155 -42 213c-41 58 -102 87 -183 87h-211l-48 -276h239l-8 -48h-240l-48 -276h210c81 0 153 29 215 86
c63 58 101 129 116 214z" />
    <glyph glyph-name="dslash" unicode="&#x111;" horiz-adv-x="653" 
d="M635 624h67l-7 -42h-68l-102 -582h-51l18 100c-57 -74 -133 -111 -230 -111c-71 0 -128 27 -171 81s-59 118 -46 191c14 78 48 139 103 183c55 45 117 67 186 67c93 0 174 -51 206 -135l36 206h-201l7 42h202l13 76h51zM274 37c57 0 107 18 152 53s75 80 88 135l5 33
c7 61 -7 110 -44 148c-36 38 -82 57 -138 57c-57 0 -109 -19 -155 -56s-75 -87 -86 -150c-11 -60 1 -112 36 -155s82 -65 142 -65z" />
    <glyph glyph-name="Emacron" unicode="&#x112;" horiz-adv-x="533" 
d="M259 831h253l-7 -44h-254zM564 700l-8 -50h-346l-48 -272h321l-9 -50h-320l-49 -278h350l-9 -50h-403l123 700h398z" />
    <glyph glyph-name="emacron" unicode="&#x113;" horiz-adv-x="588" 
d="M241 631h253l-7 -44h-254zM342 511c75 0 131 -26 169 -78c39 -52 51 -114 37 -185c-2 -11 -4 -19 -6 -24h-451c-8 -113 62 -187 177 -187c83 0 146 31 190 92l39 -26c-48 -72 -140 -114 -236 -114c-76 0 -134 25 -175 76s-54 115 -41 192c13 74 48 135 103 182
c55 48 120 72 194 72zM99 273h401c12 120 -54 190 -162 190c-57 0 -108 -17 -151 -52s-73 -81 -88 -138z" />
    <glyph glyph-name="Edotaccent" unicode="&#x116;" horiz-adv-x="533" 
d="M337 820c4 27 29 47 54 47c43 0 54 -51 19 -81c-30 -29 -85 -6 -73 34zM564 700l-8 -50h-346l-48 -272h321l-9 -50h-320l-49 -278h350l-9 -50h-403l123 700h398z" />
    <glyph glyph-name="edotaccent" unicode="&#x117;" horiz-adv-x="588" 
d="M319 620c4 27 29 47 54 47c43 0 54 -51 19 -81c-30 -29 -85 -6 -73 34zM342 511c75 0 131 -26 169 -78c39 -52 51 -114 37 -185c-2 -11 -4 -19 -6 -24h-451c-8 -113 62 -187 177 -187c83 0 146 31 190 92l39 -26c-48 -72 -140 -114 -236 -114c-76 0 -134 25 -175 76
s-54 115 -41 192c13 74 48 135 103 182c55 48 120 72 194 72zM99 273h401c12 120 -54 190 -162 190c-57 0 -108 -17 -151 -52s-73 -81 -88 -138z" />
    <glyph glyph-name="Eogonek" unicode="&#x118;" horiz-adv-x="534" 
d="M564 700l-8 -50h-346l-48 -272h321l-9 -50h-320l-49 -278h350l-9 -50c-65 -49 -100 -91 -106 -127c-4 -24 9 -41 34 -41c15 0 29 3 44 9l-8 -43c-13 -6 -31 -9 -54 -9c-51 0 -75 36 -67 80c7 42 41 86 102 131h-348l123 700h398z" />
    <glyph glyph-name="eogonek" unicode="&#x119;" horiz-adv-x="588" 
d="M342 511c75 0 131 -26 169 -78c39 -52 51 -114 37 -185c-2 -11 -4 -19 -6 -24h-451c-8 -113 62 -187 177 -187c83 0 146 31 190 92l39 -26c-15 -23 -34 -42 -56 -58c-94 -79 -144 -138 -151 -176c-5 -25 7 -37 36 -37c13 0 27 3 42 9l-7 -42c-16 -7 -34 -10 -53 -10
c-53 0 -77 31 -69 76c9 43 42 87 100 133c-25 -6 -51 -9 -78 -9c-76 0 -134 25 -175 76s-54 115 -41 192c13 74 48 135 103 182c55 48 120 72 194 72zM99 273h401c12 120 -54 190 -162 190c-57 0 -108 -17 -151 -52s-73 -81 -88 -138z" />
    <glyph glyph-name="Ecaron" unicode="&#x11a;" horiz-adv-x="533" 
d="M405 770h-59l-86 127h54l64 -94l96 94h61zM564 700l-8 -50h-346l-48 -272h321l-9 -50h-320l-49 -278h350l-9 -50h-403l123 700h398z" />
    <glyph glyph-name="ecaron" unicode="&#x11b;" horiz-adv-x="588" 
d="M387 570h-59l-86 127h54l64 -94l96 94h61zM342 511c75 0 131 -26 169 -78c39 -52 51 -114 37 -185c-2 -11 -4 -19 -6 -24h-451c-8 -113 62 -187 177 -187c83 0 146 31 190 92l39 -26c-48 -72 -140 -114 -236 -114c-76 0 -134 25 -175 76s-54 115 -41 192
c13 74 48 135 103 182c55 48 120 72 194 72zM99 273h401c12 120 -54 190 -162 190c-57 0 -108 -17 -151 -52s-73 -81 -88 -138z" />
    <glyph glyph-name="Gbreve" unicode="&#x11e;" horiz-adv-x="800" 
d="M494 765c-79 0 -126 47 -113 122h48c-9 -52 15 -78 71 -78c53 0 90 29 99 78h48c-13 -76 -69 -122 -153 -122zM416 326h351l-5 -26c-16 -89 -59 -163 -130 -222c-70 -59 -154 -89 -253 -89c-109 0 -193 36 -252 109s-79 161 -61 264c17 99 65 182 144 249
s169 100 271 100c135 0 232 -65 284 -169l-47 -25c-48 95 -128 143 -239 143c-90 0 -169 -29 -237 -88s-109 -131 -124 -218c-15 -88 2 -162 50 -223c49 -61 120 -91 213 -91c81 0 150 22 208 67c59 45 97 102 115 169h-297z" />
    <glyph glyph-name="gbreve" unicode="&#x11f;" horiz-adv-x="650" 
d="M373 565c-79 0 -126 47 -113 122h48c-9 -52 15 -78 71 -78c53 0 90 29 99 78h48c-13 -76 -69 -122 -153 -122zM544 375l22 125h51l-84 -476c-27 -149 -136 -235 -287 -235c-108 0 -187 47 -218 120l45 23c21 -56 79 -95 175 -95c129 0 213 68 234 187l14 78
c-53 -72 -133 -113 -224 -113c-76 0 -135 26 -178 79c-42 53 -57 117 -45 193c11 75 45 135 101 181s118 69 186 69c95 0 176 -51 208 -136zM280 37c56 0 106 18 150 53c45 35 74 81 88 138l6 32c6 60 -10 109 -47 146c-37 38 -83 57 -138 57c-57 0 -109 -19 -156 -57
s-75 -88 -84 -149c-9 -62 3 -114 37 -157c35 -42 83 -63 144 -63z" />
    <glyph glyph-name="Gdotaccent" unicode="&#x120;" horiz-adv-x="800" 
d="M455 820c4 27 29 47 54 47c43 0 54 -51 19 -81c-30 -29 -85 -6 -73 34zM416 326h351l-5 -26c-16 -89 -59 -163 -130 -222c-70 -59 -154 -89 -253 -89c-109 0 -193 36 -252 109s-79 161 -61 264c17 99 65 182 144 249s169 100 271 100c135 0 232 -65 284 -169l-47 -25
c-48 95 -128 143 -239 143c-90 0 -169 -29 -237 -88s-109 -131 -124 -218c-15 -88 2 -162 50 -223c49 -61 120 -91 213 -91c81 0 150 22 208 67c59 45 97 102 115 169h-297z" />
    <glyph glyph-name="gdotaccent" unicode="&#x121;" horiz-adv-x="650" 
d="M334 620c4 27 29 47 54 47c43 0 54 -51 19 -81c-30 -29 -85 -6 -73 34zM544 375l22 125h51l-84 -476c-27 -149 -136 -235 -287 -235c-108 0 -187 47 -218 120l45 23c21 -56 79 -95 175 -95c129 0 213 68 234 187l14 78c-53 -72 -133 -113 -224 -113
c-76 0 -135 26 -178 79c-42 53 -57 117 -45 193c11 75 45 135 101 181s118 69 186 69c95 0 176 -51 208 -136zM280 37c56 0 106 18 150 53c45 35 74 81 88 138l6 32c6 60 -10 109 -47 146c-37 38 -83 57 -138 57c-57 0 -109 -19 -156 -57s-75 -88 -84 -149
c-9 -62 3 -114 37 -157c35 -42 83 -63 144 -63z" />
    <glyph glyph-name="Gcommaaccent" unicode="&#x122;" horiz-adv-x="800" 
d="M416 326h351l-5 -26c-16 -89 -59 -163 -130 -222c-70 -59 -154 -89 -253 -89c-109 0 -193 36 -252 109s-79 161 -61 264c17 99 65 182 144 249s169 100 271 100c135 0 232 -65 284 -169l-47 -25c-48 95 -128 143 -239 143c-90 0 -169 -29 -237 -88s-109 -131 -124 -218
c-15 -88 2 -162 50 -223c49 -61 120 -91 213 -91c81 0 150 22 208 67c59 45 97 102 115 169h-297zM345 -240h-36l40 170h51z" />
    <glyph glyph-name="gcommaaccent" unicode="&#x123;" horiz-adv-x="650" 
d="M399 760h36l-40 -170h-51zM544 375l22 125h51l-84 -476c-27 -149 -136 -235 -287 -235c-108 0 -187 47 -218 120l45 23c21 -56 79 -95 175 -95c129 0 213 68 234 187l14 78c-53 -72 -133 -113 -224 -113c-76 0 -135 26 -178 79c-42 53 -57 117 -45 193
c11 75 45 135 101 181s118 69 186 69c95 0 176 -51 208 -136zM280 37c56 0 106 18 150 53c45 35 74 81 88 138l6 32c6 60 -10 109 -47 146c-37 38 -83 57 -138 57c-57 0 -109 -19 -156 -57s-75 -88 -84 -149c-9 -62 3 -114 37 -157c35 -42 83 -63 144 -63z" />
    <glyph glyph-name="Hbar" unicode="&#x126;" horiz-adv-x="740" 
d="M682 562h66l-7 -44h-67l-91 -518h-54l59 335h-406l-59 -335h-54l91 518h-66l8 44h66l24 138h54l-24 -138h406l24 138h54zM191 385h406l23 133h-406z" />
    <glyph glyph-name="hbar" unicode="&#x127;" horiz-adv-x="577" 
d="M361 511c119 0 184 -79 163 -200l-55 -311h-50l54 311c16 93 -26 152 -121 152c-97 0 -180 -62 -205 -181l-50 -282h-51l102 582h-72l7 42h73l13 76h51l-13 -76h156l-7 -42h-157l-29 -168c47 65 111 97 191 97z" />
    <glyph glyph-name="Imacron" unicode="&#x12a;" horiz-adv-x="227" 
d="M334 787h-254l8 44h253zM43 0l123 700h53l-123 -700h-53z" />
    <glyph glyph-name="imacron" unicode="&#x12b;" horiz-adv-x="204" 
d="M255 587h-187l8 44h186zM83 0h-50l88 500h50z" />
    <glyph glyph-name="Iogonek" unicode="&#x12e;" horiz-adv-x="227" 
d="M26 -127c-5 -27 7 -41 34 -41c15 0 29 3 44 9l-7 -42c-14 -7 -33 -10 -56 -10c-47 0 -72 32 -65 80c7 41 29 86 68 136l122 695h53l-123 -700c-41 -55 -65 -98 -70 -127z" />
    <glyph glyph-name="iogonek" unicode="&#x12f;" horiz-adv-x="204" 
d="M181 700c21 0 37 -18 33 -39c-4 -23 -23 -40 -47 -40c-23 0 -36 17 -32 40c3 21 22 39 46 39zM171 500l-88 -500c-38 -51 -60 -92 -66 -123c-4 -25 9 -45 33 -45c15 0 29 3 44 9l-7 -42c-16 -7 -35 -10 -56 -10c-49 0 -73 38 -65 83c7 34 29 79 68 134l87 494h50z" />
    <glyph glyph-name="Idot" unicode="&#x130;" horiz-adv-x="227" 
d="M166 820c4 27 29 47 54 47c43 0 54 -51 19 -81c-30 -29 -85 -6 -73 34zM43 0l123 700h53l-123 -700h-53z" />
    <glyph glyph-name="dotlessi" unicode="&#x131;" horiz-adv-x="204" 
d="M83 0h-50l88 500h50z" />
    <glyph glyph-name="Kcommaaccent" unicode="&#x136;" horiz-adv-x="571" 
d="M560 700h72l-415 -345l300 -355h-64l-296 349l-61 -349h-53l123 700h53l-57 -326zM226 -240h-36l40 170h51z" />
    <glyph glyph-name="kcommaaccent" unicode="&#x137;" horiz-adv-x="483" 
d="M424 500h71l-313 -241l234 -259h-62l-227 251l-44 -251h-50l123 700h50l-75 -424zM178 -240h-36l40 170h51z" />
    <glyph glyph-name="Lacute" unicode="&#x139;" horiz-adv-x="493" 
d="M279 897h62l-112 -127h-50zM219 700l-114 -650h330l-9 -50h-383l123 700h53z" />
    <glyph glyph-name="lacute" unicode="&#x13a;" horiz-adv-x="205" 
d="M168 770l100 127h62l-112 -127h-50zM34 0h50l54 306l74 424h-50l-75 -424z" />
    <glyph glyph-name="Lcommaaccent" unicode="&#x13b;" horiz-adv-x="493" 
d="M219 700l-114 -650h330l-9 -50h-383l123 700h53zM203 -240h-36l40 170h51z" />
    <glyph glyph-name="lcommaaccent" unicode="&#x13c;" horiz-adv-x="205" 
d="M84 0h-50l53 306l75 424h50l-74 -424zM18 -240h-36l40 170h51z" />
    <glyph glyph-name="Lcaron" unicode="&#x13d;" horiz-adv-x="493" 
d="M219 700l-114 -650h330l-9 -50h-383l123 700h53zM356 700h50l-54 -170h-36z" />
    <glyph glyph-name="lcaron" unicode="&#x13e;" horiz-adv-x="247" 
d="M84 0h-50l53 306l75 424h50l-74 -424zM284 560h-36l40 170h50z" />
    <glyph glyph-name="Lslash" unicode="&#x141;" horiz-adv-x="517" 
d="M170 288l-42 -238h330l-9 -50h-383l45 253l-74 -43l9 53l74 44l69 393h53l-63 -359l198 117l-9 -53z" />
    <glyph glyph-name="lslash" unicode="&#x142;" horiz-adv-x="240" 
d="M172 401l84 52l-9 -52l-84 -52l-8 -43l-54 -306h-50l53 306l1 8l-82 -50l9 52l83 51l64 363h50z" />
    <glyph glyph-name="Nacute" unicode="&#x143;" horiz-adv-x="687" 
d="M393 770l100 127h62l-112 -127h-50zM43 0h53l106 602l311 -602h43l123 700h-53l-106 -602l-312 602h-42z" />
    <glyph glyph-name="nacute" unicode="&#x144;" horiz-adv-x="564" 
d="M393 697h62l-112 -127h-50zM348 511c119 0 183 -79 163 -200l-55 -311h-51l55 311c16 93 -26 152 -121 152c-103 0 -186 -70 -209 -199v1l-47 -265h-50l88 500h50l-15 -87c47 65 111 98 192 98z" />
    <glyph glyph-name="Ncommaaccent" unicode="&#x145;" horiz-adv-x="687" 
d="M96 0h-53l123 700h42l312 -602l106 602h53l-123 -700h-43l-311 602zM259 -240h-36l40 170h51z" />
    <glyph glyph-name="ncommaaccent" unicode="&#x146;" horiz-adv-x="564" 
d="M348 511c119 0 183 -79 163 -200l-55 -311h-51l55 311c16 93 -26 152 -121 152c-103 0 -186 -70 -209 -199v1l-47 -265h-50l88 500h50l-15 -87c47 65 111 98 192 98zM217 -240h-36l40 170h51z" />
    <glyph glyph-name="Ncaron" unicode="&#x147;" horiz-adv-x="687" 
d="M464 770h-59l-86 127h54l64 -94l96 94h61zM520 98l106 602h53l-123 -700h-43l-311 602l-106 -602h-53l123 700h42z" />
    <glyph glyph-name="ncaron" unicode="&#x148;" horiz-adv-x="564" 
d="M364 570h-59l-86 127h54l64 -94l96 94h61zM348 511c119 0 183 -79 163 -200l-55 -311h-51l55 311c16 93 -26 152 -121 152c-103 0 -186 -70 -209 -199v1l-47 -265h-50l88 500h50l-15 -87c47 65 111 98 192 98z" />
    <glyph glyph-name="Eng" unicode="&#x14a;" horiz-adv-x="687" 
d="M520 98l106 602h53l-123 -700c-27 -151 -108 -201 -240 -200l9 51c101 -1 158 38 178 149l2 15l-303 587l-106 -602h-53l123 700h42z" />
    <glyph glyph-name="eng" unicode="&#x14b;" horiz-adv-x="564" 
d="M348 511c119 0 183 -79 163 -200l-65 -368c-19 -107 -88 -163 -193 -154l8 48c75 -8 120 27 134 106l65 368c16 93 -26 152 -121 152c-103 0 -186 -70 -209 -199v1l-47 -265h-50l88 500h50l-15 -87c47 65 111 98 192 98z" />
    <glyph glyph-name="Omacron" unicode="&#x14c;" horiz-adv-x="819" 
d="M630 787h-254l8 44h253zM365 -11c-100 0 -179 36 -238 109s-79 159 -62 260c17 100 66 184 147 251c81 68 172 102 275 102c100 0 179 -37 238 -111c59 -73 80 -160 63 -261c-18 -100 -67 -183 -148 -250c-80 -67 -172 -100 -275 -100zM374 40c88 0 166 29 234 88
c69 59 111 132 126 219s-2 160 -51 221s-117 92 -205 92s-166 -30 -235 -90c-68 -60 -109 -133 -124 -220s1 -160 50 -220s118 -90 205 -90z" />
    <glyph glyph-name="omacron" unicode="&#x14d;" horiz-adv-x="612" 
d="M490 587h-254l8 44h253zM264 -11c-71 0 -128 25 -173 74s-60 113 -47 192c14 78 51 140 111 186c60 47 126 70 198 70c70 0 127 -25 170 -75c43 -49 58 -113 45 -190c-14 -79 -50 -142 -109 -188s-124 -69 -195 -69zM269 37c58 0 111 19 159 58c49 39 79 92 90 157
c11 63 -1 114 -36 153s-81 58 -138 58c-58 -1 -111 -20 -160 -59c-48 -39 -78 -90 -89 -154s0 -116 35 -155s82 -58 139 -58z" />
    <glyph glyph-name="Ohungarumlaut" unicode="&#x150;" horiz-adv-x="819" 
d="M378 770l90 130h58l-96 -130h-52zM520 770l100 130h58l-105 -130h-53zM365 -11c103 0 195 33 275 100c81 67 130 150 148 250c17 101 -4 188 -63 261c-59 74 -138 111 -238 111c-103 0 -194 -34 -275 -102c-81 -67 -130 -151 -147 -251c-17 -101 3 -187 62 -260
s138 -109 238 -109zM374 40c-87 0 -156 30 -205 90s-65 133 -50 220s56 160 124 220c69 60 147 90 235 90s156 -31 205 -92s66 -134 51 -221s-57 -160 -126 -219c-68 -59 -146 -88 -234 -88z" />
    <glyph glyph-name="ohungarumlaut" unicode="&#x151;" horiz-adv-x="612" 
d="M238 570l90 130h58l-96 -130h-52zM380 570l100 130h58l-105 -130h-53zM264 -11c71 0 136 23 195 69s95 109 109 188c13 77 -2 141 -45 190c-43 50 -100 75 -170 75c-72 0 -138 -23 -198 -70c-60 -46 -97 -108 -111 -186c-13 -79 2 -143 47 -192s102 -74 173 -74zM269 37
c-57 0 -104 19 -139 58s-46 91 -35 155s41 115 89 154c49 39 102 58 160 59c57 0 103 -19 138 -58s47 -90 36 -153c-11 -65 -41 -118 -90 -157c-48 -39 -101 -58 -159 -58z" />
    <glyph glyph-name="OE" unicode="&#x152;" horiz-adv-x="916" 
d="M947 700l-9 -50h-322l-48 -272h304l-9 -50h-303l-49 -278h327l-9 -50h-380l114 646c-28 9 -59 14 -92 14c-87 0 -163 -30 -230 -90c-67 -59 -107 -133 -122 -220c-16 -87 -1 -161 44 -221c45 -59 112 -89 199 -89c33 0 65 5 96 14l-9 -54c-31 -7 -63 -11 -96 -11
c-100 0 -178 35 -233 106s-73 158 -55 259s66 186 143 254c78 69 169 103 272 103c33 0 64 -4 92 -11h375z" />
    <glyph glyph-name="oe" unicode="&#x153;" horiz-adv-x="1061" 
d="M818 511c71 0 126 -26 165 -79c39 -52 51 -113 38 -184l-6 -24h-451c-9 -113 62 -187 177 -187c82 0 145 31 189 92l40 -26c-49 -72 -140 -114 -232 -114c-111 0 -189 61 -212 157c-53 -96 -153 -157 -266 -157c-73 0 -130 26 -173 77c-42 52 -56 115 -43 188
c13 74 49 135 107 184s125 73 201 73c103 0 182 -63 206 -156c52 96 149 156 260 156zM269 37c59 0 113 21 160 62c48 41 77 92 87 151c11 59 0 110 -33 151s-80 62 -139 62c-61 0 -115 -21 -162 -62s-76 -91 -87 -151s0 -111 33 -152s80 -61 141 -61zM572 273h401
c12 120 -55 190 -162 190c-57 0 -108 -17 -151 -52s-73 -81 -88 -138z" />
    <glyph glyph-name="Racute" unicode="&#x154;" horiz-adv-x="613" 
d="M442 897h62l-112 -127h-50zM166 700h276c55 0 100 -22 134 -65c35 -43 47 -92 36 -149c-16 -95 -91 -170 -187 -193l121 -293h-55l-118 287h-3h-224l-50 -287h-53zM434 650h-224l-55 -313h224c43 0 82 15 117 45c35 31 57 68 65 111s-1 80 -26 111s-59 46 -101 46z" />
    <glyph glyph-name="racute" unicode="&#x155;" horiz-adv-x="318" 
d="M300 697h62l-112 -127h-50zM171 500l-15 -85c45 65 107 95 184 92l-9 -48c-47 0 -90 -15 -127 -46c-37 -30 -61 -75 -72 -135l-49 -278h-50l88 500h50z" />
    <glyph glyph-name="Rcommaaccent" unicode="&#x156;" horiz-adv-x="613" 
d="M166 700h276c55 0 100 -22 134 -65c35 -43 47 -92 36 -149c-16 -95 -91 -170 -187 -193l121 -293h-55l-118 287h-3h-224l-50 -287h-53zM434 650h-224l-55 -313h224c43 0 82 15 117 45c35 31 57 68 65 111s-1 80 -26 111s-59 46 -101 46zM256 -240h-36l40 170h51z" />
    <glyph glyph-name="rcommaaccent" unicode="&#x157;" horiz-adv-x="318" 
d="M171 500l-15 -85c45 65 107 95 184 92l-9 -48c-47 0 -90 -15 -127 -46c-37 -30 -61 -75 -72 -135l-49 -278h-50l88 500h50zM17 -240h-36l40 170h51z" />
    <glyph glyph-name="Rcaron" unicode="&#x158;" horiz-adv-x="613" 
d="M413 770h-59l-86 127h54l64 -94l96 94h61zM166 700h276c55 0 100 -22 134 -65c35 -43 47 -92 36 -149c-16 -95 -91 -170 -187 -193l121 -293h-55l-118 287h-3h-224l-50 -287h-53zM434 650h-224l-55 -313h224c43 0 82 15 117 45c35 31 57 68 65 111s-1 80 -26 111
s-59 46 -101 46z" />
    <glyph glyph-name="rcaron" unicode="&#x159;" horiz-adv-x="318" 
d="M271 570h-59l-86 127h54l64 -94l96 94h61zM171 500l-15 -85c45 65 107 95 184 92l-9 -48c-47 0 -90 -15 -127 -46c-37 -30 -61 -75 -72 -135l-49 -278h-50l88 500h50z" />
    <glyph glyph-name="Sacute" unicode="&#x15a;" horiz-adv-x="573" 
d="M334 770l100 127h62l-112 -127h-50zM260 -11c131 0 230 61 253 173c9 51 -5 96 -26 123c-10 13 -25 26 -46 39s-38 22 -53 28c-14 6 -33 13 -57 22c-29 11 -51 19 -66 26s-33 17 -52 30c-37 27 -49 60 -40 107c16 76 90 123 175 123c87 0 142 -40 167 -119l47 24
c-27 87 -98 146 -211 146c-55 0 -105 -15 -150 -44c-44 -29 -71 -71 -82 -125c-11 -80 17 -128 72 -162c40 -24 65 -33 110 -49c29 -11 51 -20 66 -27s33 -17 52 -30c39 -25 50 -59 41 -106c-16 -79 -90 -128 -198 -128c-109 0 -176 53 -192 138l-47 -24
c23 -104 110 -165 237 -165z" />
    <glyph glyph-name="sacute" unicode="&#x15b;" horiz-adv-x="472" 
d="M251 570l100 127h62l-112 -127h-50zM204 -11c105 0 181 49 194 129c19 110 -86 138 -168 161c-56 17 -99 47 -90 95c11 59 68 89 129 89c56 0 106 -26 122 -75l44 23c-25 63 -85 100 -164 100c-47 0 -88 -12 -122 -37c-33 -24 -53 -55 -60 -93c-21 -107 87 -135 168 -158
c57 -17 100 -48 91 -97c-11 -56 -67 -89 -140 -89s-122 34 -137 89l-45 -23c24 -76 83 -114 178 -114z" />
    <glyph glyph-name="Scedilla" unicode="&#x15e;" horiz-adv-x="573" 
d="M331 374c24 -9 43 -16 57 -22c15 -6 32 -15 53 -28s36 -26 46 -39c21 -27 35 -72 26 -123c-23 -111 -118 -170 -245 -173l-8 -45c51 -7 85 -38 78 -79c-11 -61 -81 -87 -209 -76l8 41c95 -9 149 6 156 39c5 29 -27 44 -84 43l14 79c-107 11 -179 70 -200 163l47 24
c16 -85 83 -138 192 -138c108 0 182 49 198 128c9 47 -2 81 -41 106c-19 13 -37 23 -52 30s-37 16 -66 27c-45 16 -70 25 -110 49c-55 34 -83 82 -72 162c11 54 38 96 82 125c45 29 95 44 150 44c113 0 184 -59 211 -146l-47 -24c-25 79 -80 119 -167 119
c-85 0 -159 -47 -175 -123c-9 -47 3 -80 40 -107c19 -13 37 -23 52 -30s37 -15 66 -26z" />
    <glyph glyph-name="scedilla" unicode="&#x15f;" horiz-adv-x="472" 
d="M140 374c-9 -48 34 -78 90 -95c82 -23 187 -51 168 -161c-13 -77 -83 -125 -182 -129l-8 -45c51 -7 85 -38 78 -79c-11 -61 -81 -87 -209 -76l8 41c95 -9 149 6 156 39c5 29 -27 44 -84 43l14 79c-75 9 -124 46 -145 112l45 23c15 -55 64 -89 137 -89s129 33 140 89
c9 49 -34 80 -91 97c-81 23 -189 51 -168 158c7 38 27 69 60 93c34 25 75 37 122 37c79 0 139 -37 164 -100l-44 -23c-16 49 -66 75 -122 75c-61 0 -118 -30 -129 -89z" />
    <glyph glyph-name="Scaron" unicode="&#x160;" horiz-adv-x="573" 
d="M405 770h-59l-86 127h54l64 -94l96 94h61zM331 374c24 -9 43 -16 57 -22c15 -6 32 -15 53 -28s36 -26 46 -39c21 -27 35 -72 26 -123c-23 -112 -122 -173 -253 -173c-127 0 -214 61 -237 165l47 24c16 -85 83 -138 192 -138c108 0 182 49 198 128c9 47 -2 81 -41 106
c-19 13 -37 23 -52 30s-37 16 -66 27c-45 16 -70 25 -110 49c-55 34 -83 82 -72 162c11 54 38 96 82 125c45 29 95 44 150 44c113 0 184 -59 211 -146l-47 -24c-25 79 -80 119 -167 119c-85 0 -159 -47 -175 -123c-9 -47 3 -80 40 -107c19 -13 37 -23 52 -30s37 -15 66 -26z
" />
    <glyph glyph-name="scaron" unicode="&#x161;" horiz-adv-x="472" 
d="M322 570h-59l-86 127h54l64 -94l96 94h61zM269 463c-61 0 -118 -30 -129 -89c-9 -48 34 -78 90 -95c82 -23 187 -51 168 -161c-13 -80 -89 -129 -194 -129c-95 0 -154 38 -178 114l45 23c15 -55 64 -89 137 -89s129 33 140 89c9 49 -34 80 -91 97
c-81 23 -189 51 -168 158c7 38 27 69 60 93c34 25 75 37 122 37c79 0 139 -37 164 -100l-44 -23c-16 49 -66 75 -122 75z" />
    <glyph glyph-name="uni0162" unicode="&#x162;" horiz-adv-x="540" 
d="M102 700h494l-9 -50h-220l-114 -650h-54l114 650h-219zM186 -240h-36l40 170h51z" />
    <glyph glyph-name="uni0163" unicode="&#x163;" horiz-adv-x="377" 
d="M369 451h-149l-58 -325c-7 -41 0 -66 20 -75c21 -9 59 -11 115 -6l-7 -45c-135 -21 -198 17 -178 126l57 325h-110l9 49h110l22 125l53 15l-25 -140h150zM153 -240h-36l40 170h51z" />
    <glyph glyph-name="Tcaron" unicode="&#x164;" horiz-adv-x="540" 
d="M391 770h-59l-86 127h54l64 -94l96 94h61zM102 700h494l-9 -50h-220l-114 -650h-54l114 650h-219z" />
    <glyph glyph-name="tcaron" unicode="&#x165;" horiz-adv-x="377" 
d="M335 714h51l-53 -157h-36zM200 625l53 15l-25 -140h150l-9 -49h-149l-58 -325c-7 -41 0 -66 20 -75c21 -9 59 -11 115 -6l-7 -45c-135 -21 -198 17 -178 126l57 325h-110l9 49h110z" />
    <glyph glyph-name="Tbar" unicode="&#x166;" horiz-adv-x="540" 
d="M596 700l-9 -50h-220l-48 -276h152l-8 -48h-153l-57 -326h-54l57 326h-153l8 48h154l48 276h-219l8 50h494z" />
    <glyph glyph-name="tbar" unicode="&#x167;" horiz-adv-x="377" 
d="M378 500l-9 -49h-149l-30 -168h100l-7 -42h-101l-20 -115c-7 -41 0 -66 20 -75c21 -9 59 -11 115 -6l-7 -45c-135 -21 -198 17 -178 126l20 115h-69l7 42h70l29 168h-110l9 49h110l22 125l53 15l-25 -140h150z" />
    <glyph glyph-name="Umacron" unicode="&#x16a;" horiz-adv-x="667" 
d="M552 787h-254l8 44h253zM296 -11c-78 0 -138 23 -179 68c-41 46 -56 105 -43 177l82 466h53l-82 -466c-20 -116 40 -194 168 -194c65 0 119 18 161 54c42 37 68 83 78 140l82 466h53l-82 -466c-13 -75 -46 -135 -99 -179s-117 -66 -192 -66z" />
    <glyph glyph-name="umacron" unicode="&#x16b;" horiz-adv-x="564" 
d="M214 631h253l-7 -44h-254zM434 235l47 265h50l-88 -500h-50l15 87c-47 -65 -111 -98 -192 -98c-119 0 -183 79 -163 200l55 311h51l-55 -311c-16 -93 26 -152 121 -152c103 0 186 70 209 199v-1z" />
    <glyph glyph-name="Uring" unicode="&#x16e;" horiz-adv-x="667" 
d="M416 720c-61 0 -96 43 -87 99s58 95 117 95c61 0 96 -43 88 -99c-9 -56 -58 -95 -118 -95zM492 817c5 35 -15 57 -51 57c-35 0 -64 -22 -69 -57c-7 -33 13 -57 49 -57s64 24 71 57zM296 -11c-78 0 -138 23 -179 68c-41 46 -56 105 -43 177l82 466h53l-82 -466
c-20 -116 40 -194 168 -194c65 0 119 18 161 54c42 37 68 83 78 140l82 466h53l-82 -466c-13 -75 -46 -135 -99 -179s-117 -66 -192 -66z" />
    <glyph glyph-name="uring" unicode="&#x16f;" horiz-adv-x="564" 
d="M330 553c-61 0 -96 43 -87 99s58 95 117 95c61 0 96 -43 88 -99c-9 -56 -58 -95 -118 -95zM286 650c-7 -33 13 -57 49 -57s64 24 71 57c5 35 -15 57 -51 57c-35 0 -64 -22 -69 -57zM434 235l47 265h50l-88 -500h-50l15 87c-47 -65 -111 -98 -192 -98
c-119 0 -183 79 -163 200l55 311h51l-55 -311c-16 -93 26 -152 121 -152c103 0 186 70 209 199v-1z" />
    <glyph glyph-name="Uhungarumlaut" unicode="&#x170;" horiz-adv-x="667" 
d="M300 770l90 130h58l-96 -130h-52zM442 770l100 130h58l-105 -130h-53zM296 -11c75 0 139 22 192 66s86 104 99 179l82 466h-53l-82 -466c-10 -57 -36 -103 -78 -140c-42 -36 -96 -54 -161 -54c-128 0 -188 78 -168 194l82 466h-53l-82 -466c-13 -72 2 -131 43 -177
c41 -45 101 -68 179 -68z" />
    <glyph glyph-name="uhungarumlaut" unicode="&#x171;" horiz-adv-x="564" 
d="M298 700h58l-96 -130h-52zM508 700l-105 -130h-53l100 130h58zM434 235l47 265h50l-88 -500h-50l15 87c-47 -65 -111 -98 -192 -98c-119 0 -183 79 -163 200l55 311h51l-55 -311c-16 -93 26 -152 121 -152c103 0 186 70 209 199v-1z" />
    <glyph glyph-name="Uogonek" unicode="&#x172;" horiz-adv-x="667" 
d="M534 234l82 466h53l-82 -466c-16 -90 -59 -157 -128 -200c-53 -39 -91 -70 -114 -94s-37 -47 -40 -68c-4 -27 9 -40 38 -40c13 0 27 3 40 8l-7 -42c-14 -6 -31 -9 -50 -9c-53 0 -79 32 -72 77c7 41 39 83 95 127c-15 -3 -33 -4 -53 -4c-78 0 -138 23 -179 68
c-41 46 -56 105 -43 177l82 466h53l-82 -466c-20 -116 40 -194 168 -194c65 0 119 18 161 54c42 37 68 83 78 140z" />
    <glyph glyph-name="uogonek" unicode="&#x173;" horiz-adv-x="564" 
d="M531 500l-88 -500c-65 -51 -100 -94 -106 -131c-4 -25 7 -37 34 -37c14 0 29 3 44 9l-7 -42c-17 -7 -36 -10 -56 -10c-49 0 -73 32 -66 76c7 39 43 87 109 145l13 77c-47 -65 -111 -98 -192 -98c-119 0 -183 79 -163 200l55 311h51l-55 -311c-16 -93 26 -152 121 -152
c103 0 186 70 209 199v-1l47 265h50z" />
    <glyph glyph-name="Wcircumflex" unicode="&#x174;" horiz-adv-x="993" 
d="M671 770l-64 95l-97 -95h-60l130 127h59l87 -127h-55zM690 69l293 631h56l-326 -700h-64l-85 631l-308 -631h-64l-80 700h53l71 -631l306 631h63z" />
    <glyph glyph-name="wcircumflex" unicode="&#x175;" horiz-adv-x="770" 
d="M509 570l-64 95l-97 -95h-60l130 127h59l87 -127h-55zM516 64l210 436h55l-246 -500h-55l-64 426l-214 -426h-55l-70 500h50l57 -436l217 436h52l-1 -2z" />
    <glyph glyph-name="Ycircumflex" unicode="&#x176;" 
d="M457 770l-64 95l-97 -95h-60l130 127h59l87 -127h-55zM573 700h63l-311 -373l-58 -327h-53l58 329l-180 371h55l156 -324z" />
    <glyph glyph-name="ycircumflex" unicode="&#x177;" horiz-adv-x="510" 
d="M378 570l-64 95l-97 -95h-60l130 127h59l87 -127h-55zM229 50l255 450h57l-312 -546c-59 -104 -140 -161 -225 -154l8 47c62 -6 118 33 167 117l17 28l-139 508h51z" />
    <glyph glyph-name="Ydieresis" unicode="&#x178;" 
d="M255 813c6 48 83 48 73 0c-4 -20 -23 -36 -43 -36s-34 16 -30 36zM435 813c6 48 83 48 73 0c-4 -20 -23 -36 -43 -36s-34 16 -30 36zM573 700h63l-311 -373l-58 -327h-53l58 329l-180 371h55l156 -324z" />
    <glyph glyph-name="Zacute" unicode="&#x179;" horiz-adv-x="523" 
d="M417 897h62l-112 -127h-50zM132 700h427l-8 -50l-482 -600h386l-9 -50h-447l9 50l482 600h-366z" />
    <glyph glyph-name="zacute" unicode="&#x17a;" horiz-adv-x="463" 
d="M353 697h62l-112 -127h-50zM101 500h360l-6 -33l-371 -418h307l-8 -49h-380l6 33l370 418h-287z" />
    <glyph glyph-name="Zdotaccent" unicode="&#x17b;" horiz-adv-x="523" 
d="M320 820c4 27 29 47 54 47c43 0 54 -51 19 -81c-30 -29 -85 -6 -73 34zM132 700h427l-8 -50l-482 -600h386l-9 -50h-447l9 50l482 600h-366z" />
    <glyph glyph-name="zdotaccent" unicode="&#x17c;" horiz-adv-x="463" 
d="M256 620c4 27 29 47 54 47c43 0 54 -51 19 -81c-30 -29 -85 -6 -73 34zM101 500h360l-6 -33l-371 -418h307l-8 -49h-380l6 33l370 418h-287z" />
    <glyph glyph-name="Zcaron" unicode="&#x17d;" horiz-adv-x="523" 
d="M388 770h-59l-86 127h54l64 -94l96 94h61zM132 700h427l-8 -50l-482 -600h386l-9 -50h-447l9 50l482 600h-366z" />
    <glyph glyph-name="zcaron" unicode="&#x17e;" horiz-adv-x="463" 
d="M324 570h-59l-86 127h54l64 -94l96 94h61zM101 500h360l-6 -33l-371 -418h307l-8 -49h-380l6 33l370 418h-287z" />
    <glyph glyph-name="florin" unicode="&#x192;" horiz-adv-x="436" 
d="M235 375l70 202c39 113 120 157 211 126l-8 -50c-65 29 -124 -4 -151 -77l-69 -201h120l-9 -49h-128l-139 -403c-39 -112 -122 -157 -211 -126l8 50c65 -29 124 4 151 77l139 402h-114l9 49h121z" />
    <glyph glyph-name="Scommaaccent" unicode="&#x218;" horiz-adv-x="573" 
d="M260 -11c-127 0 -214 61 -237 165l47 24c16 -85 83 -138 192 -138c108 0 182 49 198 128c9 47 -2 81 -41 106c-19 13 -37 23 -52 30s-37 16 -66 27c-45 16 -70 25 -110 49c-55 34 -83 82 -72 162c11 54 38 96 82 125c45 29 95 44 150 44c113 0 184 -59 211 -146l-47 -24
c-25 79 -80 119 -167 119c-85 0 -159 -47 -175 -123c-9 -47 3 -80 40 -107c19 -13 37 -23 52 -30s37 -15 66 -26c24 -9 43 -16 57 -22c15 -6 32 -15 53 -28s36 -26 46 -39c21 -27 35 -72 26 -123c-23 -112 -122 -173 -253 -173zM218 -240h-36l40 170h51z" />
    <glyph glyph-name="scommaaccent" unicode="&#x219;" horiz-adv-x="472" 
d="M204 -11c-95 0 -154 38 -178 114l45 23c15 -55 64 -89 137 -89s129 33 140 89c9 49 -34 80 -91 97c-81 23 -189 51 -168 158c7 38 27 69 60 93c34 25 75 37 122 37c79 0 139 -37 164 -100l-44 -23c-16 49 -66 75 -122 75c-61 0 -118 -30 -129 -89c-9 -48 34 -78 90 -95
c82 -23 187 -51 168 -161c-13 -80 -89 -129 -194 -129zM166 -240h-36l40 170h51z" />
    <glyph glyph-name="uni021A" unicode="&#x21a;" horiz-adv-x="540" 
d="M102 700h494l-9 -50h-220l-114 -650h-54l114 650h-219zM186 -240h-36l40 170h51z" />
    <glyph glyph-name="uni021B" unicode="&#x21b;" horiz-adv-x="377" 
d="M369 451h-149l-58 -325c-7 -41 0 -66 20 -75c21 -9 59 -11 115 -6l-7 -45c-135 -21 -198 17 -178 126l57 325h-110l9 49h110l22 125l53 15l-25 -140h150zM153 -240h-36l40 170h51z" />
    <glyph glyph-name="circumflex" unicode="&#x2c6;" horiz-adv-x="315" 
d="M265 697l87 -127h-55l-64 95l-97 -95h-60l130 127h59z" />
    <glyph glyph-name="caron" unicode="&#x2c7;" horiz-adv-x="315" 
d="M217 603l96 94h61l-130 -127h-59l-86 127h54z" />
    <glyph glyph-name="breve" unicode="&#x2d8;" horiz-adv-x="307" 
d="M210 565c-79 0 -126 47 -113 122h48c-9 -52 15 -78 71 -78c53 0 90 29 99 78h48c-13 -76 -69 -122 -153 -122z" />
    <glyph glyph-name="dotaccent" unicode="&#x2d9;" horiz-adv-x="107" 
d="M82 620c4 27 29 47 54 47c43 0 54 -51 19 -81c-30 -29 -85 -6 -73 34z" />
    <glyph glyph-name="ring" unicode="&#x2da;" horiz-adv-x="245" 
d="M178 553c-61 0 -96 43 -87 99s58 95 117 95c61 0 96 -43 88 -99c-9 -56 -58 -95 -118 -95zM254 650c5 35 -15 57 -51 57c-35 0 -64 -22 -69 -57c-7 -33 13 -57 49 -57s64 24 71 57z" />
    <glyph glyph-name="ogonek" unicode="&#x2db;" horiz-adv-x="174" 
d="M20 -211c-51 0 -75 36 -67 80c7 42 41 86 102 131h55c-65 -49 -100 -91 -106 -127c-4 -24 9 -41 34 -41c15 0 29 3 44 9l-8 -43c-13 -6 -31 -9 -54 -9z" />
    <glyph glyph-name="tilde" unicode="&#x2dc;" horiz-adv-x="312" 
d="M123 583h-44c19 114 91 134 151 74c51 -51 82 -42 95 28h44c-9 -55 -30 -89 -61 -102s-61 -3 -90 28c-51 51 -82 42 -95 -28z" />
    <glyph glyph-name="hungarumlaut" unicode="&#x2dd;" horiz-adv-x="317" 
d="M76 570l90 130h58l-96 -130h-52zM218 570l100 130h58l-105 -130h-53z" />
    <glyph glyph-name="gravecomb" unicode="&#x300;" horiz-adv-x="0" 
d="M37 570h-48l-70 127h60z" />
    <glyph glyph-name="acutecomb" unicode="&#x301;" horiz-adv-x="0" 
d="M-103 570l100 127h62l-112 -127h-50z" />
    <glyph glyph-name="uni0302" unicode="&#x302;" horiz-adv-x="0" 
d="M-50 697l87 -127h-55l-64 95l-97 -95h-60l130 127h59z" />
    <glyph glyph-name="tildecomb" unicode="&#x303;" horiz-adv-x="0" 
d="M-189 583h-44c19 114 91 134 151 74c51 -51 82 -42 95 28h44c-9 -55 -29 -89 -60 -102s-62 -3 -91 28c-51 51 -82 42 -95 -28z" />
    <glyph glyph-name="uni0304" unicode="&#x304;" horiz-adv-x="0" 
d="M40 587h-254l8 44h253z" />
    <glyph glyph-name="uni0306" unicode="&#x306;" horiz-adv-x="0" 
d="M-103 565c-79 0 -126 47 -113 122h48c-9 -52 15 -78 71 -78c53 0 90 29 99 78h48c-13 -76 -69 -122 -153 -122z" />
    <glyph glyph-name="uni0307" unicode="&#x307;" horiz-adv-x="0" 
d="M-48 620c4 27 29 47 54 47c43 0 54 -51 19 -81c-30 -29 -85 -6 -73 34z" />
    <glyph glyph-name="uni0308" unicode="&#x308;" horiz-adv-x="0" 
d="M-208 613c6 48 83 48 73 0c-4 -20 -23 -36 -43 -36s-34 16 -30 36zM-28 613c6 48 83 48 73 0c-4 -20 -23 -36 -43 -36s-34 16 -30 36z" />
    <glyph glyph-name="uni030A" unicode="&#x30a;" horiz-adv-x="0" 
d="M-67 553c-61 0 -96 43 -87 99s58 95 117 95c61 0 96 -43 88 -99c-9 -56 -58 -95 -118 -95zM9 650c5 35 -15 57 -51 57c-35 0 -64 -22 -69 -57c-7 -33 13 -57 49 -57s64 24 71 57z" />
    <glyph glyph-name="uni030B" unicode="&#x30b;" horiz-adv-x="0" 
d="M-238 570l90 130h58l-96 -130h-52zM-96 570l100 130h58l-105 -130h-53z" />
    <glyph glyph-name="uni030C" unicode="&#x30c;" horiz-adv-x="0" 
d="M-98 603l96 94h61l-130 -127h-59l-86 127h54z" />
    <glyph glyph-name="uni0312" unicode="&#x312;" horiz-adv-x="0" 
d="M69 960h36l-40 -170h-51z" />
    <glyph glyph-name="uni0326" unicode="&#x326;" horiz-adv-x="0" 
d="M-131 -240h-36l40 170h51z" />
    <glyph glyph-name="uni0327" unicode="&#x327;" horiz-adv-x="0" 
d="M-155 0l-10 -56c51 -7 85 -38 78 -79c-11 -61 -81 -87 -209 -76l8 41c95 -9 149 6 156 39c5 29 -27 44 -84 43l16 88h45z" />
    <glyph glyph-name="uni0328" unicode="&#x328;" horiz-adv-x="0" 
d="M-154 -211c-51 0 -75 36 -67 80c7 42 41 86 102 131h55c-65 -49 -100 -91 -106 -127c-4 -24 9 -41 34 -41c15 0 29 3 44 9l-8 -43c-13 -6 -31 -9 -54 -9z" />
    <glyph glyph-name="uni0394" unicode="&#x394;" horiz-adv-x="626" 
d="M364 700h56l149 -700h-600zM383 635l-326 -585h448z" />
    <glyph glyph-name="uni03A9" unicode="&#x3a9;" horiz-adv-x="818" 
d="M788 343c-23 -128 -108 -236 -224 -293h160l-9 -50h-272l9 50c70 17 131 54 184 109s86 119 99 191c15 87 -2 160 -51 220s-116 90 -203 90s-165 -30 -235 -91c-70 -60 -112 -133 -127 -219c-13 -72 -3 -136 30 -191s81 -92 146 -109l-9 -50h-271l9 50h163
c-96 60 -145 176 -122 307c17 100 66 184 147 252s174 102 278 102c99 0 177 -36 236 -109s79 -159 62 -259z" />
    <glyph glyph-name="pi" unicode="&#x3c0;" horiz-adv-x="650" 
d="M77 500h584l-9 -49h-83l-79 -451h-51l79 451h-312l-79 -451h-51l79 451h-86z" />
    <glyph glyph-name="uni0401" unicode="&#x401;" horiz-adv-x="533" 
d="M256 813c6 48 83 48 73 0c-4 -20 -23 -36 -43 -36s-34 16 -30 36zM436 813c6 48 83 48 73 0c-4 -20 -23 -36 -43 -36s-34 16 -30 36zM564 700l-8 -50h-346l-48 -272h321l-9 -50h-320l-49 -278h350l-9 -50h-403l123 700h398z" />
    <glyph glyph-name="uni0402" unicode="&#x402;" horiz-adv-x="692" 
d="M477 471c115 0 181 -64 162 -184l-25 -139c-20 -113 -84 -164 -193 -155l8 49c77 -9 117 25 132 106l24 139c16 91 -21 136 -112 136c-55 0 -113 -15 -174 -45l-66 -378h-54l114 650h-199l8 50h487l-8 -50h-234l-38 -219c59 27 115 40 168 40z" />
    <glyph glyph-name="uni0403" unicode="&#x403;" horiz-adv-x="493" 
d="M426 896h62l-112 -127h-50zM166 700h383l-8 -50h-331l-114 -650h-53l114 650z" />
    <glyph glyph-name="uni0404" unicode="&#x404;" horiz-adv-x="751" 
d="M477 660c-85 0 -160 -27 -226 -82c-65 -54 -108 -122 -129 -203h397l-9 -50h-396c-8 -81 12 -149 59 -204c47 -54 113 -81 197 -81c113 0 218 56 282 149l45 -28c-75 -105 -199 -172 -332 -172c-105 0 -185 36 -242 108s-76 159 -58 260s66 186 145 253s168 101 268 101
c133 0 235 -65 283 -169l-47 -25c-45 95 -124 143 -237 143z" />
    <glyph glyph-name="uni0405" unicode="&#x405;" horiz-adv-x="573" 
d="M260 -11c-127 0 -214 61 -237 165l47 24c16 -85 83 -138 192 -138c108 0 182 49 198 128c9 47 -2 81 -41 106c-19 13 -37 23 -52 30s-37 16 -66 27c-45 16 -70 25 -110 49c-55 34 -83 82 -72 162c11 54 38 96 82 125c45 29 95 44 150 44c113 0 184 -59 211 -146l-47 -24
c-25 79 -80 119 -167 119c-85 0 -159 -47 -175 -123c-9 -47 3 -80 40 -107c19 -13 37 -23 52 -30s37 -15 66 -26c24 -9 43 -16 57 -22c15 -6 32 -15 53 -28s36 -26 46 -39c21 -27 35 -72 26 -123c-23 -112 -122 -173 -253 -173z" />
    <glyph glyph-name="uni0406" unicode="&#x406;" horiz-adv-x="227" 
d="M43 0l123 700h53l-123 -700h-53z" />
    <glyph glyph-name="uni0407" unicode="&#x407;" horiz-adv-x="227" 
d="M85 813c6 48 83 48 73 0c-4 -20 -23 -36 -43 -36s-34 16 -30 36zM265 813c6 48 83 48 73 0c-4 -20 -23 -36 -43 -36s-34 16 -30 36zM43 0l123 700h53l-123 -700h-53z" />
    <glyph glyph-name="uni0408" unicode="&#x408;" horiz-adv-x="553" 
d="M214 -11c-100 0 -171 41 -195 120l47 26c18 -63 68 -95 151 -95c101 0 179 55 196 152l89 508h53l-89 -509c-12 -67 -41 -117 -88 -151s-101 -51 -164 -51z" />
    <glyph glyph-name="uni0409" unicode="&#x409;" horiz-adv-x="996" 
d="M603 393h168c57 0 102 -20 135 -59c34 -39 46 -87 36 -143s-38 -102 -84 -138c-45 -35 -98 -53 -157 -53h-220l115 650h-303l-63 -354c-20 -115 -51 -194 -92 -239s-96 -64 -164 -58l9 47c48 -5 88 11 120 48c33 38 58 106 75 203l70 403h409zM762 343h-168l-51 -293h167
c43 0 81 14 116 41c35 28 56 63 63 106s-1 78 -26 105s-58 41 -101 41z" />
    <glyph glyph-name="uni040A" unicode="&#x40a;" horiz-adv-x="985" 
d="M592 393h167c57 0 102 -20 136 -59s46 -87 36 -143s-38 -102 -84 -138c-46 -35 -99 -53 -158 -53h-220l60 343h-373l-60 -343h-53l123 700h53l-54 -307h373l54 307h54zM750 343h-167l-51 -293h166c43 0 82 14 116 41c35 28 56 63 63 106s-1 78 -26 105s-58 41 -101 41z
" />
    <glyph glyph-name="uni040B" unicode="&#x40b;" horiz-adv-x="699" 
d="M477 471c115 0 181 -64 162 -184l-51 -287h-53l50 287c16 91 -21 136 -112 136c-55 0 -113 -15 -174 -45l-66 -378h-54l114 650h-199l8 50h487l-8 -50h-234l-38 -219c59 27 115 40 168 40z" />
    <glyph glyph-name="uni040C" unicode="&#x40c;" horiz-adv-x="571" 
d="M436 896h62l-112 -127h-50zM560 700h72l-415 -345l300 -355h-64l-296 349l-61 -349h-53l123 700h53l-57 -326z" />
    <glyph glyph-name="uni040E" unicode="&#x40e;" horiz-adv-x="566" 
d="M265 830h253l-7 -44h-254zM308 246l269 454h55l-322 -546c-68 -117 -141 -161 -240 -154l8 47c73 -5 127 28 178 112l18 30l-162 511h52z" />
    <glyph glyph-name="uni040F" unicode="&#x40f;" horiz-adv-x="673" 
d="M498 50l114 650h54l-123 -700h-224l-24 -134h-53l23 134h-222l123 700h53l-114 -650h393z" />
    <glyph glyph-name="uni0410" unicode="&#x410;" horiz-adv-x="629" 
d="M570 0h-54l-36 178h-351l-100 -178h-58l395 700h56zM386 635l-229 -407h312z" />
    <glyph glyph-name="uni0411" unicode="&#x411;" horiz-adv-x="586" 
d="M569 700l-8 -50h-351l-41 -237h200c55 0 99 -22 134 -65s47 -92 36 -149c-10 -57 -38 -104 -85 -142c-46 -38 -99 -57 -158 -57h-253l123 700h403zM360 363h-200l-55 -313h200c43 0 82 15 117 46c36 31 58 68 65 111c9 45 0 82 -25 111c-25 30 -59 45 -102 45z" />
    <glyph glyph-name="uni0412" unicode="&#x412;" horiz-adv-x="623" 
d="M596 512c-11 -65 -55 -122 -116 -151c65 -28 101 -95 89 -174c-8 -52 -33 -96 -75 -133c-42 -36 -92 -54 -151 -54h-300l123 700h265c53 0 96 -19 128 -56c33 -37 45 -81 37 -132zM163 382h226c36 0 69 13 99 39c30 27 48 58 55 95s-1 69 -23 95s-52 39 -91 39h-219z
M403 332h-249l-49 -282h243c41 0 78 14 110 41s51 61 58 100s-1 73 -23 100s-52 41 -90 41z" />
    <glyph glyph-name="uni0413" unicode="&#x413;" horiz-adv-x="493" 
d="M166 700h383l-8 -50h-331l-114 -650h-53l114 650z" />
    <glyph glyph-name="uni0414" unicode="&#x414;" horiz-adv-x="690" 
d="M657 700l-114 -650h74l-33 -184h-53l23 134h-526l-24 -134h-53l32 184h56c57 55 96 139 116 251l70 399h432zM270 650l-62 -350c-20 -109 -54 -193 -103 -250h385l106 600h-326z" />
    <glyph glyph-name="uni0415" unicode="&#x415;" horiz-adv-x="533" 
d="M564 700l-8 -50h-346l-48 -272h321l-9 -50h-320l-49 -278h350l-9 -50h-403l123 700h398z" />
    <glyph glyph-name="uni0416" unicode="&#x416;" horiz-adv-x="836" 
d="M819 700h68l-371 -346l256 -354h-57l-253 348l-61 -348h-53l61 347l-364 -347h-69l383 366l-249 334h57l246 -327l58 327h53l-58 -328z" />
    <glyph glyph-name="uni0417" unicode="&#x417;" horiz-adv-x="558" 
d="M539 517c-13 -75 -56 -127 -131 -157c75 -29 111 -96 98 -177c-21 -117 -116 -194 -265 -194c-127 0 -196 61 -220 154l49 24c20 -80 69 -128 180 -128s187 62 203 150c15 85 -38 143 -139 143h-79l8 50h56c49 0 91 14 125 41c35 27 55 61 62 102c15 80 -41 136 -138 136
c-85 0 -150 -39 -197 -118l-43 28c55 93 138 140 249 140c63 0 111 -19 145 -56s46 -83 37 -138z" />
    <glyph glyph-name="uni0418" unicode="&#x418;" horiz-adv-x="687" 
d="M89 0h-46l123 700h53l-105 -597l518 597h47l-123 -700h-53l105 597z" />
    <glyph glyph-name="uni0419" unicode="&#x419;" horiz-adv-x="687" 
d="M561 787h-254l8 44h253zM89 0h-46l123 700h53l-105 -597l518 597h47l-123 -700h-53l105 597z" />
    <glyph glyph-name="uni041A" unicode="&#x41a;" horiz-adv-x="571" 
d="M560 700h72l-415 -345l300 -355h-64l-296 349l-61 -349h-53l123 700h53l-57 -326z" />
    <glyph glyph-name="uni041B" unicode="&#x41b;" horiz-adv-x="698" 
d="M-26 -1l9 47c48 -5 88 11 120 48c33 38 58 106 75 203l70 403h443l-123 -700h-54l115 650h-336l-63 -354c-20 -115 -51 -195 -93 -240c-41 -44 -96 -63 -163 -57z" />
    <glyph glyph-name="uni041C" unicode="&#x41c;" horiz-adv-x="807" 
d="M731 700h68l-123 -700h-53l108 617l-331 -425h-9l-185 434l-110 -626h-53l123 700h63l178 -417z" />
    <glyph glyph-name="uni041D" unicode="&#x41d;" horiz-adv-x="687" 
d="M571 385l55 315h53l-123 -700h-53l59 335h-407l-59 -335h-53l123 700h53l-55 -315h407z" />
    <glyph glyph-name="uni041E" unicode="&#x41e;" horiz-adv-x="819" 
d="M365 -11c-100 0 -179 36 -238 109s-79 159 -62 260c17 100 66 184 147 251c81 68 172 102 275 102c100 0 179 -37 238 -111c59 -73 80 -160 63 -261c-18 -100 -67 -183 -148 -250c-80 -67 -172 -100 -275 -100zM374 40c88 0 166 29 234 88c69 59 111 132 126 219
s-2 160 -51 221s-117 92 -205 92s-166 -30 -235 -90c-68 -60 -109 -133 -124 -220s1 -160 50 -220s118 -90 205 -90z" />
    <glyph glyph-name="uni041F" unicode="&#x41f;" horiz-adv-x="673" 
d="M166 700h500l-123 -700h-54l114 650h-393l-114 -650h-53z" />
    <glyph glyph-name="uni0420" unicode="&#x420;" horiz-adv-x="586" 
d="M166 700h233c65 0 115 -21 149 -62c35 -41 47 -93 36 -155s-40 -114 -89 -155c-48 -41 -108 -61 -181 -61h-171l-47 -267h-53zM532 490c16 95 -40 160 -137 160h-185l-58 -333h168c56 0 103 16 142 49s62 74 70 124z" />
    <glyph glyph-name="uni0421" unicode="&#x421;" horiz-adv-x="751" 
d="M365 -11c-105 0 -185 36 -242 108s-76 159 -58 260s66 186 145 253s168 101 268 101c133 0 235 -65 283 -169l-47 -25c-45 95 -124 143 -237 143c-89 0 -168 -30 -236 -90c-67 -59 -109 -133 -124 -220s2 -161 49 -221c47 -59 115 -89 204 -89c113 0 218 56 282 149
l45 -28c-75 -105 -199 -172 -332 -172z" />
    <glyph glyph-name="uni0422" unicode="&#x422;" horiz-adv-x="540" 
d="M102 700h494l-9 -50h-220l-114 -650h-54l114 650h-219z" />
    <glyph glyph-name="uni0423" unicode="&#x423;" horiz-adv-x="566" 
d="M308 246l269 454h55l-322 -546c-68 -117 -141 -161 -240 -154l8 47c73 -5 127 28 178 112l18 30l-162 511h52z" />
    <glyph glyph-name="uni0424" unicode="&#x424;" horiz-adv-x="806" 
d="M508 700l-14 -79c99 -5 177 -31 233 -80s77 -114 62 -196c-15 -83 -58 -147 -129 -193c-70 -46 -157 -71 -261 -74l-14 -78h-53l14 79c-99 5 -177 31 -233 79c-55 49 -76 114 -61 197s57 147 127 193c71 46 158 71 262 74l14 78h53zM736 350c24 137 -74 216 -250 223
l-79 -445c89 3 163 24 222 62s94 91 107 160zM354 128l79 444c-180 -7 -304 -85 -328 -222s73 -215 249 -222z" />
    <glyph glyph-name="uni0425" unicode="&#x425;" horiz-adv-x="573" 
d="M553 700h63l-281 -343l171 -357h-55l-151 315l-258 -315h-63l298 363l-162 337h55l141 -295z" />
    <glyph glyph-name="uni0426" unicode="&#x426;" horiz-adv-x="690" 
d="M659 700l-114 -650h73l-32 -184h-53l23 134h-513l123 700h53l-114 -650h387l114 650h53z" />
    <glyph glyph-name="uni0427" unicode="&#x427;" horiz-adv-x="627" 
d="M504 346l62 354h53l-123 -700h-53l51 293c-62 -24 -123 -36 -184 -36c-155 0 -225 81 -204 196l43 247h53l-43 -247c-16 -91 33 -146 157 -146c61 0 124 13 188 39z" />
    <glyph glyph-name="uni0428" unicode="&#x428;" horiz-adv-x="957" 
d="M782 50l114 650h53l-123 -700h-783l123 700h53l-114 -650h312l114 650h53l-114 -650h312z" />
    <glyph glyph-name="uni0429" unicode="&#x429;" horiz-adv-x="980" 
d="M949 700l-114 -650h73l-33 -184h-53l24 134h-803l123 700h53l-114 -650h312l114 650h53l-114 -650h312l114 650h53z" />
    <glyph glyph-name="uni042A" unicode="&#x42a;" horiz-adv-x="694" 
d="M388 0h-239l114 650h-192l8 50h247l-47 -267h181c61 0 110 -22 146 -66c36 -43 49 -96 38 -158s-41 -112 -88 -151s-103 -58 -168 -58zM270 383l-58 -333h184c47 0 89 16 126 47s59 71 68 120c17 97 -39 166 -138 166h-182z" />
    <glyph glyph-name="uni042B" unicode="&#x42b;" horiz-adv-x="763" 
d="M281 0h-238l123 700h53l-47 -267h182c61 0 110 -22 145 -66c36 -43 49 -96 38 -158s-41 -112 -88 -151s-103 -58 -168 -58zM633 0h-54l123 700h54zM164 383l-59 -333h184c48 0 90 16 127 47s59 71 68 120s0 89 -26 120s-64 47 -113 46h-181z" />
    <glyph glyph-name="uni042C" unicode="&#x42c;" horiz-adv-x="587" 
d="M172 433h182c61 0 110 -22 145 -66c36 -43 49 -96 38 -158s-41 -112 -88 -151s-103 -58 -168 -58h-238l123 700h53zM345 383h-182l-58 -333h184c48 0 90 16 127 47s59 71 68 120s0 89 -26 120s-64 47 -113 46z" />
    <glyph glyph-name="uni042D" unicode="&#x42d;" horiz-adv-x="747" 
d="M422 711c103 0 182 -36 237 -108c55 -71 75 -158 58 -259c-17 -100 -64 -184 -141 -253c-77 -68 -169 -102 -275 -102c-133 0 -235 66 -276 171l48 26c33 -89 119 -146 232 -146c85 0 160 27 225 81s108 122 128 204h-395l9 50h395c9 83 -10 151 -56 204
c-46 54 -111 81 -195 81c-116 0 -220 -59 -283 -151l-44 28c37 53 85 95 144 126c59 32 122 48 189 48z" />
    <glyph glyph-name="uni042E" unicode="&#x42e;" horiz-adv-x="1048" 
d="M716 711c198 4 339 -176 301 -372c-18 -100 -67 -183 -148 -250c-80 -67 -172 -100 -275 -100c-96 0 -173 34 -230 101s-80 149 -69 245h-140l-59 -335h-53l123 700h53l-55 -315h140c23 94 72 172 149 233c77 62 165 93 263 93zM964 347c15 87 -3 160 -52 221
s-118 92 -205 92s-165 -30 -234 -90c-68 -60 -110 -133 -125 -220c-15 -86 1 -159 50 -220c49 -60 118 -90 205 -90c88 0 166 29 235 88s111 132 126 219z" />
    <glyph glyph-name="uni042F" unicode="&#x42f;" horiz-adv-x="627" 
d="M345 700h274l-123 -700h-53l50 287h-189l-246 -287h-65l249 290c-49 9 -87 33 -115 73c-27 41 -37 87 -28 138c11 57 39 105 85 142c46 38 100 57 161 57zM285 337h217l55 313h-220c-44 0 -84 -15 -120 -45c-35 -29 -57 -66 -64 -109s2 -81 27 -112s60 -47 105 -47z" />
    <glyph glyph-name="uni0430" unicode="&#x430;" horiz-adv-x="646" 
d="M541 374l22 126h50l-88 -500h-50l18 102c-56 -75 -133 -113 -231 -113c-71 0 -128 27 -171 81s-59 118 -46 191c14 78 48 139 103 183c55 45 117 67 186 67c95 0 175 -52 207 -137zM517 243c11 65 -1 117 -38 158c-36 41 -83 62 -142 62c-57 0 -109 -19 -155 -56
s-75 -87 -86 -150c-11 -60 1 -112 36 -155s82 -65 142 -65s113 19 159 58s74 88 84 148z" />
    <glyph glyph-name="uni0431" unicode="&#x431;" horiz-adv-x="572" 
d="M251 -12c-69 0 -125 24 -167 72c-41 48 -55 110 -42 185c10 57 22 102 37 137c29 69 92 131 205 182l65 27l61 24c47 20 97 50 109 98l39 -23c-13 -37 -34 -64 -74 -88l-51 -27c-14 -7 -36 -16 -66 -27l-63 -25c-52 -22 -92 -46 -119 -71s-48 -58 -63 -99
c58 68 131 102 219 102c63 0 113 -23 152 -69c39 -45 52 -102 40 -169s-44 -122 -96 -165s-114 -64 -186 -64zM257 38c57 0 106 17 148 52s68 79 77 132s-1 97 -30 132s-71 52 -125 52c-51 0 -100 -16 -146 -47s-75 -72 -88 -123c-10 -57 0 -105 31 -142s76 -56 133 -56z
" />
    <glyph glyph-name="uni0432" unicode="&#x432;" horiz-adv-x="506" 
d="M469 364c-9 -52 -37 -88 -83 -108c52 -20 77 -66 66 -123c-13 -80 -74 -133 -177 -133h-242l88 500h223c88 0 138 -60 125 -136zM418 366c11 53 -20 85 -83 85h-173l-30 -173h169c64 0 108 32 117 88zM403 140c11 56 -23 89 -88 89h-192l-31 -180h191c65 0 111 34 120 91
z" />
    <glyph glyph-name="uni0433" unicode="&#x433;" horiz-adv-x="397" 
d="M121 500h313l-8 -49h-264l-79 -451h-50l79 451z" />
    <glyph glyph-name="uni0434" unicode="&#x434;" horiz-adv-x="590" 
d="M531 500l-79 -451h69l-32 -183h-51l24 134h-432l-24 -134h-51l33 183h58c45 49 75 116 90 201l44 250h351zM111 49h290l70 402h-249l-35 -201c-15 -83 -40 -150 -76 -201z" />
    <glyph glyph-name="uni0435" unicode="&#x435;" horiz-adv-x="588" 
d="M342 511c75 0 131 -26 169 -78c39 -52 51 -114 37 -185c-2 -11 -4 -19 -6 -24h-451c-8 -113 62 -187 177 -187c83 0 146 31 190 92l39 -26c-48 -72 -140 -114 -236 -114c-76 0 -134 25 -175 76s-54 115 -41 192c13 74 48 135 103 182c55 48 120 72 194 72zM99 273h401
c12 120 -54 190 -162 190c-57 0 -108 -17 -151 -52s-73 -81 -88 -138z" />
    <glyph glyph-name="uni0436" unicode="&#x436;" horiz-adv-x="661" 
d="M611 500h62l-268 -245l189 -255h-56l-182 247l-44 -247h-51l43 246l-263 -246h-62l283 265l-185 235h58l174 -225l40 225h51l-40 -229z" />
    <glyph glyph-name="uni0437" unicode="&#x437;" horiz-adv-x="446" 
d="M408 365c-10 -54 -40 -91 -89 -110c53 -21 82 -72 71 -128c-13 -80 -89 -138 -206 -138c-107 0 -163 47 -176 118l44 24c10 -63 56 -94 138 -94c84 0 141 40 150 100c11 55 -26 92 -94 92h-68l9 49h49c65 0 112 36 121 92c11 55 -31 93 -104 93c-68 0 -117 -27 -147 -82
l-40 25c43 70 107 105 192 105c53 0 92 -15 119 -44s38 -63 31 -102z" />
    <glyph glyph-name="uni0438" unicode="&#x438;" horiz-adv-x="567" 
d="M99 91l391 409h44l-88 -500h-51l72 409l-390 -409h-44l88 500h50z" />
    <glyph glyph-name="uni0439" unicode="&#x439;" horiz-adv-x="567" 
d="M469 587h-254l8 44h253zM99 91l391 409h44l-88 -500h-51l72 409l-390 -409h-44l88 500h50z" />
    <glyph glyph-name="uni043A" unicode="&#x43a;" horiz-adv-x="483" 
d="M424 500h71l-313 -241l234 -259h-62l-227 251l-44 -251h-50l88 500h50l-39 -224z" />
    <glyph glyph-name="uni043B" unicode="&#x43b;" horiz-adv-x="560" 
d="M175 500h352l-88 -500h-50l79 451h-251l-42 -241c-15 -85 -39 -142 -74 -172c-34 -29 -78 -42 -132 -38l9 47c77 -7 123 39 146 163z" />
    <glyph glyph-name="uni043C" unicode="&#x43c;" horiz-adv-x="637" 
d="M541 500h63l-88 -500h-51l74 423l-238 -294h-8l-135 298l-75 -427h-50l88 500h56l131 -287z" />
    <glyph glyph-name="uni043D" unicode="&#x43d;" horiz-adv-x="567" 
d="M443 274l40 226h51l-88 -500h-51l40 226h-312l-40 -226h-50l88 500h50l-40 -226h312z" />
    <glyph glyph-name="uni043E" unicode="&#x43e;" horiz-adv-x="612" 
d="M264 -11c-71 0 -128 25 -173 74s-60 113 -47 192c14 78 51 140 111 186c60 47 126 70 198 70c70 0 127 -25 170 -75c43 -49 58 -113 45 -190c-14 -79 -50 -142 -109 -188s-124 -69 -195 -69zM269 37c58 0 111 19 159 58c49 39 79 92 90 157c11 63 -1 114 -36 153
s-81 58 -138 58c-58 -1 -111 -20 -160 -59c-48 -39 -78 -90 -89 -154s0 -116 35 -155s82 -58 139 -58z" />
    <glyph glyph-name="uni043F" unicode="&#x43f;" horiz-adv-x="567" 
d="M121 500h413l-88 -500h-51l79 451h-312l-79 -451h-50z" />
    <glyph glyph-name="uni0440" unicode="&#x440;" horiz-adv-x="646" 
d="M384 511c71 0 128 -27 171 -81s59 -118 46 -191c-14 -78 -49 -139 -104 -184c-55 -44 -116 -66 -185 -66c-95 0 -175 52 -207 137l-57 -326h-50l123 700h50l-18 -102c57 75 134 113 231 113zM550 243c11 60 -1 112 -36 155s-82 65 -142 65s-113 -19 -159 -58
c-45 -39 -73 -88 -84 -148c-11 -65 1 -118 37 -159c37 -41 84 -61 143 -61c57 0 109 18 155 55s75 88 86 151z" />
    <glyph glyph-name="uni0441" unicode="&#x441;" horiz-adv-x="562" 
d="M260 -11c-73 0 -131 26 -173 79c-41 53 -55 116 -42 190s48 135 105 182c58 47 124 71 199 71c96 0 174 -50 201 -127l-43 -23c-23 64 -80 102 -163 102c-61 0 -115 -20 -162 -60s-75 -90 -86 -150c-11 -61 0 -112 33 -154c33 -41 79 -62 140 -62c80 0 155 41 196 105
l40 -27c-51 -79 -141 -126 -245 -126z" />
    <glyph glyph-name="uni0442" unicode="&#x442;" horiz-adv-x="440" 
d="M57 500h414l-9 -49h-182l-79 -451h-50l79 451h-181z" />
    <glyph glyph-name="uni0443" unicode="&#x443;" horiz-adv-x="510" 
d="M229 50l255 450h57l-312 -546c-59 -104 -140 -161 -225 -154l8 47c62 -6 118 33 167 117l17 28l-139 508h51z" />
    <glyph glyph-name="uni0444" unicode="&#x444;" horiz-adv-x="672" 
d="M440 700l-33 -189c77 -5 137 -33 178 -84c41 -50 56 -111 43 -182s-48 -131 -105 -178s-126 -73 -208 -78l-33 -189h-50l33 189c-77 5 -137 33 -178 83c-41 51 -56 112 -43 183s48 131 105 178s127 73 208 78l33 189h50zM577 250c11 57 0 106 -33 145
c-33 40 -81 62 -146 67l-74 -424c66 5 122 27 168 66c47 39 75 88 85 146zM95 250c-10 -58 1 -107 33 -146c33 -39 81 -61 146 -66l74 424c-66 -5 -122 -27 -168 -66s-74 -88 -85 -146z" />
    <glyph glyph-name="uni0445" unicode="&#x445;" horiz-adv-x="507" 
d="M450 500h65l-230 -245l154 -255h-56l-133 218l-205 -218h-66l246 261l-146 239h57l123 -203z" />
    <glyph glyph-name="uni0446" unicode="&#x446;" horiz-adv-x="593" 
d="M524 500l-80 -451h80l-32 -183h-51l24 134h-432l88 500h50l-79 -451h302l79 451h51z" />
    <glyph glyph-name="uni0447" unicode="&#x447;" horiz-adv-x="537" 
d="M408 244l45 256h51l-88 -500h-51l34 193c-52 -20 -104 -30 -157 -30c-127 0 -189 70 -169 177l28 160h50l-28 -160c-15 -83 28 -129 121 -129c51 0 105 11 164 33z" />
    <glyph glyph-name="uni0448" unicode="&#x448;" horiz-adv-x="817" 
d="M654 49l79 451h51l-88 -500h-663l88 500h50l-79 -451h256l79 451h51l-79 -451h255z" />
    <glyph glyph-name="uni0449" unicode="&#x449;" horiz-adv-x="843" 
d="M784 500l-79 -451h69l-32 -183h-51l24 134h-682l88 500h50l-79 -451h256l79 451h51l-79 -451h255l79 451h51z" />
    <glyph glyph-name="uni044A" unicode="&#x44a;" horiz-adv-x="541" 
d="M204 306h148c44 0 80 -15 107 -46c28 -30 38 -67 30 -112s-30 -81 -66 -108s-78 -40 -126 -40h-198l79 451h-142l8 49h194zM439 153c11 63 -32 104 -97 104h-147l-36 -208h147c64 0 122 43 133 104z" />
    <glyph glyph-name="uni044B" unicode="&#x44b;" horiz-adv-x="644" 
d="M137 306h148c45 0 81 -15 108 -46c28 -30 38 -67 30 -112s-30 -81 -66 -108s-78 -40 -126 -40h-198l88 500h50zM473 0l88 500h50l-88 -500h-50zM372 153c11 63 -31 104 -96 104h-148l-36 -208h147c64 0 122 43 133 104z" />
    <glyph glyph-name="uni044C" unicode="&#x44c;" horiz-adv-x="474" 
d="M137 306h148c45 0 81 -15 108 -46c28 -30 38 -67 30 -112s-30 -81 -66 -108s-78 -40 -126 -40h-198l88 500h50zM372 153c11 63 -31 104 -96 104h-148l-36 -208h147c64 0 122 43 133 104z" />
    <glyph glyph-name="uni044D" unicode="&#x44d;" horiz-adv-x="562" 
d="M302 511c75 0 132 -26 173 -79c41 -52 55 -115 42 -190c-13 -74 -48 -135 -105 -182s-124 -71 -199 -71c-96 0 -174 50 -201 127l43 23c23 -68 78 -102 163 -102c57 0 109 18 154 53c45 36 75 81 90 136h-259l9 48h257c3 55 -11 100 -43 135c-31 36 -76 54 -133 54
c-80 0 -155 -41 -196 -105l-40 27c51 79 141 126 245 126z" />
    <glyph glyph-name="uni044E" unicode="&#x44e;" horiz-adv-x="803" 
d="M544 511c70 0 127 -25 170 -75c43 -49 58 -113 45 -190c-14 -79 -50 -142 -109 -188c-58 -46 -123 -69 -195 -69c-66 0 -121 22 -164 65c-43 44 -62 101 -56 172h-112l-40 -226h-50l88 500h50l-40 -226h112c17 73 55 130 112 173c58 43 121 64 189 64zM709 252
c11 63 -1 114 -36 153s-81 58 -138 58c-58 -1 -111 -20 -160 -59c-48 -39 -78 -90 -89 -154s1 -116 36 -155s81 -58 138 -58c58 0 111 20 159 59c49 39 79 91 90 156z" />
    <glyph glyph-name="uni044F" unicode="&#x44f;" horiz-adv-x="500" 
d="M269 500h198l-88 -500h-50l34 195h-111l-189 -195h-64l194 197c-39 6 -69 23 -92 52s-31 63 -24 103c8 45 30 80 67 107s78 41 125 41zM224 243h148l36 208h-147c-64 0 -122 -43 -133 -104c-11 -63 31 -104 96 -104z" />
    <glyph glyph-name="uni0451" unicode="&#x451;" horiz-adv-x="588" 
d="M238 613c6 48 83 48 73 0c-4 -20 -23 -36 -43 -36s-34 16 -30 36zM418 613c6 48 83 48 73 0c-4 -20 -23 -36 -43 -36s-34 16 -30 36zM342 511c75 0 131 -26 169 -78c39 -52 51 -114 37 -185c-2 -11 -4 -19 -6 -24h-451c-8 -113 62 -187 177 -187c83 0 146 31 190 92
l39 -26c-48 -72 -140 -114 -236 -114c-76 0 -134 25 -175 76s-54 115 -41 192c13 74 48 135 103 182c55 48 120 72 194 72zM99 273h401c12 120 -54 190 -162 190c-57 0 -108 -17 -151 -52s-73 -81 -88 -138z" />
    <glyph glyph-name="uni0452" unicode="&#x452;" horiz-adv-x="577" 
d="M361 511c119 0 184 -79 163 -200l-65 -368c-19 -112 -84 -163 -193 -154l8 48c76 -8 121 27 135 106l64 368c16 93 -26 152 -121 152c-97 0 -180 -62 -205 -181l-50 -282h-51l102 582h-72l7 42h73l13 76h51l-13 -76h156l-7 -42h-157l-29 -168c47 65 111 97 191 97z" />
    <glyph glyph-name="uni0453" unicode="&#x453;" horiz-adv-x="397" 
d="M324 697h62l-112 -127h-50zM121 500h313l-8 -49h-264l-79 -451h-50l79 451z" />
    <glyph glyph-name="uni0454" unicode="&#x454;" horiz-adv-x="562" 
d="M344 463c-57 0 -109 -18 -154 -54c-45 -35 -74 -80 -89 -135h258l-9 -48h-257c-3 -55 11 -100 43 -136c33 -35 77 -53 133 -53c80 0 155 41 196 105l40 -27c-51 -79 -141 -126 -245 -126c-73 0 -131 26 -173 79c-41 53 -55 116 -42 190s48 135 105 182
c58 47 124 71 199 71c96 0 174 -50 201 -127l-43 -23c-23 64 -80 102 -163 102z" />
    <glyph glyph-name="uni0455" unicode="&#x455;" horiz-adv-x="472" 
d="M204 -11c-95 0 -154 38 -178 114l45 23c15 -55 64 -89 137 -89s129 33 140 89c9 49 -34 80 -91 97c-81 23 -189 51 -168 158c7 38 27 69 60 93c34 25 75 37 122 37c79 0 139 -37 164 -100l-44 -23c-16 49 -66 75 -122 75c-61 0 -118 -30 -129 -89c-9 -48 34 -78 90 -95
c82 -23 187 -51 168 -161c-13 -80 -89 -129 -194 -129z" />
    <glyph glyph-name="uni0456" unicode="&#x456;" horiz-adv-x="204" 
d="M167 621c-23 0 -36 17 -32 40c3 21 22 39 46 39c21 0 37 -18 33 -39c-4 -23 -23 -40 -47 -40zM83 0h-50l88 500h50z" />
    <glyph glyph-name="uni0457" unicode="&#x457;" horiz-adv-x="204" 
d="M39 613c6 48 83 48 73 0c-4 -20 -23 -36 -43 -36s-34 16 -30 36zM219 613c6 48 83 48 73 0c-4 -20 -23 -36 -43 -36s-34 16 -30 36zM83 0h-50l88 500h50z" />
    <glyph glyph-name="uni0458" unicode="&#x458;" horiz-adv-x="223" 
d="M200 700c21 0 37 -18 33 -39c-4 -23 -23 -40 -47 -40c-23 0 -36 17 -32 40c3 21 22 39 46 39zM42 -57l98 557h50l-98 -557c-19 -114 -84 -165 -193 -154l8 48c76 -8 121 27 135 106z" />
    <glyph glyph-name="uni0459" unicode="&#x459;" horiz-adv-x="804" 
d="M479 286h141c43 0 77 -14 103 -41c27 -27 36 -63 28 -107c-16 -89 -89 -138 -181 -138h-191l79 451h-241l-42 -241c-15 -83 -39 -140 -74 -171c-35 -30 -79 -43 -132 -39l9 47c79 -8 123 38 146 163l51 290h342zM700 143c11 61 -27 94 -88 94h-141l-33 -188h140
c61 0 111 34 122 94z" />
    <glyph glyph-name="uni045A" unicode="&#x45a;" horiz-adv-x="801" 
d="M476 286h141c43 0 77 -14 103 -41c27 -27 36 -63 28 -107c-16 -88 -90 -138 -181 -138h-192l42 237h-292l-42 -237h-50l88 500h50l-38 -214h292l38 214h51zM697 143c11 61 -27 94 -88 94h-141l-33 -188h140c61 0 111 34 122 94z" />
    <glyph glyph-name="uni045B" unicode="&#x45b;" horiz-adv-x="577" 
d="M361 511c119 0 184 -79 163 -200l-55 -311h-50l54 311c16 93 -26 152 -121 152c-97 0 -180 -62 -205 -181l-50 -282h-51l102 582h-72l7 42h73l13 76h51l-13 -76h156l-7 -42h-157l-29 -168c47 65 111 97 191 97z" />
    <glyph glyph-name="uni045C" unicode="&#x45c;" horiz-adv-x="483" 
d="M354 697h62l-112 -127h-50zM424 500h71l-313 -241l234 -259h-62l-227 251l-44 -251h-50l88 500h50l-39 -224z" />
    <glyph glyph-name="uni045E" unicode="&#x45e;" horiz-adv-x="510" 
d="M179 631h253l-7 -44h-254zM229 50l255 450h57l-312 -546c-59 -104 -140 -161 -225 -154l8 47c62 -6 118 33 167 117l17 28l-139 508h51z" />
    <glyph glyph-name="uni045F" unicode="&#x45f;" horiz-adv-x="567" 
d="M404 49l79 451h51l-88 -500h-181l-24 -134h-51l24 134h-181l88 500h50l-79 -451h312z" />
    <glyph glyph-name="uni0490" unicode="&#x490;" horiz-adv-x="493" 
d="M496 700l22 120h53l-30 -170h-331l-114 -650h-53l114 650l9 50h330z" />
    <glyph glyph-name="uni0491" unicode="&#x491;" horiz-adv-x="397" 
d="M383 500l18 104h51l-26 -153h-264l-79 -451h-50l79 451l9 49h262z" />
    <glyph glyph-name="Wgrave" unicode="&#x1e80;" horiz-adv-x="993" 
d="M624 770h-48l-70 127h60zM192 0h64l308 631l85 -631h64l326 700h-56l-293 -631l-85 631h-63l-306 -631l-71 631h-53z" />
    <glyph glyph-name="wgrave" unicode="&#x1e81;" horiz-adv-x="770" 
d="M404 697l58 -127h-48l-70 127h60zM516 64l210 436h55l-246 -500h-55l-64 426l-214 -426h-55l-70 500h50l57 -436l217 436h52l-1 -2z" />
    <glyph glyph-name="Wacute" unicode="&#x1e82;" horiz-adv-x="993" 
d="M547 770l100 127h62l-112 -127h-50zM192 0h64l308 631l85 -631h64l326 700h-56l-293 -631l-85 631h-63l-306 -631l-71 631h-53z" />
    <glyph glyph-name="wacute" unicode="&#x1e83;" horiz-adv-x="770" 
d="M485 697h62l-112 -127h-50zM516 64l210 436h55l-246 -500h-55l-64 426l-214 -426h-55l-70 500h50l57 -436l217 436h52l-1 -2z" />
    <glyph glyph-name="Wdieresis" unicode="&#x1e84;" horiz-adv-x="993" 
d="M469 813c6 48 83 48 73 0c-4 -20 -23 -36 -43 -36s-34 16 -30 36zM649 813c6 48 83 48 73 0c-4 -20 -23 -36 -43 -36s-34 16 -30 36zM256 0h-64l-80 700h53l71 -631l306 631h63l85 -631l293 631h56l-326 -700h-64l-85 631z" />
    <glyph glyph-name="wdieresis" unicode="&#x1e85;" horiz-adv-x="770" 
d="M307 613c6 48 83 48 73 0c-4 -20 -23 -36 -43 -36s-34 16 -30 36zM487 613c6 48 83 48 73 0c-4 -20 -23 -36 -43 -36s-34 16 -30 36zM516 64l210 436h55l-246 -500h-55l-64 426l-214 -426h-55l-70 500h50l57 -436l217 436h52l-1 -2z" />
    <glyph glyph-name="Ygrave" unicode="&#x1ef2;" 
d="M352 897l58 -127h-48l-70 127h60zM573 700h63l-311 -373l-58 -327h-53l58 329l-180 371h55l156 -324z" />
    <glyph glyph-name="ygrave" unicode="&#x1ef3;" horiz-adv-x="510" 
d="M273 697l58 -127h-48l-70 127h60zM229 50l255 450h57l-312 -546c-59 -104 -140 -161 -225 -154l8 47c62 -6 118 33 167 117l17 28l-139 508h51z" />
    <glyph glyph-name="endash" unicode="&#x2013;" horiz-adv-x="665" 
d="M585 285h-492l8 48h492z" />
    <glyph glyph-name="emdash" unicode="&#x2014;" horiz-adv-x="765" 
d="M685 285h-592l8 48h592z" />
    <glyph glyph-name="quoteleft" unicode="&#x2018;" horiz-adv-x="224" 
d="M167 492h-63l91 208h46z" />
    <glyph glyph-name="quoteright" unicode="&#x2019;" horiz-adv-x="224" 
d="M179 700h63l-91 -208h-46z" />
    <glyph glyph-name="quotesinglbase" unicode="&#x201a;" horiz-adv-x="223" 
d="M67 68h63l-91 -208h-46z" />
    <glyph glyph-name="quotedblleft" unicode="&#x201c;" horiz-adv-x="351" 
d="M167 492h-63l91 208h46zM294 492h-63l91 208h46z" />
    <glyph glyph-name="quotedblright" unicode="&#x201d;" horiz-adv-x="351" 
d="M179 700h63l-91 -208h-46zM306 700h63l-91 -208h-46z" />
    <glyph glyph-name="quotedblbase" unicode="&#x201e;" horiz-adv-x="350" 
d="M67 68h63l-91 -208h-46zM194 68h63l-91 -208h-46z" />
    <glyph glyph-name="dagger" unicode="&#x2020;" horiz-adv-x="473" 
d="M311 527h148l-9 -48h-148l-84 -479h-51l84 479h-147l8 48h148l30 173h51z" />
    <glyph glyph-name="daggerdbl" unicode="&#x2021;" horiz-adv-x="473" 
d="M459 527l-9 -48h-148l-45 -258h148l-9 -48h-148l-30 -173h-51l30 173h-147l8 48h148l45 258h-147l8 48h148l30 173h51l-30 -173h148z" />
    <glyph glyph-name="bullet" unicode="&#x2022;" horiz-adv-x="280" 
d="M143 263c-48 0 -80 43 -71 91s53 83 102 83c47 0 79 -42 70 -89c-9 -49 -52 -85 -101 -85z" />
    <glyph glyph-name="ellipsis" unicode="&#x2026;" horiz-adv-x="593" 
d="M61 -10c-57 -3 -44 95 15 90c25 0 43 -21 38 -46c-5 -27 -25 -44 -53 -44zM251 -10c-57 -3 -44 95 15 90c25 0 43 -21 38 -46c-5 -27 -25 -44 -53 -44zM441 -10c-57 -3 -44 95 15 90c25 0 43 -21 38 -46c-5 -27 -25 -44 -53 -44z" />
    <glyph glyph-name="perthousand" unicode="&#x2030;" horiz-adv-x="1076" 
d="M246 413c-43 0 -76 15 -101 44c-25 30 -33 66 -26 108s28 77 61 104c34 28 73 42 118 42c43 0 77 -15 101 -45c25 -29 33 -65 26 -107s-28 -77 -61 -105c-33 -27 -73 -41 -118 -41zM184 488c17 -19 40 -29 70 -29s56 10 79 29c23 20 38 45 43 74s0 54 -17 73
c-16 20 -39 30 -69 30s-57 -10 -80 -30c-23 -19 -37 -44 -42 -73s0 -54 16 -74zM105 70l-34 20l569 535l35 -20zM454 -11c-43 0 -76 15 -101 44c-25 30 -33 66 -26 108s28 77 61 104c34 28 73 42 118 42c43 0 77 -15 101 -45c25 -29 33 -65 26 -107s-28 -77 -62 -105
c-33 -27 -72 -41 -117 -41zM814 -11c-43 0 -76 15 -101 44c-25 30 -33 66 -26 108s28 77 61 104c34 28 73 42 118 42c43 0 77 -15 101 -45c25 -29 33 -65 26 -107s-28 -77 -62 -105c-33 -27 -72 -41 -117 -41zM376 138c-9 -59 26 -103 86 -103s111 44 122 103
s-26 103 -86 103s-111 -44 -122 -103zM736 138c-9 -59 26 -103 86 -103s111 44 122 103s-26 103 -86 103s-111 -44 -122 -103z" />
    <glyph glyph-name="guilsinglleft" unicode="&#x2039;" horiz-adv-x="333" 
d="M228 482h66l-141 -177l75 -169h-61l-77 173z" />
    <glyph glyph-name="guilsinglright" unicode="&#x203a;" horiz-adv-x="334" 
d="M126 482h61l77 -173l-138 -173h-66l141 177z" />
    <glyph glyph-name="fraction" unicode="&#x2044;" horiz-adv-x="227" 
d="M419 700l-525 -700h-51l525 700h51z" />
    <glyph glyph-name="Euro" unicode="&#x20ac;" horiz-adv-x="603" 
d="M434 660c-109 0 -195 -80 -242 -223h268l-8 -44h-272l-9 -43c-3 -18 -4 -30 -5 -37h272l-8 -45h-268c-7 -145 52 -228 163 -228c77 0 138 37 183 110l43 -26c-56 -90 -134 -135 -235 -135c-69 0 -121 25 -158 75c-37 51 -53 119 -50 204h-81l7 45h78c1 14 3 28 6 42
c1 11 4 23 8 38h-77l7 44h81c53 172 162 274 306 274c92 0 158 -49 186 -134l-48 -24c-21 71 -70 107 -147 107z" />
    <glyph glyph-name="uni20BD" unicode="&#x20bd;" horiz-adv-x="577" 
d="M182 700h240c55 0 100 -21 134 -64c35 -42 47 -91 36 -148c-9 -57 -37 -104 -84 -143s-99 -58 -158 -58h-187l-18 -104h267l-8 -44h-267l-24 -139h-54l24 139h-89l8 44h89l18 104h-89l9 50h89zM539 493c8 43 0 80 -25 111s-58 46 -100 46h-187l-55 -313h187
c43 0 81 15 116 45c35 31 57 68 64 111z" />
    <glyph glyph-name="uni2116" unicode="&#x2116;" horiz-adv-x="1020" 
d="M856 418c-41 0 -74 15 -98 44c-24 30 -32 65 -25 106s27 75 60 102s72 41 115 41c42 0 75 -15 98 -45c24 -29 32 -64 25 -105c-13 -83 -82 -143 -175 -143zM96 0h-53l123 700h42l312 -602l106 602h53l-123 -700h-43l-311 602zM865 464c57 0 108 44 117 100
c11 57 -25 101 -82 101c-59 0 -107 -44 -118 -101c-9 -57 23 -100 83 -100zM972 290h-277l9 49h276z" />
    <glyph glyph-name="trademark" unicode="&#x2122;" horiz-adv-x="479" 
d="M280 700l-5 -31h-58l-30 -169h-34l30 169h-59l6 31h150zM471 700h37l-35 -200h-33l25 144l-85 -106h-4l-45 105l-25 -143h-34l35 200h34l44 -109z" />
    <glyph glyph-name="estimated" unicode="&#x212e;" horiz-adv-x="833" 
d="M498 710c107 0 190 -35 247 -105c58 -69 78 -154 60 -255c-2 -10 -8 -15 -18 -15h-560c-10 0 -16 -5 -18 -15l-33 -192c-2 -7 -1 -14 3 -19c46 -59 119 -89 218 -89c95 0 179 32 250 97c6 6 12 9 19 9h35c13 0 17 -10 6 -19c-87 -78 -192 -117 -316 -117
c-115 0 -203 36 -263 108c-59 72 -80 159 -62 262c18 101 67 185 146 251c80 66 175 99 286 99zM660 380l35 194c1 7 -1 14 -4 19c-45 58 -111 87 -198 87c-86 0 -162 -30 -229 -89c-6 -6 -9 -12 -10 -19l-34 -192c-2 -10 2 -15 12 -15h410c10 0 16 5 18 15z" />
    <glyph glyph-name="oneeighth" unicode="&#x215b;" horiz-adv-x="815" 
d="M135 300l61 343l-106 -32l-5 44l130 45h39l-71 -400h-48zM89 0l525 700h51l-525 -700h-51zM781 296c-7 -39 -31 -68 -73 -87c43 -24 61 -60 52 -108c-13 -71 -76 -113 -161 -113c-81 0 -134 49 -122 120c9 49 39 84 90 104c-35 23 -50 53 -43 91c12 69 76 109 149 109
c68 0 120 -47 108 -116zM733 300c8 41 -20 67 -68 67c-49 0 -85 -26 -93 -67c-7 -41 22 -68 70 -68c47 0 84 27 91 68zM633 186c-57 0 -99 -29 -107 -76s22 -76 81 -76c57 0 98 29 106 76s-25 76 -80 76z" />
    <glyph glyph-name="threeeighths" unicode="&#x215c;" horiz-adv-x="919" 
d="M336 411c-13 -75 -75 -123 -163 -123c-63 0 -105 27 -124 81l42 21c12 -37 42 -56 89 -56c61 0 100 33 108 81c9 48 -20 82 -79 82h-3l-18 35l115 122h-192l8 46h251l-8 -46l-114 -120c64 -12 99 -62 88 -123zM193 0l525 700h51l-525 -700h-51zM885 296
c-7 -39 -31 -68 -73 -87c43 -24 61 -60 52 -108c-13 -71 -76 -113 -161 -113c-81 0 -134 49 -122 120c9 49 39 84 90 104c-35 23 -50 53 -43 91c12 69 76 109 149 109c68 0 120 -47 108 -116zM837 300c8 41 -20 67 -68 67c-49 0 -85 -26 -93 -67c-7 -41 22 -68 70 -68
c47 0 84 27 91 68zM737 186c-57 0 -99 -29 -107 -76s22 -76 81 -76c57 0 98 29 106 76s-25 76 -80 76z" />
    <glyph glyph-name="fiveeighths" unicode="&#x215d;" horiz-adv-x="909" 
d="M172 288c-63 0 -104 27 -123 80l43 22c13 -37 42 -56 87 -56c57 0 98 32 106 81c9 52 -20 84 -77 84h-118l50 201h227l-8 -45h-184l-28 -110h71c39 0 69 -13 91 -39c23 -25 31 -57 24 -95c-13 -76 -73 -123 -161 -123zM183 0l525 700h51l-525 -700h-51zM875 296
c-7 -39 -31 -68 -73 -87c43 -24 61 -60 52 -108c-13 -71 -76 -113 -161 -113c-81 0 -134 49 -122 120c9 49 39 84 90 104c-35 23 -50 53 -43 91c12 69 76 109 149 109c68 0 120 -47 108 -116zM827 300c8 41 -20 67 -68 67c-49 0 -85 -26 -93 -67c-7 -41 22 -68 70 -68
c47 0 84 27 91 68zM727 186c-57 0 -99 -29 -107 -76s22 -76 81 -76c57 0 98 29 106 76s-25 76 -80 76z" />
    <glyph glyph-name="seveneighths" unicode="&#x215e;" horiz-adv-x="878" 
d="M96 700h266l-7 -39l-216 -361h-53l214 354h-212zM152 0l525 700h51l-525 -700h-51zM844 296c-7 -39 -31 -68 -73 -87c43 -24 61 -60 52 -108c-13 -71 -76 -113 -161 -113c-81 0 -134 49 -122 120c9 49 39 84 90 104c-35 23 -50 53 -43 91c12 69 76 109 149 109
c68 0 120 -47 108 -116zM796 300c8 41 -20 67 -68 67c-49 0 -85 -26 -93 -67c-7 -41 22 -68 70 -68c47 0 84 27 91 68zM696 186c-57 0 -99 -29 -107 -76s22 -76 81 -76c57 0 98 29 106 76s-25 76 -80 76z" />
    <glyph glyph-name="arrowleft" unicode="&#x2190;" horiz-adv-x="827" 
d="M182 374h603l-8 -48h-610l228 -276h-67l-247 300l353 300l71 -1z" />
    <glyph glyph-name="arrowup" unicode="&#x2191;" horiz-adv-x="727" 
d="M442 700l247 -300l-11 -67l-227 276l-106 -609h-51l106 601l-323 -274l13 73z" />
    <glyph glyph-name="arrowright" unicode="&#x2192;" horiz-adv-x="827" 
d="M468 650h66l247 -300l-349 -300h-73l322 276h-604l8 48h611z" />
    <glyph glyph-name="arrowdown" unicode="&#x2193;" horiz-adv-x="727" 
d="M468 700l-106 -602l323 274l-13 -72l-353 -300l-247 300l12 65l226 -275l107 610h51z" />
    <glyph glyph-name="arrowboth" unicode="&#x2194;" horiz-adv-x="1033" 
d="M719 597h66l203 -247l-290 -247h-72l261 223h-720l183 -223h-66l-203 247l290 247h72l-261 -223h720z" />
    <glyph glyph-name="arrowupdn" unicode="&#x2195;" horiz-adv-x="627" 
d="M613 557l-11 -66l-181 220l-128 -716l260 221l-13 -73l-289 -246l-203 246l12 66l182 -222l127 719l-261 -221l13 72l290 246z" />
    <glyph glyph-name="uni2196" unicode="&#x2196;" horiz-adv-x="639" 
d="M547 587l39 -48h-391l356 -431l-39 -33l-356 431l-68 -391l-40 48l75 424h424z" />
    <glyph glyph-name="uni2197" unicode="&#x2197;" horiz-adv-x="640" 
d="M154 539l58 48h424l-75 -424l-59 -49l68 386l-500 -425l-31 37l502 427h-387z" />
    <glyph glyph-name="uni2198" unicode="&#x2198;" horiz-adv-x="639" 
d="M514 169l69 392l39 -48l-74 -424h-424l-40 48h392l-357 432l39 33z" />
    <glyph glyph-name="uni2199" unicode="&#x2199;" horiz-adv-x="640" 
d="M600 601l32 -37l-503 -427h387l-57 -48h-424l74 424l58 48l-68 -386z" />
    <glyph glyph-name="partialdiff" unicode="&#x2202;" horiz-adv-x="579" 
d="M316 711c78 0 138 -34 181 -102s54 -156 35 -264c-21 -114 -60 -202 -118 -264c-57 -61 -124 -92 -201 -92c-61 0 -107 21 -138 62c-31 42 -41 93 -30 154c12 69 42 123 89 164c48 41 108 61 179 61c68 0 125 -19 172 -57c11 82 1 151 -30 206s-81 83 -148 83
c-48 0 -93 -12 -134 -35l9 50c40 23 85 34 134 34zM221 37c59 0 112 25 157 76c46 51 79 120 98 209c-45 39 -102 59 -171 59c-109 0 -189 -66 -209 -181c-16 -96 28 -163 125 -163z" />
    <glyph glyph-name="emptyset" unicode="&#x2205;" horiz-adv-x="819" 
d="M769 720h58l-108 -108c65 -73 88 -162 70 -268c-18 -100 -68 -184 -150 -253c-81 -68 -173 -102 -275 -102c-77 0 -144 23 -199 70l-80 -79h-58l108 108c-61 68 -89 165 -70 268c17 100 67 184 149 252c83 69 175 103 276 103c77 0 144 -23 199 -70zM112 350
c-16 -91 3 -167 56 -229l489 487c-48 39 -106 59 -174 59c-87 0 -167 -31 -240 -93c-72 -61 -116 -136 -131 -224zM742 350c16 91 -3 167 -56 229l-489 -487c48 -39 106 -59 174 -59c87 0 167 31 239 92c73 62 117 137 132 225z" />
    <glyph glyph-name="product" unicode="&#x220f;" horiz-adv-x="640" 
d="M58 -200h-50l158 900h466l-158 -900h-50l149 851h-365z" />
    <glyph glyph-name="summation" unicode="&#x2211;" horiz-adv-x="541" 
d="M428 -200h-450l8 50l326 414l-170 387l8 49h421l-8 -49h-368l174 -394l-321 -408h389z" />
    <glyph glyph-name="minus" unicode="&#x2212;" horiz-adv-x="540" 
d="M490 326h-413l8 48h413z" />
    <glyph glyph-name="radical" unicode="&#x221a;" horiz-adv-x="639" 
d="M305 0h-54l-103 251h-84l8 49h110l98 -240l376 740h57z" />
    <glyph glyph-name="infinity" unicode="&#x221e;" horiz-adv-x="806" 
d="M635 507c43 0 77 -16 102 -47s34 -69 26 -114s-29 -82 -63 -111c-34 -28 -74 -42 -119 -42c-75 0 -122 47 -166 118c-73 -79 -142 -118 -208 -118c-43 0 -78 15 -103 46s-33 70 -25 115s29 82 63 110c34 29 74 43 119 43c75 0 123 -47 167 -118c65 71 127 118 207 118z
M215 239c61 0 114 43 177 111c-39 69 -77 111 -138 111c-63 0 -114 -46 -125 -111c-12 -65 23 -111 86 -111zM714 350c11 65 -24 111 -87 111c-60 0 -113 -43 -176 -111c39 -74 85 -111 137 -111c63 0 114 46 126 111z" />
    <glyph glyph-name="integral" unicode="&#x222b;" horiz-adv-x="436" 
d="M-80 -203l9 50c64 -28 120 4 145 77l225 653c39 115 117 156 217 125l-9 -49c-75 28 -131 -4 -156 -77l-225 -653c-37 -113 -117 -155 -206 -126z" />
    <glyph glyph-name="approxequal" unicode="&#x2248;" horiz-adv-x="587" 
d="M310 409c-81 60 -141 47 -179 -40l-43 22c38 89 128 151 252 60c81 -61 141 -47 179 40l43 -22c-38 -89 -125 -152 -252 -60zM102 209l-42 22c37 87 128 153 252 60c81 -61 141 -47 179 40l43 -22c-38 -88 -126 -153 -252 -60c-81 59 -141 46 -180 -40z" />
    <glyph glyph-name="notequal" unicode="&#x2260;" horiz-adv-x="537" 
d="M513 474l-8 -48h-148l-96 -152h217l-9 -48h-238l-96 -154h-43l96 154h-129l9 48h150l96 152h-219l8 48h241l96 154h43l-96 -154h126z" />
    <glyph glyph-name="lessequal" unicode="&#x2264;" horiz-adv-x="527" 
d="M96 435l428 158l-11 -59l-359 -127l314 -127l-9 -53l-372 158l4 25zM438 107h-400l9 48h399z" />
    <glyph glyph-name="greaterequal" unicode="&#x2265;" horiz-adv-x="527" 
d="M115 540l9 53l372 -158l-5 -25l-4 -25l-428 -158l11 59l358 127zM438 107h-400l9 48h399z" />
    <glyph glyph-name="lozenge" unicode="&#x25ca;" horiz-adv-x="538" 
d="M251 0h-52l-124 350l247 350h52l125 -350zM129 344l103 -289l213 301l-103 289z" />
    <glyph glyph-name="i.loclTRK" horiz-adv-x="204" 
d="M120 620c4 27 29 47 54 47c43 0 54 -51 19 -81c-30 -29 -85 -6 -73 34zM83 0h-50l88 500h50z" />
    <glyph glyph-name="f_f_j" horiz-adv-x="780" 
d="M657 673c-103 0 -156 -40 -173 -136l-6 -37h269l-98 -557c-19 -107 -88 -163 -193 -154l8 48c76 -8 121 27 135 106l89 508h-219l-79 -451h-51l79 451h-218l-80 -451h-51l80 451h-87l9 49h86l5 27c23 128 104 193 233 184l-9 -48c-98 8 -156 -37 -173 -136l-5 -27h219
l6 37c21 123 99 184 233 184c30 0 62 -4 95 -11l-8 -46c-32 6 -64 9 -96 9z" />
    <glyph glyph-name="f_j" horiz-adv-x="510" 
d="M386 663c-104 0 -156 -40 -173 -136l-5 -27h270l-98 -557c-19 -107 -89 -163 -194 -154l9 48c75 -8 120 27 134 106l89 508h-218l-80 -451h-51l80 451h-87l9 49h86l5 27c21 123 99 184 233 184c29 0 61 -4 94 -11l-7 -46c-32 6 -64 9 -96 9z" />
    <glyph glyph-name="uni0414.loclBGR" horiz-adv-x="703" 
d="M578 50h64l-33 -184h-54l24 134h-543l-24 -134h-53l24 134l9 50h64l347 650h56zM423 635l-310 -585h411z" />
    <glyph glyph-name="uni041B.loclBGR" horiz-adv-x="605" 
d="M27 0h-58l384 700h57l137 -700h-53l-121 635z" />
    <glyph glyph-name="uni0424.loclBGR" horiz-adv-x="853" 
d="M550 800l-16 -90c101 -5 179 -42 234 -110c55 -67 73 -153 55 -257s-65 -188 -141 -251s-168 -97 -275 -102l-16 -90h-54l16 90c-101 6 -179 43 -234 110c-54 67 -72 153 -54 257s65 187 140 250c76 63 168 98 275 103l16 90h54zM119 350c-16 -89 -2 -162 42 -219
s111 -88 200 -93l111 624c-93 -5 -171 -36 -235 -93c-63 -57 -103 -130 -118 -219zM769 350c15 89 1 162 -43 219s-111 88 -200 93l-111 -624c93 5 171 36 235 92c64 57 104 130 119 220z" />
    <glyph glyph-name="uni0414.ss01" horiz-adv-x="690" 
d="M225 700h432l-114 -650h74l-9 -50h-634l9 50h56c57 55 96 139 116 251zM270 650l-62 -350c-20 -109 -54 -193 -103 -250h385l106 600h-326z" />
    <glyph glyph-name="uni0426.ss01" horiz-adv-x="690" 
d="M659 700l-114 -650h73l-9 -50h-566l123 700h53l-114 -650h387l114 650h53z" />
    <glyph glyph-name="uni0429.ss01" horiz-adv-x="980" 
d="M949 700l-114 -650h73l-9 -50h-856l123 700h53l-114 -650h312l114 650h53l-114 -650h312l114 650h53z" />
    <glyph glyph-name="uni0414.loclBGR.ss01" horiz-adv-x="703" 
d="M459 700l119 -650h64l-9 -50h-650l9 50h64l347 650h56zM423 635l-310 -585h411z" />
    <glyph glyph-name="uni0432.loclBGR" horiz-adv-x="575" 
d="M412 398c85 -28 127 -101 110 -204c-23 -132 -118 -205 -263 -205c-68 0 -119 22 -154 66c-34 44 -44 104 -31 179l43 245c27 149 114 232 246 232c53 0 94 -16 123 -49c30 -33 41 -72 34 -118c-9 -54 -45 -103 -108 -146zM354 663c-96 0 -166 -67 -186 -184l-17 -99
l119 23c30 6 58 8 83 6c69 41 108 87 117 140c11 64 -35 114 -116 114zM471 199c21 121 -57 186 -210 155l-118 -22l-18 -102c-21 -124 31 -193 143 -193c109 0 184 59 203 162z" />
    <glyph glyph-name="uni0433.loclBGR" horiz-adv-x="459" 
d="M186 -11c-54 0 -96 14 -125 43s-39 65 -32 107c30 180 314 93 335 226c9 59 -38 98 -102 98c-60 0 -114 -31 -141 -83l-40 26c33 63 102 105 187 105c48 0 86 -15 115 -45c29 -29 39 -64 32 -104c-12 -65 -64 -104 -125 -119c-88 -22 -196 -31 -211 -108
c-11 -60 40 -98 111 -98c73 0 134 38 163 95l41 -27c-42 -77 -111 -116 -208 -116z" />
    <glyph glyph-name="uni0434.loclBGR" horiz-adv-x="650" 
d="M544 375l22 125h51l-84 -476c-27 -149 -136 -235 -287 -235c-108 0 -187 47 -218 120l45 23c21 -56 79 -95 175 -95c129 0 213 68 234 187l14 78c-53 -72 -133 -113 -224 -113c-76 0 -135 26 -178 79c-42 53 -57 117 -45 193c11 75 45 135 101 181s118 69 186 69
c95 0 176 -51 208 -136zM280 37c56 0 106 18 150 53c45 35 74 81 88 138l6 32c6 60 -10 109 -47 146c-37 38 -83 57 -138 57c-57 0 -109 -19 -156 -57s-75 -88 -84 -149c-9 -62 3 -114 37 -157c35 -42 83 -63 144 -63z" />
    <glyph glyph-name="uni0436.loclBGR" horiz-adv-x="663" 
d="M41 0h-62l283 265l-185 235h58l175 -226l76 426h50l-76 -429l251 229h62l-268 -245l189 -255h-56l-182 247l-44 -247h-51l44 246z" />
    <glyph glyph-name="uni0438.loclBGR" horiz-adv-x="564" 
d="M434 235l47 265h50l-88 -500h-50l15 87c-47 -65 -111 -98 -192 -98c-119 0 -183 79 -163 200l55 311h51l-55 -311c-16 -93 26 -152 121 -152c103 0 186 70 209 199v-1z" />
    <glyph glyph-name="uni0439.loclBGR" horiz-adv-x="564" 
d="M214 631h253l-7 -44h-254zM434 235l47 265h50l-88 -500h-50l15 87c-47 -65 -111 -98 -192 -98c-119 0 -183 79 -163 200l55 311h51l-55 -311c-16 -93 26 -152 121 -152c103 0 186 70 209 199v-1z" />
    <glyph glyph-name="uni043A.loclBGR" horiz-adv-x="483" 
d="M424 500h71l-313 -241l234 -259h-62l-227 251l-44 -251h-50l123 700h50l-75 -424z" />
    <glyph glyph-name="uni043B.loclBGR" horiz-adv-x="477" 
d="M313 500l107 -500h-52l-92 445l-251 -445h-56l283 500h61z" />
    <glyph glyph-name="uni043F.loclBGR" horiz-adv-x="564" 
d="M348 511c119 0 183 -79 163 -200l-55 -311h-51l55 311c16 93 -26 152 -121 152c-103 0 -186 -70 -209 -199v1l-47 -265h-50l88 500h50l-15 -87c47 65 111 98 192 98z" />
    <glyph glyph-name="uni0442.loclBGR" horiz-adv-x="857" 
d="M657 511c51 0 91 -17 120 -52c29 -34 39 -81 28 -142l-56 -317h-50l55 317c16 93 -26 146 -107 146c-84 0 -153 -54 -178 -165l-53 -298h-50l55 317c17 93 -23 146 -102 146c-88 0 -165 -62 -186 -182l-50 -281h-50l88 500h50l-14 -77c45 59 103 88 174 88
s124 -35 140 -102c47 68 117 102 186 102z" />
    <glyph glyph-name="uni0446.loclBGR" horiz-adv-x="594" 
d="M531 500l-72 -410c-5 -25 9 -41 34 -41h32l-32 -186h-51l24 138c-40 5 -63 36 -59 81c-48 -62 -112 -93 -191 -93c-119 0 -184 79 -163 200l55 311h50l-54 -311c-16 -93 26 -152 121 -152c97 0 179 63 206 182l49 281h51z" />
    <glyph glyph-name="uni0448.loclBGR" horiz-adv-x="857" 
d="M724 219l50 281h50l-88 -500h-50l14 77c-45 -59 -103 -88 -174 -88s-124 35 -140 102c-47 -68 -117 -102 -186 -102c-51 0 -92 17 -121 51c-29 35 -38 82 -27 143l56 317h50l-55 -317c-16 -93 26 -146 107 -146c84 0 153 54 178 165l53 298h50l-55 -317
c-17 -93 23 -146 102 -146c88 0 165 62 186 182z" />
    <glyph glyph-name="uni0449.loclBGR" horiz-adv-x="888" 
d="M824 500l-72 -410c-4 -27 7 -41 34 -41h33l-33 -183h-50l23 135c-39 5 -62 34 -59 77c-45 -59 -103 -89 -174 -89s-124 36 -140 103c-47 -69 -117 -103 -186 -103c-51 0 -92 17 -121 51c-29 35 -38 82 -27 143l56 317h50l-55 -317c-16 -93 26 -146 107 -146
c84 0 153 54 178 165l53 298h50l-55 -317c-17 -93 23 -146 102 -146c88 0 165 61 186 181l50 282h50z" />
    <glyph glyph-name="uni044C.loclBGR" horiz-adv-x="482" 
d="M129 332h141c57 0 100 -17 130 -51c30 -33 40 -76 31 -128c-17 -97 -101 -164 -214 -164c-59 0 -104 17 -135 52s-42 77 -33 126l59 333h50zM381 161c12 73 -33 122 -120 122h-141l-20 -116c-15 -77 34 -130 123 -130c85 0 145 53 158 124z" />
    <glyph glyph-name="uni044A.loclBGR" horiz-adv-x="565" 
d="M212 332h141c57 0 100 -17 130 -51s40 -77 31 -129c-17 -97 -101 -163 -214 -163c-59 0 -104 17 -135 52s-42 77 -33 126l50 284h-146l8 49h197zM464 160c12 73 -33 123 -120 123h-141l-20 -116c-15 -77 32 -130 123 -130c85 0 145 52 158 123z" />
    <glyph glyph-name="uni044E.loclBGR" horiz-adv-x="803" 
d="M544 511c70 0 127 -25 170 -75c43 -49 58 -113 45 -190c-14 -79 -50 -142 -109 -188c-58 -46 -123 -69 -195 -69c-66 0 -121 22 -164 65c-43 44 -62 101 -56 172h-112l-40 -226h-50l123 700h50l-75 -426h112c17 73 55 131 112 173c57 43 120 64 189 64zM709 252
c11 63 -1 114 -36 153s-81 58 -138 58c-58 -1 -111 -20 -160 -59c-48 -39 -78 -90 -89 -154s1 -116 36 -155s81 -58 138 -58c58 0 111 20 159 59c49 39 79 91 90 156z" />
    <glyph glyph-name="zero.sinf" horiz-adv-x="411" 
d="M133 -172c-51 0 -90 20 -115 61c-25 40 -32 92 -21 155c23 128 100 208 207 208c51 0 90 -20 115 -61c25 -40 32 -92 21 -155c-23 -128 -100 -208 -207 -208zM56 -82c17 -29 44 -44 83 -44s71 15 98 44s46 69 55 122s6 93 -11 122s-44 44 -83 44s-72 -15 -99 -44
s-45 -69 -54 -122s-6 -93 11 -122z" />
    <glyph glyph-name="one.sinf" horiz-adv-x="238" 
d="M4 195l130 45h39l-71 -400h-48l61 343l-106 -32z" />
    <glyph glyph-name="two.sinf" horiz-adv-x="342" 
d="M237 -160h-276l7 39l202 166c37 29 58 58 63 87c7 43 -20 74 -69 74c-43 0 -78 -23 -103 -68l-39 24c29 55 85 90 148 90c76 0 122 -53 111 -122c-6 -40 -34 -80 -83 -119l-153 -125h199z" />
    <glyph glyph-name="three.sinf" horiz-adv-x="345" 
d="M38 240h251l-8 -46l-114 -120c64 -12 99 -62 88 -123c-13 -75 -75 -123 -163 -123c-63 0 -105 27 -124 81l42 21c12 -37 42 -56 89 -56c61 0 100 33 108 81c9 48 -20 82 -79 82h-3l-18 35l115 122h-192z" />
    <glyph glyph-name="four.sinf" horiz-adv-x="356" 
d="M228 -35h54l-8 -45h-54l-14 -80h-48l14 80h-213l7 45l199 275h55l-198 -275h158l18 104h48z" />
    <glyph glyph-name="five.sinf" horiz-adv-x="327" 
d="M286 240l-8 -45h-184l-28 -110h71c39 0 69 -13 91 -39c23 -25 31 -57 24 -95c-13 -76 -73 -123 -161 -123c-63 0 -104 27 -123 80l43 22c13 -37 42 -56 87 -56c57 0 98 32 106 81c9 52 -20 84 -77 84h-118l50 201h227z" />
    <glyph glyph-name="six.sinf" horiz-adv-x="339" 
d="M143 100c41 0 73 -14 96 -41c24 -27 32 -60 25 -99c-13 -77 -83 -132 -168 -132c-41 0 -73 14 -97 41s-32 61 -25 100c5 30 17 56 38 77l163 194h60l-122 -142c13 1 23 2 30 2zM217 -35c9 53 -24 89 -83 89c-57 0 -104 -36 -113 -89c-9 -55 25 -91 82 -91s103 36 114 91z
" />
    <glyph glyph-name="seven.sinf" horiz-adv-x="310" 
d="M7 194l8 46h266l-7 -39l-216 -361h-53l214 354h-212z" />
    <glyph glyph-name="eight.sinf" horiz-adv-x="342" 
d="M280 136c-7 -39 -31 -68 -73 -87c43 -24 61 -60 52 -108c-13 -71 -76 -113 -161 -113c-81 0 -134 49 -122 120c9 49 39 84 90 104c-35 23 -50 53 -43 91c12 69 76 109 149 109c68 0 120 -47 108 -116zM232 140c8 41 -20 67 -68 67c-49 0 -85 -26 -93 -67
c-7 -41 22 -68 70 -68c47 0 84 27 91 68zM132 26c-57 0 -99 -29 -107 -76s22 -76 81 -76c57 0 98 29 106 76s-25 76 -80 76z" />
    <glyph glyph-name="nine.sinf" horiz-adv-x="339" 
d="M169 252c40 0 72 -14 96 -42c24 -27 33 -60 26 -99c-3 -25 -14 -48 -32 -70l-167 -201h-60l122 143c-10 -2 -21 -3 -32 -3c-40 0 -72 14 -96 41c-23 28 -32 61 -25 99c7 39 26 70 57 95c32 25 69 37 111 37zM48 115c-9 -53 24 -89 83 -89c57 0 104 36 113 89
c9 55 -25 91 -82 91s-103 -36 -114 -91z" />
    <glyph glyph-name="zero.tf" 
d="M240 -11c-81 0 -139 34 -174 101s-43 156 -24 265c19 110 57 197 114 260c57 64 127 96 210 96c81 0 139 -34 174 -101s43 -156 24 -265c-19 -110 -57 -197 -114 -261c-57 -63 -127 -95 -210 -95zM510 350c35 195 -23 310 -152 310c-131 0 -228 -114 -263 -310
c-33 -196 22 -310 153 -310s229 114 262 310z" />
    <glyph glyph-name="one.tf" 
d="M410 700l-114 -649h211l-10 -51h-499l9 51h235l104 589l-170 -50l-6 47l195 63h45z" />
    <glyph glyph-name="two.tf" 
d="M486 0h-480l8 48l309 233c107 81 167 143 180 214c17 101 -40 165 -147 165c-79 0 -153 -46 -198 -121l-43 27c53 91 149 145 250 145c65 0 116 -20 153 -61c37 -40 50 -93 38 -159c-15 -88 -81 -162 -196 -246l-262 -194h397z" />
    <glyph glyph-name="three.tf" 
d="M133 700h440l-9 -50l-225 -241c127 -12 200 -91 180 -212c-12 -65 -44 -116 -96 -153s-115 -55 -190 -55c-113 0 -199 55 -220 146l48 25c17 -73 84 -120 177 -120c121 0 210 62 227 162s-47 162 -170 162h-14l-17 35l236 251h-376z" />
    <glyph glyph-name="four.tf" 
d="M441 197h93l-9 -50h-93l-26 -147h-53l26 147h-374l9 50l354 503h60l-353 -503h313l36 206h53z" />
    <glyph glyph-name="five.tf" 
d="M581 700l-9 -50h-350l-57 -235h149c68 0 122 -20 162 -60s54 -93 43 -158c-24 -132 -133 -208 -278 -208c-111 0 -196 56 -217 147l47 25c16 -75 82 -121 177 -121c115 0 201 62 218 162s-46 162 -161 162h-205l82 336h399z" />
    <glyph glyph-name="six.tf" 
d="M313 450c73 0 130 -22 169 -67s53 -101 41 -169c-12 -69 -44 -123 -96 -164s-117 -61 -194 -61c-74 0 -131 22 -170 66c-39 45 -53 101 -41 169c10 55 33 101 68 138l307 338h65l-233 -260c25 7 53 10 84 10zM470 219c19 108 -42 180 -166 180c-69 0 -125 -21 -168 -62
l-5 -6c-30 -31 -48 -68 -55 -112c-20 -107 41 -179 165 -179s209 72 229 179z" />
    <glyph glyph-name="seven.tf" 
d="M111 650l8 50h483l-8 -50l-406 -650h-59l407 650h-425z" />
    <glyph glyph-name="eight.tf" 
d="M556 519c-12 -73 -56 -126 -132 -159c73 -32 109 -98 96 -177c-21 -124 -128 -194 -280 -194c-73 0 -129 18 -169 54c-40 37 -54 86 -43 147c13 81 72 144 159 173c-60 33 -90 92 -77 163c10 59 38 104 85 136c47 33 104 49 171 49c63 0 113 -17 150 -52s51 -81 40 -140z
M309 385c104 0 179 53 194 137c16 87 -41 138 -145 138c-107 0 -179 -50 -195 -138c-15 -84 41 -137 146 -137zM467 187c15 91 -43 146 -167 146c-125 0 -204 -55 -219 -146c-16 -91 46 -147 167 -147c124 0 203 55 219 147z" />
    <glyph glyph-name="nine.tf" 
d="M373 711c74 0 130 -22 169 -66s53 -100 41 -169c-9 -51 -30 -95 -63 -132l-311 -344h-65l234 260c-30 -7 -59 -10 -86 -10c-73 0 -130 22 -169 66s-53 100 -41 169s44 123 96 164c53 41 118 62 195 62zM530 481c19 107 -41 179 -166 179c-62 0 -113 -17 -154 -50
s-66 -76 -75 -129c-19 -108 41 -180 166 -180c124 0 210 72 229 180z" />
    <glyph glyph-name="zero.dnom" horiz-adv-x="411" 
d="M161 -12c-51 0 -90 20 -115 60c-25 41 -32 93 -21 156c23 128 100 208 207 208c51 0 90 -20 115 -61c25 -40 32 -92 21 -155c-23 -128 -100 -208 -207 -208zM84 77c17 -29 44 -43 83 -43s71 14 98 43s46 70 55 123s6 93 -11 122s-44 44 -83 44s-72 -15 -99 -44
s-45 -69 -54 -122s-6 -94 11 -123z" />
    <glyph glyph-name="one.dnom" horiz-adv-x="246" 
d="M32 355l130 45h39l-71 -400h-48l61 343l-106 -32z" />
    <glyph glyph-name="two.dnom" horiz-adv-x="342" 
d="M265 0h-276l7 39l202 166c37 29 58 58 63 87c7 43 -20 74 -69 74c-43 0 -78 -23 -103 -68l-39 24c29 55 85 90 148 90c76 0 122 -53 111 -122c-6 -40 -34 -80 -83 -119l-153 -125h199z" />
    <glyph glyph-name="three.dnom" horiz-adv-x="350" 
d="M67 400h251l-8 -46l-114 -120c64 -12 99 -62 88 -123c-13 -75 -75 -123 -163 -123c-63 0 -105 27 -124 81l42 21c12 -37 42 -56 89 -56c61 0 100 33 108 81c9 48 -20 82 -79 82h-3l-18 35l115 122h-192z" />
    <glyph glyph-name="four.dnom" horiz-adv-x="356" 
d="M256 125h54l-8 -45h-54l-14 -80h-48l14 80h-213l7 45l199 275h55l-198 -275h158l18 104h48z" />
    <glyph glyph-name="five.dnom" horiz-adv-x="341" 
d="M315 400l-8 -45h-184l-28 -110h71c39 0 69 -13 91 -39c23 -25 31 -57 24 -95c-13 -76 -73 -123 -161 -123c-63 0 -104 27 -123 80l43 22c13 -37 42 -56 87 -56c57 0 98 32 106 81c9 52 -20 84 -77 84h-118l50 201h227z" />
    <glyph glyph-name="six.dnom" horiz-adv-x="340" 
d="M172 260c41 0 73 -14 96 -41c24 -27 32 -60 25 -99c-13 -77 -83 -132 -168 -132c-41 0 -73 14 -97 41s-32 61 -25 100c5 30 17 56 38 77l163 194h60l-122 -142c13 1 23 2 30 2zM246 125c9 53 -24 89 -83 89c-57 0 -104 -36 -113 -89c-9 -55 25 -91 82 -91s103 36 114 91z
" />
    <glyph glyph-name="seven.dnom" horiz-adv-x="309" 
d="M35 354l8 46h266l-7 -39l-216 -361h-53l214 354h-212z" />
    <glyph glyph-name="eight.dnom" horiz-adv-x="342" 
d="M308 296c-7 -39 -31 -68 -73 -87c43 -24 61 -60 52 -108c-13 -71 -76 -113 -161 -113c-81 0 -134 49 -122 120c9 49 39 84 90 104c-35 23 -50 53 -43 91c12 69 76 109 149 109c68 0 120 -47 108 -116zM260 300c8 41 -20 67 -68 67c-49 0 -85 -26 -93 -67
c-7 -41 22 -68 70 -68c47 0 84 27 91 68zM160 186c-57 0 -99 -29 -107 -76s22 -76 81 -76c57 0 98 29 106 76s-25 76 -80 76z" />
    <glyph glyph-name="nine.dnom" horiz-adv-x="339" 
d="M197 412c40 0 72 -14 96 -42c24 -27 33 -60 26 -99c-3 -25 -14 -48 -32 -70l-167 -201h-60l122 143c-10 -2 -21 -3 -32 -3c-40 0 -72 14 -96 41c-23 28 -32 61 -25 99c7 39 26 70 57 95c32 25 69 37 111 37zM76 275c-9 -53 24 -89 83 -89c57 0 104 36 113 89
c9 55 -25 91 -82 91s-103 -36 -114 -91z" />
    <glyph glyph-name="zero.numr" horiz-adv-x="411" 
d="M214 288c-51 0 -90 20 -115 60c-25 41 -32 93 -21 156c23 128 100 208 207 208c51 0 90 -20 115 -61c25 -40 32 -92 21 -155c-23 -128 -100 -208 -207 -208zM137 377c17 -29 44 -43 83 -43s71 14 98 43s46 70 55 123s6 93 -11 122s-44 44 -83 44s-72 -15 -99 -44
s-45 -69 -54 -122s-6 -94 11 -123z" />
    <glyph glyph-name="one.numr" horiz-adv-x="246" 
d="M85 655l130 45h39l-71 -400h-48l61 343l-106 -32z" />
    <glyph glyph-name="two.numr" horiz-adv-x="342" 
d="M318 300h-276l7 39l202 166c37 29 58 58 63 87c7 43 -20 74 -69 74c-43 0 -78 -23 -103 -68l-39 24c29 55 85 90 148 90c76 0 122 -53 111 -122c-6 -40 -34 -80 -83 -119l-153 -125h199z" />
    <glyph glyph-name="three.numr" horiz-adv-x="350" 
d="M119 700h251l-8 -46l-114 -120c64 -12 99 -62 88 -123c-13 -75 -75 -123 -163 -123c-63 0 -105 27 -124 81l42 21c12 -37 42 -56 89 -56c61 0 100 33 108 81c9 48 -20 82 -79 82h-3l-18 35l115 122h-192z" />
    <glyph glyph-name="four.numr" horiz-adv-x="356" 
d="M309 425h54l-8 -45h-54l-14 -80h-48l14 80h-213l7 45l199 275h55l-198 -275h158l18 104h48z" />
    <glyph glyph-name="five.numr" horiz-adv-x="340" 
d="M367 700l-8 -45h-184l-28 -110h71c39 0 69 -13 91 -39c23 -25 31 -57 24 -95c-13 -76 -73 -123 -161 -123c-63 0 -104 27 -123 80l43 22c13 -37 42 -56 87 -56c57 0 98 32 106 81c9 52 -20 84 -77 84h-118l50 201h227z" />
    <glyph glyph-name="six.numr" horiz-adv-x="339" 
d="M224 560c41 0 73 -14 96 -41c24 -27 32 -60 25 -99c-13 -77 -83 -132 -168 -132c-41 0 -73 14 -97 41s-32 61 -25 100c5 30 17 56 38 77l163 194h60l-122 -142c13 1 23 2 30 2zM298 425c9 53 -24 89 -83 89c-57 0 -104 -36 -113 -89c-9 -55 25 -91 82 -91s103 36 114 91z
" />
    <glyph glyph-name="seven.numr" horiz-adv-x="309" 
d="M88 654l8 46h266l-7 -39l-216 -361h-53l214 354h-212z" />
    <glyph glyph-name="eight.numr" horiz-adv-x="342" 
d="M361 596c-7 -39 -31 -68 -73 -87c43 -24 61 -60 52 -108c-13 -71 -76 -113 -161 -113c-81 0 -134 49 -122 120c9 49 39 84 90 104c-35 23 -50 53 -43 91c12 69 76 109 149 109c68 0 120 -47 108 -116zM313 600c8 41 -20 67 -68 67c-49 0 -85 -26 -93 -67
c-7 -41 22 -68 70 -68c47 0 84 27 91 68zM213 486c-57 0 -99 -29 -107 -76s22 -76 81 -76c57 0 98 29 106 76s-25 76 -80 76z" />
    <glyph glyph-name="nine.numr" horiz-adv-x="339" 
d="M250 712c40 0 72 -14 96 -42c24 -27 33 -60 26 -99c-3 -25 -14 -48 -32 -70l-167 -201h-60l122 143c-10 -2 -21 -3 -32 -3c-40 0 -72 14 -96 41c-23 28 -32 61 -25 99c7 39 26 70 57 95c32 25 69 37 111 37zM129 575c-9 -53 24 -89 83 -89c57 0 104 36 113 89
c9 55 -25 91 -82 91s-103 -36 -114 -91z" />
    <glyph glyph-name="zero.sups" horiz-adv-x="411" 
d="M242 448c-51 0 -90 20 -115 60c-25 41 -32 93 -21 156c23 128 100 208 207 208c51 0 90 -20 115 -61c25 -40 32 -92 21 -155c-23 -128 -100 -208 -207 -208zM165 537c17 -29 44 -43 83 -43s71 14 98 43s46 70 55 123s6 93 -11 122s-44 44 -83 44s-72 -15 -99 -44
s-45 -69 -54 -122s-6 -94 11 -123z" />
    <glyph glyph-name="one.sups" horiz-adv-x="247" 
d="M114 815l130 45h39l-71 -400h-48l61 343l-106 -32z" />
    <glyph glyph-name="two.sups" horiz-adv-x="342" 
d="M346 460h-276l7 39l202 166c37 29 58 58 63 87c7 43 -20 74 -69 74c-43 0 -78 -23 -103 -68l-39 24c29 55 85 90 148 90c76 0 122 -53 111 -122c-6 -40 -34 -80 -83 -119l-153 -125h199z" />
    <glyph glyph-name="three.sups" horiz-adv-x="350" 
d="M148 860h251l-8 -46l-114 -120c64 -12 99 -62 88 -123c-13 -75 -75 -123 -163 -123c-63 0 -105 27 -124 81l42 21c12 -37 42 -56 89 -56c61 0 100 33 108 81c9 48 -20 82 -79 82h-3l-18 35l115 122h-192z" />
    <glyph glyph-name="four.sups" horiz-adv-x="356" 
d="M337 585h54l-8 -45h-54l-14 -80h-48l14 80h-213l7 45l199 275h55l-198 -275h158l18 104h48z" />
    <glyph glyph-name="five.sups" horiz-adv-x="340" 
d="M396 860l-8 -45h-184l-28 -110h71c39 0 69 -13 91 -39c23 -25 31 -57 24 -95c-13 -76 -73 -123 -161 -123c-63 0 -104 27 -123 80l43 22c13 -37 42 -56 87 -56c57 0 98 32 106 81c9 52 -20 84 -77 84h-118l50 201h227z" />
    <glyph glyph-name="six.sups" horiz-adv-x="339" 
d="M253 720c41 0 73 -14 96 -41c24 -27 32 -60 25 -99c-13 -77 -83 -132 -168 -132c-41 0 -73 14 -97 41s-32 61 -25 100c5 30 17 56 38 77l163 194h60l-122 -142c13 1 23 2 30 2zM327 585c9 53 -24 89 -83 89c-57 0 -104 -36 -113 -89c-9 -55 25 -91 82 -91s103 36 114 91z
" />
    <glyph glyph-name="seven.sups" horiz-adv-x="310" 
d="M117 814l8 46h266l-7 -39l-216 -361h-53l214 354h-212z" />
    <glyph glyph-name="eight.sups" horiz-adv-x="342" 
d="M389 756c-7 -39 -31 -68 -73 -87c43 -24 61 -60 52 -108c-13 -71 -76 -113 -161 -113c-81 0 -134 49 -122 120c9 49 39 84 90 104c-35 23 -50 53 -43 91c12 69 76 109 149 109c68 0 120 -47 108 -116zM341 760c8 41 -20 67 -68 67c-49 0 -85 -26 -93 -67
c-7 -41 22 -68 70 -68c47 0 84 27 91 68zM241 646c-57 0 -99 -29 -107 -76s22 -76 81 -76c57 0 98 29 106 76s-25 76 -80 76z" />
    <glyph glyph-name="nine.sups" horiz-adv-x="339" 
d="M278 872c40 0 72 -14 96 -42c24 -27 33 -60 26 -99c-3 -25 -14 -48 -32 -70l-167 -201h-60l122 143c-10 -2 -21 -3 -32 -3c-40 0 -72 14 -96 41c-23 28 -32 61 -25 99c7 39 26 70 57 95c32 25 69 37 111 37zM157 735c-9 -53 24 -89 83 -89c57 0 104 36 113 89
c9 55 -25 91 -82 91s-103 -36 -114 -91z" />
    <glyph glyph-name="cent.tf" 
d="M572 484l-43 -23c-16 44 -46 74 -90 90l-203 -407c16 -5 34 -7 55 -7c80 0 155 41 196 105l40 -27c-51 -79 -141 -126 -245 -126c-25 0 -48 3 -69 10l-49 -99h-43l56 113c-84 43 -129 138 -110 245c13 74 48 135 105 182c58 47 124 71 199 71c17 0 34 -2 53 -5l47 94h43
l-53 -105c56 -22 93 -59 111 -111zM200 158l201 402c-11 2 -23 3 -35 3c-61 0 -115 -20 -162 -60s-75 -90 -86 -150c-15 -85 17 -160 82 -195z" />
    <glyph glyph-name="dollar.tf" 
d="M567 584l-48 -24c-23 57 -65 90 -125 98l-51 -286c44 -17 64 -26 101 -51c54 -35 77 -80 67 -158c-21 -108 -111 -167 -235 -174l-16 -89h-47l16 90c-108 8 -180 60 -204 145l48 24c18 -73 73 -112 165 -118l52 295c-52 21 -83 37 -120 69c-36 33 -50 80 -38 137
c10 52 36 93 79 122c43 30 91 46 145 47l16 89h47l-16 -91c83 -11 137 -53 164 -125zM185 537c-15 -75 30 -112 114 -148l48 271c-80 -5 -147 -54 -162 -123zM457 169c16 75 -32 113 -123 150l-49 -278c93 7 157 55 172 128z" />
    <glyph glyph-name="Euro.tf" 
d="M407 660c-101 0 -184 -80 -227 -223h254l-8 -44h-258l-9 -43l-6 -37h259l-8 -45h-255c-8 -145 45 -228 148 -228c73 0 140 45 181 124l43 -27c-51 -93 -135 -148 -232 -148c-129 0 -201 108 -194 279h-70l8 45h66c1 14 3 28 6 42c1 11 4 23 8 38h-66l8 44h69
c51 172 154 274 290 274c89 0 158 -54 179 -143l-46 -24c-17 73 -69 116 -140 116z" />
    <glyph glyph-name="florin.tf" 
d="M310 375l83 202c47 113 127 155 224 126l-9 -50c-73 28 -131 -5 -162 -77l-83 -201h153l-9 -49h-164l-166 -403c-47 -113 -127 -155 -223 -126l8 50c73 -28 131 4 162 77l166 402h-150l9 49h161z" />
    <glyph glyph-name="uni20BD.tf" 
d="M179 700h233c55 0 100 -21 134 -64c35 -42 47 -91 36 -148c-9 -57 -37 -104 -84 -143s-99 -58 -158 -58h-181l-18 -104h261l-8 -44h-261l-24 -139h-53l24 139h-89l7 44h90l18 104h-90l9 50h90zM529 493c8 43 0 80 -25 111s-58 46 -100 46h-181l-55 -313h181
c43 0 81 15 116 45c35 31 57 68 64 111z" />
    <glyph glyph-name="sterling.tf" 
d="M397 660c-85 0 -149 -54 -165 -150l-30 -170h241l-9 -47h-240l-43 -242h377l-9 -51h-530l9 51h100l43 242h-80l8 47h80l30 170c23 129 107 201 223 201c85 0 150 -49 177 -130l-44 -24c-25 69 -71 103 -138 103z" />
    <glyph glyph-name="yen.tf" 
d="M574 700h62l-297 -356h175l-8 -45h-186l-13 -77h186l-8 -44h-186l-31 -178h-54l32 178h-184l7 44h184l14 77h-184l8 45h173l-171 356h55l156 -324z" />
    <glyph glyph-name="brevecy" horiz-adv-x="293" 
d="M333 587h-254l8 44h253z" />
    </font>
</defs>
</svg>
