<?xml version="1.0" standalone="no"?>
<!DOCTYPE svg PUBLIC "-//W3C//DTD SVG 1.1//EN" "http://www.w3.org/Graphics/SVG/1.1/DTD/svg11.dtd" >
<svg xmlns="http://www.w3.org/2000/svg" xmlns:xlink="http://www.w3.org/1999/xlink" version="1.1">
<metadata>
Created by FontForge 20170924 at Thu Jul 21 23:24:08 2016
 By www-data
Copyright \251 2016 by Radomir Tinkov. All rights reserved.
</metadata>
<defs>
<font id="Gilroy-Medium" horiz-adv-x="633" >
  <font-face 
    font-family="Gilroy"
    font-weight="500"
    font-stretch="normal"
    units-per-em="1000"
    panose-1="0 0 6 0 0 0 0 0 0 0"
    ascent="774"
    descent="-226"
    x-height="500"
    cap-height="700"
    bbox="-350 -248 1034 965"
    underline-thickness="50"
    underline-position="-100"
    stemh="84"
    stemv="87"
    unicode-range="U+0020-FB02"
  />
<missing-glyph horiz-adv-x="500" 
d="M93 800h317v-1000h-317v1000zM333 700v33h-165v-33h65v-37h-66v-33h166v33h-66v37h66zM267 534v70h-100v-104h166v34h-66zM200 570h33v-36h-33v36zM333 440v33h-166v-33h66v-37h-66v-33h100v70h66zM333 313v100h-33v-66h-133v-34h166zM333 178v113h-100v-56h34v23h33v-47
h-100v80h-33v-113h166zM333 5v113h-166v-113h166zM200 85h100v-47h-100v47zM333 -51v33h-166v-33h70l-70 -47v-33h166v33h-102l70 47h32z" />
    <glyph glyph-name="fi" unicode="fi" horiz-adv-x="530" 
d="M191 500h272v-500h-87v416h-185v-416h-87v416h-80v84h80v15c0 132 73 198 219 198c27 0 62 -4 103 -13v-79c-41 5 -75 8 -103 8c-91 0 -132 -30 -132 -114v-15z" />
    <glyph glyph-name="fl" unicode="fl" horiz-adv-x="530" 
d="M323 713c40 0 87 -5 140 -15v-698h-87v633c-24 1 -42 2 -53 2c-89 0 -132 -35 -132 -120v-15h104v-84h-104v-416h-87v416h-80v84h80v15c0 132 73 198 219 198z" />
    <glyph glyph-name="f_f" unicode="ff" horiz-adv-x="595" 
d="M595 723v-84c-87 7 -131 -31 -131 -114v-25h131v-84h-131v-416h-87v416h-186v-416h-87v416h-80v84h80v15c0 135 78 207 219 198v-84c-88 7 -132 -31 -132 -114v-15h186v25c0 135 77 207 218 198z" />
    <glyph glyph-name="f_f_i" unicode="ffi" horiz-adv-x="802" 
d="M464 500h272v-500h-87v416h-185v-416h-87v416h-186v-416h-87v416h-80v84h80v15c0 135 78 207 219 198v-84c-88 7 -132 -31 -132 -114v-15h186v25c0 132 73 198 218 198c29 0 63 -4 103 -13v-79c-39 5 -74 8 -103 8c-91 0 -131 -30 -131 -114v-25z" />
    <glyph glyph-name="f_f_l" unicode="ffl" horiz-adv-x="802" 
d="M595 723c41 0 88 -5 141 -15v-708h-87v643c-24 1 -42 2 -54 2c-89 0 -131 -35 -131 -120v-25h104v-84h-104v-416h-87v416h-186v-416h-87v416h-80v84h80v15c0 135 78 207 219 198v-84c-88 7 -132 -31 -132 -114v-15h186v25c0 132 73 198 218 198z" />
    <glyph glyph-name=".notdef" horiz-adv-x="500" 
d="M93 800h317v-1000h-317v1000zM333 700v33h-165v-33h65v-37h-66v-33h166v33h-66v37h66zM267 534v70h-100v-104h166v34h-66zM200 570h33v-36h-33v36zM333 440v33h-166v-33h66v-37h-66v-33h100v70h66zM333 313v100h-33v-66h-133v-34h166zM333 178v113h-100v-56h34v23h33v-47
h-100v80h-33v-113h166zM333 5v113h-166v-113h166zM200 85h100v-47h-100v47zM333 -51v33h-166v-33h70l-70 -47v-33h166v33h-102l70 47h32z" />
    <glyph glyph-name="NULL" horiz-adv-x="0" 
 />
    <glyph glyph-name="CR" horiz-adv-x="333" 
 />
    <glyph glyph-name="space" unicode=" " horiz-adv-x="250" 
 />
    <glyph glyph-name="exclam" unicode="!" horiz-adv-x="243" 
d="M155 205h-67l-19 295v200h105v-200zM121 -11c-36 0 -65 29 -65 65s29 65 65 65c37 0 65 -29 65 -65s-28 -65 -65 -65z" />
    <glyph glyph-name="quotedbl" unicode="&#x22;" horiz-adv-x="333" 
d="M123 490h-63l-12 210h87zM273 490h-63l-12 210h87z" />
    <glyph glyph-name="numbersign" unicode="#" horiz-adv-x="605" 
d="M577 478l-12 -73h-116l-18 -110h117l-12 -72h-117l-29 -173h-76l29 173h-122l-29 -173h-77l29 173h-116l12 72h116l18 110h-117l12 73h117l29 172h77l-29 -172h122l29 172h76l-29 -172h116zM233 295h122l18 110h-122z" />
    <glyph glyph-name="dollar" unicode="$" horiz-adv-x="550" 
d="M515 187c0 -55 -18 -100 -54 -135s-83 -56 -140 -63v-89h-63v88c-109 8 -188 62 -223 150l80 46c23 -62 70 -97 143 -105v242c-60 21 -90 35 -130 66s-59 75 -59 134c0 54 18 98 54 132s81 54 135 59v88h63v-89c80 -11 145 -57 180 -134l-78 -44c-19 49 -53 78 -102 87
v-230c31 -11 55 -21 73 -30s38 -21 59 -37c43 -31 62 -76 62 -136zM161 521c0 -51 29 -79 97 -107v207c-59 -8 -97 -45 -97 -100zM321 298v-217c64 9 101 50 101 105s-32 83 -101 112z" />
    <glyph glyph-name="percent" unicode="%" horiz-adv-x="728" 
d="M213 403c-45 0 -83 15 -113 45s-45 67 -45 110s15 79 45 109c31 31 68 46 113 46s83 -15 113 -45s45 -67 45 -110s-15 -80 -45 -110c-29 -30 -67 -45 -113 -45zM133 558c0 -47 33 -82 80 -82s80 37 80 82s-33 81 -80 81s-80 -36 -80 -81zM150 71l-48 28l465 520l49 -27z
M628 33c-30 -30 -68 -45 -113 -45s-83 15 -113 45s-45 67 -45 110s15 80 45 110s68 45 113 45s83 -15 113 -45s45 -67 45 -110s-15 -80 -45 -110zM457 85c15 -15 35 -23 58 -23s42 8 57 23c31 32 31 84 0 115c-15 16 -34 24 -57 24s-43 -8 -58 -24c-29 -31 -29 -83 0 -115z
" />
    <glyph glyph-name="ampersand" unicode="&#x26;" horiz-adv-x="662" 
d="M546 128l93 -99l-78 -45l-71 76c-52 -49 -119 -73 -200 -73c-70 0 -127 18 -170 54c-43 37 -65 86 -65 148c0 85 44 161 128 202c-30 38 -45 80 -45 127c0 58 20 105 60 141c41 36 89 54 146 54c93 0 176 -54 209 -143l-78 -45c-20 61 -69 98 -129 98
c-64 0 -115 -43 -115 -104c0 -44 21 -75 62 -119l191 -204c17 35 29 77 36 127l80 -46c-9 -55 -27 -105 -54 -149zM292 75c55 0 101 16 138 49l-189 203c-64 -27 -93 -79 -93 -132c0 -75 53 -120 144 -120z" />
    <glyph glyph-name="quotesingle" unicode="'" horiz-adv-x="183" 
d="M123 490h-63l-12 210h87z" />
    <glyph glyph-name="parenleft" unicode="(" horiz-adv-x="280" 
d="M255 -100h-87c-147 293 -147 607 0 900h87c-147 -293 -147 -607 0 -900z" />
    <glyph glyph-name="parenright" unicode=")" horiz-adv-x="280" 
d="M112 -100h-87c147 293 147 607 0 900h87c147 -293 147 -607 0 -900z" />
    <glyph glyph-name="asterisk" unicode="*" horiz-adv-x="394" 
d="M246 605l91 5v-64l-91 4l53 -73l-57 -34l-45 82l-45 -82l-56 34l52 73l-90 -4v64l90 -5l-52 74l56 34l45 -82l45 82l57 -34z" />
    <glyph glyph-name="plus" unicode="+" horiz-adv-x="545" 
d="M314 392h174v-83h-174v-174h-83v174h-173v83h173v173h83v-173z" />
    <glyph glyph-name="comma" unicode="," horiz-adv-x="253" 
d="M96 103h100l-65 -243h-75z" />
    <glyph glyph-name="hyphen" unicode="-" horiz-adv-x="515" 
d="M440 265h-365v84h365v-84z" />
    <glyph glyph-name="period" unicode="." horiz-adv-x="243" 
d="M121 -11c-36 0 -65 29 -65 65s29 65 65 65c37 0 65 -29 65 -65s-28 -65 -65 -65z" />
    <glyph glyph-name="slash" unicode="/" horiz-adv-x="528" 
d="M490 800l-400 -900h-52l400 900h52z" />
    <glyph glyph-name="zero" unicode="0" horiz-adv-x="630" 
d="M514 86c-47 -66 -114 -99 -199 -99s-152 33 -199 99s-71 154 -71 264s24 198 71 264s114 99 199 99s152 -33 199 -99s71 -154 71 -264s-24 -198 -71 -264zM138 350c0 -173 64 -272 177 -272s178 99 178 272s-65 273 -178 273s-177 -98 -177 -273z" />
    <glyph glyph-name="one" unicode="1" horiz-adv-x="356" 
d="M14 636l184 64h80v-700h-92v600l-149 -44z" />
    <glyph glyph-name="two" unicode="2" horiz-adv-x="527" 
d="M488 0h-452v76l247 252c66 66 99 123 99 170c0 79 -55 125 -124 125c-66 0 -114 -31 -144 -94l-78 46c44 91 126 138 221 138c59 0 110 -19 153 -58s65 -91 65 -156c0 -71 -42 -148 -125 -231l-179 -178h317v-90z" />
    <glyph glyph-name="three" unicode="3" horiz-adv-x="535" 
d="M468 618l-152 -205c107 -20 182 -95 182 -206c0 -68 -23 -122 -70 -161s-103 -59 -170 -59c-107 0 -195 50 -230 142l78 46c21 -65 71 -97 152 -97c87 0 147 48 147 129s-60 130 -147 130h-24l-37 57l162 219h-311v87h420v-82z" />
    <glyph glyph-name="four" unicode="4" horiz-adv-x="580" 
d="M474 220h85v-87h-85v-133h-93v133h-357v87l251 480h100l-251 -480h257v198h93v-198z" />
    <glyph glyph-name="five" unicode="5" horiz-adv-x="543" 
d="M168 427h102c66 0 122 -20 167 -59c46 -39 69 -92 69 -161c0 -68 -23 -122 -70 -161s-103 -59 -170 -59c-107 0 -198 53 -231 150l79 45c19 -68 75 -104 152 -104c88 0 148 48 148 129s-61 130 -146 130h-198l26 363h383v-87h-299z" />
    <glyph glyph-name="six" unicode="6" horiz-adv-x="538" 
d="M269 458c70 0 128 -22 173 -66c45 -43 68 -100 68 -169s-23 -126 -68 -170s-103 -66 -173 -66c-71 0 -129 22 -174 66s-67 101 -67 170c0 54 14 101 42 140l225 337h106l-165 -244c15 1 26 2 33 2zM269 369c-89 0 -149 -58 -149 -146s61 -147 149 -147s149 59 149 147
s-61 146 -149 146z" />
    <glyph glyph-name="seven" unicode="7" horiz-adv-x="490" 
d="M18 612v88h437v-83l-255 -617h-97l253 612h-338z" />
    <glyph glyph-name="eight" unicode="8" horiz-adv-x="555" 
d="M408 362c68 -35 109 -95 109 -170c0 -64 -22 -114 -67 -151c-45 -36 -102 -54 -173 -54c-70 0 -127 18 -172 54c-45 37 -67 87 -67 151c0 75 41 135 109 170c-57 36 -86 87 -86 153c0 63 21 112 63 146c43 35 94 52 153 52c60 0 111 -17 153 -52c43 -34 64 -83 64 -146
c0 -66 -29 -117 -86 -153zM277 624c-71 0 -124 -38 -124 -111c0 -71 55 -112 124 -112s124 41 124 112c0 73 -52 111 -124 111zM277 76c89 0 148 43 148 122c0 77 -59 121 -148 121c-88 0 -147 -44 -147 -121c0 -79 59 -122 147 -122z" />
    <glyph glyph-name="nine" unicode="9" horiz-adv-x="538" 
d="M510 478c0 -54 -14 -101 -43 -141h1l-226 -337h-105l166 245c-15 -1 -26 -2 -34 -2c-71 0 -129 22 -174 65c-45 44 -67 101 -67 170s22 126 67 169c45 44 103 66 174 66s128 -22 173 -66c45 -43 68 -100 68 -169zM269 624c-88 0 -149 -58 -149 -146s61 -147 149 -147
s149 59 149 147s-60 146 -149 146z" />
    <glyph glyph-name="colon" unicode=":" horiz-adv-x="243" 
d="M121 382c-36 0 -65 29 -65 65s29 65 65 65c37 0 65 -29 65 -65s-28 -65 -65 -65zM121 -11c-36 0 -65 29 -65 65s29 65 65 65c37 0 65 -29 65 -65s-28 -65 -65 -65z" />
    <glyph glyph-name="semicolon" unicode=";" horiz-adv-x="256" 
d="M135 382c-36 0 -65 29 -65 65s29 65 65 65c37 0 65 -29 65 -65s-28 -65 -65 -65zM96 103h100l-65 -243h-75z" />
    <glyph glyph-name="less" unicode="&#x3c;" horiz-adv-x="523" 
d="M55 393l413 180v-94l-314 -129l314 -128v-94l-413 180v85z" />
    <glyph glyph-name="equal" unicode="=" horiz-adv-x="535" 
d="M480 410h-425v83h425v-83zM480 207h-425v83h425v-83z" />
    <glyph glyph-name="greater" unicode="&#x3e;" horiz-adv-x="523" 
d="M55 479v94l413 -180v-85l-413 -180v94l314 128z" />
    <glyph glyph-name="question" unicode="?" horiz-adv-x="539" 
d="M298 205h-93c0 59 29 111 65 147c52 52 119 99 119 168c0 67 -51 103 -124 103s-120 -32 -141 -97l-79 44c33 93 120 143 221 143c59 0 110 -17 152 -50c43 -33 64 -80 64 -139c0 -56 -29 -107 -65 -143c-52 -52 -119 -103 -119 -176zM251 -11c-36 0 -65 29 -65 65
s29 65 65 65c37 0 65 -29 65 -65s-28 -65 -65 -65z" />
    <glyph glyph-name="at" unicode="@" horiz-adv-x="789" 
d="M402 612c71 0 133 -17 188 -52c109 -68 162 -177 162 -290c0 -70 -15 -123 -44 -160c-29 -36 -64 -54 -105 -54c-63 0 -103 28 -119 84c-27 -34 -62 -51 -107 -51s-83 15 -113 46c-29 31 -44 69 -44 115s15 84 44 115c30 31 68 46 113 46c40 0 74 -15 101 -44v36h77v-221
c0 -59 21 -88 63 -88c59 0 101 57 101 176c0 88 -31 162 -92 222s-136 90 -225 90c-92 0 -170 -32 -235 -96c-65 -63 -97 -142 -97 -236c0 -96 33 -175 99 -238c67 -63 150 -94 251 -94c66 0 123 9 170 28v-32c-47 -17 -103 -26 -170 -26c-109 0 -200 34 -273 103
c-73 68 -109 154 -109 259c0 101 35 186 104 256c70 71 157 106 260 106zM324 185c36 -32 95 -32 128 0c17 17 26 38 26 65s-9 48 -26 64c-33 33 -92 33 -128 0c-17 -16 -26 -37 -26 -64s9 -48 26 -65z" />
    <glyph glyph-name="A" unicode="A" horiz-adv-x="643" 
d="M635 0h-99l-57 157h-315l-57 -157h-99l261 700h105zM321 589l-125 -345h251z" />
    <glyph glyph-name="B" unicode="B" horiz-adv-x="615" 
d="M475 363c64 -31 105 -90 105 -165c0 -56 -20 -103 -59 -141s-87 -57 -144 -57h-302v700h280c55 0 101 -18 139 -55s57 -82 57 -136c0 -62 -25 -111 -76 -146zM355 613h-187v-214h187c59 0 104 47 104 107c0 29 -10 54 -31 75c-20 21 -44 32 -73 32zM168 87h209
c63 0 111 50 111 114c0 31 -11 58 -33 80c-21 22 -47 33 -78 33h-209v-227z" />
    <glyph glyph-name="C" unicode="C" horiz-adv-x="739" 
d="M404 -13c-106 0 -194 35 -263 105s-103 156 -103 258s34 188 103 258s157 105 263 105c128 0 242 -66 302 -170l-81 -47c-40 77 -125 127 -221 127c-81 0 -147 -26 -198 -78s-76 -117 -76 -195c0 -77 25 -142 76 -194s117 -78 198 -78c96 0 181 50 221 126l81 -46
c-29 -52 -71 -94 -125 -125s-113 -46 -177 -46z" />
    <glyph glyph-name="D" unicode="D" horiz-adv-x="718" 
d="M75 700h273c95 0 174 -34 237 -102c63 -67 95 -150 95 -248s-32 -181 -95 -249c-63 -67 -142 -101 -237 -101h-273v700zM168 88h180c71 0 130 25 175 75s68 112 68 187s-23 137 -68 187s-104 75 -175 75h-180v-524z" />
    <glyph glyph-name="E" unicode="E" horiz-adv-x="530" 
d="M168 310v-222h325v-88h-418v700h413v-88h-320v-215h295v-87h-295z" />
    <glyph glyph-name="F" unicode="F" horiz-adv-x="516" 
d="M478 700v-88h-310v-227h297v-88h-297v-297h-93v700h403z" />
    <glyph glyph-name="G" unicode="G" horiz-adv-x="788" 
d="M400 347h350v-42c0 -91 -31 -167 -94 -228c-63 -60 -146 -90 -249 -90c-107 0 -195 35 -265 105c-69 71 -104 157 -104 258s35 187 104 257c70 71 158 106 263 106c65 0 124 -16 178 -47s96 -71 125 -122l-80 -47c-40 76 -127 126 -224 126c-80 0 -146 -26 -197 -79
c-51 -52 -77 -117 -77 -194s26 -142 77 -194c52 -52 119 -78 201 -78c140 0 230 76 249 185h-257v84z" />
    <glyph glyph-name="H" unicode="H" horiz-adv-x="675" 
d="M508 403v297h92v-700h-92v315h-340v-315h-93v700h93v-297h340z" />
    <glyph glyph-name="I" unicode="I" horiz-adv-x="243" 
d="M75 0v700h93v-700h-93z" />
    <glyph glyph-name="J" unicode="J" horiz-adv-x="558" 
d="M257 -13c-101 0 -183 44 -219 125l79 46c21 -53 67 -80 140 -80c89 0 143 43 143 127v495h92v-495c0 -70 -22 -124 -67 -162c-44 -37 -100 -56 -168 -56z" />
    <glyph glyph-name="K" unicode="K" horiz-adv-x="592" 
d="M265 360l319 -360h-114l-302 336v-336h-93v700h93v-316l292 316h114z" />
    <glyph glyph-name="L" unicode="L" horiz-adv-x="488" 
d="M168 700v-612h302v-88h-395v700h93z" />
    <glyph glyph-name="M" unicode="M" horiz-adv-x="805" 
d="M625 700h105v-700h-92v547l-229 -381h-12l-229 380v-546h-93v700h105l223 -370z" />
    <glyph glyph-name="N" unicode="N" horiz-adv-x="678" 
d="M510 178v522h93v-700h-75l-360 523v-523h-93v700h75z" />
    <glyph glyph-name="O" unicode="O" horiz-adv-x="800" 
d="M38 350c0 101 35 187 105 257c70 71 156 106 257 106s187 -35 257 -106c71 -70 106 -156 106 -257s-35 -186 -106 -257c-70 -71 -156 -106 -257 -106s-187 35 -257 106s-105 156 -105 257zM670 350c0 77 -26 142 -78 194c-51 53 -115 79 -192 79s-141 -26 -193 -79
c-51 -52 -77 -117 -77 -194s26 -141 77 -194c52 -52 116 -78 193 -78s141 26 192 78c52 53 78 117 78 194z" />
    <glyph glyph-name="P" unicode="P" horiz-adv-x="590" 
d="M75 700h254c65 0 118 -22 161 -65s65 -96 65 -160c0 -63 -22 -117 -65 -160s-96 -65 -161 -65h-161v-250h-93v700zM168 337h161c39 0 71 13 96 39c25 27 38 60 38 99c0 80 -57 138 -134 138h-161v-276z" />
    <glyph glyph-name="Q" unicode="Q" horiz-adv-x="805" 
d="M763 350c0 -96 -33 -179 -99 -249l77 -77l-64 -58l-79 80c-61 -39 -127 -59 -198 -59c-100 0 -185 35 -256 106s-106 156 -106 257s35 186 106 257s156 106 256 106s185 -35 256 -106s107 -156 107 -257zM400 78c48 0 92 11 132 34l-140 141l64 57l144 -144
c47 51 70 112 70 184c0 77 -26 141 -79 194c-52 53 -116 79 -191 79s-139 -26 -192 -79c-52 -53 -78 -117 -78 -194c0 -76 26 -140 78 -193c53 -53 117 -79 192 -79z" />
    <glyph glyph-name="R" unicode="R" horiz-adv-x="611" 
d="M593 0h-103l-157 268h-165v-268h-93v700h280c60 0 111 -21 154 -64c43 -42 64 -93 64 -153c0 -45 -14 -87 -41 -124s-61 -64 -104 -79zM355 613h-187v-261h187c35 0 64 13 88 38c25 26 37 57 37 93s-12 67 -37 92c-24 25 -53 38 -88 38z" />
    <glyph glyph-name="S" unicode="S" horiz-adv-x="578" 
d="M301 -13c-131 0 -228 65 -265 172l80 46c27 -85 90 -127 187 -127c96 0 148 43 148 108c0 33 -13 58 -38 75s-68 34 -127 53l-67 22c-15 6 -35 15 -58 26c-23 12 -40 24 -51 36c-23 25 -44 66 -44 117c0 61 21 109 64 144c43 36 95 54 156 54c111 0 196 -61 237 -153
l-78 -45c-30 72 -83 108 -159 108s-127 -40 -127 -104c0 -31 11 -54 33 -70s60 -33 114 -50l41 -13c8 -3 20 -7 37 -14c35 -13 43 -18 70 -33c28 -15 37 -26 54 -46c25 -25 35 -61 35 -105c0 -61 -22 -110 -67 -147c-45 -36 -103 -54 -175 -54z" />
    <glyph glyph-name="T" unicode="T" horiz-adv-x="540" 
d="M18 700h505v-88h-207v-612h-92v612h-206v88z" />
    <glyph glyph-name="U" unicode="U" horiz-adv-x="658" 
d="M66 235v465h93v-461c0 -99 61 -161 170 -161s170 62 170 161v461h92v-465c0 -75 -24 -136 -73 -181s-112 -67 -189 -67s-141 22 -190 67s-73 106 -73 181z" />
    <glyph glyph-name="V" unicode="V" horiz-adv-x="621" 
d="M363 0h-105l-250 700h100l203 -584l202 584h101z" />
    <glyph glyph-name="W" unicode="W" horiz-adv-x="1000" 
d="M334 0h-108l-201 700h98l160 -576l170 576h94l170 -576l160 576h98l-201 -700h-108l-166 559z" />
    <glyph glyph-name="X" unicode="X" horiz-adv-x="590" 
d="M348 361l225 -361h-106l-172 276l-172 -276h-105l225 360l-212 340h105l159 -255l159 255h105z" />
    <glyph glyph-name="Y" unicode="Y" horiz-adv-x="604" 
d="M492 700h104l-248 -417v-283h-93v284l-247 416h104l190 -328z" />
    <glyph glyph-name="Z" unicode="Z" horiz-adv-x="525" 
d="M488 620l-339 -532h347v-88h-457v81l338 531h-329v88h440v-80z" />
    <glyph glyph-name="bracketleft" unicode="[" horiz-adv-x="290" 
d="M270 800v-84h-125v-732h125v-84h-212v900h212z" />
    <glyph glyph-name="backslash" unicode="\" horiz-adv-x="528" 
d="M490 -100h-52l-400 900h52z" />
    <glyph glyph-name="bracketright" unicode="]" horiz-adv-x="290" 
d="M20 800h212v-900h-212v84h125v732h-125v84z" />
    <glyph glyph-name="asciicircum" unicode="^" horiz-adv-x="520" 
d="M221 700h78l181 -310h-98l-122 212l-122 -212h-98z" />
    <glyph glyph-name="underscore" unicode="_" horiz-adv-x="520" 
d="M483 -151h-445v84h445v-84z" />
    <glyph glyph-name="grave" unicode="`" horiz-adv-x="225" 
d="M205 568h-84l-101 132h105z" />
    <glyph glyph-name="a" unicode="a" 
d="M480 414v86h87v-500h-87v86c-43 -66 -106 -99 -189 -99c-70 0 -130 25 -179 76s-74 114 -74 187s25 135 74 186s109 77 179 77c83 0 146 -33 189 -99zM302 71c51 0 93 17 127 51c34 35 51 77 51 128s-17 93 -51 127c-34 35 -76 52 -127 52c-50 0 -92 -17 -126 -52
c-34 -34 -51 -76 -51 -127s17 -93 51 -128c34 -34 76 -51 126 -51z" />
    <glyph glyph-name="b" unicode="b" 
d="M342 513c70 0 130 -26 179 -77s74 -113 74 -186s-25 -136 -74 -187s-109 -76 -179 -76c-83 0 -146 33 -189 99v-86h-87v700h87v-286c43 66 106 99 189 99zM331 71c50 0 92 17 126 51c34 35 51 77 51 128s-17 93 -51 127c-34 35 -76 52 -126 52c-51 0 -93 -17 -127 -52
c-34 -34 -51 -76 -51 -127s17 -93 51 -128c34 -34 76 -51 127 -51z" />
    <glyph glyph-name="c" unicode="c" horiz-adv-x="547" 
d="M301 -13c-75 0 -138 25 -188 75c-50 51 -75 113 -75 188s25 137 75 187c50 51 113 76 188 76c99 0 182 -51 221 -131l-73 -42c-25 53 -81 88 -148 88c-50 0 -92 -17 -126 -51c-33 -34 -50 -76 -50 -127c0 -50 17 -92 50 -126c34 -34 76 -51 126 -51c67 0 123 34 151 87
l74 -43c-43 -79 -128 -130 -225 -130z" />
    <glyph glyph-name="d" unicode="d" 
d="M480 414v286h87v-700h-87v86c-43 -66 -106 -99 -189 -99c-70 0 -130 25 -179 76s-74 114 -74 187s25 135 74 186s109 77 179 77c83 0 146 -33 189 -99zM302 71c51 0 93 17 127 51c34 35 51 77 51 128s-17 93 -51 127c-34 35 -76 52 -127 52c-50 0 -92 -17 -126 -52
c-34 -34 -51 -76 -51 -127s17 -93 51 -128c34 -34 76 -51 126 -51z" />
    <glyph glyph-name="e" unicode="e" horiz-adv-x="583" 
d="M546 210h-419c17 -89 86 -141 181 -141c66 0 114 24 144 73l74 -42c-49 -75 -122 -113 -220 -113c-79 0 -144 25 -194 74c-49 50 -74 113 -74 189c0 75 24 138 73 188s112 75 189 75c73 0 133 -26 179 -78c47 -51 70 -113 70 -186c0 -13 -1 -26 -3 -39zM300 431
c-93 0 -158 -57 -173 -145h334c-15 95 -81 145 -161 145z" />
    <glyph glyph-name="f" unicode="f" horiz-adv-x="323" 
d="M323 713v-84c-88 7 -132 -31 -132 -114v-15h132v-84h-132v-416h-87v416h-80v84h80v15c0 135 78 207 219 198z" />
    <glyph glyph-name="g" unicode="g" 
d="M481 414v86h86v-479c0 -74 -25 -131 -75 -172s-110 -62 -180 -62c-112 0 -196 43 -237 122l76 43c27 -56 82 -84 163 -84c104 0 167 58 167 153v71c-44 -67 -107 -100 -188 -100c-71 0 -132 25 -181 76s-74 112 -74 185s25 134 74 184c49 51 110 76 181 76
c82 0 145 -33 188 -99zM481 253c0 50 -17 92 -51 126s-76 51 -127 51s-93 -17 -127 -51s-51 -76 -51 -126c0 -51 17 -93 51 -127s76 -51 127 -51s93 17 127 51s51 76 51 127z" />
    <glyph glyph-name="h" unicode="h" horiz-adv-x="564" 
d="M315 513c117 0 194 -79 194 -206v-307h-87v302c0 81 -47 128 -124 128c-87 0 -145 -53 -145 -165v-265h-87v700h87v-272c35 57 89 85 162 85z" />
    <glyph glyph-name="i" unicode="i" horiz-adv-x="220" 
d="M110 591c-33 0 -59 26 -59 58s26 59 59 59c32 0 58 -27 58 -59s-26 -58 -58 -58zM153 0h-87v500h87v-500z" />
    <glyph glyph-name="j" unicode="j" horiz-adv-x="241" 
d="M132 591c-33 0 -59 26 -59 58s26 59 59 59c32 0 58 -27 58 -59s-26 -58 -58 -58zM88 -30v530h87v-530c0 -129 -66 -192 -193 -183v84c73 -7 106 22 106 99z" />
    <glyph glyph-name="k" unicode="k" horiz-adv-x="504" 
d="M242 258l247 -258h-108l-228 237v-237h-87v700h87v-421l216 221h112z" />
    <glyph glyph-name="l" unicode="l" horiz-adv-x="220" 
d="M153 0h-87v730h87v-730z" />
    <glyph glyph-name="m" unicode="m" horiz-adv-x="849" 
d="M606 513c112 0 188 -78 188 -202v-311h-87v308c0 77 -43 122 -110 122c-75 0 -123 -49 -123 -152v-278h-87v308c0 77 -41 122 -106 122c-73 0 -128 -51 -128 -152v-278h-87v500h87v-67c34 53 84 80 149 80c67 0 116 -28 147 -85c35 57 87 85 157 85z" />
    <glyph glyph-name="n" unicode="n" horiz-adv-x="564" 
d="M315 513c117 0 194 -79 194 -206v-307h-87v302c0 81 -47 128 -124 128c-87 0 -145 -53 -145 -165v-265h-87v500h87v-72c35 57 89 85 162 85z" />
    <glyph glyph-name="o" unicode="o" horiz-adv-x="602" 
d="M488 63c-51 -51 -114 -76 -187 -76s-136 25 -187 76s-76 113 -76 187s25 136 76 187s114 76 187 76s136 -25 187 -76s77 -113 77 -187s-26 -136 -77 -187zM301 72c50 0 92 17 126 51s51 76 51 127s-17 93 -51 127s-76 51 -126 51c-49 0 -91 -17 -125 -51
s-51 -76 -51 -127s17 -93 51 -127s76 -51 125 -51z" />
    <glyph glyph-name="p" unicode="p" 
d="M342 513c70 0 130 -26 179 -77s74 -113 74 -186s-25 -136 -74 -187s-109 -76 -179 -76c-83 0 -146 33 -189 99v-286h-87v700h87v-86c43 66 106 99 189 99zM331 71c50 0 92 17 126 51c34 35 51 77 51 128s-17 93 -51 127c-34 35 -76 52 -126 52c-51 0 -93 -17 -127 -52
c-34 -34 -51 -76 -51 -127s17 -93 51 -128c34 -34 76 -51 127 -51z" />
    <glyph glyph-name="q" unicode="q" 
d="M480 414v86h87v-700h-87v286c-43 -66 -106 -99 -189 -99c-70 0 -130 25 -179 76s-74 114 -74 187s25 135 74 186s109 77 179 77c83 0 146 -33 189 -99zM302 71c51 0 93 17 127 51c34 35 51 77 51 128s-17 93 -51 127c-34 35 -76 52 -127 52c-50 0 -92 -17 -126 -52
c-34 -34 -51 -76 -51 -127s17 -93 51 -128c34 -34 76 -51 126 -51z" />
    <glyph glyph-name="r" unicode="r" horiz-adv-x="328" 
d="M153 500v-84c29 62 81 93 156 93v-91c-43 2 -79 -9 -110 -34s-46 -64 -46 -119v-265h-87v500h87z" />
    <glyph glyph-name="s" unicode="s" horiz-adv-x="458" 
d="M141 365c0 -39 44 -60 99 -75c78 -17 182 -46 181 -153c0 -45 -18 -82 -53 -109s-79 -41 -134 -41c-97 0 -170 46 -199 117l75 43c16 -48 63 -78 124 -78c57 0 99 21 99 68c0 39 -44 61 -99 74c-79 21 -181 47 -181 153c0 43 17 79 50 107c34 28 76 42 127 42
c81 0 148 -39 180 -104l-73 -41c-18 43 -54 64 -107 64c-49 0 -89 -24 -89 -67z" />
    <glyph glyph-name="t" unicode="t" horiz-adv-x="378" 
d="M338 500v-84h-133v-271c0 -77 44 -71 133 -67v-78c-152 -20 -220 21 -220 145v271h-99v84h99v114l87 26v-140h133z" />
    <glyph glyph-name="u" unicode="u" horiz-adv-x="564" 
d="M411 235v265h87v-500h-87v72c-35 -57 -89 -85 -162 -85c-117 0 -194 79 -194 206v307h87v-302c0 -81 47 -128 124 -128c87 0 145 53 145 165z" />
    <glyph glyph-name="v" unicode="v" horiz-adv-x="518" 
d="M259 93l157 407h94l-200 -500h-102l-200 500h94z" />
    <glyph glyph-name="w" unicode="w" horiz-adv-x="770" 
d="M545 119l110 381h91l-155 -500h-89l-117 370l-117 -370h-89l-155 500h91l110 -380l118 380h84z" />
    <glyph glyph-name="x" unicode="x" horiz-adv-x="515" 
d="M309 258l191 -258h-102l-140 189l-141 -189h-102l192 257l-181 243h103l129 -174l129 174h102z" />
    <glyph glyph-name="y" unicode="y" horiz-adv-x="515" 
d="M271 108l144 392h93l-204 -531c-43 -113 -122 -176 -222 -169v81c61 -5 106 29 135 102l9 19l-218 498h93z" />
    <glyph glyph-name="z" unicode="z" horiz-adv-x="471" 
d="M423 442l-256 -359h266v-83h-385v58l255 359h-245v83h365v-58z" />
    <glyph glyph-name="braceleft" unicode="{" horiz-adv-x="356" 
d="M336 -24v-84c-127 -10 -190 47 -190 170v161c0 72 -28 87 -96 86v84c68 -1 96 15 96 86v161c0 123 63 180 190 170v-84c-73 8 -103 -13 -103 -86v-161c0 -67 -24 -109 -72 -128c48 -18 72 -61 72 -128v-161c0 -73 31 -94 103 -86z" />
    <glyph glyph-name="bar" unicode="|" horiz-adv-x="237" 
d="M162 -200h-87v920h87v-920z" />
    <glyph glyph-name="braceright" unicode="}" horiz-adv-x="356" 
d="M20 -108v84c72 -8 103 13 103 86v161c0 67 24 110 72 128c-48 19 -72 61 -72 128v161c0 73 -30 94 -103 86v84c127 10 190 -47 190 -170v-161c0 -71 28 -87 96 -86v-84c-68 1 -96 -14 -96 -86v-161c0 -123 -63 -180 -190 -170z" />
    <glyph glyph-name="asciitilde" unicode="~" horiz-adv-x="596" 
d="M466 424l75 -36c-35 -119 -123 -152 -252 -80c-51 27 -87 38 -109 32c-22 -5 -39 -27 -50 -64l-75 35c35 119 126 152 251 81c52 -28 89 -39 110 -34c22 6 39 28 50 66z" />
    <glyph glyph-name="exclamdown" unicode="&#xa1;" horiz-adv-x="243" 
d="M121 511c37 0 65 -29 65 -65s-28 -65 -65 -65c-36 0 -65 29 -65 65s29 65 65 65zM69 0l19 295h67l19 -295v-200h-105v200z" />
    <glyph glyph-name="cent" unicode="&#xa2;" horiz-adv-x="547" 
d="M452 260l74 -43c-43 -79 -128 -130 -225 -130c-22 0 -44 3 -65 8l-31 -95h-53l36 111c-92 41 -150 132 -150 239c0 75 25 137 75 187c50 51 113 76 188 76c18 0 34 -1 48 -4l29 91h53l-34 -105c57 -21 99 -59 125 -113l-73 -42c-17 34 -43 59 -78 74l-109 -337
c11 -3 24 -4 39 -4c67 0 123 34 151 87zM125 350c0 -68 34 -125 90 -156l107 333c-5 1 -12 1 -21 1c-50 0 -92 -17 -126 -51c-33 -34 -50 -76 -50 -127z" />
    <glyph glyph-name="sterling" unicode="&#xa3;" horiz-adv-x="584" 
d="M217 284v-194h353v-90h-532v90h87v194h-70v82h70v134c0 69 21 121 62 158c42 37 91 55 148 55c95 0 164 -51 199 -138l-77 -44c-22 61 -62 92 -121 92c-68 0 -119 -42 -119 -125v-132h222v-82h-222z" />
    <glyph glyph-name="currency" unicode="&#xa4;" horiz-adv-x="549" 
d="M442 217l70 -70l-34 -34l-71 71c-37 -30 -81 -45 -132 -45c-50 0 -94 15 -133 44l-70 -70l-34 34l69 70c-31 38 -46 82 -46 133s15 95 46 133l-69 70l34 34l70 -70c38 30 82 45 133 45c49 0 93 -15 132 -45l71 70l34 -34l-70 -70c31 -38 46 -82 46 -133s-15 -95 -46 -133
zM402 350c0 73 -55 128 -127 128c-73 0 -127 -55 -127 -128c0 -72 55 -128 127 -128s127 56 127 128z" />
    <glyph glyph-name="yen" unicode="&#xa5;" horiz-adv-x="584" 
d="M492 700h104l-207 -348h123v-65h-161l-3 -4v-51h164v-66h-164v-166h-93v166h-183v66h183v52l-2 3h-181v65h143l-207 348h104l190 -328z" />
    <glyph glyph-name="brokenbar" unicode="&#xa6;" horiz-adv-x="237" 
d="M162 350h-87v370h87v-370zM162 -200h-87v370h87v-370z" />
    <glyph glyph-name="section" unicode="&#xa7;" horiz-adv-x="521" 
d="M482 269c0 -51 -21 -92 -63 -124c27 -29 41 -63 41 -102c0 -46 -17 -83 -52 -112s-80 -43 -135 -43c-108 0 -179 44 -213 131l75 43c21 -63 67 -94 138 -94c60 0 100 27 100 75c0 25 -15 47 -42 62c-15 11 -21 15 -42 24c-11 5 -19 8 -25 10c-11 5 -41 19 -52 23
c-96 39 -156 87 -156 172c0 50 23 92 68 125c-25 27 -37 60 -37 100c0 45 17 82 51 111s76 43 127 43c87 0 155 -45 187 -122l-71 -40c-22 54 -61 81 -116 81c-51 0 -91 -28 -91 -73c0 -25 13 -46 40 -63s51 -29 91 -46c9 -3 15 -6 19 -8c99 -43 158 -88 158 -173zM143 337
c0 -48 38 -78 105 -103c53 -20 89 -35 107 -44c27 20 40 45 40 74c0 51 -38 77 -109 106c-54 21 -87 35 -100 42c-29 -19 -43 -44 -43 -75z" />
    <glyph glyph-name="dieresis" unicode="&#xa8;" horiz-adv-x="335" 
d="M110 581c-20 -20 -54 -20 -75 0c-20 21 -20 55 0 75c21 20 55 20 75 0s20 -54 0 -75zM300 581c-20 -20 -54 -20 -75 0c-20 21 -20 55 0 75c21 20 55 20 75 0s20 -54 0 -75z" />
    <glyph glyph-name="copyright" unicode="&#xa9;" horiz-adv-x="799" 
d="M656 94c-71 -71 -156 -106 -256 -106s-185 35 -256 106s-106 156 -106 256s35 185 106 256s156 106 256 106s185 -35 256 -106s106 -156 106 -256s-35 -185 -106 -256zM400 18c91 0 168 32 232 97c65 65 97 143 97 235s-32 170 -97 235c-64 65 -141 97 -232 97
s-169 -32 -234 -97c-64 -65 -96 -143 -96 -235s32 -170 96 -235c65 -65 143 -97 234 -97zM403 157c-55 0 -101 19 -139 56c-38 38 -57 84 -57 137s19 99 57 136c38 38 84 57 139 57c71 0 133 -35 165 -94l-69 -40c-17 37 -50 56 -97 56c-68 0 -114 -52 -114 -115
s46 -115 114 -115c43 0 82 21 98 57l69 -41c-32 -57 -95 -94 -166 -94z" />
    <glyph glyph-name="guillemotleft" unicode="&#xab;" horiz-adv-x="510" 
d="M178 492h94l-110 -183l110 -182h-94l-110 182zM348 492h94l-110 -183l110 -182h-94l-110 182z" />
    <glyph glyph-name="logicalnot" unicode="&#xac;" horiz-adv-x="530" 
d="M55 309v83h420v-200h-87v117h-333z" />
    <glyph glyph-name="registered" unicode="&#xae;" horiz-adv-x="799" 
d="M144 606c71 71 156 106 256 106s185 -35 256 -106s106 -156 106 -256s-35 -185 -106 -256s-156 -106 -256 -106s-185 35 -256 106s-106 156 -106 256s35 185 106 256zM400 18c91 0 168 32 232 97c65 65 97 143 97 235s-32 170 -97 235c-64 65 -141 97 -232 97
s-169 -32 -234 -97c-64 -65 -96 -143 -96 -235s32 -170 96 -235c65 -65 143 -97 234 -97zM547 415c0 -52 -21 -88 -63 -109l77 -141h-84l-65 125h-6h-48v-125h-77v370h125c87 0 141 -52 141 -120zM406 463h-48v-103h48c40 0 64 20 64 51c0 35 -21 52 -64 52z" />
    <glyph glyph-name="overscore" unicode="&#xaf;" horiz-adv-x="310" 
d="M290 575h-270v73h270v-73z" />
    <glyph glyph-name="degree" unicode="&#xb0;" horiz-adv-x="391" 
d="M196 500c-45 0 -83 15 -113 45s-45 67 -45 110s15 80 45 110s68 45 113 45s83 -15 113 -45s45 -67 45 -110s-15 -80 -45 -110c-29 -30 -67 -45 -113 -45zM139 598c29 -31 85 -31 114 0s29 83 0 114s-85 31 -114 0s-29 -83 0 -114z" />
    <glyph glyph-name="plusminus" unicode="&#xb1;" horiz-adv-x="545" 
d="M314 623v-158h174v-83h-174v-157h-83v157h-173v83h173v158h83zM488 78h-430v83h430v-83z" />
    <glyph glyph-name="acute" unicode="&#xb4;" horiz-adv-x="225" 
d="M20 568l80 132h105l-101 -132h-84z" />
    <glyph glyph-name="uni00B5" unicode="&#xb5;" horiz-adv-x="610" 
d="M544 83h38v-83h-51c-52 0 -86 22 -102 67c-35 -53 -88 -80 -159 -80c-48 0 -87 13 -117 39v-226h-87v700h87v-301c0 -83 47 -129 124 -129c87 0 145 53 145 165v265h87v-382c0 -21 14 -35 35 -35z" />
    <glyph glyph-name="paragraph" unicode="&#xb6;" horiz-adv-x="610" 
d="M240 700h328v-79h-61v-821h-83v821h-101v-821h-83v490c-57 0 -105 20 -145 60s-60 88 -60 145s20 105 59 145c40 40 89 60 146 60z" />
    <glyph glyph-name="middot" unicode="&#xb7;" horiz-adv-x="243" 
d="M121 284c-36 0 -65 29 -65 65s29 65 65 65c37 0 65 -29 65 -65s-28 -65 -65 -65z" />
    <glyph glyph-name="cedilla" unicode="&#xb8;" horiz-adv-x="250" 
d="M145 0v-45c51 -11 85 -40 85 -80c0 -69 -70 -99 -210 -91v66c89 -7 134 4 134 31c0 21 -28 33 -83 36v83h74z" />
    <glyph glyph-name="guillemotright" unicode="&#xbb;" horiz-adv-x="510" 
d="M68 492h94l110 -183l-110 -182h-94l110 182zM238 492h94l110 -183l-110 -182h-94l110 182z" />
    <glyph glyph-name="onequarter" unicode="&#xbc;" horiz-adv-x="819" 
d="M192 700v-400h-77v319l-88 -26l-19 65l117 42h67zM124 0l400 700h70l-400 -700h-70zM753 142h47v-71h-47v-71h-76v71h-199v71l142 258h83l-140 -258h114v88h76v-88z" />
    <glyph glyph-name="onehalf" unicode="&#xbd;" horiz-adv-x="809" 
d="M192 700v-400h-77v319l-88 -26l-19 65l117 42h67zM124 0l400 700h70l-400 -700h-70zM708 163l-101 -91h172v-72h-286v57l162 153c26 24 39 50 39 77c0 32 -24 53 -61 53s-63 -19 -79 -58l-64 36c27 63 74 95 143 95c81 0 139 -53 139 -124c0 -45 -21 -87 -64 -126z" />
    <glyph glyph-name="threequarters" unicode="&#xbe;" horiz-adv-x="916" 
d="M316 418c0 -80 -58 -131 -149 -131c-71 0 -120 29 -147 86l65 37c15 -34 42 -51 82 -51c47 0 72 23 72 59s-29 60 -73 60h-9l-34 50l84 100h-172v72h263v-66l-84 -100c64 -13 102 -56 102 -116zM221 0l400 700h70l-400 -700h-70zM850 142h47v-71h-47v-71h-76v71h-199v71
l142 258h83l-140 -258h114v88h76v-88z" />
    <glyph glyph-name="questiondown" unicode="&#xbf;" horiz-adv-x="539" 
d="M288 511c36 0 65 -29 65 -65s-29 -65 -65 -65c-37 0 -65 29 -65 65s28 65 65 65zM241 295h93c0 -59 -29 -111 -65 -147c-52 -52 -119 -99 -119 -168c0 -67 51 -103 124 -103s120 32 141 97l79 -44c-33 -93 -120 -143 -221 -143c-59 0 -110 17 -153 50
c-42 33 -63 80 -63 139c0 56 29 107 65 143c52 52 119 103 119 176z" />
    <glyph glyph-name="Agrave" unicode="&#xc0;" horiz-adv-x="643" 
d="M308 900l80 -132h-84l-101 132h105zM635 0h-99l-57 157h-315l-57 -157h-99l261 700h105zM321 589l-125 -345h251z" />
    <glyph glyph-name="Aacute" unicode="&#xc1;" horiz-adv-x="643" 
d="M341 900h105l-101 -132h-84zM635 0h-99l-57 157h-315l-57 -157h-99l261 700h105zM321 589l-125 -345h251z" />
    <glyph glyph-name="Acircumflex" unicode="&#xc2;" horiz-adv-x="643" 
d="M381 765l-61 81l-61 -81h-93l106 135h96l106 -135h-93zM635 0h-99l-57 157h-315l-57 -157h-99l261 700h105zM321 589l-125 -345h251z" />
    <glyph glyph-name="Atilde" unicode="&#xc3;" horiz-adv-x="643" 
d="M316 797c-48 40 -72 41 -72 -24h-73c0 134 80 152 154 99c49 -40 72 -41 72 23h73c0 -133 -78 -151 -154 -98zM635 0h-99l-57 157h-315l-57 -157h-99l261 700h105zM321 589l-125 -345h251z" />
    <glyph glyph-name="Adieresis" unicode="&#xc4;" horiz-adv-x="643" 
d="M263 781c-20 -20 -54 -20 -75 0c-20 21 -20 55 0 75c21 20 55 20 75 0s20 -54 0 -75zM453 781c-20 -20 -54 -20 -75 0c-20 21 -20 55 0 75c21 20 55 20 75 0s20 -54 0 -75zM635 0h-99l-57 157h-315l-57 -157h-99l261 700h105zM321 589l-125 -345h251z" />
    <glyph glyph-name="Aring" unicode="&#xc5;" horiz-adv-x="643" 
d="M635 0h-99l-57 157h-315l-57 -157h-99l251 673c-33 19 -50 49 -50 90c0 61 46 106 113 106s113 -45 113 -106c0 -41 -17 -72 -51 -91zM322 808c-29 0 -47 -20 -47 -45c0 -27 18 -46 47 -46c64 -5 64 97 0 91zM321 589l-125 -345h251z" />
    <glyph glyph-name="AE" unicode="&#xc6;" horiz-adv-x="880" 
d="M541 310v-222h302v-88h-393v157h-250l-95 -157h-105l424 700h414v-88h-297v-215h279v-87h-279zM450 572l-198 -328h198v328z" />
    <glyph glyph-name="Ccedilla" unicode="&#xc7;" horiz-adv-x="739" 
d="M404 78c96 0 181 50 221 126l81 -46c-52 -93 -152 -158 -265 -169v-34c51 -11 85 -40 85 -80c0 -69 -70 -99 -210 -91v66c89 -7 134 4 134 31c0 21 -28 33 -83 36v72c-96 9 -175 47 -237 115c-61 69 -92 151 -92 246c0 102 34 188 103 258s157 105 263 105
c128 0 242 -66 302 -170l-81 -47c-40 77 -125 127 -221 127c-81 0 -147 -26 -198 -78s-76 -117 -76 -195c0 -77 25 -142 76 -194s117 -78 198 -78z" />
    <glyph glyph-name="Egrave" unicode="&#xc8;" horiz-adv-x="530" 
d="M269 900l80 -132h-84l-101 132h105zM168 310v-222h325v-88h-418v700h413v-88h-320v-215h295v-87h-295z" />
    <glyph glyph-name="Eacute" unicode="&#xc9;" horiz-adv-x="530" 
d="M302 900h105l-101 -132h-84zM168 310v-222h325v-88h-418v700h413v-88h-320v-215h295v-87h-295z" />
    <glyph glyph-name="Ecircumflex" unicode="&#xca;" horiz-adv-x="530" 
d="M342 765l-61 81l-61 -81h-93l106 135h96l106 -135h-93zM168 310v-222h325v-88h-418v700h413v-88h-320v-215h295v-87h-295z" />
    <glyph glyph-name="Edieresis" unicode="&#xcb;" horiz-adv-x="530" 
d="M224 781c-20 -20 -54 -20 -75 0c-20 21 -20 55 0 75c21 20 55 20 75 0s20 -54 0 -75zM414 781c-20 -20 -54 -20 -75 0c-20 21 -20 55 0 75c21 20 55 20 75 0s20 -54 0 -75zM168 310v-222h325v-88h-418v700h413v-88h-320v-215h295v-87h-295z" />
    <glyph glyph-name="Igrave" unicode="&#xcc;" horiz-adv-x="243" 
d="M188 768h-84l-101 132h105zM75 700v-700h93v700h-93z" />
    <glyph glyph-name="Iacute" unicode="&#xcd;" horiz-adv-x="243" 
d="M61 768l80 132h105l-101 -132h-84zM75 700v-700h93v700h-93z" />
    <glyph glyph-name="Icircumflex" unicode="&#xce;" horiz-adv-x="243" 
d="M72 900h96l106 -135h-93l-61 81l-61 -81h-93zM168 0h-93v700h93v-700z" />
    <glyph glyph-name="Idieresis" unicode="&#xcf;" horiz-adv-x="243" 
d="M63 781c-20 -20 -54 -20 -74 0c-21 21 -21 55 0 75c20 20 54 20 74 0s20 -54 0 -75zM253 781c-20 -20 -54 -20 -75 0c-20 21 -20 55 0 75c21 20 55 20 75 0s20 -54 0 -75zM75 0v700h93v-700h-93z" />
    <glyph glyph-name="Eth" unicode="&#xd0;" horiz-adv-x="743" 
d="M100 700h273c95 0 174 -34 237 -102c63 -67 95 -150 95 -248s-32 -181 -95 -249c-63 -67 -142 -101 -237 -101h-273v306h-73v84h73v310zM193 88h180c71 0 130 25 175 75s68 112 68 187s-23 137 -68 187s-104 75 -175 75h-180v-222h199v-84h-199v-218z" />
    <glyph glyph-name="Ntilde" unicode="&#xd1;" horiz-adv-x="678" 
d="M259 773h-73c0 134 80 152 154 99c49 -40 72 -41 72 23h73c0 -133 -78 -151 -154 -98c-48 40 -72 41 -72 -24zM510 178v522h93v-700h-75l-360 523v-523h-93v700h75z" />
    <glyph glyph-name="Ograve" unicode="&#xd2;" horiz-adv-x="800" 
d="M467 771h-84l-101 132h105zM38 350c0 -101 35 -186 105 -257s156 -106 257 -106s187 35 257 106c71 71 106 156 106 257s-35 187 -106 257c-70 71 -156 106 -257 106s-187 -35 -257 -106c-70 -70 -105 -156 -105 -257zM670 350c0 -77 -26 -141 -78 -194
c-51 -52 -115 -78 -192 -78s-141 26 -193 78c-51 53 -77 117 -77 194s26 142 77 194c52 53 116 79 193 79s141 -26 192 -79c52 -52 78 -117 78 -194z" />
    <glyph glyph-name="Oacute" unicode="&#xd3;" horiz-adv-x="800" 
d="M340 771l80 132h105l-101 -132h-84zM38 350c0 -101 35 -186 105 -257s156 -106 257 -106s187 35 257 106c71 71 106 156 106 257s-35 187 -106 257c-70 71 -156 106 -257 106s-187 -35 -257 -106c-70 -70 -105 -156 -105 -257zM670 350c0 -77 -26 -141 -78 -194
c-51 -52 -115 -78 -192 -78s-141 26 -193 78c-51 53 -77 117 -77 194s26 142 77 194c52 53 116 79 193 79s141 -26 192 -79c52 -52 78 -117 78 -194z" />
    <glyph glyph-name="Ocircumflex" unicode="&#xd4;" horiz-adv-x="800" 
d="M460 768l-61 81l-61 -81h-93l106 135h96l106 -135h-93zM763 350c0 -101 -35 -186 -106 -257c-70 -71 -156 -106 -257 -106s-187 35 -257 106s-105 156 -105 257s35 187 105 257c70 71 156 106 257 106s187 -35 257 -106c71 -70 106 -156 106 -257zM670 350
c0 77 -26 142 -78 194c-51 53 -115 79 -192 79s-141 -26 -193 -79c-51 -52 -77 -117 -77 -194s26 -141 77 -194c52 -52 116 -78 193 -78s141 26 192 78c52 53 78 117 78 194z" />
    <glyph glyph-name="Otilde" unicode="&#xd5;" horiz-adv-x="800" 
d="M323 776h-73c0 134 80 152 154 99c49 -40 72 -41 72 23h73c0 -133 -78 -151 -154 -98c-48 40 -72 41 -72 -24zM38 350c0 101 35 187 105 257c70 71 156 106 257 106s187 -35 257 -106c71 -70 106 -156 106 -257s-35 -186 -106 -257c-70 -71 -156 -106 -257 -106
s-187 35 -257 106s-105 156 -105 257zM670 350c0 77 -26 142 -78 194c-51 53 -115 79 -192 79s-141 -26 -193 -79c-51 -52 -77 -117 -77 -194s26 -141 77 -194c52 -52 116 -78 193 -78s141 26 192 78c52 53 78 117 78 194z" />
    <glyph glyph-name="Odieresis" unicode="&#xd6;" horiz-adv-x="800" 
d="M342 784c-20 -20 -54 -20 -75 0c-20 21 -20 55 0 75c21 20 55 20 75 0s20 -54 0 -75zM532 784c-20 -20 -54 -20 -75 0c-20 21 -20 55 0 75c21 20 55 20 75 0s20 -54 0 -75zM38 350c0 101 35 187 105 257c70 71 156 106 257 106s187 -35 257 -106
c71 -70 106 -156 106 -257s-35 -186 -106 -257c-70 -71 -156 -106 -257 -106s-187 35 -257 106s-105 156 -105 257zM670 350c0 77 -26 142 -78 194c-51 53 -115 79 -192 79s-141 -26 -193 -79c-51 -52 -77 -117 -77 -194s26 -141 77 -194c52 -52 116 -78 193 -78
s141 26 192 78c52 53 78 117 78 194z" />
    <glyph glyph-name="multiply" unicode="&#xd7;" horiz-adv-x="485" 
d="M376 541l59 -56l-135 -135l135 -135l-59 -56l-133 134l-134 -134l-59 56l135 135l-135 135l59 56l134 -133z" />
    <glyph glyph-name="Oslash" unicode="&#xd8;" horiz-adv-x="809" 
d="M722 673l-55 -66c70 -70 105 -156 105 -257s-35 -186 -106 -257c-70 -71 -156 -106 -257 -106c-77 0 -147 22 -210 66l-49 -57l-54 32l55 66c-69 71 -104 156 -104 256c0 101 35 187 105 257c70 71 156 106 257 106c79 0 149 -22 211 -66l48 57zM139 350
c0 -73 24 -136 71 -187l351 415c-46 30 -97 45 -152 45c-77 0 -141 -26 -193 -79c-51 -52 -77 -117 -77 -194zM409 78c77 0 141 26 192 78c52 53 78 117 78 194c0 73 -24 135 -71 188l-351 -415c45 -30 95 -45 152 -45z" />
    <glyph glyph-name="Ugrave" unicode="&#xd9;" horiz-adv-x="658" 
d="M396 768h-84l-101 132h105zM66 235c0 -75 24 -136 73 -181s113 -67 190 -67s140 22 189 67s73 106 73 181v465h-92v-461c0 -99 -61 -161 -170 -161s-170 62 -170 161v461h-93v-465z" />
    <glyph glyph-name="Uacute" unicode="&#xda;" horiz-adv-x="658" 
d="M269 768l80 132h105l-101 -132h-84zM66 235c0 -75 24 -136 73 -181s113 -67 190 -67s140 22 189 67s73 106 73 181v465h-92v-461c0 -99 -61 -161 -170 -161s-170 62 -170 161v461h-93v-465z" />
    <glyph glyph-name="Ucircumflex" unicode="&#xdb;" horiz-adv-x="658" 
d="M389 765l-61 81l-61 -81h-93l106 135h96l106 -135h-93zM499 239v461h92v-465c0 -75 -24 -136 -73 -181s-112 -67 -189 -67s-141 22 -190 67s-73 106 -73 181v465h93v-461c0 -99 61 -161 170 -161s170 62 170 161z" />
    <glyph glyph-name="Udieresis" unicode="&#xdc;" horiz-adv-x="658" 
d="M271 781c-20 -20 -54 -20 -75 0c-20 21 -20 55 0 75c21 20 55 20 75 0s20 -54 0 -75zM461 781c-20 -20 -54 -20 -75 0c-20 21 -20 55 0 75c21 20 55 20 75 0s20 -54 0 -75zM66 235v465h93v-461c0 -99 61 -161 170 -161s170 62 170 161v461h92v-465
c0 -75 -24 -136 -73 -181s-112 -67 -189 -67s-141 22 -190 67s-73 106 -73 181z" />
    <glyph glyph-name="Yacute" unicode="&#xdd;" horiz-adv-x="604" 
d="M319 900h105l-101 -132h-84zM492 700h104l-248 -417v-283h-93v284l-247 416h104l190 -328z" />
    <glyph glyph-name="Thorn" unicode="&#xde;" horiz-adv-x="590" 
d="M168 575h162c64 0 117 -22 160 -65s65 -96 65 -160c0 -63 -22 -117 -65 -160s-96 -65 -160 -65h-162v-125h-93v700h93v-125zM168 212h162c38 0 70 13 95 39c25 27 38 60 38 99c0 80 -57 138 -133 138h-162v-276z" />
    <glyph glyph-name="germandbls" unicode="&#xdf;" horiz-adv-x="523" 
d="M286 -4v78c87 -6 131 19 131 76c0 39 -33 88 -68 123c-33 36 -67 84 -67 120c0 19 13 45 39 77c27 32 40 58 40 77c0 52 -38 84 -95 84c-64 0 -113 -37 -113 -118v-513h-87v513c0 124 82 200 202 200c55 0 99 -15 131 -46c33 -31 49 -68 49 -113c3 -68 -81 -128 -78 -159
c0 -28 34 -69 67 -104c33 -33 67 -93 67 -149c0 -97 -74 -158 -218 -146z" />
    <glyph glyph-name="agrave" unicode="&#xe0;" 
d="M293 700l80 -132h-84l-101 132h105zM480 414v86h87v-500h-87v86c-43 -66 -106 -99 -189 -99c-70 0 -130 25 -179 76s-74 114 -74 187s25 135 74 186s109 77 179 77c83 0 146 -33 189 -99zM302 71c51 0 93 17 127 51c34 35 51 77 51 128s-17 93 -51 127
c-34 35 -76 52 -127 52c-50 0 -92 -17 -126 -52c-34 -34 -51 -76 -51 -127s17 -93 51 -128c34 -34 76 -51 126 -51z" />
    <glyph glyph-name="aacute" unicode="&#xe1;" 
d="M326 700h105l-101 -132h-84zM480 414v86h87v-500h-87v86c-43 -66 -106 -99 -189 -99c-70 0 -130 25 -179 76s-74 114 -74 187s25 135 74 186s109 77 179 77c83 0 146 -33 189 -99zM302 71c51 0 93 17 127 51c34 35 51 77 51 128s-17 93 -51 127c-34 35 -76 52 -127 52
c-50 0 -92 -17 -126 -52c-34 -34 -51 -76 -51 -127s17 -93 51 -128c34 -34 76 -51 126 -51z" />
    <glyph glyph-name="acircumflex" unicode="&#xe2;" 
d="M366 565l-61 81l-61 -81h-93l106 135h96l106 -135h-93zM480 414v86h87v-500h-87v86c-43 -66 -106 -99 -189 -99c-70 0 -130 25 -179 76s-74 114 -74 187s25 135 74 186s109 77 179 77c83 0 146 -33 189 -99zM302 71c51 0 93 17 127 51c34 35 51 77 51 128s-17 93 -51 127
c-34 35 -76 52 -127 52c-50 0 -92 -17 -126 -52c-34 -34 -51 -76 -51 -127s17 -93 51 -128c34 -34 76 -51 126 -51z" />
    <glyph glyph-name="atilde" unicode="&#xe3;" 
d="M301 597c-48 40 -72 41 -72 -24h-73c0 134 80 152 154 99c49 -40 72 -41 72 23h73c0 -133 -78 -151 -154 -98zM480 414v86h87v-500h-87v86c-43 -66 -106 -99 -189 -99c-70 0 -130 25 -179 76s-74 114 -74 187s25 135 74 186s109 77 179 77c83 0 146 -33 189 -99zM302 71
c51 0 93 17 127 51c34 35 51 77 51 128s-17 93 -51 127c-34 35 -76 52 -127 52c-50 0 -92 -17 -126 -52c-34 -34 -51 -76 -51 -127s17 -93 51 -128c34 -34 76 -51 126 -51z" />
    <glyph glyph-name="adieresis" unicode="&#xe4;" 
d="M248 581c-20 -20 -54 -20 -75 0c-20 21 -20 55 0 75c21 20 55 20 75 0s20 -54 0 -75zM438 581c-20 -20 -54 -20 -75 0c-20 21 -20 55 0 75c21 20 55 20 75 0s20 -54 0 -75zM480 414v86h87v-500h-87v86c-43 -66 -106 -99 -189 -99c-70 0 -130 25 -179 76s-74 114 -74 187
s25 135 74 186s109 77 179 77c83 0 146 -33 189 -99zM302 71c51 0 93 17 127 51c34 35 51 77 51 128s-17 93 -51 127c-34 35 -76 52 -127 52c-50 0 -92 -17 -126 -52c-34 -34 -51 -76 -51 -127s17 -93 51 -128c34 -34 76 -51 126 -51z" />
    <glyph glyph-name="aring" unicode="&#xe5;" 
d="M387 576c-21 -20 -48 -30 -81 -30s-61 10 -82 30c-21 21 -31 46 -31 77s10 56 31 76s49 30 82 30s60 -10 81 -30s32 -45 32 -76s-11 -56 -32 -77zM306 698c-29 0 -47 -20 -47 -45c0 -27 18 -46 47 -46c64 -5 64 97 0 91zM480 414v86h87v-500h-87v86
c-43 -66 -106 -99 -189 -99c-70 0 -130 25 -179 76s-74 114 -74 187s25 135 74 186s109 77 179 77c83 0 146 -33 189 -99zM302 71c51 0 93 17 127 51c34 35 51 77 51 128s-17 93 -51 127c-34 35 -76 52 -127 52c-50 0 -92 -17 -126 -52c-34 -34 -51 -76 -51 -127
s17 -93 51 -128c34 -34 76 -51 126 -51z" />
    <glyph glyph-name="ae" unicode="&#xe6;" horiz-adv-x="1024" 
d="M987 210h-417c16 -89 84 -141 176 -141c68 0 117 24 147 73l74 -42c-49 -75 -119 -113 -210 -113c-87 0 -151 33 -193 98v-85h-84v86c-43 -66 -106 -99 -189 -99c-70 0 -130 25 -179 76s-74 114 -74 187s25 135 74 186s109 77 179 77c83 0 146 -33 189 -99v86h84v-85
c43 65 105 98 187 98c74 0 132 -26 175 -77s64 -113 64 -187c0 -13 -1 -26 -3 -39zM742 431c-95 0 -159 -56 -172 -144h332c-13 93 -79 144 -160 144zM302 71c51 0 93 17 127 51c34 35 51 77 51 128s-17 93 -51 127c-34 35 -76 52 -127 52c-50 0 -92 -17 -126 -52
c-34 -34 -51 -76 -51 -127s17 -93 51 -128c34 -34 76 -51 126 -51z" />
    <glyph glyph-name="ccedilla" unicode="&#xe7;" horiz-adv-x="547" 
d="M452 160l74 -43c-37 -68 -107 -116 -188 -127v-35c51 -11 85 -40 85 -80c0 -69 -70 -99 -210 -91v66c89 -7 134 4 134 31c0 21 -28 33 -83 36v72c-66 9 -120 37 -163 86c-42 49 -63 107 -63 175c0 75 25 137 75 187c50 51 113 76 188 76c99 0 182 -51 221 -131l-73 -42
c-25 53 -81 88 -148 88c-50 0 -92 -17 -126 -51c-33 -34 -50 -76 -50 -127c0 -50 17 -92 50 -126c34 -34 76 -51 126 -51c67 0 123 34 151 87z" />
    <glyph glyph-name="egrave" unicode="&#xe8;" horiz-adv-x="583" 
d="M281 701l80 -132h-84l-101 132h105zM546 210h-419c17 -89 86 -141 181 -141c66 0 114 24 144 73l74 -42c-49 -75 -122 -113 -220 -113c-79 0 -144 25 -194 74c-49 50 -74 113 -74 189c0 75 24 138 73 188s112 75 189 75c73 0 133 -26 179 -78c47 -51 70 -113 70 -186
c0 -13 -1 -26 -3 -39zM300 431c-93 0 -158 -57 -173 -145h334c-15 95 -81 145 -161 145z" />
    <glyph glyph-name="eacute" unicode="&#xe9;" horiz-adv-x="583" 
d="M314 701h105l-101 -132h-84zM546 210h-419c17 -89 86 -141 181 -141c66 0 114 24 144 73l74 -42c-49 -75 -122 -113 -220 -113c-79 0 -144 25 -194 74c-49 50 -74 113 -74 189c0 75 24 138 73 188s112 75 189 75c73 0 133 -26 179 -78c47 -51 70 -113 70 -186
c0 -13 -1 -26 -3 -39zM300 431c-93 0 -158 -57 -173 -145h334c-15 95 -81 145 -161 145z" />
    <glyph glyph-name="ecircumflex" unicode="&#xea;" horiz-adv-x="583" 
d="M354 566l-61 81l-61 -81h-93l106 135h96l106 -135h-93zM546 210h-419c17 -89 86 -141 181 -141c66 0 114 24 144 73l74 -42c-49 -75 -122 -113 -220 -113c-79 0 -144 25 -194 74c-49 50 -74 113 -74 189c0 75 24 138 73 188s112 75 189 75c73 0 133 -26 179 -78
c47 -51 70 -113 70 -186c0 -13 -1 -26 -3 -39zM300 431c-93 0 -158 -57 -173 -145h334c-15 95 -81 145 -161 145z" />
    <glyph glyph-name="edieresis" unicode="&#xeb;" horiz-adv-x="583" 
d="M236 582c-20 -20 -54 -20 -75 0c-20 21 -20 55 0 75c21 20 55 20 75 0s20 -54 0 -75zM426 582c-20 -20 -54 -20 -75 0c-20 21 -20 55 0 75c21 20 55 20 75 0s20 -54 0 -75zM546 210h-419c17 -89 86 -141 181 -141c66 0 114 24 144 73l74 -42c-49 -75 -122 -113 -220 -113
c-79 0 -144 25 -194 74c-49 50 -74 113 -74 189c0 75 24 138 73 188s112 75 189 75c73 0 133 -26 179 -78c47 -51 70 -113 70 -186c0 -13 -1 -26 -3 -39zM300 431c-93 0 -158 -57 -173 -145h334c-15 95 -81 145 -161 145z" />
    <glyph glyph-name="igrave" unicode="&#xec;" horiz-adv-x="220" 
d="M151 565h-84l-66 135h102zM153 0v500h-87v-500h87z" />
    <glyph glyph-name="iacute" unicode="&#xed;" horiz-adv-x="220" 
d="M69 565l47 135h103l-66 -135h-84zM66 0h87v500h-87v-500z" />
    <glyph glyph-name="icircumflex" unicode="&#xee;" horiz-adv-x="220" 
d="M62 700h96l88 -135h-92l-44 70l-44 -70h-93zM153 0h-87v500h87v-500z" />
    <glyph glyph-name="idieresis" unicode="&#xef;" horiz-adv-x="220" 
d="M72 583c-20 -20 -54 -20 -74 0c-21 20 -21 54 0 74c20 21 54 21 74 0c20 -20 20 -54 0 -74zM222 583c-20 -20 -54 -20 -75 0c-20 20 -20 54 0 74c21 21 55 21 75 0c20 -20 20 -54 0 -74zM153 0h-87v500h87v-500z" />
    <glyph glyph-name="eth" unicode="&#xf0;" horiz-adv-x="581" 
d="M327 599l171 -229c31 -43 46 -90 46 -140c0 -72 -25 -130 -75 -175c-49 -45 -109 -67 -178 -67s-129 22 -179 67c-49 45 -74 103 -74 175c0 70 25 127 76 172s111 64 179 59c17 -1 29 -3 38 -5l-75 102l-118 -67v70l81 46l-68 93h101l39 -52l114 65v-70zM291 71
c46 0 85 14 117 43c33 29 49 68 49 116c0 37 -9 68 -27 92c-32 42 -78 63 -138 63c-97 0 -167 -62 -167 -155c0 -48 16 -87 48 -116s71 -43 118 -43z" />
    <glyph glyph-name="ntilde" unicode="&#xf1;" horiz-adv-x="564" 
d="M288 600c-48 40 -72 41 -72 -24h-73c0 134 80 152 154 99c49 -40 72 -41 72 23h73c0 -133 -78 -151 -154 -98zM315 513c117 0 194 -79 194 -206v-307h-87v302c0 81 -47 128 -124 128c-87 0 -145 -53 -145 -165v-265h-87v500h87v-72c35 57 89 85 162 85z" />
    <glyph glyph-name="ograve" unicode="&#xf2;" horiz-adv-x="602" 
d="M368 571h-84l-101 132h105zM488 63c51 51 77 113 77 187s-26 136 -77 187s-114 76 -187 76s-136 -25 -187 -76s-76 -113 -76 -187s25 -136 76 -187s114 -76 187 -76s136 25 187 76zM301 72c-49 0 -91 17 -125 51s-51 76 -51 127s17 93 51 127s76 51 125 51
c50 0 92 -17 126 -51s51 -76 51 -127s-17 -93 -51 -127s-76 -51 -126 -51z" />
    <glyph glyph-name="oacute" unicode="&#xf3;" horiz-adv-x="602" 
d="M241 571l80 132h105l-101 -132h-84zM488 63c51 51 77 113 77 187s-26 136 -77 187s-114 76 -187 76s-136 -25 -187 -76s-76 -113 -76 -187s25 -136 76 -187s114 -76 187 -76s136 25 187 76zM301 72c-49 0 -91 17 -125 51s-51 76 -51 127s17 93 51 127s76 51 125 51
c50 0 92 -17 126 -51s51 -76 51 -127s-17 -93 -51 -127s-76 -51 -126 -51z" />
    <glyph glyph-name="ocircumflex" unicode="&#xf4;" horiz-adv-x="602" 
d="M361 568l-61 81l-61 -81h-93l106 135h96l106 -135h-93zM114 437c51 51 114 76 187 76s136 -25 187 -76s77 -113 77 -187s-26 -136 -77 -187s-114 -76 -187 -76s-136 25 -187 76s-76 113 -76 187s25 136 76 187zM301 72c50 0 92 17 126 51s51 76 51 127s-17 93 -51 127
s-76 51 -126 51c-49 0 -91 -17 -125 -51s-51 -76 -51 -127s17 -93 51 -127s76 -51 125 -51z" />
    <glyph glyph-name="otilde" unicode="&#xf5;" horiz-adv-x="602" 
d="M224 576h-73c0 134 80 152 154 99c49 -40 72 -41 72 23h73c0 -133 -78 -151 -154 -98c-48 40 -72 41 -72 -24zM488 63c-51 -51 -114 -76 -187 -76s-136 25 -187 76s-76 113 -76 187s25 136 76 187s114 76 187 76s136 -25 187 -76s77 -113 77 -187s-26 -136 -77 -187z
M301 72c50 0 92 17 126 51s51 76 51 127s-17 93 -51 127s-76 51 -126 51c-49 0 -91 -17 -125 -51s-51 -76 -51 -127s17 -93 51 -127s76 -51 125 -51z" />
    <glyph glyph-name="odieresis" unicode="&#xf6;" horiz-adv-x="602" 
d="M243 584c-20 -20 -54 -20 -75 0c-20 21 -20 55 0 75c21 20 55 20 75 0s20 -54 0 -75zM433 584c-20 -20 -54 -20 -75 0c-20 21 -20 55 0 75c21 20 55 20 75 0s20 -54 0 -75zM488 63c-51 -51 -114 -76 -187 -76s-136 25 -187 76s-76 113 -76 187s25 136 76 187
s114 76 187 76s136 -25 187 -76s77 -113 77 -187s-26 -136 -77 -187zM301 72c50 0 92 17 126 51s51 76 51 127s-17 93 -51 127s-76 51 -126 51c-49 0 -91 -17 -125 -51s-51 -76 -51 -127s17 -93 51 -127s76 -51 125 -51z" />
    <glyph glyph-name="divide" unicode="&#xf7;" horiz-adv-x="575" 
d="M333 494c-24 -24 -66 -24 -91 0c-24 25 -24 67 0 91c25 24 67 24 91 0s24 -66 0 -91zM520 309h-465v83h465v-83zM333 115c-24 -24 -66 -24 -91 0c-24 25 -24 67 0 91c25 24 67 24 91 0s24 -66 0 -91z" />
    <glyph glyph-name="oslash" unicode="&#xf8;" horiz-adv-x="602" 
d="M537 480l-43 -49c47 -51 71 -111 71 -181c0 -74 -26 -136 -77 -187s-114 -76 -187 -76c-56 0 -107 16 -154 48l-36 -41l-45 26l43 49c-47 51 -71 111 -71 181c0 74 25 136 76 187s114 76 187 76c57 0 109 -16 154 -49l37 42zM125 250c0 -45 14 -83 41 -116l233 266
c-29 19 -62 28 -98 28c-49 0 -91 -17 -125 -51s-51 -76 -51 -127zM301 72c50 0 92 17 126 51s51 76 51 127c0 45 -14 83 -41 116l-233 -266c29 -19 62 -28 97 -28z" />
    <glyph glyph-name="ugrave" unicode="&#xf9;" horiz-adv-x="564" 
d="M262 700l80 -132h-84l-101 132h105zM411 235v265h87v-500h-87v72c-35 -57 -89 -85 -162 -85c-117 0 -194 79 -194 206v307h87v-302c0 -81 47 -128 124 -128c87 0 145 53 145 165z" />
    <glyph glyph-name="uacute" unicode="&#xfa;" horiz-adv-x="564" 
d="M295 700h105l-101 -132h-84zM411 235v265h87v-500h-87v72c-35 -57 -89 -85 -162 -85c-117 0 -194 79 -194 206v307h87v-302c0 -81 47 -128 124 -128c87 0 145 53 145 165z" />
    <glyph glyph-name="ucircumflex" unicode="&#xfb;" horiz-adv-x="564" 
d="M335 565l-61 81l-61 -81h-93l106 135h96l106 -135h-93zM411 235v265h87v-500h-87v72c-35 -57 -89 -85 -162 -85c-117 0 -194 79 -194 206v307h87v-302c0 -81 47 -128 124 -128c87 0 145 53 145 165z" />
    <glyph glyph-name="udieresis" unicode="&#xfc;" horiz-adv-x="564" 
d="M217 581c-20 -20 -54 -20 -75 0c-20 21 -20 55 0 75c21 20 55 20 75 0s20 -54 0 -75zM407 581c-20 -20 -54 -20 -75 0c-20 21 -20 55 0 75c21 20 55 20 75 0s20 -54 0 -75zM411 235v265h87v-500h-87v72c-35 -57 -89 -85 -162 -85c-117 0 -194 79 -194 206v307h87v-302
c0 -81 47 -128 124 -128c87 0 145 53 145 165z" />
    <glyph glyph-name="yacute" unicode="&#xfd;" horiz-adv-x="515" 
d="M276 700h105l-101 -132h-84zM271 108l144 392h93l-204 -531c-43 -113 -122 -176 -222 -169v81c61 -5 106 29 135 102l9 19l-218 498h93z" />
    <glyph glyph-name="thorn" unicode="&#xfe;" 
d="M342 513c70 0 130 -26 179 -77s74 -113 74 -186s-25 -136 -74 -187s-109 -76 -179 -76c-83 0 -146 33 -189 99v-286h-87v900h87v-286c43 66 106 99 189 99zM331 71c50 0 92 17 126 51c34 35 51 77 51 128s-17 93 -51 127c-34 35 -76 52 -126 52c-51 0 -93 -17 -127 -52
c-34 -34 -51 -76 -51 -127s17 -93 51 -128c34 -34 76 -51 127 -51z" />
    <glyph glyph-name="ydieresis" unicode="&#xff;" horiz-adv-x="515" 
d="M198 581c-20 -20 -54 -20 -75 0c-20 21 -20 55 0 75c21 20 55 20 75 0s20 -54 0 -75zM388 581c-20 -20 -54 -20 -75 0c-20 21 -20 55 0 75c21 20 55 20 75 0s20 -54 0 -75zM271 108l144 392h93l-204 -531c-43 -113 -122 -176 -222 -169v81c61 -5 106 29 135 102l9 19
l-218 498h93z" />
    <glyph glyph-name="Amacron" unicode="&#x100;" horiz-adv-x="643" 
d="M186 848h270v-73h-270v73zM635 0h-99l-57 157h-315l-57 -157h-99l261 700h105zM321 589l-125 -345h251z" />
    <glyph glyph-name="amacron" unicode="&#x101;" 
d="M171 648h270v-73h-270v73zM480 414v86h87v-500h-87v86c-43 -66 -106 -99 -189 -99c-70 0 -130 25 -179 76s-74 114 -74 187s25 135 74 186s109 77 179 77c83 0 146 -33 189 -99zM302 71c51 0 93 17 127 51c34 35 51 77 51 128s-17 93 -51 127c-34 35 -76 52 -127 52
c-50 0 -92 -17 -126 -52c-34 -34 -51 -76 -51 -127s17 -93 51 -128c34 -34 76 -51 126 -51z" />
    <glyph glyph-name="Abreve" unicode="&#x102;" horiz-adv-x="643" 
d="M321 757c-92 0 -149 50 -149 135h81c0 -43 23 -65 68 -65s68 22 68 65h81c0 -85 -56 -135 -149 -135zM635 0h-99l-57 157h-315l-57 -157h-99l261 700h105zM321 589l-125 -345h251z" />
    <glyph glyph-name="abreve" unicode="&#x103;" 
d="M306 557c-92 0 -149 50 -149 135h81c0 -43 23 -65 68 -65s68 22 68 65h81c0 -85 -56 -135 -149 -135zM480 414v86h87v-500h-87v86c-43 -66 -106 -99 -189 -99c-70 0 -130 25 -179 76s-74 114 -74 187s25 135 74 186s109 77 179 77c83 0 146 -33 189 -99zM302 71
c51 0 93 17 127 51c34 35 51 77 51 128s-17 93 -51 127c-34 35 -76 52 -127 52c-50 0 -92 -17 -126 -52c-34 -34 -51 -76 -51 -127s17 -93 51 -128c34 -34 76 -51 126 -51z" />
    <glyph glyph-name="Aogonek" unicode="&#x104;" horiz-adv-x="643" 
d="M567 -114c0 -20 10 -30 31 -30c13 0 26 3 37 8v-64c-21 -9 -43 -13 -66 -13c-53 0 -87 31 -87 80c0 41 23 85 70 133h-16l-57 157h-315l-57 -157h-99l261 700h105l261 -700c-45 -43 -68 -81 -68 -114zM321 589l-125 -345h251z" />
    <glyph glyph-name="aogonek" unicode="&#x105;" 
d="M567 500v-500c-46 -44 -69 -82 -69 -114c0 -20 10 -30 31 -30c14 0 27 3 38 8v-64c-22 -9 -44 -13 -67 -13c-53 0 -86 31 -86 80c0 40 22 85 66 136v83c-43 -66 -106 -99 -189 -99c-70 0 -130 25 -179 76s-74 114 -74 187s25 135 74 186s109 77 179 77
c83 0 146 -33 189 -99v86h87zM302 71c51 0 93 17 127 51c34 35 51 77 51 128s-17 93 -51 127c-34 35 -76 52 -127 52c-50 0 -92 -17 -126 -52c-34 -34 -51 -76 -51 -127s17 -93 51 -128c34 -34 76 -51 126 -51z" />
    <glyph glyph-name="Cacute" unicode="&#x106;" horiz-adv-x="739" 
d="M344 771l80 132h105l-101 -132h-84zM404 -13c64 0 123 15 177 46s96 73 125 125l-81 46c-40 -76 -125 -126 -221 -126c-81 0 -147 26 -198 78s-76 117 -76 194c0 78 25 143 76 195s117 78 198 78c96 0 181 -50 221 -127l81 47c-60 104 -174 170 -302 170
c-106 0 -194 -35 -263 -105s-103 -156 -103 -258s34 -188 103 -258s157 -105 263 -105z" />
    <glyph glyph-name="cacute" unicode="&#x107;" horiz-adv-x="547" 
d="M233 568l80 132h105l-101 -132h-84zM301 -13c97 0 182 51 225 130l-74 43c-28 -53 -84 -87 -151 -87c-50 0 -92 17 -126 51c-33 34 -50 76 -50 126c0 51 17 93 50 127c34 34 76 51 126 51c67 0 123 -35 148 -88l73 42c-39 80 -122 131 -221 131c-75 0 -138 -25 -188 -76
c-50 -50 -75 -112 -75 -187s25 -137 75 -188c50 -50 113 -75 188 -75z" />
    <glyph glyph-name="Cdotaccent" unicode="&#x10a;" horiz-adv-x="739" 
d="M466 829c0 -33 -27 -62 -62 -62s-63 27 -63 62s28 63 63 63s62 -28 62 -63zM404 -13c-106 0 -194 35 -263 105s-103 156 -103 258s34 188 103 258s157 105 263 105c128 0 242 -66 302 -170l-81 -47c-40 77 -125 127 -221 127c-81 0 -147 -26 -198 -78s-76 -117 -76 -195
c0 -77 25 -142 76 -194s117 -78 198 -78c96 0 181 50 221 126l81 -46c-29 -52 -71 -94 -125 -125s-113 -46 -177 -46z" />
    <glyph glyph-name="cdotaccent" unicode="&#x10b;" horiz-adv-x="547" 
d="M293 564c-35 0 -63 27 -63 62s28 63 63 63s62 -28 62 -63s-29 -62 -62 -62zM301 -13c-75 0 -138 25 -188 75c-50 51 -75 113 -75 188s25 137 75 187c50 51 113 76 188 76c99 0 182 -51 221 -131l-73 -42c-25 53 -81 88 -148 88c-50 0 -92 -17 -126 -51
c-33 -34 -50 -76 -50 -127c0 -50 17 -92 50 -126c34 -34 76 -51 126 -51c67 0 123 34 151 87l74 -43c-43 -79 -128 -130 -225 -130z" />
    <glyph glyph-name="Ccaron" unicode="&#x10c;" horiz-adv-x="739" 
d="M451 768h-96l-106 135h93l61 -81l61 81h93zM404 78c96 0 181 50 221 126l81 -46c-29 -52 -71 -94 -125 -125s-113 -46 -177 -46c-106 0 -194 35 -263 105s-103 156 -103 258s34 188 103 258s157 105 263 105c128 0 242 -66 302 -170l-81 -47c-40 77 -125 127 -221 127
c-81 0 -147 -26 -198 -78s-76 -117 -76 -195c0 -77 25 -142 76 -194s117 -78 198 -78z" />
    <glyph glyph-name="ccaron" unicode="&#x10d;" horiz-adv-x="547" 
d="M340 565h-96l-106 135h93l61 -81l61 81h93zM452 160l74 -43c-43 -79 -128 -130 -225 -130c-75 0 -138 25 -188 75c-50 51 -75 113 -75 188s25 137 75 187c50 51 113 76 188 76c99 0 182 -51 221 -131l-73 -42c-25 53 -81 88 -148 88c-50 0 -92 -17 -126 -51
c-33 -34 -50 -76 -50 -127c0 -50 17 -92 50 -126c34 -34 76 -51 126 -51c67 0 123 34 151 87z" />
    <glyph glyph-name="Dcaron" unicode="&#x10e;" horiz-adv-x="718" 
d="M392 765h-96l-106 135h93l61 -81l61 81h93zM75 700h273c95 0 174 -34 237 -102c63 -67 95 -150 95 -248s-32 -181 -95 -249c-63 -67 -142 -101 -237 -101h-273v700zM168 88h180c71 0 130 25 175 75s68 112 68 187s-23 137 -68 187s-104 75 -175 75h-180v-524z" />
    <glyph glyph-name="dcaron" unicode="&#x10f;" horiz-adv-x="713" 
d="M480 414v286h87v-700h-87v86c-43 -66 -106 -99 -189 -99c-70 0 -130 25 -179 76s-74 114 -74 187s25 135 74 186s109 77 179 77c83 0 146 -33 189 -99zM629 520l10 180h84l-30 -180h-64zM302 71c51 0 93 17 127 51c34 35 51 77 51 128s-17 93 -51 127
c-34 35 -76 52 -127 52c-50 0 -92 -17 -126 -52c-34 -34 -51 -76 -51 -127s17 -93 51 -128c34 -34 76 -51 126 -51z" />
    <glyph glyph-name="Dcroat" unicode="&#x110;" horiz-adv-x="743" 
d="M100 700h273c95 0 174 -34 237 -102c63 -67 95 -150 95 -248s-32 -181 -95 -249c-63 -67 -142 -101 -237 -101h-273v306h-73v84h73v310zM193 88h180c71 0 130 25 175 75s68 112 68 187s-23 137 -68 187s-104 75 -175 75h-180v-222h199v-84h-199v-218z" />
    <glyph glyph-name="dslash" unicode="&#x111;" horiz-adv-x="642" 
d="M567 633h67v-64h-67v-569h-87v86c-43 -66 -106 -99 -189 -99c-70 0 -130 25 -179 76s-74 114 -74 187s25 135 74 186s109 77 179 77c83 0 146 -33 189 -99v155h-173v64h173v67h87v-67zM302 71c51 0 93 17 127 51c34 35 51 77 51 128s-17 93 -51 127
c-34 35 -76 52 -127 52c-50 0 -92 -17 -126 -52c-34 -34 -51 -76 -51 -127s17 -93 51 -128c34 -34 76 -51 126 -51z" />
    <glyph glyph-name="Emacron" unicode="&#x112;" horiz-adv-x="530" 
d="M147 848h270v-73h-270v73zM168 310v-222h325v-88h-418v700h413v-88h-320v-215h295v-87h-295z" />
    <glyph glyph-name="emacron" unicode="&#x113;" horiz-adv-x="583" 
d="M159 649h270v-73h-270v73zM546 210h-419c17 -89 86 -141 181 -141c66 0 114 24 144 73l74 -42c-49 -75 -122 -113 -220 -113c-79 0 -144 25 -194 74c-49 50 -74 113 -74 189c0 75 24 138 73 188s112 75 189 75c73 0 133 -26 179 -78c47 -51 70 -113 70 -186
c0 -13 -1 -26 -3 -39zM300 431c-93 0 -158 -57 -173 -145h334c-15 95 -81 145 -161 145z" />
    <glyph glyph-name="Edotaccent" unicode="&#x116;" horiz-adv-x="530" 
d="M326 782c-24 -24 -64 -24 -89 0c-24 24 -24 64 0 88c25 25 65 25 89 0c24 -24 24 -64 0 -88zM168 310v-222h325v-88h-418v700h413v-88h-320v-215h295v-87h-295z" />
    <glyph glyph-name="edotaccent" unicode="&#x117;" horiz-adv-x="583" 
d="M356 627c0 -33 -27 -62 -62 -62s-63 27 -63 62s28 63 63 63s62 -28 62 -63zM546 210h-419c17 -89 86 -141 181 -141c66 0 114 24 144 73l74 -42c-49 -75 -122 -113 -220 -113c-79 0 -144 25 -194 74c-49 50 -74 113 -74 189c0 75 24 138 73 188s112 75 189 75
c73 0 133 -26 179 -78c47 -51 70 -113 70 -186c0 -13 -1 -26 -3 -39zM300 431c-93 0 -158 -57 -173 -145h334c-15 95 -81 145 -161 145z" />
    <glyph glyph-name="Eogonek" unicode="&#x118;" horiz-adv-x="530" 
d="M493 88v-88c-45 -43 -68 -81 -68 -114c-1 -20 10 -30 31 -30c13 0 26 3 37 8v-64c-21 -9 -43 -13 -66 -13c-55 0 -87 31 -87 80c0 42 23 86 70 133h-335v700h413v-88h-320v-215h295v-87h-295v-222h325z" />
    <glyph glyph-name="eogonek" unicode="&#x119;" horiz-adv-x="583" 
d="M546 210h-419c17 -89 86 -141 181 -141c66 0 114 24 144 73l74 -42c-11 -16 -24 -31 -39 -46c-70 -77 -105 -133 -105 -168c0 -20 10 -30 31 -30c14 0 26 3 37 8v-64c-21 -9 -43 -13 -66 -13c-53 0 -86 31 -86 80c0 41 21 83 64 125c-20 -3 -39 -5 -56 -5
c-79 0 -144 25 -194 74c-49 50 -74 113 -74 189c0 75 24 138 73 188s112 75 189 75c73 0 133 -26 179 -78c47 -51 70 -113 70 -186c0 -13 -1 -26 -3 -39zM300 431c-93 0 -158 -57 -173 -145h334c-15 95 -81 145 -161 145z" />
    <glyph glyph-name="Ecaron" unicode="&#x11a;" horiz-adv-x="530" 
d="M329 765h-96l-106 135h93l61 -81l61 81h93zM168 310v-222h325v-88h-418v700h413v-88h-320v-215h295v-87h-295z" />
    <glyph glyph-name="ecaron" unicode="&#x11b;" horiz-adv-x="583" 
d="M341 566h-96l-106 135h93l61 -81l61 81h93zM546 210h-419c17 -89 86 -141 181 -141c66 0 114 24 144 73l74 -42c-49 -75 -122 -113 -220 -113c-79 0 -144 25 -194 74c-49 50 -74 113 -74 189c0 75 24 138 73 188s112 75 189 75c73 0 133 -26 179 -78
c47 -51 70 -113 70 -186c0 -13 -1 -26 -3 -39zM300 431c-93 0 -158 -57 -173 -145h334c-15 95 -81 145 -161 145z" />
    <glyph glyph-name="Gbreve" unicode="&#x11e;" horiz-adv-x="788" 
d="M394 760c-92 0 -149 50 -149 135h81c0 -43 23 -65 68 -65s68 22 68 65h81c0 -85 -56 -135 -149 -135zM400 347h350v-42c0 -91 -31 -167 -94 -228c-63 -60 -146 -90 -249 -90c-107 0 -195 35 -265 105c-69 71 -104 157 -104 258s35 187 104 257c70 71 158 106 263 106
c65 0 124 -16 178 -47s96 -71 125 -122l-80 -47c-40 76 -127 126 -224 126c-80 0 -146 -26 -197 -79c-51 -52 -77 -117 -77 -194s26 -142 77 -194c52 -52 119 -78 201 -78c140 0 230 76 249 185h-257v84z" />
    <glyph glyph-name="gbreve" unicode="&#x11f;" 
d="M304 560c-92 0 -149 50 -149 135h81c0 -43 23 -65 68 -65s68 22 68 65h81c0 -85 -56 -135 -149 -135zM481 414v86h86v-479c0 -74 -25 -131 -75 -172s-110 -62 -180 -62c-112 0 -196 43 -237 122l76 43c27 -56 82 -84 163 -84c104 0 167 58 167 153v71
c-44 -67 -107 -100 -188 -100c-71 0 -132 25 -181 76s-74 112 -74 185s25 134 74 184c49 51 110 76 181 76c82 0 145 -33 188 -99zM481 253c0 50 -17 92 -51 126s-76 51 -127 51s-93 -17 -127 -51s-51 -76 -51 -126c0 -51 17 -93 51 -127s76 -51 127 -51s93 17 127 51
s51 76 51 127z" />
    <glyph glyph-name="Gdotaccent" unicode="&#x120;" horiz-adv-x="788" 
d="M456 829c0 -33 -27 -62 -62 -62s-63 27 -63 62s28 63 63 63s62 -28 62 -63zM400 347h350v-42c0 -91 -31 -167 -94 -228c-63 -60 -146 -90 -249 -90c-107 0 -195 35 -265 105c-69 71 -104 157 -104 258s35 187 104 257c70 71 158 106 263 106c65 0 124 -16 178 -47
s96 -71 125 -122l-80 -47c-40 76 -127 126 -224 126c-80 0 -146 -26 -197 -79c-51 -52 -77 -117 -77 -194s26 -142 77 -194c52 -52 119 -78 201 -78c140 0 230 76 249 185h-257v84z" />
    <glyph glyph-name="gdotaccent" unicode="&#x121;" 
d="M366 629c0 -33 -27 -62 -62 -62s-63 27 -63 62s28 63 63 63s62 -28 62 -63zM481 414v86h86v-479c0 -74 -25 -131 -75 -172s-110 -62 -180 -62c-112 0 -196 43 -237 122l76 43c27 -56 82 -84 163 -84c104 0 167 58 167 153v71c-44 -67 -107 -100 -188 -100
c-71 0 -132 25 -181 76s-74 112 -74 185s25 134 74 184c49 51 110 76 181 76c82 0 145 -33 188 -99zM481 253c0 50 -17 92 -51 126s-76 51 -127 51s-93 -17 -127 -51s-51 -76 -51 -126c0 -51 17 -93 51 -127s76 -51 127 -51s93 17 127 51s51 76 51 127z" />
    <glyph glyph-name="Gcommaaccent" unicode="&#x122;" horiz-adv-x="788" 
d="M400 347h350v-42c0 -91 -31 -167 -94 -228c-63 -60 -146 -90 -249 -90c-107 0 -195 35 -265 105c-69 71 -104 157 -104 258s35 187 104 257c70 71 158 106 263 106c65 0 124 -16 178 -47s96 -71 125 -122l-80 -47c-40 76 -127 126 -224 126c-80 0 -146 -26 -197 -79
c-51 -52 -77 -117 -77 -194s26 -142 77 -194c52 -52 119 -78 201 -78c140 0 230 76 249 185h-257v84zM435 -248h-65l10 180h85z" />
    <glyph glyph-name="gcommaaccent" unicode="&#x123;" 
d="M285 768h65l-10 -180h-85zM481 414v86h86v-479c0 -74 -25 -131 -75 -172s-110 -62 -180 -62c-112 0 -196 43 -237 122l76 43c27 -56 82 -84 163 -84c104 0 167 58 167 153v71c-44 -67 -107 -100 -188 -100c-71 0 -132 25 -181 76s-74 112 -74 185s25 134 74 184
c49 51 110 76 181 76c82 0 145 -33 188 -99zM481 253c0 50 -17 92 -51 126s-76 51 -127 51s-93 -17 -127 -51s-51 -76 -51 -126c0 -51 17 -93 51 -127s76 -51 127 -51s93 17 127 51s51 76 51 127z" />
    <glyph glyph-name="Hbar" unicode="&#x126;" horiz-adv-x="723" 
d="M624 579h64v-71h-64v-508h-93v309h-340v-309h-92v508h-64v71h64v121h92v-121h340v121h93v-121zM191 397h340v111h-340v-111z" />
    <glyph glyph-name="hbar" unicode="&#x127;" horiz-adv-x="573" 
d="M324 513c117 0 194 -79 194 -206v-307h-87v302c0 81 -47 128 -124 128c-87 0 -145 -53 -145 -165v-265h-87v569h-67v64h67v67h87v-67h143v-64h-143v-141c35 57 89 85 162 85z" />
    <glyph glyph-name="Imacron" unicode="&#x12a;" horiz-adv-x="243" 
d="M256 775h-270v73h270v-73zM75 0v700h93v-700h-93z" />
    <glyph glyph-name="imacron" unicode="&#x12b;" horiz-adv-x="220" 
d="M215 575h-210v76h210v-76zM153 0h-87v500h87v-500z" />
    <glyph glyph-name="Iogonek" unicode="&#x12e;" horiz-adv-x="243" 
d="M157 -144c14 0 27 3 38 8v-64c-22 -9 -44 -13 -67 -13c-53 0 -86 31 -86 80c0 38 13 82 40 133h-7v700h93v-700c-28 -50 -42 -88 -42 -114c0 -20 10 -30 31 -30z" />
    <glyph glyph-name="iogonek" unicode="&#x12f;" horiz-adv-x="220" 
d="M110 591c-33 0 -59 26 -59 58s26 59 59 59c32 0 58 -27 58 -59s-26 -58 -58 -58zM146 -144c13 0 26 3 37 8v-64c-22 -9 -44 -13 -66 -13c-53 0 -87 37 -87 88c0 35 13 76 39 125h-3v500h87v-500c-25 -41 -38 -77 -38 -107c-1 -20 11 -37 31 -37z" />
    <glyph glyph-name="Idot" unicode="&#x130;" horiz-adv-x="243" 
d="M121 764c-35 0 -63 27 -63 62s28 63 63 63s62 -28 62 -63s-29 -62 -62 -62zM75 0v700h93v-700h-93z" />
    <glyph glyph-name="dotlessi" unicode="&#x131;" horiz-adv-x="220" 
d="M153 0h-87v500h87v-500z" />
    <glyph glyph-name="Kcommaaccent" unicode="&#x136;" horiz-adv-x="592" 
d="M574 700l-309 -340l319 -360h-114l-302 336v-336h-93v700h93v-316l292 316h114zM322 -248h-65l10 180h85z" />
    <glyph glyph-name="kcommaaccent" unicode="&#x137;" horiz-adv-x="504" 
d="M481 500l-239 -242l247 -258h-108l-228 237v-237h-87v700h87v-421l216 221h112zM285 -248h-65l10 180h85z" />
    <glyph glyph-name="Lacute" unicode="&#x139;" horiz-adv-x="488" 
d="M157 900h105l-101 -132h-84zM168 700v-612h302v-88h-395v700h93z" />
    <glyph glyph-name="lacute" unicode="&#x13a;" horiz-adv-x="220" 
d="M66 768l80 132h105l-101 -132h-84zM66 0h87v730h-87v-730z" />
    <glyph glyph-name="Lcommaaccent" unicode="&#x13b;" horiz-adv-x="488" 
d="M168 700v-612h302v-88h-395v700h93zM296 -248h-65l10 180h85z" />
    <glyph glyph-name="lcommaaccent" unicode="&#x13c;" horiz-adv-x="220" 
d="M153 0h-87v730h87v-730zM124 -248h-65l10 180h85z" />
    <glyph glyph-name="Lcaron" unicode="&#x13d;" horiz-adv-x="488" 
d="M168 700v-612h302v-88h-395v700h93zM270 700h87l-30 -175h-67z" />
    <glyph glyph-name="lcaron" unicode="&#x13e;" horiz-adv-x="299" 
d="M153 0h-87v730h87v-730zM279 550h-64l10 180h84z" />
    <glyph glyph-name="Lslash" unicode="&#x141;" horiz-adv-x="508" 
d="M188 288v-200h302v-88h-395v233l-60 -35v88l60 35v379h93v-324l157 93v-88z" />
    <glyph glyph-name="lslash" unicode="&#x142;" horiz-adv-x="248" 
d="M167 427l63 43v-83l-63 -43v-344h-87v284l-62 -42v83l62 42v363h87v-303z" />
    <glyph glyph-name="Nacute" unicode="&#x143;" horiz-adv-x="678" 
d="M276 768l80 132h105l-101 -132h-84zM510 700v-522l-360 522h-75v-700h93v523l360 -523h75v700h-93z" />
    <glyph glyph-name="nacute" unicode="&#x144;" horiz-adv-x="564" 
d="M313 703h105l-101 -132h-84zM315 513c117 0 194 -79 194 -206v-307h-87v302c0 81 -47 128 -124 128c-87 0 -145 -53 -145 -165v-265h-87v500h87v-72c35 57 89 85 162 85z" />
    <glyph glyph-name="Ncommaaccent" unicode="&#x145;" horiz-adv-x="678" 
d="M510 178v522h93v-700h-75l-360 523v-523h-93v700h75zM354 -248h-65l10 180h85z" />
    <glyph glyph-name="ncommaaccent" unicode="&#x146;" horiz-adv-x="564" 
d="M315 513c117 0 194 -79 194 -206v-307h-87v302c0 81 -47 128 -124 128c-87 0 -145 -53 -145 -165v-265h-87v500h87v-72c35 57 89 85 162 85zM308 -248h-65l10 180h85z" />
    <glyph glyph-name="Ncaron" unicode="&#x147;" horiz-adv-x="678" 
d="M383 765h-96l-106 135h93l61 -81l61 81h93zM510 178v522h93v-700h-75l-360 523v-523h-93v700h75z" />
    <glyph glyph-name="ncaron" unicode="&#x148;" horiz-adv-x="564" 
d="M340 568h-96l-106 135h93l61 -81l61 81h93zM315 513c117 0 194 -79 194 -206v-307h-87v302c0 81 -47 128 -124 128c-87 0 -145 -53 -145 -165v-265h-87v500h87v-72c35 57 89 85 162 85z" />
    <glyph glyph-name="Eng" unicode="&#x14a;" horiz-adv-x="678" 
d="M510 178v522h93v-700c0 -141 -85 -203 -218 -200v87c83 0 125 25 125 116v23l-342 497v-523h-93v700h75z" />
    <glyph glyph-name="eng" unicode="&#x14b;" horiz-adv-x="564" 
d="M315 513c117 0 194 -79 194 -206v-337c0 -127 -67 -192 -190 -183v84c69 -7 103 22 103 99v332c0 81 -47 128 -124 128c-87 0 -145 -53 -145 -165v-265h-87v500h87v-72c35 57 89 85 162 85z" />
    <glyph glyph-name="Omacron" unicode="&#x14c;" horiz-adv-x="800" 
d="M535 778h-270v73h270v-73zM38 350c0 101 35 187 105 257c70 71 156 106 257 106s187 -35 257 -106c71 -70 106 -156 106 -257s-35 -186 -106 -257c-70 -71 -156 -106 -257 -106s-187 35 -257 106s-105 156 -105 257zM670 350c0 77 -26 142 -78 194
c-51 53 -115 79 -192 79s-141 -26 -193 -79c-51 -52 -77 -117 -77 -194s26 -141 77 -194c52 -52 116 -78 193 -78s141 26 192 78c52 53 78 117 78 194z" />
    <glyph glyph-name="omacron" unicode="&#x14d;" horiz-adv-x="602" 
d="M436 578h-270v73h270v-73zM488 63c-51 -51 -114 -76 -187 -76s-136 25 -187 76s-76 113 -76 187s25 136 76 187s114 76 187 76s136 -25 187 -76s77 -113 77 -187s-26 -136 -77 -187zM301 72c50 0 92 17 126 51s51 76 51 127s-17 93 -51 127s-76 51 -126 51
c-49 0 -91 -17 -125 -51s-51 -76 -51 -127s17 -93 51 -127s76 -51 125 -51z" />
    <glyph glyph-name="Ohungarumlaut" unicode="&#x150;" horiz-adv-x="800" 
d="M255 768l73 133h94l-79 -133h-88zM408 768l83 133h94l-89 -133h-88zM38 350c0 -101 35 -186 105 -257s156 -106 257 -106s187 35 257 106c71 71 106 156 106 257s-35 187 -106 257c-70 71 -156 106 -257 106s-187 -35 -257 -106c-70 -70 -105 -156 -105 -257zM670 350
c0 -77 -26 -141 -78 -194c-51 -52 -115 -78 -192 -78s-141 26 -193 78c-51 53 -77 117 -77 194s26 142 77 194c52 53 116 79 193 79s141 -26 192 -79c52 -52 78 -117 78 -194z" />
    <glyph glyph-name="ohungarumlaut" unicode="&#x151;" horiz-adv-x="602" 
d="M156 568l73 133h94l-79 -133h-88zM309 568l83 133h94l-89 -133h-88zM488 63c51 51 77 113 77 187s-26 136 -77 187s-114 76 -187 76s-136 -25 -187 -76s-76 -113 -76 -187s25 -136 76 -187s114 -76 187 -76s136 25 187 76zM301 72c-49 0 -91 17 -125 51s-51 76 -51 127
s17 93 51 127s76 51 125 51c50 0 92 -17 126 -51s51 -76 51 -127s-17 -93 -51 -127s-76 -51 -126 -51z" />
    <glyph glyph-name="OE" unicode="&#x152;" horiz-adv-x="915" 
d="M578 310v-222h300v-88h-393c-31 -9 -63 -13 -95 -13c-101 0 -185 35 -252 105c-67 71 -100 157 -100 258c0 102 33 188 100 258s151 105 252 105c32 0 64 -4 95 -13h388v-88h-295v-215h277v-87h-277zM485 93v515c-29 10 -60 15 -95 15c-76 0 -138 -26 -187 -78
s-73 -117 -73 -195c0 -77 24 -142 73 -194s111 -78 187 -78c37 0 68 5 95 15z" />
    <glyph glyph-name="oe" unicode="&#x153;" horiz-adv-x="1023" 
d="M986 210h-419c16 -89 87 -141 179 -141c67 0 116 24 146 73l74 -42c-45 -71 -122 -113 -218 -113c-105 0 -187 51 -227 135c-41 -83 -122 -135 -221 -135c-75 0 -138 25 -188 75c-49 51 -74 113 -74 188s25 137 74 187c50 51 113 76 188 76c99 0 180 -52 221 -135
c40 83 119 135 222 135c73 0 132 -26 177 -78c46 -51 69 -113 69 -186c0 -13 -1 -26 -3 -39zM740 431c-92 0 -158 -56 -173 -144h334c-15 93 -81 144 -161 144zM301 72c50 0 92 17 126 51s51 76 51 127s-17 93 -51 127s-76 51 -126 51c-51 0 -94 -17 -127 -51
s-49 -76 -49 -127s16 -93 49 -127s76 -51 127 -51z" />
    <glyph glyph-name="Racute" unicode="&#x154;" horiz-adv-x="611" 
d="M325 900h105l-101 -132h-84zM593 0h-103l-157 268h-165v-268h-93v700h280c60 0 111 -21 154 -64c43 -42 64 -93 64 -153c0 -45 -14 -87 -41 -124s-61 -64 -104 -79zM355 613h-187v-261h187c35 0 64 13 88 38c25 26 37 57 37 93s-12 67 -37 92c-24 25 -53 38 -88 38z" />
    <glyph glyph-name="racute" unicode="&#x155;" horiz-adv-x="328" 
d="M206 700h105l-101 -132h-84zM153 500v-84c29 62 81 93 156 93v-91c-43 2 -79 -9 -110 -34s-46 -64 -46 -119v-265h-87v500h87z" />
    <glyph glyph-name="Rcommaaccent" unicode="&#x156;" horiz-adv-x="611" 
d="M428 280l165 -280h-103l-157 268h-165v-268h-93v700h280c60 0 111 -21 154 -64c43 -42 64 -93 64 -153c0 -45 -14 -87 -41 -124s-61 -64 -104 -79zM355 613h-187v-261h187c35 0 64 13 88 38c25 26 37 57 37 93s-12 67 -37 92c-24 25 -53 38 -88 38zM343 -248h-65l10 180
h85z" />
    <glyph glyph-name="rcommaaccent" unicode="&#x157;" horiz-adv-x="328" 
d="M153 500v-84c29 62 81 93 156 93v-91c-43 2 -79 -9 -110 -34s-46 -64 -46 -119v-265h-87v500h87zM124 -248h-65l10 180h85z" />
    <glyph glyph-name="Rcaron" unicode="&#x158;" horiz-adv-x="611" 
d="M352 765h-96l-106 135h93l61 -81l61 81h93zM593 0h-103l-157 268h-165v-268h-93v700h280c60 0 111 -21 154 -64c43 -42 64 -93 64 -153c0 -45 -14 -87 -41 -124s-61 -64 -104 -79zM355 613h-187v-261h187c35 0 64 13 88 38c25 26 37 57 37 93s-12 67 -37 92
c-24 25 -53 38 -88 38z" />
    <glyph glyph-name="rcaron" unicode="&#x159;" horiz-adv-x="328" 
d="M233 565h-96l-106 135h93l61 -81l61 81h93zM153 500v-84c29 62 81 93 156 93v-91c-43 2 -79 -9 -110 -34s-46 -64 -46 -119v-265h-87v500h87z" />
    <glyph glyph-name="Sacute" unicode="&#x15a;" horiz-adv-x="578" 
d="M226 771l80 132h105l-101 -132h-84zM301 -13c72 0 130 18 175 54c45 37 67 86 67 147c0 44 -10 80 -35 105c-17 20 -26 31 -54 46c-27 15 -35 20 -70 33c-17 7 -29 11 -37 14l-41 13c-54 17 -92 34 -114 50s-33 39 -33 70c0 64 51 104 127 104s129 -36 159 -108l78 45
c-41 92 -126 153 -237 153c-61 0 -113 -18 -156 -54c-43 -35 -64 -83 -64 -144c0 -51 21 -92 44 -117c11 -12 28 -24 51 -36c23 -11 43 -20 58 -26l67 -22c59 -19 102 -36 127 -53s38 -42 38 -75c0 -65 -52 -108 -148 -108c-97 0 -160 42 -187 127l-80 -46
c37 -107 134 -172 265 -172z" />
    <glyph glyph-name="sacute" unicode="&#x15b;" horiz-adv-x="458" 
d="M250 703h105l-101 -132h-84zM141 365c0 -39 44 -60 99 -75c78 -17 182 -46 181 -153c0 -45 -18 -82 -53 -109s-79 -41 -134 -41c-97 0 -170 46 -199 117l75 43c16 -48 63 -78 124 -78c57 0 99 21 99 68c0 39 -44 61 -99 74c-79 21 -181 47 -181 153c0 43 17 79 50 107
c34 28 76 42 127 42c81 0 148 -39 180 -104l-73 -41c-18 43 -54 64 -107 64c-49 0 -89 -24 -89 -67z" />
    <glyph glyph-name="Scedilla" unicode="&#x15e;" horiz-adv-x="578" 
d="M543 188c0 -113 -84 -189 -212 -200v-33c51 -11 85 -40 85 -80c0 -69 -70 -99 -210 -91v66c89 -7 134 4 134 31c0 21 -28 33 -83 36v73c-109 13 -188 74 -221 169l80 46c27 -85 90 -127 187 -127c96 0 148 43 148 108c0 33 -13 58 -38 75s-68 34 -127 53l-67 22
c-15 6 -35 15 -58 26c-23 12 -40 24 -51 36c-23 25 -44 66 -44 117c0 61 21 109 64 144c43 36 95 54 156 54c111 0 196 -61 237 -153l-78 -45c-30 72 -83 108 -159 108s-127 -40 -127 -104c0 -31 11 -54 33 -70s60 -33 114 -50l41 -13c8 -3 20 -7 37 -14
c35 -13 43 -18 70 -33c28 -15 37 -26 54 -46c25 -25 35 -61 35 -105z" />
    <glyph glyph-name="scedilla" unicode="&#x15f;" horiz-adv-x="458" 
d="M421 137c0 -80 -59 -136 -150 -148v-34c51 -11 85 -40 85 -80c0 -69 -70 -99 -210 -91v66c89 -7 134 4 134 31c0 21 -28 33 -83 36v72c-81 11 -135 50 -162 115l75 43c16 -48 63 -78 124 -78c57 0 99 21 99 68c0 39 -44 61 -99 74c-79 21 -181 47 -181 153
c0 43 17 79 50 107c34 28 76 42 127 42c81 0 148 -39 180 -104l-73 -41c-18 43 -54 64 -107 64c-49 0 -89 -24 -89 -67c0 -39 44 -60 99 -75c78 -17 182 -46 181 -153z" />
    <glyph glyph-name="Scaron" unicode="&#x160;" horiz-adv-x="578" 
d="M333 768h-96l-106 135h93l61 -81l61 81h93zM306 399l41 -13c8 -3 20 -7 37 -14c35 -13 43 -18 70 -33c28 -15 37 -26 54 -46c25 -25 35 -61 35 -105c0 -61 -22 -110 -67 -147c-45 -36 -103 -54 -175 -54c-131 0 -228 65 -265 172l80 46c27 -85 90 -127 187 -127
c96 0 148 43 148 108c0 33 -13 58 -38 75s-68 34 -127 53l-67 22c-15 6 -35 15 -58 26c-23 12 -40 24 -51 36c-23 25 -44 66 -44 117c0 61 21 109 64 144c43 36 95 54 156 54c111 0 196 -61 237 -153l-78 -45c-30 72 -83 108 -159 108s-127 -40 -127 -104
c0 -31 11 -54 33 -70s60 -33 114 -50z" />
    <glyph glyph-name="scaron" unicode="&#x161;" horiz-adv-x="458" 
d="M277 568h-96l-106 135h93l61 -81l61 81h93zM141 365c0 -39 44 -60 99 -75c78 -17 182 -46 181 -153c0 -45 -18 -82 -53 -109s-79 -41 -134 -41c-97 0 -170 46 -199 117l75 43c16 -48 63 -78 124 -78c57 0 99 21 99 68c0 39 -44 61 -99 74c-79 21 -181 47 -181 153
c0 43 17 79 50 107c34 28 76 42 127 42c81 0 148 -39 180 -104l-73 -41c-18 43 -54 64 -107 64c-49 0 -89 -24 -89 -67z" />
    <glyph glyph-name="uni0162" unicode="&#x162;" horiz-adv-x="540" 
d="M18 700h505v-88h-207v-612h-92v612h-206v88zM285 -248h-65l10 180h85z" />
    <glyph glyph-name="uni0163" unicode="&#x163;" horiz-adv-x="378" 
d="M338 500v-84h-133v-271c0 -77 44 -71 133 -67v-78c-152 -20 -220 21 -220 145v271h-99v84h99v114l87 26v-140h133zM248 -248h-65l10 180h85z" />
    <glyph glyph-name="Tcaron" unicode="&#x164;" horiz-adv-x="540" 
d="M317 765h-96l-106 135h93l61 -81l61 81h93zM18 700h505v-88h-207v-612h-92v612h-206v88z" />
    <glyph glyph-name="tcaron" unicode="&#x165;" horiz-adv-x="385" 
d="M266 719h85l-30 -168h-65zM118 614l87 26v-140h133v-84h-133v-271c0 -77 44 -71 133 -67v-78c-152 -20 -220 21 -220 145v271h-99v84h99v114z" />
    <glyph glyph-name="Tbar" unicode="&#x166;" horiz-adv-x="540" 
d="M523 700v-88h-207v-222h137v-84h-137v-306h-92v306h-136v84h136v222h-206v88h505z" />
    <glyph glyph-name="tbar" unicode="&#x167;" horiz-adv-x="378" 
d="M338 500v-84h-133v-124h91v-70h-91v-77c0 -77 44 -71 133 -67v-78c-152 -20 -220 21 -220 145v77h-64v70h64v124h-99v84h99v114l87 26v-140h133z" />
    <glyph glyph-name="Umacron" unicode="&#x16a;" horiz-adv-x="658" 
d="M464 775h-270v73h270v-73zM66 235v465h93v-461c0 -99 61 -161 170 -161s170 62 170 161v461h92v-465c0 -75 -24 -136 -73 -181s-112 -67 -189 -67s-141 22 -190 67s-73 106 -73 181z" />
    <glyph glyph-name="umacron" unicode="&#x16b;" horiz-adv-x="564" 
d="M140 648h270v-73h-270v73zM411 235v265h87v-500h-87v72c-35 -57 -89 -85 -162 -85c-117 0 -194 79 -194 206v307h87v-302c0 -81 47 -128 124 -128c87 0 145 53 145 165z" />
    <glyph glyph-name="Uring" unicode="&#x16e;" horiz-adv-x="658" 
d="M410 746c-21 -20 -48 -30 -81 -30s-61 10 -82 30c-21 21 -31 46 -31 77s10 56 31 76s49 30 82 30s60 -10 81 -30s32 -45 32 -76s-11 -56 -32 -77zM329 777c64 -5 64 97 0 91c-29 0 -47 -20 -47 -45c0 -27 18 -46 47 -46zM66 235v465h93v-461c0 -99 61 -161 170 -161
s170 62 170 161v461h92v-465c0 -75 -24 -136 -73 -181s-112 -67 -189 -67s-141 22 -190 67s-73 106 -73 181z" />
    <glyph glyph-name="uring" unicode="&#x16f;" horiz-adv-x="564" 
d="M356 576c-21 -20 -48 -30 -81 -30s-61 10 -82 30c-21 21 -31 46 -31 77s10 56 31 76s49 30 82 30s60 -10 81 -30s32 -45 32 -76s-11 -56 -32 -77zM275 698c-29 0 -47 -20 -47 -45c0 -27 18 -46 47 -46c64 -5 64 97 0 91zM411 235v265h87v-500h-87v72
c-35 -57 -89 -85 -162 -85c-117 0 -194 79 -194 206v307h87v-302c0 -81 47 -128 124 -128c87 0 145 53 145 165z" />
    <glyph glyph-name="Uhungarumlaut" unicode="&#x170;" horiz-adv-x="658" 
d="M184 765l73 133h94l-79 -133h-88zM337 765l83 133h94l-89 -133h-88zM66 235c0 -75 24 -136 73 -181s113 -67 190 -67s140 22 189 67s73 106 73 181v465h-92v-461c0 -99 -61 -161 -170 -161s-170 62 -170 161v461h-93v-465z" />
    <glyph glyph-name="uhungarumlaut" unicode="&#x171;" horiz-adv-x="564" 
d="M203 698h94l-79 -133h-88zM460 698l-89 -133h-88l83 133h94zM411 235v265h87v-500h-87v72c-35 -57 -89 -85 -162 -85c-117 0 -194 79 -194 206v307h87v-302c0 -81 47 -128 124 -128c87 0 145 53 145 165z" />
    <glyph glyph-name="Uogonek" unicode="&#x172;" horiz-adv-x="658" 
d="M499 239v461h92v-465c0 -84 -30 -149 -91 -195c-81 -76 -109 -113 -109 -154c-1 -20 10 -30 31 -30c13 0 26 3 37 8v-64c-21 -9 -43 -13 -66 -13c-55 0 -87 31 -87 80c0 38 20 79 59 122c-15 -1 -27 -2 -36 -2c-77 0 -141 22 -190 67s-73 106 -73 181v465h93v-461
c0 -99 61 -161 170 -161s170 62 170 161z" />
    <glyph glyph-name="uogonek" unicode="&#x173;" horiz-adv-x="564" 
d="M498 500v-500c-45 -43 -68 -81 -68 -114c0 -20 10 -30 31 -30c13 0 26 3 37 8v-64c-21 -9 -43 -13 -66 -13c-53 0 -87 31 -87 80c0 35 22 80 66 134v71c-35 -57 -89 -85 -162 -85c-117 0 -194 79 -194 206v307h87v-302c0 -81 47 -128 124 -128c87 0 145 53 145 165v265
h87z" />
    <glyph glyph-name="Wcircumflex" unicode="&#x174;" horiz-adv-x="1000" 
d="M570 765l-61 81l-61 -81h-93l106 135h96l106 -135h-93zM717 124l160 576h98l-201 -700h-108l-166 559l-166 -559h-108l-201 700h98l160 -576l170 576h94z" />
    <glyph glyph-name="wcircumflex" unicode="&#x175;" horiz-adv-x="770" 
d="M445 565l-61 81l-61 -81h-93l106 135h96l106 -135h-93zM545 119l110 381h91l-155 -500h-89l-117 370l-117 -370h-89l-155 500h91l110 -380l118 380h84z" />
    <glyph glyph-name="Ycircumflex" unicode="&#x176;" horiz-adv-x="604" 
d="M359 765l-61 81l-61 -81h-93l106 135h96l106 -135h-93zM492 700h104l-248 -417v-283h-93v284l-247 416h104l190 -328z" />
    <glyph glyph-name="ycircumflex" unicode="&#x177;" horiz-adv-x="515" 
d="M316 565l-61 81l-61 -81h-93l106 135h96l106 -135h-93zM271 108l144 392h93l-204 -531c-43 -113 -122 -176 -222 -169v81c61 -5 106 29 135 102l9 19l-218 498h93z" />
    <glyph glyph-name="Ydieresis" unicode="&#x178;" horiz-adv-x="604" 
d="M241 781c-20 -20 -54 -20 -75 0c-20 21 -20 55 0 75c21 20 55 20 75 0s20 -54 0 -75zM431 781c-20 -20 -54 -20 -75 0c-20 21 -20 55 0 75c21 20 55 20 75 0s20 -54 0 -75zM492 700h104l-248 -417v-283h-93v284l-247 416h104l190 -328z" />
    <glyph glyph-name="Zacute" unicode="&#x179;" horiz-adv-x="525" 
d="M288 900h105l-101 -132h-84zM488 620l-339 -532h347v-88h-457v81l338 531h-329v88h440v-80z" />
    <glyph glyph-name="zacute" unicode="&#x17a;" horiz-adv-x="471" 
d="M262 700h105l-101 -132h-84zM423 442l-256 -359h266v-83h-385v58l255 359h-245v83h365v-58z" />
    <glyph glyph-name="Zdotaccent" unicode="&#x17b;" horiz-adv-x="525" 
d="M312 782c-24 -24 -64 -24 -89 0c-24 24 -24 64 0 88c25 25 65 25 89 0c24 -24 24 -64 0 -88zM488 620l-339 -532h347v-88h-457v81l338 531h-329v88h440v-80z" />
    <glyph glyph-name="zdotaccent" unicode="&#x17c;" horiz-adv-x="471" 
d="M286 582c-24 -24 -64 -24 -89 0c-24 24 -24 64 0 88c25 25 65 25 89 0c24 -24 24 -64 0 -88zM423 442l-256 -359h266v-83h-385v58l255 359h-245v83h365v-58z" />
    <glyph glyph-name="Zcaron" unicode="&#x17d;" horiz-adv-x="525" 
d="M315 765h-96l-106 135h93l61 -81l61 81h93zM488 620l-339 -532h347v-88h-457v81l338 531h-329v88h440v-80z" />
    <glyph glyph-name="zcaron" unicode="&#x17e;" horiz-adv-x="471" 
d="M289 565h-96l-106 135h93l61 -81l61 81h93zM423 442l-256 -359h266v-83h-385v58l255 359h-245v83h365v-58z" />
    <glyph glyph-name="florin" unicode="&#x192;" horiz-adv-x="440" 
d="M440 704v-86c-63 27 -113 1 -124 -64l-28 -161h107v-84h-121l-63 -369c-20 -125 -103 -172 -211 -141v85c63 -25 113 0 124 64l62 361h-101v84h115l29 169c20 125 103 173 211 142z" />
    <glyph glyph-name="Scommaaccent" unicode="&#x218;" horiz-adv-x="578" 
d="M301 -13c-131 0 -228 65 -265 172l80 46c27 -85 90 -127 187 -127c96 0 148 43 148 108c0 33 -13 58 -38 75s-68 34 -127 53l-67 22c-15 6 -35 15 -58 26c-23 12 -40 24 -51 36c-23 25 -44 66 -44 117c0 61 21 109 64 144c43 36 95 54 156 54c111 0 196 -61 237 -153
l-78 -45c-30 72 -83 108 -159 108s-127 -40 -127 -104c0 -31 11 -54 33 -70s60 -33 114 -50l41 -13c8 -3 20 -7 37 -14c35 -13 43 -18 70 -33c28 -15 37 -26 54 -46c25 -25 35 -61 35 -105c0 -61 -22 -110 -67 -147c-45 -36 -103 -54 -175 -54zM320 -248h-65l10 180h85z" />
    <glyph glyph-name="scommaaccent" unicode="&#x219;" horiz-adv-x="458" 
d="M141 365c0 -39 44 -60 99 -75c78 -17 182 -46 181 -153c0 -45 -18 -82 -53 -109s-79 -41 -134 -41c-97 0 -170 46 -199 117l75 43c16 -48 63 -78 124 -78c57 0 99 21 99 68c0 39 -44 61 -99 74c-79 21 -181 47 -181 153c0 43 17 79 50 107c34 28 76 42 127 42
c81 0 148 -39 180 -104l-73 -41c-18 43 -54 64 -107 64c-49 0 -89 -24 -89 -67zM260 -248h-65l10 180h85z" />
    <glyph glyph-name="uni021A" unicode="&#x21a;" horiz-adv-x="540" 
d="M18 700h505v-88h-207v-612h-92v612h-206v88zM285 -248h-65l10 180h85z" />
    <glyph glyph-name="uni021B" unicode="&#x21b;" horiz-adv-x="378" 
d="M338 500v-84h-133v-271c0 -77 44 -71 133 -67v-78c-152 -20 -220 21 -220 145v271h-99v84h99v114l87 26v-140h133zM248 -248h-65l10 180h85z" />
    <glyph glyph-name="circumflex" unicode="&#x2c6;" horiz-adv-x="348" 
d="M222 700l106 -135h-93l-61 81l-61 -81h-93l106 135h96z" />
    <glyph glyph-name="caron" unicode="&#x2c7;" horiz-adv-x="348" 
d="M174 619l61 81h93l-106 -135h-96l-106 135h93z" />
    <glyph glyph-name="breve" unicode="&#x2d8;" horiz-adv-x="338" 
d="M169 557c-92 0 -149 50 -149 135h81c0 -43 23 -65 68 -65s68 22 68 65h81c0 -85 -56 -135 -149 -135z" />
    <glyph glyph-name="dotaccent" unicode="&#x2d9;" horiz-adv-x="168" 
d="M83 564c-35 0 -63 27 -63 62s28 63 63 63s62 -28 62 -63s-29 -62 -62 -62z" />
    <glyph glyph-name="ring" unicode="&#x2da;" horiz-adv-x="266" 
d="M214 576c-21 -20 -48 -30 -81 -30s-61 10 -82 30c-21 21 -31 46 -31 77s10 56 31 76s49 30 82 30s60 -10 81 -30s32 -45 32 -76s-11 -56 -32 -77zM133 607c64 -5 64 97 0 91c-29 0 -47 -20 -47 -45c0 -27 18 -46 47 -46z" />
    <glyph glyph-name="ogonek" unicode="&#x2db;" horiz-adv-x="193" 
d="M107 -213c-55 0 -87 31 -87 80c0 42 23 86 70 133h83c-45 -43 -68 -81 -68 -114c-1 -20 10 -30 31 -30c13 0 26 3 37 8v-64c-22 -9 -44 -13 -66 -13z" />
    <glyph glyph-name="tilde" unicode="&#x2dc;" horiz-adv-x="340" 
d="M94 573h-73c0 134 80 152 154 99c49 -40 72 -41 72 23h73c0 -133 -78 -151 -154 -98c-48 40 -72 41 -72 -24z" />
    <glyph glyph-name="hungarumlaut" unicode="&#x2dd;" horiz-adv-x="370" 
d="M20 565l73 133h94l-79 -133h-88zM173 565l83 133h94l-89 -133h-88z" />
    <glyph glyph-name="gravecomb" unicode="&#x300;" horiz-adv-x="0" 
d="M-20 568h-84l-101 132h105z" />
    <glyph glyph-name="acutecomb" unicode="&#x301;" horiz-adv-x="0" 
d="M-205 568l80 132h105l-101 -132h-84z" />
    <glyph glyph-name="uni0302" unicode="&#x302;" horiz-adv-x="0" 
d="M-126 700l106 -135h-93l-61 81l-61 -81h-93l106 135h96z" />
    <glyph glyph-name="tildecomb" unicode="&#x303;" horiz-adv-x="0" 
d="M-244 573h-73c0 134 80 152 154 99c49 -40 72 -41 72 23h73c0 -133 -78 -151 -154 -98c-48 40 -72 41 -72 -24z" />
    <glyph glyph-name="uni0304" unicode="&#x304;" horiz-adv-x="0" 
d="M-20 575h-270v73h270v-73z" />
    <glyph glyph-name="uni0306" unicode="&#x306;" horiz-adv-x="0" 
d="M-169 557c-92 0 -149 50 -149 135h81c0 -43 23 -65 68 -65s68 22 68 65h81c0 -85 -56 -135 -149 -135z" />
    <glyph glyph-name="uni0307" unicode="&#x307;" horiz-adv-x="0" 
d="M-38 582c-24 -24 -64 -24 -88 0c-25 24 -25 64 0 88c24 25 64 25 88 0c24 -24 24 -64 0 -88z" />
    <glyph glyph-name="uni0308" unicode="&#x308;" horiz-adv-x="0" 
d="M-225 581c-20 -20 -54 -20 -74 0c-21 21 -21 55 0 75c20 20 54 20 74 0s20 -54 0 -75zM-35 581c-20 -20 -54 -20 -74 0c-21 21 -21 55 0 75c20 20 54 20 74 0s20 -54 0 -75z" />
    <glyph glyph-name="uni030A" unicode="&#x30a;" horiz-adv-x="0" 
d="M-52 576c-21 -20 -49 -30 -82 -30s-60 10 -81 30c-21 21 -32 46 -32 77s11 56 32 76s48 30 81 30s61 -10 82 -30s31 -45 31 -76s-10 -56 -31 -77zM-134 607c64 -5 64 97 0 91c-29 0 -47 -20 -47 -45c0 -27 18 -46 47 -46z" />
    <glyph glyph-name="uni030B" unicode="&#x30b;" horiz-adv-x="0" 
d="M-350 565l73 133h94l-79 -133h-88zM-197 565l83 133h94l-89 -133h-88z" />
    <glyph glyph-name="uni030C" unicode="&#x30c;" horiz-adv-x="0" 
d="M-174 619l61 81h93l-106 -135h-96l-106 135h93z" />
    <glyph glyph-name="uni0312" unicode="&#x312;" horiz-adv-x="0" 
d="M-85 965h65l-10 -180h-85z" />
    <glyph glyph-name="uni0326" unicode="&#x326;" horiz-adv-x="0" 
d="M-50 -248h-65l10 180h85z" />
    <glyph glyph-name="uni0327" unicode="&#x327;" horiz-adv-x="0" 
d="M-105 0v-45c51 -11 85 -40 85 -80c0 -69 -70 -99 -210 -91v66c89 -7 134 4 134 31c0 21 -28 33 -83 36v83h74z" />
    <glyph glyph-name="uni0328" unicode="&#x328;" horiz-adv-x="0" 
d="M-88 -213c-55 0 -87 31 -87 80c0 42 23 86 70 133h83c-45 -43 -68 -81 -68 -114c-1 -20 10 -30 31 -30c13 0 26 3 37 8v-64c-22 -9 -44 -13 -66 -13z" />
    <glyph glyph-name="uni0394" unicode="&#x394;" horiz-adv-x="638" 
d="M266 700h105l259 -700h-622zM319 591l-181 -504h362z" />
    <glyph glyph-name="uni03A9" unicode="&#x3a9;" horiz-adv-x="795" 
d="M760 355c0 -111 -51 -207 -135 -267h123v-88h-275v88c57 16 104 48 140 96c37 48 55 103 55 166c0 77 -26 142 -78 194c-51 53 -115 79 -192 79s-141 -26 -193 -79c-51 -52 -77 -117 -77 -194c0 -63 18 -119 53 -167c36 -47 83 -79 141 -95v-88h-274v88h122
c-84 60 -135 156 -135 267c0 100 35 185 105 254s156 104 258 104c101 0 187 -35 257 -104s105 -154 105 -254z" />
    <glyph glyph-name="pi" unicode="&#x3c0;" horiz-adv-x="655" 
d="M28 500h600v-83h-82v-417h-87v417h-259v-417h-87v417h-85v83z" />
    <glyph glyph-name="uni0401" unicode="&#x401;" horiz-adv-x="530" 
d="M224 781c-20 -20 -54 -20 -75 0c-20 21 -20 55 0 75c21 20 55 20 75 0s20 -54 0 -75zM414 781c-20 -20 -54 -20 -75 0c-20 21 -20 55 0 75c21 20 55 20 75 0s20 -54 0 -75zM168 310v-222h325v-88h-418v700h413v-88h-320v-215h295v-87h-295z" />
    <glyph glyph-name="uni0402" unicode="&#x402;" horiz-adv-x="700" 
d="M451 470c113 0 189 -67 189 -192v-104c0 -129 -66 -192 -193 -183v86c72 -7 100 21 100 97v100c0 75 -35 112 -105 112c-47 0 -95 -9 -143 -28v-358h-93v612h-188v88h497v-88h-216v-172c48 20 99 30 152 30z" />
    <glyph glyph-name="uni0403" unicode="&#x403;" horiz-adv-x="485" 
d="M294 899h105l-101 -132h-84zM75 700h393v-88h-300v-612h-93v700z" />
    <glyph glyph-name="uni0404" unicode="&#x404;" horiz-adv-x="735" 
d="M400 78c96 0 182 50 221 126l81 -46c-57 -104 -173 -171 -302 -171c-105 0 -192 35 -260 105s-102 156 -102 258c0 103 34 189 102 258c68 70 155 105 260 105c64 0 123 -15 177 -46s96 -72 125 -124l-81 -47c-40 77 -125 127 -221 127c-73 0 -133 -21 -181 -64
s-77 -98 -86 -165h360v-87h-360c9 -67 38 -122 86 -165s108 -64 181 -64z" />
    <glyph glyph-name="uni0405" unicode="&#x405;" horiz-adv-x="578" 
d="M301 -13c-131 0 -228 65 -265 172l80 46c27 -85 90 -127 187 -127c96 0 148 43 148 108c0 33 -13 58 -38 75s-68 34 -127 53l-67 22c-15 6 -35 15 -58 26c-23 12 -40 24 -51 36c-23 25 -44 66 -44 117c0 61 21 109 64 144c43 36 95 54 156 54c111 0 196 -61 237 -153
l-78 -45c-30 72 -83 108 -159 108s-127 -40 -127 -104c0 -31 11 -54 33 -70s60 -33 114 -50l41 -13c8 -3 20 -7 37 -14c35 -13 43 -18 70 -33c28 -15 37 -26 54 -46c25 -25 35 -61 35 -105c0 -61 -22 -110 -67 -147c-45 -36 -103 -54 -175 -54z" />
    <glyph glyph-name="uni0406" unicode="&#x406;" horiz-adv-x="243" 
d="M75 0v700h93v-700h-93z" />
    <glyph glyph-name="uni0407" unicode="&#x407;" horiz-adv-x="243" 
d="M63 781c-20 -20 -54 -20 -74 0c-21 21 -21 55 0 75c20 20 54 20 74 0s20 -54 0 -75zM253 781c-20 -20 -54 -20 -75 0c-20 21 -20 55 0 75c21 20 55 20 75 0s20 -54 0 -75zM75 0v700h93v-700h-93z" />
    <glyph glyph-name="uni0408" unicode="&#x408;" horiz-adv-x="558" 
d="M257 -13c-101 0 -183 44 -219 125l79 46c21 -53 67 -80 140 -80c89 0 143 43 143 127v495h92v-495c0 -70 -22 -124 -67 -162c-44 -37 -100 -56 -168 -56z" />
    <glyph glyph-name="uni0409" unicode="&#x409;" horiz-adv-x="984" 
d="M589 413h141c61 0 113 -20 155 -59c43 -39 64 -89 64 -148s-21 -109 -64 -148c-42 -39 -94 -58 -155 -58h-234v612h-251v-309c0 -257 -101 -316 -231 -304v84c92 -12 138 44 138 220v397h437v-287zM589 87h141c72 0 126 48 126 119s-54 120 -126 120h-141v-239z" />
    <glyph glyph-name="uni040A" unicode="&#x40a;" horiz-adv-x="973" 
d="M578 413h141c61 0 113 -20 155 -59c43 -39 64 -89 64 -148s-21 -109 -64 -148c-42 -39 -94 -58 -155 -58h-234v326h-317v-326h-93v700h93v-287h317v287h93v-287zM578 87h141c72 0 126 48 126 119s-55 120 -126 120h-141v-239z" />
    <glyph glyph-name="uni040B" unicode="&#x40b;" horiz-adv-x="705" 
d="M451 470c113 0 189 -67 189 -192v-278h-93v274c0 75 -35 112 -105 112c-47 0 -95 -9 -143 -28v-358h-93v612h-188v88h497v-88h-216v-172c48 20 99 30 152 30z" />
    <glyph glyph-name="uni040C" unicode="&#x40c;" horiz-adv-x="592" 
d="M314 899h105l-101 -132h-84zM265 360l319 -360h-114l-302 336v-336h-93v700h93v-316l292 316h114z" />
    <glyph glyph-name="uni040E" unicode="&#x40e;" horiz-adv-x="580" 
d="M160 850h270v-76h-270v76zM308 300l168 400h94l-225 -534c-51 -120 -128 -173 -241 -166v86c77 -8 122 21 154 96l7 16l-237 502h94z" />
    <glyph glyph-name="uni040F" unicode="&#x40f;" horiz-adv-x="658" 
d="M490 88v612h93v-700h-208v-134h-92v134h-208v700h93v-612h322z" />
    <glyph glyph-name="uni0410" unicode="&#x410;" horiz-adv-x="643" 
d="M635 0h-99l-57 157h-315l-57 -157h-99l261 700h105zM321 589l-125 -345h251z" />
    <glyph glyph-name="uni0411" unicode="&#x411;" horiz-adv-x="585" 
d="M168 425h170c61 0 112 -21 154 -62s63 -91 63 -150c0 -61 -21 -111 -63 -152c-41 -41 -93 -61 -154 -61h-263v700h420v-88h-327v-187zM168 87h170c35 0 64 12 88 36c25 24 37 54 37 90c0 35 -12 65 -37 89c-24 24 -53 36 -88 36h-170v-251z" />
    <glyph glyph-name="uni0412" unicode="&#x412;" horiz-adv-x="615" 
d="M475 363c64 -31 105 -90 105 -165c0 -56 -20 -103 -59 -141s-87 -57 -144 -57h-302v700h280c55 0 101 -18 139 -55s57 -82 57 -136c0 -62 -25 -111 -76 -146zM355 613h-187v-214h187c59 0 104 47 104 107c0 29 -10 54 -31 75c-20 21 -44 32 -73 32zM168 87h209
c63 0 111 50 111 114c0 31 -11 58 -33 80c-21 22 -47 33 -78 33h-209v-227z" />
    <glyph glyph-name="uni0413" unicode="&#x413;" horiz-adv-x="485" 
d="M75 700h393v-88h-300v-612h-93v700z" />
    <glyph glyph-name="uni0414" unicode="&#x414;" horiz-adv-x="695" 
d="M588 700v-612h75v-222h-93v134h-462v-134h-93v222h61c43 54 65 136 65 246v366h447zM181 88h314v525h-261v-281c0 -106 -18 -187 -53 -244z" />
    <glyph glyph-name="uni0415" unicode="&#x415;" horiz-adv-x="530" 
d="M168 310v-222h325v-88h-418v700h413v-88h-320v-215h295v-87h-295z" />
    <glyph glyph-name="uni0416" unicode="&#x416;" horiz-adv-x="868" 
d="M570 358l281 -358h-106l-265 336v-336h-92v336l-265 -336h-105l280 358l-270 342h105l255 -321v321h92v-321l255 321h106z" />
    <glyph glyph-name="uni0417" unicode="&#x417;" horiz-adv-x="564" 
d="M415 362c72 -31 114 -91 114 -171c0 -60 -23 -109 -68 -147s-104 -57 -178 -57c-135 0 -216 66 -249 161l79 45c21 -79 77 -118 170 -118c97 0 153 47 153 119s-53 120 -142 120h-82v85h59c85 0 140 46 140 114c0 67 -50 113 -134 113c-77 0 -129 -34 -155 -103l-78 45
c42 97 120 145 233 145c67 0 122 -19 163 -56c42 -37 63 -85 63 -142c0 -67 -29 -118 -88 -153z" />
    <glyph glyph-name="uni0418" unicode="&#x418;" horiz-adv-x="678" 
d="M603 0h-93v522l-360 -522h-75v700h93v-523l360 523h75v-700z" />
    <glyph glyph-name="uni0419" unicode="&#x419;" horiz-adv-x="678" 
d="M474 775h-270v76h270v-76zM603 0h-93v522l-360 -522h-75v700h93v-523l360 523h75v-700z" />
    <glyph glyph-name="uni041A" unicode="&#x41a;" horiz-adv-x="592" 
d="M265 360l319 -360h-114l-302 336v-336h-93v700h93v-316l292 316h114z" />
    <glyph glyph-name="uni041B" unicode="&#x41b;" horiz-adv-x="689" 
d="M14 0v84c92 -13 138 43 138 219v397h462v-700h-93v612h-276v-309c0 -257 -101 -315 -231 -303z" />
    <glyph glyph-name="uni041C" unicode="&#x41c;" horiz-adv-x="805" 
d="M625 700h105v-700h-92v547l-229 -381h-12l-229 380v-546h-93v700h105l223 -370z" />
    <glyph glyph-name="uni041D" unicode="&#x41d;" horiz-adv-x="675" 
d="M508 403v297h92v-700h-92v315h-340v-315h-93v700h93v-297h340z" />
    <glyph glyph-name="uni041E" unicode="&#x41e;" horiz-adv-x="800" 
d="M38 350c0 101 35 187 105 257c70 71 156 106 257 106s187 -35 257 -106c71 -70 106 -156 106 -257s-35 -186 -106 -257c-70 -71 -156 -106 -257 -106s-187 35 -257 106s-105 156 -105 257zM670 350c0 77 -26 142 -78 194c-51 53 -115 79 -192 79s-141 -26 -193 -79
c-51 -52 -77 -117 -77 -194s26 -141 77 -194c52 -52 116 -78 193 -78s141 26 192 78c52 53 78 117 78 194z" />
    <glyph glyph-name="uni041F" unicode="&#x41f;" horiz-adv-x="658" 
d="M75 700h508v-700h-93v612h-322v-612h-93v700z" />
    <glyph glyph-name="uni0420" unicode="&#x420;" horiz-adv-x="590" 
d="M75 700h254c65 0 118 -22 161 -65s65 -96 65 -160c0 -63 -22 -117 -65 -160s-96 -65 -161 -65h-161v-250h-93v700zM168 337h161c39 0 71 13 96 39c25 27 38 60 38 99c0 80 -57 138 -134 138h-161v-276z" />
    <glyph glyph-name="uni0421" unicode="&#x421;" horiz-adv-x="739" 
d="M404 -13c-106 0 -194 35 -263 105s-103 156 -103 258s34 188 103 258s157 105 263 105c128 0 242 -66 302 -170l-81 -47c-40 77 -125 127 -221 127c-81 0 -147 -26 -198 -78s-76 -117 -76 -195c0 -77 25 -142 76 -194s117 -78 198 -78c96 0 181 50 221 126l81 -46
c-29 -52 -71 -94 -125 -125s-113 -46 -177 -46z" />
    <glyph glyph-name="uni0422" unicode="&#x422;" horiz-adv-x="540" 
d="M18 700h505v-88h-207v-612h-92v612h-206v88z" />
    <glyph glyph-name="uni0423" unicode="&#x423;" horiz-adv-x="580" 
d="M308 300l168 400h94l-225 -534c-51 -120 -128 -173 -241 -166v86c77 -8 122 21 154 96l7 16l-237 502h94z" />
    <glyph glyph-name="uni0424" unicode="&#x424;" horiz-adv-x="809" 
d="M450 74v-79h-91v79c-100 7 -180 34 -241 82c-60 48 -90 113 -90 194s30 146 90 194c61 48 141 75 241 82v79h91v-79c101 -7 181 -34 241 -82c61 -48 91 -113 91 -194s-30 -146 -91 -194c-60 -48 -140 -75 -241 -82zM450 541v-382c151 11 239 74 239 191s-88 180 -239 191
zM120 350c0 -116 88 -179 239 -190v381c-151 -11 -239 -74 -239 -191z" />
    <glyph glyph-name="uni0425" unicode="&#x425;" horiz-adv-x="590" 
d="M348 361l225 -361h-106l-172 276l-172 -276h-105l225 360l-212 340h105l159 -255l159 255h105z" />
    <glyph glyph-name="uni0426" unicode="&#x426;" horiz-adv-x="690" 
d="M583 700v-612h75v-222h-93v134h-490v700h93v-612h322v612h93z" />
    <glyph glyph-name="uni0427" unicode="&#x427;" horiz-adv-x="628" 
d="M460 370v330h93v-700h-93v282c-55 -26 -112 -39 -172 -39c-68 0 -123 19 -165 57c-42 39 -63 89 -63 150v250h93v-244c0 -76 51 -125 136 -125c60 0 117 13 171 39z" />
    <glyph glyph-name="uni0428" unicode="&#x428;" horiz-adv-x="948" 
d="M780 88v612h93v-700h-798v700h93v-612h260v612h92v-612h260z" />
    <glyph glyph-name="uni0429" unicode="&#x429;" horiz-adv-x="980" 
d="M873 700v-612h75v-222h-93v134h-780v700h93v-612h260v612h92v-612h260v612h93z" />
    <glyph glyph-name="uni042A" unicode="&#x42a;" horiz-adv-x="698" 
d="M436 0h-253v612h-183v88h275v-250h161c65 0 119 -22 162 -65s65 -97 65 -160c0 -64 -22 -118 -65 -161s-97 -64 -162 -64zM275 363v-276h161c77 0 134 58 134 138s-57 138 -134 138h-161z" />
    <glyph glyph-name="uni042B" unicode="&#x42b;" horiz-adv-x="794" 
d="M329 0h-254v700h93v-250h161c65 0 118 -22 161 -65s65 -97 65 -160c0 -64 -22 -118 -65 -161s-96 -64 -161 -64zM719 0h-93v700h93v-700zM168 363v-276h161c77 0 134 58 134 138s-57 138 -134 138h-161z" />
    <glyph glyph-name="uni042C" unicode="&#x42c;" horiz-adv-x="590" 
d="M168 450h161c65 0 118 -22 161 -65s65 -97 65 -160c0 -64 -22 -118 -65 -161s-96 -64 -161 -64h-254v700h93v-250zM168 87h161c77 0 134 58 134 138c0 39 -13 72 -38 98c-25 27 -57 40 -96 40h-161v-276z" />
    <glyph glyph-name="uni042D" unicode="&#x42d;" horiz-adv-x="735" 
d="M335 713c105 0 192 -35 260 -105c68 -69 102 -155 102 -258c0 -102 -34 -188 -102 -258s-155 -105 -260 -105c-129 0 -245 67 -302 171l81 46c39 -76 125 -126 221 -126c73 0 133 21 181 64s77 98 86 165h-360v87h360c-9 67 -38 122 -86 165s-108 64 -181 64
c-96 0 -181 -50 -221 -127l-81 47c29 52 71 93 125 124s113 46 177 46z" />
    <glyph glyph-name="uni042E" unicode="&#x42e;" horiz-adv-x="1045" 
d="M645 713c101 0 187 -35 257 -106c71 -70 106 -156 106 -257s-35 -186 -106 -257c-70 -71 -156 -106 -257 -106c-95 0 -176 31 -243 94s-105 142 -114 235h-120v-316h-93v700h93v-296h123c13 89 52 162 118 221s145 88 236 88zM915 350c0 77 -26 142 -78 194
c-51 53 -115 79 -192 79s-141 -26 -193 -79c-51 -52 -77 -117 -77 -194s26 -141 77 -194c52 -52 116 -78 193 -78s141 26 192 78c52 53 78 117 78 194z" />
    <glyph glyph-name="uni042F" unicode="&#x42f;" horiz-adv-x="621" 
d="M266 700h280v-700h-92v268h-139l-181 -268h-105l186 274c-48 11 -88 37 -119 76s-47 84 -47 133c0 60 21 111 63 153c43 43 94 64 154 64zM266 352h188v261h-188c-34 0 -63 -13 -88 -38s-37 -56 -37 -92s12 -67 37 -93c25 -25 54 -38 88 -38z" />
    <glyph glyph-name="uni0430" unicode="&#x430;" 
d="M480 414v86h87v-500h-87v86c-43 -66 -106 -99 -189 -99c-70 0 -130 25 -179 76s-74 114 -74 187s25 135 74 186s109 77 179 77c83 0 146 -33 189 -99zM302 71c51 0 93 17 127 51c34 35 51 77 51 128s-17 93 -51 127c-34 35 -76 52 -127 52c-50 0 -92 -17 -126 -52
c-34 -34 -51 -76 -51 -127s17 -93 51 -128c34 -34 76 -51 126 -51z" />
    <glyph glyph-name="uni0431" unicode="&#x431;" horiz-adv-x="567" 
d="M293 -13c-74 0 -135 24 -183 73s-72 111 -72 188c0 85 12 151 37 197s77 88 154 125c14 7 33 15 57 26l54 24c38 19 81 51 85 96l70 -40c-4 -21 -10 -39 -23 -56c-12 -16 -17 -26 -40 -41c-21 -13 -24 -17 -53 -30c-14 -7 -24 -11 -29 -14l-33 -14l-32 -13
c-91 -39 -126 -74 -145 -135c43 53 112 78 176 78c63 0 116 -21 159 -64c44 -43 66 -98 66 -165c0 -68 -23 -124 -70 -169c-47 -44 -106 -66 -178 -66zM454 222c0 89 -63 152 -158 152c-43 0 -81 -14 -116 -41c-34 -27 -51 -62 -51 -106c0 -45 16 -83 47 -112
s70 -44 117 -44s85 14 115 43c31 29 46 65 46 108z" />
    <glyph glyph-name="uni0432" unicode="&#x432;" horiz-adv-x="504" 
d="M399 257c51 -21 77 -60 77 -116c0 -83 -57 -141 -160 -141h-250v500h230c100 0 157 -55 157 -136c0 -48 -18 -84 -54 -107zM292 422h-141v-131h141c51 0 76 22 76 67c0 43 -25 64 -76 64zM151 79h160c51 0 79 25 79 69c0 41 -28 66 -79 66h-160v-135z" />
    <glyph glyph-name="uni0433" unicode="&#x433;" horiz-adv-x="404" 
d="M66 500h328v-84h-241v-416h-87v500z" />
    <glyph glyph-name="uni0434" unicode="&#x434;" horiz-adv-x="593" 
d="M496 500v-417h69v-217h-86v134h-375v-134h-86v217h61c32 44 48 106 48 185v232h369zM178 83h232v336h-197v-151c0 -75 -12 -136 -35 -185z" />
    <glyph glyph-name="uni0435" unicode="&#x435;" horiz-adv-x="583" 
d="M546 210h-419c17 -89 86 -141 181 -141c66 0 114 24 144 73l74 -42c-49 -75 -122 -113 -220 -113c-79 0 -144 25 -194 74c-49 50 -74 113 -74 189c0 75 24 138 73 188s112 75 189 75c73 0 133 -26 179 -78c47 -51 70 -113 70 -186c0 -13 -1 -26 -3 -39zM300 431
c-93 0 -158 -57 -173 -145h334c-15 95 -81 145 -161 145z" />
    <glyph glyph-name="uni0436" unicode="&#x436;" horiz-adv-x="698" 
d="M471 258l210 -258h-102l-187 237v-237h-86v237l-187 -237h-101l209 258l-199 242h101l177 -221v221h86v-221l177 221h102z" />
    <glyph glyph-name="uni0437" unicode="&#x437;" horiz-adv-x="447" 
d="M336 256c55 -23 83 -62 83 -119c0 -84 -69 -150 -192 -150c-100 0 -167 40 -201 120l73 43c19 -55 62 -82 129 -82s105 32 105 77c0 40 -32 68 -83 68h-73v79h54c51 0 80 26 80 69s-35 72 -92 72c-56 0 -94 -24 -114 -71l-71 41c35 73 97 110 185 110
c109 0 177 -64 177 -145c0 -51 -20 -88 -60 -112z" />
    <glyph glyph-name="uni0438" unicode="&#x438;" horiz-adv-x="565" 
d="M152 149l277 351h70v-500h-86v351l-277 -351h-70v500h86v-351z" />
    <glyph glyph-name="uni0439" unicode="&#x439;" horiz-adv-x="565" 
d="M418 575h-270v76h270v-76zM152 149l277 351h70v-500h-86v351l-277 -351h-70v500h86v-351z" />
    <glyph glyph-name="uni043A" unicode="&#x43a;" horiz-adv-x="504" 
d="M242 258l247 -258h-108l-228 237v-237h-87v500h87v-221l216 221h112z" />
    <glyph glyph-name="uni043B" unicode="&#x43b;" horiz-adv-x="549" 
d="M112 500h371v-500h-87v416h-197v-204c0 -164 -69 -223 -189 -212v82c68 -9 102 25 102 132v286z" />
    <glyph glyph-name="uni043C" unicode="&#x43c;" 
d="M473 500h93v-500h-85v363l-159 -256h-11l-159 256v-363h-86v500h93l157 -253z" />
    <glyph glyph-name="uni043D" unicode="&#x43d;" horiz-adv-x="565" 
d="M412 292v208h87v-500h-87v209h-259v-209h-87v500h87v-208h259z" />
    <glyph glyph-name="uni043E" unicode="&#x43e;" horiz-adv-x="602" 
d="M488 63c-51 -51 -114 -76 -187 -76s-136 25 -187 76s-76 113 -76 187s25 136 76 187s114 76 187 76s136 -25 187 -76s77 -113 77 -187s-26 -136 -77 -187zM301 72c50 0 92 17 126 51s51 76 51 127s-17 93 -51 127s-76 51 -126 51c-49 0 -91 -17 -125 -51
s-51 -76 -51 -127s17 -93 51 -127s76 -51 125 -51z" />
    <glyph glyph-name="uni043F" unicode="&#x43f;" horiz-adv-x="565" 
d="M66 500h433v-500h-87v417h-259v-417h-87v500z" />
    <glyph glyph-name="uni0440" unicode="&#x440;" 
d="M342 513c70 0 130 -26 179 -77s74 -113 74 -186s-25 -136 -74 -187s-109 -76 -179 -76c-83 0 -146 33 -189 99v-286h-87v700h87v-86c43 66 106 99 189 99zM331 71c50 0 92 17 126 51c34 35 51 77 51 128s-17 93 -51 127c-34 35 -76 52 -126 52c-51 0 -93 -17 -127 -52
c-34 -34 -51 -76 -51 -127s17 -93 51 -128c34 -34 76 -51 127 -51z" />
    <glyph glyph-name="uni0441" unicode="&#x441;" horiz-adv-x="547" 
d="M301 -13c-75 0 -138 25 -188 75c-50 51 -75 113 -75 188s25 137 75 187c50 51 113 76 188 76c99 0 182 -51 221 -131l-73 -42c-25 53 -81 88 -148 88c-50 0 -92 -17 -126 -51c-33 -34 -50 -76 -50 -127c0 -50 17 -92 50 -126c34 -34 76 -51 126 -51c67 0 123 34 151 87
l74 -43c-43 -79 -128 -130 -225 -130z" />
    <glyph glyph-name="uni0442" unicode="&#x442;" horiz-adv-x="448" 
d="M10 500h428v-84h-170v-416h-87v416h-171v84z" />
    <glyph glyph-name="uni0443" unicode="&#x443;" horiz-adv-x="515" 
d="M271 108l144 392h93l-204 -531c-43 -113 -123 -176 -222 -169v81c61 -5 106 29 135 100l8 18l-217 501h92z" />
    <glyph glyph-name="uni0444" unicode="&#x444;" horiz-adv-x="675" 
d="M381 -10v-190h-86v190c-78 9 -140 37 -187 85s-70 106 -70 175s23 127 70 175s109 76 187 85v190h86v-190c78 -9 140 -37 187 -85s70 -106 70 -175s-23 -127 -70 -175s-109 -76 -187 -85zM124 250c0 -92 64 -161 171 -176v352c-107 -13 -171 -83 -171 -176zM381 426v-352
c107 15 170 84 170 176s-63 161 -170 176z" />
    <glyph glyph-name="uni0445" unicode="&#x445;" horiz-adv-x="515" 
d="M309 258l191 -258h-102l-140 189l-141 -189h-102l192 257l-181 243h103l129 -174l129 174h102z" />
    <glyph glyph-name="uni0446" unicode="&#x446;" horiz-adv-x="595" 
d="M486 500v-417h82v-217h-86v134h-416v500h87v-417h246v417h87z" />
    <glyph glyph-name="uni0447" unicode="&#x447;" horiz-adv-x="534" 
d="M381 261v239h87v-500h-87v180c-40 -17 -85 -26 -135 -26c-128 0 -201 61 -201 180v166h87v-161c0 -75 41 -104 120 -104c47 0 90 9 129 26z" />
    <glyph glyph-name="uni0448" unicode="&#x448;" horiz-adv-x="818" 
d="M664 83v417h87v-500h-685v500h87v-417h212v417h87v-417h212z" />
    <glyph glyph-name="uni0449" unicode="&#x449;" horiz-adv-x="843" 
d="M746 500v-417h69v-217h-86v134h-663v500h87v-417h210v417h87v-417h209v417h87z" />
    <glyph glyph-name="uni044A" unicode="&#x44a;" horiz-adv-x="551" 
d="M226 320h124c49 0 91 -15 124 -45s50 -68 50 -115s-17 -85 -50 -115s-75 -45 -124 -45h-211v416h-139v84h226v-180zM226 81h124c49 0 88 31 88 79s-39 80 -88 80h-124v-159z" />
    <glyph glyph-name="uni044B" unicode="&#x44b;" horiz-adv-x="670" 
d="M153 320h124c50 0 91 -15 124 -45c33 -29 50 -68 50 -115s-17 -86 -50 -116c-33 -29 -74 -44 -124 -44h-211v500h87v-180zM516 0v500h87v-500h-87zM153 81h124c49 0 88 31 88 79s-39 80 -88 80h-124v-159z" />
    <glyph glyph-name="uni044C" unicode="&#x44c;" horiz-adv-x="479" 
d="M153 320h124c50 0 91 -15 124 -45c33 -29 50 -68 50 -115s-17 -86 -50 -116c-33 -29 -74 -44 -124 -44h-211v500h87v-180zM153 81h124c49 0 88 31 88 79s-39 80 -88 80h-124v-159z" />
    <glyph glyph-name="uni044D" unicode="&#x44d;" horiz-adv-x="538" 
d="M246 513c76 0 137 -25 184 -74s71 -112 71 -189c0 -76 -24 -139 -71 -189c-47 -49 -109 -74 -185 -74c-107 0 -191 51 -227 132l74 43c21 -55 76 -91 153 -91c87 0 149 55 165 138h-223v82h223c-16 83 -76 138 -163 138c-71 0 -126 -35 -151 -90l-75 43
c40 81 125 131 225 131z" />
    <glyph glyph-name="uni044E" unicode="&#x44e;" horiz-adv-x="804" 
d="M503 513c73 0 135 -25 186 -76s77 -113 77 -187s-26 -136 -77 -187s-113 -76 -186 -76c-66 0 -123 21 -171 63s-77 95 -86 159h-93v-209h-87v500h87v-208h93c9 64 38 117 86 158c49 42 106 63 171 63zM503 72c49 0 91 17 125 51s51 76 51 127s-17 93 -51 127
s-76 51 -125 51c-50 0 -92 -17 -126 -51s-51 -76 -51 -127s17 -93 51 -127s76 -51 126 -51z" />
    <glyph glyph-name="uni044F" unicode="&#x44f;" horiz-adv-x="506" 
d="M227 500h213v-500h-86v180h-73l-140 -180h-106l146 185c-75 19 -126 79 -126 154c0 46 16 84 49 115s74 46 123 46zM230 258h124v161h-124c-49 0 -89 -32 -89 -81c0 -48 40 -80 89 -80z" />
    <glyph glyph-name="uni0451" unicode="&#x451;" horiz-adv-x="583" 
d="M236 582c-20 -20 -54 -20 -75 0c-20 21 -20 55 0 75c21 20 55 20 75 0s20 -54 0 -75zM426 582c-20 -20 -54 -20 -75 0c-20 21 -20 55 0 75c21 20 55 20 75 0s20 -54 0 -75zM546 210h-419c17 -89 86 -141 181 -141c66 0 114 24 144 73l74 -42c-49 -75 -122 -113 -220 -113
c-79 0 -144 25 -194 74c-49 50 -74 113 -74 189c0 75 24 138 73 188s112 75 189 75c73 0 133 -26 179 -78c47 -51 70 -113 70 -186c0 -13 -1 -26 -3 -39zM300 431c-93 0 -158 -57 -173 -145h334c-15 95 -81 145 -161 145z" />
    <glyph glyph-name="uni0452" unicode="&#x452;" horiz-adv-x="573" 
d="M324 513c117 0 194 -79 194 -206v-337c0 -129 -66 -192 -193 -183v84c73 -7 106 22 106 99v332c0 81 -47 128 -124 128c-87 0 -145 -53 -145 -165v-265h-87v569h-67v64h67v67h87v-67h143v-64h-143v-141c35 57 89 85 162 85z" />
    <glyph glyph-name="uni0453" unicode="&#x453;" horiz-adv-x="404" 
d="M229 700h105l-101 -132h-84zM66 500h328v-84h-241v-416h-87v500z" />
    <glyph glyph-name="uni0454" unicode="&#x454;" horiz-adv-x="538" 
d="M446 162l74 -43c-36 -81 -120 -132 -227 -132c-76 0 -138 25 -185 74c-47 50 -71 113 -71 189c0 77 23 140 70 189s109 74 185 74c100 0 185 -50 225 -131l-75 -43c-25 55 -80 90 -151 90c-87 0 -147 -55 -163 -138h223v-82h-223c16 -83 78 -138 165 -138
c77 0 132 36 153 91z" />
    <glyph glyph-name="uni0455" unicode="&#x455;" horiz-adv-x="458" 
d="M141 365c0 -39 44 -60 99 -75c78 -17 182 -46 181 -153c0 -45 -18 -82 -53 -109s-79 -41 -134 -41c-97 0 -170 46 -199 117l75 43c16 -48 63 -78 124 -78c57 0 99 21 99 68c0 39 -44 61 -99 74c-79 21 -181 47 -181 153c0 43 17 79 50 107c34 28 76 42 127 42
c81 0 148 -39 180 -104l-73 -41c-18 43 -54 64 -107 64c-49 0 -89 -24 -89 -67z" />
    <glyph glyph-name="uni0456" unicode="&#x456;" horiz-adv-x="220" 
d="M110 591c-33 0 -59 26 -59 58s26 59 59 59c32 0 58 -27 58 -59s-26 -58 -58 -58zM153 0h-87v500h87v-500z" />
    <glyph glyph-name="uni0457" unicode="&#x457;" horiz-adv-x="220" 
d="M52 581c-20 -20 -54 -20 -74 0c-21 21 -21 55 0 75c20 20 54 20 74 0s20 -54 0 -75zM242 581c-20 -20 -54 -20 -75 0c-20 21 -20 55 0 75c21 20 55 20 75 0s20 -54 0 -75zM153 0h-87v500h87v-500z" />
    <glyph glyph-name="uni0458" unicode="&#x458;" horiz-adv-x="241" 
d="M132 591c-33 0 -59 26 -59 58s26 59 59 59c32 0 58 -27 58 -59s-26 -58 -58 -58zM88 -30v530h87v-530c0 -129 -66 -192 -193 -183v84c73 -7 106 22 106 99z" />
    <glyph glyph-name="uni0459" unicode="&#x459;" horiz-adv-x="781" 
d="M473 303h118c95 0 162 -59 162 -152s-67 -151 -162 -151h-205v416h-187v-204c0 -163 -69 -222 -189 -214v82c68 -8 102 27 102 134v286h361v-197zM473 81h119c44 0 78 23 78 70s-34 71 -78 71h-119v-141z" />
    <glyph glyph-name="uni045A" unicode="&#x45a;" horiz-adv-x="789" 
d="M479 303h119c47 0 86 -14 117 -41s47 -64 47 -111c0 -46 -16 -83 -47 -110s-70 -41 -117 -41h-206v220h-241v-220h-87v500h87v-197h241v197h87v-197zM479 81h119c45 0 78 23 78 70s-33 71 -78 71h-119v-141z" />
    <glyph glyph-name="uni045B" unicode="&#x45b;" horiz-adv-x="573" 
d="M324 513c117 0 194 -79 194 -206v-307h-87v302c0 81 -47 128 -124 128c-87 0 -145 -53 -145 -165v-265h-87v569h-67v64h67v67h87v-67h143v-64h-143v-141c35 57 89 85 162 85z" />
    <glyph glyph-name="uni045C" unicode="&#x45c;" horiz-adv-x="504" 
d="M274 700h105l-101 -132h-84zM242 258l247 -258h-108l-228 237v-237h-87v500h87v-221l216 221h112z" />
    <glyph glyph-name="uni045E" unicode="&#x45e;" horiz-adv-x="515" 
d="M121 651h270v-76h-270v76zM271 108l144 392h93l-204 -531c-43 -113 -123 -176 -222 -169v81c61 -5 106 29 135 100l8 18l-217 501h92z" />
    <glyph glyph-name="uni045F" unicode="&#x45f;" horiz-adv-x="565" 
d="M412 83v417h87v-500h-173v-134h-86v134h-174v500h87v-417h259z" />
    <glyph glyph-name="uni0490" unicode="&#x490;" horiz-adv-x="485" 
d="M375 700v120h93v-208h-300v-612h-93v700h300z" />
    <glyph glyph-name="uni0491" unicode="&#x491;" horiz-adv-x="404" 
d="M308 500v103h86v-187h-241v-416h-87v500h242z" />
    <glyph glyph-name="Wgrave" unicode="&#x1e80;" horiz-adv-x="1000" 
d="M577 768h-84l-101 132h105zM226 0h108l166 559l166 -559h108l201 700h-98l-160 -576l-170 576h-94l-170 -576l-160 576h-98z" />
    <glyph glyph-name="wgrave" unicode="&#x1e81;" horiz-adv-x="770" 
d="M372 700l80 -132h-84l-101 132h105zM545 119l110 381h91l-155 -500h-89l-117 370l-117 -370h-89l-155 500h91l110 -380l118 380h84z" />
    <glyph glyph-name="Wacute" unicode="&#x1e82;" horiz-adv-x="1000" 
d="M450 768l80 132h105l-101 -132h-84zM226 0h108l166 559l166 -559h108l201 700h-98l-160 -576l-170 576h-94l-170 -576l-160 576h-98z" />
    <glyph glyph-name="wacute" unicode="&#x1e83;" horiz-adv-x="770" 
d="M405 700h105l-101 -132h-84zM545 119l110 381h91l-155 -500h-89l-117 370l-117 -370h-89l-155 500h91l110 -380l118 380h84z" />
    <glyph glyph-name="Wdieresis" unicode="&#x1e84;" horiz-adv-x="1000" 
d="M452 781c-20 -20 -54 -20 -75 0c-20 21 -20 55 0 75c21 20 55 20 75 0s20 -54 0 -75zM642 781c-20 -20 -54 -20 -75 0c-20 21 -20 55 0 75c21 20 55 20 75 0s20 -54 0 -75zM334 0h-108l-201 700h98l160 -576l170 576h94l170 -576l160 576h98l-201 -700h-108l-166 559z
" />
    <glyph glyph-name="wdieresis" unicode="&#x1e85;" horiz-adv-x="770" 
d="M327 581c-20 -20 -54 -20 -75 0c-20 21 -20 55 0 75c21 20 55 20 75 0s20 -54 0 -75zM517 581c-20 -20 -54 -20 -75 0c-20 21 -20 55 0 75c21 20 55 20 75 0s20 -54 0 -75zM545 119l110 381h91l-155 -500h-89l-117 370l-117 -370h-89l-155 500h91l110 -380l118 380h84z
" />
    <glyph glyph-name="Ygrave" unicode="&#x1ef2;" horiz-adv-x="604" 
d="M286 900l80 -132h-84l-101 132h105zM492 700h104l-248 -417v-283h-93v284l-247 416h104l190 -328z" />
    <glyph glyph-name="ygrave" unicode="&#x1ef3;" horiz-adv-x="515" 
d="M243 700l80 -132h-84l-101 132h105zM271 108l144 392h93l-204 -531c-43 -113 -122 -176 -222 -169v81c61 -5 106 29 135 102l9 19l-218 498h93z" />
    <glyph glyph-name="endash" unicode="&#x2013;" horiz-adv-x="655" 
d="M580 265h-505v84h505v-84z" />
    <glyph glyph-name="emdash" unicode="&#x2014;" horiz-adv-x="755" 
d="M680 265h-605v84h605v-84z" />
    <glyph glyph-name="quoteleft" unicode="&#x2018;" horiz-adv-x="253" 
d="M157 457h-100l65 243h75z" />
    <glyph glyph-name="quoteright" unicode="&#x2019;" horiz-adv-x="253" 
d="M96 701h100l-65 -243h-75z" />
    <glyph glyph-name="quotesinglbase" unicode="&#x201a;" horiz-adv-x="253" 
d="M96 103h100l-65 -243h-75z" />
    <glyph glyph-name="quotedblleft" unicode="&#x201c;" horiz-adv-x="408" 
d="M157 457h-100l65 243h75zM312 457h-100l65 243h75z" />
    <glyph glyph-name="quotedblright" unicode="&#x201d;" horiz-adv-x="408" 
d="M96 701h100l-65 -243h-75zM251 701h100l-65 -243h-75z" />
    <glyph glyph-name="quotedblbase" unicode="&#x201e;" horiz-adv-x="408" 
d="M96 103h100l-65 -243h-75zM251 103h100l-65 -243h-75z" />
    <glyph glyph-name="dagger" unicode="&#x2020;" horiz-adv-x="480" 
d="M284 545h141v-84h-141v-461h-87v461h-142v84h142v155h87v-155z" />
    <glyph glyph-name="daggerdbl" unicode="&#x2021;" horiz-adv-x="480" 
d="M425 545v-84h-141v-222h141v-84h-141v-155h-87v155h-142v84h142v222h-142v84h142v155h87v-155h141z" />
    <glyph glyph-name="bullet" unicode="&#x2022;" horiz-adv-x="320" 
d="M240 271c-21 -22 -48 -33 -79 -33s-58 11 -80 33s-33 49 -33 80s11 58 33 79c22 22 49 33 80 33s58 -11 79 -33c22 -21 33 -48 33 -79s-11 -58 -33 -80z" />
    <glyph glyph-name="ellipsis" unicode="&#x2026;" horiz-adv-x="648" 
d="M121 -11c-36 0 -65 29 -65 65s29 65 65 65c37 0 65 -29 65 -65s-28 -65 -65 -65zM324 -11c-36 0 -65 29 -65 65s29 65 65 65c37 0 65 -29 65 -65s-28 -65 -65 -65zM526 -11c-36 0 -65 29 -65 65s29 65 65 65c37 0 65 -29 65 -65s-28 -65 -65 -65z" />
    <glyph glyph-name="perthousand" unicode="&#x2030;" horiz-adv-x="1089" 
d="M213 403c-45 0 -83 15 -113 45s-45 67 -45 110s15 79 45 109c31 31 68 46 113 46s83 -15 113 -45s45 -67 45 -110s-15 -80 -45 -110c-29 -30 -67 -45 -113 -45zM133 558c0 -47 33 -82 80 -82s80 37 80 82s-33 81 -80 81s-80 -36 -80 -81zM150 71l-48 28l465 520l49 -27z
M628 33c-30 -30 -68 -45 -113 -45s-83 15 -113 45s-45 67 -45 110s15 80 45 110s68 45 113 45s83 -15 113 -45s45 -67 45 -110s-15 -80 -45 -110zM989 33c-30 -30 -68 -45 -113 -45s-83 15 -113 45s-45 67 -45 110s15 80 45 110s68 45 113 45s83 -15 113 -45s45 -67 45 -110
s-15 -80 -45 -110zM457 85c15 -15 35 -23 58 -23s42 8 57 23c31 32 31 84 0 115c-15 16 -34 24 -57 24s-43 -8 -58 -24c-29 -31 -29 -83 0 -115zM818 85c15 -15 35 -23 58 -23s42 8 57 23c31 32 31 84 0 115c-15 16 -34 24 -57 24s-43 -8 -58 -24c-29 -31 -29 -83 0 -115z
" />
    <glyph glyph-name="guilsinglleft" unicode="&#x2039;" horiz-adv-x="340" 
d="M178 492h94l-110 -183l110 -182h-94l-110 182z" />
    <glyph glyph-name="guilsinglright" unicode="&#x203a;" horiz-adv-x="340" 
d="M68 492h94l110 -183l-110 -182h-94l110 182z" />
    <glyph glyph-name="fraction" unicode="&#x2044;" horiz-adv-x="210" 
d="M340 700l-400 -700h-70l400 700h70z" />
    <glyph glyph-name="Euro" unicode="&#x20ac;" horiz-adv-x="600" 
d="M499 173l77 -44c-39 -91 -115 -142 -216 -142c-147 0 -244 105 -268 276h-73v65h67v22c0 14 0 24 1 31h-68v64h74c27 165 123 268 267 268c102 0 174 -46 215 -139l-77 -44c-28 62 -74 93 -138 93c-91 0 -152 -63 -173 -178h237v-64h-244c-1 -7 -1 -17 -1 -31v-22h245
v-65h-238c19 -119 81 -185 174 -185c66 0 112 32 139 95z" />
    <glyph glyph-name="uni20BD" unicode="&#x20bd;" horiz-adv-x="594" 
d="M356 268h-161v-81h248v-68h-248v-119h-92v119h-85v68h85v81h-85v84h85v348h253c61 0 112 -21 155 -64c43 -42 64 -93 64 -153s-21 -111 -64 -153c-42 -41 -94 -62 -155 -62zM356 613h-161v-261h161c35 0 64 13 89 38c25 26 38 57 38 93s-12 67 -37 92s-55 38 -90 38z" />
    <glyph glyph-name="uni2116" unicode="&#x2116;" horiz-adv-x="1024" 
d="M829 402c-45 0 -82 15 -113 45c-30 30 -45 67 -45 110s15 80 45 110s68 45 113 45s83 -15 113 -45s45 -67 45 -110s-15 -80 -45 -110c-29 -30 -67 -45 -113 -45zM510 178v522h93v-700h-75l-360 523v-523h-93v700h75zM772 500c29 -31 85 -31 114 0s29 83 0 114
s-85 31 -114 0s-29 -83 0 -114zM975 255h-292v83h292v-83z" />
    <glyph glyph-name="trademark" unicode="&#x2122;" horiz-adv-x="468" 
d="M38 700h160v-43h-56v-157h-47v157h-57v43zM326 608l58 92h46v-200h-46v124l-56 -88h-5l-56 88v-124h-46v200h46z" />
    <glyph glyph-name="estimated" unicode="&#x212e;" horiz-adv-x="810" 
d="M775 350c0 -10 -5 -15 -15 -15h-560c-10 0 -15 -5 -15 -15v-192c0 -7 2 -14 7 -19c56 -59 134 -89 233 -89c97 0 174 32 231 97c5 6 11 9 18 9h37c13 0 18 -10 9 -19c-73 -78 -171 -117 -295 -117c-117 0 -212 34 -283 103s-107 155 -107 257c0 101 34 187 103 256
s158 104 267 104s197 -35 266 -104s104 -155 104 -256zM625 380v192c0 7 -2 14 -7 19c-56 59 -127 89 -213 89s-157 -30 -213 -89c-5 -5 -7 -12 -7 -19v-192c0 -10 5 -15 15 -15h410c10 0 15 5 15 15z" />
    <glyph glyph-name="oneeighth" unicode="&#x215b;" horiz-adv-x="804" 
d="M192 700v-400h-77v319l-88 -26l-19 65l117 42h67zM124 0l400 700h70l-400 -700h-70zM718 211c42 -23 63 -57 63 -104c0 -73 -58 -120 -147 -120s-147 47 -147 120c0 47 21 81 63 104c-33 20 -50 49 -50 86c0 71 58 116 134 116s134 -45 134 -116c0 -37 -17 -66 -50 -86z
M634 344c-40 0 -62 -19 -62 -50c0 -32 22 -53 62 -53c39 0 62 21 62 53c0 31 -23 50 -62 50zM634 176c-45 0 -72 -22 -72 -59c0 -18 6 -32 19 -43s30 -16 53 -16s40 5 53 16s19 25 19 43c0 36 -28 59 -72 59z" />
    <glyph glyph-name="threeeighths" unicode="&#x215c;" horiz-adv-x="901" 
d="M316 418c0 -80 -58 -131 -149 -131c-71 0 -120 29 -147 86l65 37c15 -34 42 -51 82 -51c47 0 72 23 72 59s-29 60 -73 60h-9l-34 50l84 100h-172v72h263v-66l-84 -100c64 -13 102 -56 102 -116zM221 0l400 700h70l-400 -700h-70zM815 211c42 -23 63 -57 63 -104
c0 -73 -58 -120 -147 -120s-147 47 -147 120c0 47 21 81 63 104c-33 20 -50 49 -50 86c0 71 58 116 134 116s134 -45 134 -116c0 -37 -17 -66 -50 -86zM731 344c-40 0 -62 -19 -62 -50c0 -32 22 -53 62 -53c39 0 62 21 62 53c0 31 -23 50 -62 50zM731 176
c-45 0 -72 -22 -72 -59c0 -18 6 -32 19 -43s30 -16 53 -16s40 5 53 16s19 25 19 43c0 36 -28 59 -72 59z" />
    <glyph glyph-name="fiveeighths" unicode="&#x215d;" horiz-adv-x="889" 
d="M307 417c0 -80 -56 -130 -144 -130c-71 0 -119 29 -146 87l65 36c15 -35 42 -52 80 -52c45 0 71 23 71 60s-26 63 -71 63h-124l15 219h237v-71h-172l-5 -79h52c85 0 142 -50 142 -133zM209 0l400 700h70l-400 -700h-70zM803 211c42 -23 63 -57 63 -104
c0 -73 -58 -120 -147 -120s-147 47 -147 120c0 47 21 81 63 104c-33 20 -50 49 -50 86c0 71 58 116 134 116s134 -45 134 -116c0 -37 -17 -66 -50 -86zM719 344c-40 0 -62 -19 -62 -50c0 -32 22 -53 62 -53c39 0 62 21 62 53c0 31 -23 50 -62 50zM719 176
c-45 0 -72 -22 -72 -59c0 -18 6 -32 19 -43s30 -16 53 -16s40 5 53 16s19 25 19 43c0 36 -28 59 -72 59z" />
    <glyph glyph-name="seveneighths" unicode="&#x215e;" horiz-adv-x="846" 
d="M8 700h269v-61l-141 -339h-81l138 328h-185v72zM166 0l400 700h70l-400 -700h-70zM760 211c42 -23 63 -57 63 -104c0 -73 -58 -120 -147 -120s-147 47 -147 120c0 47 21 81 63 104c-33 20 -50 49 -50 86c0 71 58 116 134 116s134 -45 134 -116c0 -37 -17 -66 -50 -86z
M676 344c-40 0 -62 -19 -62 -50c0 -32 22 -53 62 -53c39 0 62 21 62 53c0 31 -23 50 -62 50zM676 176c-45 0 -72 -22 -72 -59c0 -18 6 -32 19 -43s30 -16 53 -16s40 5 53 16s19 25 19 43c0 36 -28 59 -72 59z" />
    <glyph glyph-name="arrowleft" unicode="&#x2190;" horiz-adv-x="813" 
d="M214 392h544v-84h-544l258 -258h-117l-300 300l300 300h117z" />
    <glyph glyph-name="arrowup" unicode="&#x2191;" horiz-adv-x="710" 
d="M355 700l300 -300v-117l-256 256v-539h-87v540l-257 -257v117z" />
    <glyph glyph-name="arrowright" unicode="&#x2192;" horiz-adv-x="813" 
d="M341 650h117l300 -300l-300 -300h-117l258 258h-544v84h544z" />
    <glyph glyph-name="arrowdown" unicode="&#x2193;" horiz-adv-x="710" 
d="M399 700v-539l256 256v-117l-300 -300l-300 300v117l257 -257v540h87z" />
    <glyph glyph-name="arrowboth" unicode="&#x2194;" horiz-adv-x="1055" 
d="M627 608h116l257 -258l-257 -257h-116l214 215h-628l215 -215h-116l-257 257l257 258h116l-215 -216h629z" />
    <glyph glyph-name="arrowupdn" unicode="&#x2195;" horiz-adv-x="625" 
d="M570 566v-116l-214 214v-628l214 214v-116l-257 -257l-258 257v116l214 -213v626l-214 -213v116l258 257z" />
    <glyph glyph-name="uni2196" unicode="&#x2196;" horiz-adv-x="640" 
d="M198 514l387 -387l-61 -61l-387 387v-363l-82 82v424h424l82 -82h-363z" />
    <glyph glyph-name="uni2197" unicode="&#x2197;" horiz-adv-x="640" 
d="M79 514l82 82h424v-424l-82 -82v363l-387 -387l-61 61l387 387h-363z" />
    <glyph glyph-name="uni2198" unicode="&#x2198;" horiz-adv-x="640" 
d="M503 226v364l82 -82v-424h-424l-82 82h363l-387 387l61 60z" />
    <glyph glyph-name="uni2199" unicode="&#x2199;" horiz-adv-x="640" 
d="M524 613l61 -60l-387 -387h363l-82 -82h-424v424l82 82v-364z" />
    <glyph glyph-name="partialdiff" unicode="&#x2202;" horiz-adv-x="579" 
d="M235 713c81 0 149 -34 205 -101s84 -154 84 -262c0 -114 -25 -203 -75 -267s-114 -96 -191 -96c-65 0 -116 20 -154 60c-37 41 -56 92 -56 153c0 69 20 124 60 167c41 43 97 64 168 64c57 0 110 -16 160 -48c-5 71 -26 130 -62 176s-84 69 -145 70
c-45 0 -87 -11 -125 -34v82c37 24 81 36 131 36zM260 71c99 0 164 87 175 230c-43 33 -94 50 -153 50c-89 0 -147 -54 -147 -150c0 -76 44 -130 125 -130z" />
    <glyph glyph-name="emptyset" unicode="&#x2205;" horiz-adv-x="804" 
d="M747 720l-91 -112c72 -71 108 -157 108 -258c0 -100 -35 -185 -106 -256s-156 -106 -256 -106c-75 0 -143 21 -204 63l-58 -71h-82l91 111c-73 71 -109 158 -109 259c0 100 35 185 106 256s156 106 256 106c75 0 143 -21 204 -63l58 71h83zM110 350
c0 -81 28 -149 83 -206l370 452c-47 32 -101 48 -161 48c-81 0 -150 -29 -207 -86s-85 -126 -85 -208zM402 56c81 0 150 29 207 86s85 127 85 208s-27 149 -82 205l-370 -451c49 -32 103 -48 160 -48z" />
    <glyph glyph-name="product" unicode="&#x220f;" horiz-adv-x="640" 
d="M162 -200h-87v900h490v-900h-87v816h-316v-816z" />
    <glyph glyph-name="summation" unicode="&#x2211;" horiz-adv-x="548" 
d="M515 -200h-470v80l231 380l-216 359v81h440v-84h-339l215 -356l-229 -376h368v-84z" />
    <glyph glyph-name="minus" unicode="&#x2212;" horiz-adv-x="545" 
d="M488 309h-430v83h430v-83z" />
    <glyph glyph-name="radical" unicode="&#x221a;" horiz-adv-x="655" 
d="M368 0h-88l-132 224h-93v84h143l118 -205l233 697h91z" />
    <glyph glyph-name="infinity" unicode="&#x221e;" horiz-adv-x="803" 
d="M581 515c48 0 88 -16 120 -47s48 -70 48 -118s-16 -88 -48 -119s-72 -46 -120 -46c-61 0 -121 34 -179 101c-58 -67 -118 -101 -180 -101c-48 0 -88 15 -120 46s-48 71 -48 119s16 87 48 118s72 47 120 47c62 0 122 -34 180 -101c58 67 118 101 179 101zM224 264
c43 0 85 29 127 86c-42 57 -84 86 -127 86c-49 0 -84 -35 -84 -86s35 -86 84 -86zM579 264c49 0 84 35 84 86s-35 86 -84 86c-42 0 -84 -29 -126 -86c42 -57 84 -86 126 -86z" />
    <glyph glyph-name="integral" unicode="&#x222b;" horiz-adv-x="440" 
d="M0 -203v86c63 -25 109 -1 120 64l104 614c21 127 100 172 216 141v-85c-72 24 -118 0 -129 -64l-104 -614c-21 -127 -99 -173 -207 -142z" />
    <glyph glyph-name="approxequal" unicode="&#x2248;" horiz-adv-x="586" 
d="M284 394c-101 58 -137 36 -161 -24l-68 28c35 119 121 151 246 80c99 -53 135 -41 155 32l75 -35c-33 -117 -118 -150 -247 -81zM130 190l-75 35c33 117 121 152 246 81c102 -59 138 -35 162 24l68 -28c-35 -119 -118 -151 -247 -80c-97 52 -134 40 -154 -32z" />
    <glyph glyph-name="notequal" unicode="&#x2260;" horiz-adv-x="535" 
d="M480 493v-83h-156l-53 -120h209v-83h-246l-64 -142h-60l64 142h-119v83h156l53 120h-209v83h246l64 142h60l-64 -142h119z" />
    <glyph glyph-name="lessequal" unicode="&#x2264;" horiz-adv-x="523" 
d="M55 458l413 160v-94l-308 -107l308 -106v-94l-413 159v82zM468 85h-413v83h413v-83z" />
    <glyph glyph-name="greaterequal" unicode="&#x2265;" horiz-adv-x="523" 
d="M55 524v94l413 -160v-82l-413 -159v94l308 106zM468 85h-413v83h413v-83z" />
    <glyph glyph-name="lozenge" unicode="&#x25ca;" horiz-adv-x="545" 
d="M312 0h-78l-186 350l186 350h78l186 -350zM141 350l132 -246l131 246l-131 246z" />
    <glyph glyph-name="i.loclTRK" horiz-adv-x="220" 
d="M154 582c-24 -24 -64 -24 -89 0c-24 24 -24 64 0 88c25 25 65 25 89 0c24 -24 24 -64 0 -88zM153 0h-87v500h87v-500z" />
    <glyph glyph-name="f_f_j" horiz-adv-x="802" 
d="M464 500h272v-530c0 -129 -66 -192 -193 -183v84c73 -7 106 22 106 99v446h-185v-416h-87v416h-186v-416h-87v416h-80v84h80v15c0 135 78 207 219 198v-84c-88 7 -132 -31 -132 -114v-15h186v25c0 132 73 198 218 198c29 0 63 -4 103 -13v-79c-39 5 -74 8 -103 8
c-91 0 -131 -30 -131 -114v-25z" />
    <glyph glyph-name="f_j" horiz-adv-x="530" 
d="M191 500h272v-530c0 -129 -67 -192 -192 -183v84c72 -7 105 22 105 99v446h-185v-416h-87v416h-80v84h80v15c0 132 73 198 219 198c27 0 62 -4 103 -13v-79c-41 5 -75 8 -103 8c-91 0 -132 -30 -132 -114v-15z" />
    <glyph glyph-name="uni0414.loclBGR" horiz-adv-x="710" 
d="M408 700l210 -612h70v-222h-93v134h-480v-134h-92v222h69l211 612h105zM355 590l-166 -502h332z" />
    <glyph glyph-name="uni041B.loclBGR" horiz-adv-x="621" 
d="M8 0l250 700h105l251 -700h-101l-202 584l-203 -584h-100z" />
    <glyph glyph-name="uni0424.loclBGR" horiz-adv-x="849" 
d="M470 -10v-90h-90v90c-103 9 -185 45 -248 110s-94 149 -94 250s31 184 94 249s145 102 248 111v90h90v-90c103 -9 185 -46 248 -111s94 -148 94 -249s-31 -185 -94 -250s-145 -101 -248 -110zM380 75v551c-156 -17 -250 -120 -250 -276s94 -259 250 -275zM470 626v-551
c156 16 249 119 249 275s-93 259 -249 276z" />
    <glyph glyph-name="uni0414.ss01" horiz-adv-x="695" 
d="M588 700v-612h75v-88h-648v88h61c43 54 65 136 65 246v366h447zM181 88h314v525h-261v-281c0 -106 -18 -187 -53 -244z" />
    <glyph glyph-name="uni0426.ss01" horiz-adv-x="690" 
d="M583 700v-612h75v-88h-583v700h93v-612h322v612h93z" />
    <glyph glyph-name="uni0429.ss01" horiz-adv-x="980" 
d="M873 700v-612h75v-88h-873v700h93v-612h260v612h92v-612h260v612h93z" />
    <glyph glyph-name="uni0414.loclBGR.ss01" horiz-adv-x="710" 
d="M408 700l210 -612h70v-88h-665v88h69l211 612h105zM355 590l-166 -502h332z" />
    <glyph glyph-name="uni0432.loclBGR" horiz-adv-x="569" 
d="M406 403c79 -28 125 -98 125 -198c0 -137 -87 -218 -232 -218s-233 92 -233 243v236c0 75 20 135 59 180c40 45 94 67 162 67c113 0 187 -69 187 -170c0 -51 -23 -98 -68 -140zM287 630c-83 0 -134 -64 -134 -164v-73l85 17c29 5 54 8 76 8c49 37 74 77 74 120
c0 53 -38 92 -101 92zM444 205c0 101 -82 150 -206 123l-85 -17v-81c0 -99 55 -158 146 -158s145 49 145 133z" />
    <glyph glyph-name="uni0433.loclBGR" horiz-adv-x="458" 
d="M353 151l75 -44c-31 -71 -103 -120 -199 -120c-55 0 -100 14 -135 41s-53 64 -53 109c0 68 44 112 97 129c79 27 179 39 179 99c0 43 -41 67 -86 67c-54 0 -91 -23 -110 -68l-73 42c33 65 100 107 183 107c49 0 91 -14 124 -42s50 -64 50 -107c0 -67 -43 -109 -98 -128
c-78 -25 -178 -38 -178 -98c0 -47 41 -69 100 -69c60 0 107 33 124 82z" />
    <glyph glyph-name="uni0434.loclBGR" 
d="M481 414v86h86v-479c0 -74 -25 -131 -75 -172s-110 -62 -180 -62c-112 0 -196 43 -237 122l76 43c27 -56 82 -84 163 -84c104 0 167 58 167 153v71c-44 -67 -107 -100 -188 -100c-71 0 -132 25 -181 76s-74 112 -74 185s25 134 74 184c49 51 110 76 181 76
c82 0 145 -33 188 -99zM481 253c0 50 -17 92 -51 126s-76 51 -127 51s-93 -17 -127 -51s-51 -76 -51 -126c0 -51 17 -93 51 -127s76 -51 127 -51s93 17 127 51s51 76 51 127z" />
    <glyph glyph-name="uni0436.loclBGR" horiz-adv-x="698" 
d="M471 258l210 -258h-102l-187 235v-235h-86v235l-187 -235h-101l209 258l-199 242h101l177 -220v420h86v-420l177 220h102z" />
    <glyph glyph-name="uni0438.loclBGR" horiz-adv-x="564" 
d="M411 235v265h87v-500h-87v72c-35 -57 -89 -85 -162 -85c-117 0 -194 79 -194 206v307h87v-302c0 -81 47 -128 124 -128c87 0 145 53 145 165z" />
    <glyph glyph-name="uni0439.loclBGR" horiz-adv-x="564" 
d="M140 651h270v-76h-270v76zM411 235v265h87v-500h-87v72c-35 -57 -89 -85 -162 -85c-117 0 -194 79 -194 206v307h87v-302c0 -81 47 -128 124 -128c87 0 145 53 145 165z" />
    <glyph glyph-name="uni043A.loclBGR" horiz-adv-x="504" 
d="M242 258l247 -258h-108l-228 237v-237h-87v700h87v-421l216 221h112z" />
    <glyph glyph-name="uni043B.loclBGR" horiz-adv-x="518" 
d="M310 500l200 -500h-94l-157 407l-157 -407h-94l200 500h102z" />
    <glyph glyph-name="uni043F.loclBGR" horiz-adv-x="564" 
d="M315 513c117 0 194 -79 194 -206v-307h-87v302c0 81 -47 128 -124 128c-87 0 -145 -53 -145 -165v-265h-87v500h87v-72c35 57 89 85 162 85z" />
    <glyph glyph-name="uni0442.loclBGR" horiz-adv-x="849" 
d="M606 513c112 0 188 -78 188 -202v-311h-87v308c0 77 -43 122 -110 122c-75 0 -123 -49 -123 -152v-278h-87v308c0 77 -41 122 -106 122c-73 0 -128 -51 -128 -152v-278h-87v500h87v-67c34 53 84 80 149 80c67 0 116 -28 147 -85c35 57 87 85 157 85z" />
    <glyph glyph-name="uni0446.loclBGR" horiz-adv-x="601" 
d="M533 83h41v-217h-86v138c-37 9 -61 33 -72 70c-37 -58 -92 -87 -167 -87c-117 0 -193 79 -193 206v307h87v-301c0 -83 46 -129 123 -129c87 0 145 53 145 165v265h87v-382c0 -21 14 -35 35 -35z" />
    <glyph glyph-name="uni0448.loclBGR" horiz-adv-x="849" 
d="M696 222v278h87v-500h-87v67c-34 -53 -84 -80 -149 -80c-67 0 -116 28 -147 85c-35 -57 -87 -85 -157 -85c-112 0 -188 78 -188 202v311h87v-308c0 -77 43 -122 110 -122c75 0 123 49 123 152v278h87v-308c0 -77 41 -122 106 -122c73 0 128 51 128 152z" />
    <glyph glyph-name="uni0449.loclBGR" horiz-adv-x="886" 
d="M818 83h41v-217h-86v138c-35 9 -59 31 -71 66c-35 -55 -85 -83 -152 -83c-69 0 -118 28 -149 85c-35 -57 -87 -85 -158 -85c-112 0 -187 78 -187 202v311h87v-307c0 -79 42 -123 109 -123c75 0 124 49 124 152v278h87v-307c0 -79 39 -123 106 -123c72 0 127 51 127 152
v278h87v-382c0 -21 14 -35 35 -35z" />
    <glyph glyph-name="uni044C.loclBGR" horiz-adv-x="483" 
d="M142 346h116c125 0 198 -65 198 -174c0 -51 -19 -95 -56 -131s-85 -54 -144 -54c-61 0 -110 17 -146 52s-54 80 -54 135v326h86v-154zM256 71c33 0 60 10 81 31c22 21 33 44 33 70c0 59 -41 93 -112 93h-116v-91c0 -57 45 -103 114 -103z" />
    <glyph glyph-name="uni044A.loclBGR" horiz-adv-x="568" 
d="M225 346h116c125 0 198 -65 198 -174c0 -51 -19 -95 -56 -131s-85 -54 -144 -54c-61 0 -110 17 -146 52s-54 80 -54 135v243h-139v83h225v-154zM339 71c33 0 60 10 81 31c22 21 33 44 33 70c0 59 -41 93 -112 93h-116v-91c0 -57 45 -103 114 -103z" />
    <glyph glyph-name="uni044E.loclBGR" horiz-adv-x="804" 
d="M503 513c73 0 135 -25 186 -76s77 -113 77 -187s-26 -136 -77 -187s-113 -76 -186 -76c-66 0 -123 21 -171 63s-77 95 -86 159h-93v-209h-87v700h87v-408h93c9 64 38 117 86 158c49 42 106 63 171 63zM503 72c49 0 91 17 125 51s51 76 51 127s-17 93 -51 127
s-76 51 -125 51c-50 0 -92 -17 -126 -51s-51 -76 -51 -127s17 -93 51 -127s76 -51 126 -51z" />
    <glyph glyph-name="zero.sinf" horiz-adv-x="410" 
d="M334 -115c-31 -39 -74 -58 -129 -58s-98 19 -130 58c-31 39 -47 90 -47 155s16 116 47 155c32 39 75 58 130 58s98 -19 129 -58c32 -39 48 -90 48 -155s-16 -116 -48 -155zM132 -62c17 -23 42 -35 73 -35s56 12 73 35s26 57 26 102s-9 79 -26 102s-42 35 -73 35
s-56 -12 -73 -35s-26 -57 -26 -102s9 -79 26 -102z" />
    <glyph glyph-name="one.sinf" horiz-adv-x="248" 
d="M8 198l117 42h67v-400h-77v319l-88 -26z" />
    <glyph glyph-name="two.sinf" horiz-adv-x="344" 
d="M315 -160h-286v57l162 153c26 24 39 50 39 77c0 32 -24 53 -61 53s-63 -19 -79 -58l-64 36c27 63 74 95 143 95c81 0 139 -53 139 -124c0 -45 -21 -87 -64 -126l-101 -91h172v-72z" />
    <glyph glyph-name="three.sinf" horiz-adv-x="347" 
d="M298 174l-84 -100c64 -13 102 -56 102 -116c0 -80 -58 -131 -149 -131c-71 0 -120 29 -147 86l65 37c15 -34 42 -51 82 -51c47 0 72 23 72 59s-29 60 -73 60h-9l-34 50l84 100h-172v72h263v-66z" />
    <glyph glyph-name="four.sinf" horiz-adv-x="355" 
d="M289 -18h47v-71h-47v-71h-76v71h-199v71l142 258h83l-140 -258h114v88h76v-88z" />
    <glyph glyph-name="five.sinf" horiz-adv-x="331" 
d="M117 90h52c85 0 142 -50 142 -133c0 -80 -56 -130 -144 -130c-71 0 -119 29 -146 87l65 36c15 -35 42 -52 80 -52c45 0 71 23 71 60s-26 63 -71 63h-124l15 219h237v-71h-172z" />
    <glyph glyph-name="six.sinf" horiz-adv-x="337" 
d="M163 108h5c44 0 80 -13 108 -40s42 -60 42 -100s-14 -73 -43 -100c-28 -27 -64 -41 -107 -41s-79 14 -107 41s-42 60 -42 100c0 31 8 58 25 81l121 191h87zM113 -83c28 -27 82 -27 110 0c28 25 28 77 0 102s-82 25 -110 0c-27 -25 -27 -77 0 -102z" />
    <glyph glyph-name="seven.sinf" horiz-adv-x="296" 
d="M8 168v72h269v-61l-141 -339h-81l138 328h-185z" />
    <glyph glyph-name="eight.sinf" horiz-adv-x="340" 
d="M254 51c42 -23 63 -57 63 -104c0 -73 -58 -120 -147 -120s-147 47 -147 120c0 47 21 81 63 104c-33 20 -50 49 -50 86c0 71 58 116 134 116s134 -45 134 -116c0 -37 -17 -66 -50 -86zM170 184c-40 0 -62 -19 -62 -50c0 -32 22 -53 62 -53c39 0 62 21 62 53
c0 31 -23 50 -62 50zM170 16c-45 0 -72 -22 -72 -59c0 -18 6 -32 19 -43s30 -16 53 -16s40 5 53 16s19 25 19 43c0 36 -28 59 -72 59z" />
    <glyph glyph-name="nine.sinf" horiz-adv-x="337" 
d="M318 112c0 -31 -8 -58 -25 -81l-121 -191h-87l89 132h-5c-44 0 -80 13 -108 40s-42 60 -42 100s14 73 42 100c29 27 65 41 108 41s79 -14 107 -41s42 -60 42 -100zM114 163c-28 -25 -28 -77 0 -102c14 -13 32 -19 55 -19s41 6 54 19c28 25 28 77 0 102
c-13 13 -31 20 -54 20s-41 -7 -55 -20z" />
    <glyph glyph-name="zero.tf" horiz-adv-x="573" 
d="M485 86c-47 -66 -114 -99 -199 -99s-152 33 -199 99s-71 154 -71 264s24 198 71 264s114 99 199 99s152 -33 199 -99s71 -154 71 -264s-24 -198 -71 -264zM109 350c0 -173 64 -272 177 -272s178 97 178 272s-65 273 -178 273s-177 -98 -177 -273z" />
    <glyph glyph-name="one.tf" horiz-adv-x="573" 
d="M346 700v-612h200v-88h-510v88h218v512l-149 -44l-23 80l184 64h80z" />
    <glyph glyph-name="two.tf" horiz-adv-x="573" 
d="M533 0h-492v76l254 223c87 75 131 127 131 190c0 81 -54 134 -143 134c-73 0 -125 -36 -158 -109l-78 45c45 99 134 154 237 154c68 0 124 -20 168 -61c45 -41 67 -94 67 -161c0 -91 -57 -166 -161 -253l-178 -148h353v-90z" />
    <glyph glyph-name="three.tf" horiz-adv-x="573" 
d="M506 618l-165 -203c117 -19 195 -91 195 -206c0 -69 -24 -124 -72 -163s-109 -59 -184 -59c-121 0 -219 60 -255 160l78 46c21 -72 87 -115 175 -115c104 0 166 47 166 131c0 83 -63 131 -166 131h-22l-39 57l175 216h-344v87h458v-82z" />
    <glyph glyph-name="four.tf" horiz-adv-x="573" 
d="M469 220h85v-87h-85v-133h-93v133h-360v87l251 480h100l-251 -480h260v183h93v-183z" />
    <glyph glyph-name="five.tf" horiz-adv-x="573" 
d="M169 427h120c71 0 130 -20 177 -59s70 -92 70 -161s-24 -123 -72 -162c-47 -39 -106 -58 -176 -58c-121 0 -220 60 -256 160l79 46c20 -71 86 -115 175 -115c96 0 158 48 158 129c0 83 -61 130 -158 130h-215l26 363h412v-87h-327z" />
    <glyph glyph-name="six.tf" horiz-adv-x="573" 
d="M279 460c79 0 142 -22 189 -65s71 -100 71 -171s-24 -128 -71 -172c-47 -43 -110 -65 -189 -65s-143 22 -190 65c-47 44 -70 101 -70 172c0 59 16 108 49 149l234 327h109l-174 -242c19 1 33 2 42 2zM155 116c30 -27 71 -40 124 -40s94 13 123 40s44 63 44 108
s-15 81 -44 108s-70 40 -123 40s-94 -13 -124 -40c-29 -27 -44 -63 -44 -108s15 -81 44 -108z" />
    <glyph glyph-name="seven.tf" horiz-adv-x="573" 
d="M35 612v88h500v-83l-278 -617h-97l275 612h-400z" />
    <glyph glyph-name="eight.tf" horiz-adv-x="573" 
d="M431 362c71 -35 112 -97 112 -170c0 -128 -100 -205 -257 -205c-156 0 -256 77 -256 205c0 73 41 135 112 170c-59 37 -88 88 -88 153c0 63 22 111 65 146c44 35 100 52 167 52s123 -17 167 -52c44 -34 66 -83 66 -146c0 -65 -29 -116 -88 -153zM286 624
c-87 0 -140 -38 -140 -111c0 -71 55 -112 140 -112c87 0 141 41 141 112c0 73 -53 111 -141 111zM164 108c29 -21 69 -32 122 -32s93 11 122 32s43 51 43 90s-14 68 -43 89s-69 32 -122 32s-93 -11 -122 -32c-28 -21 -42 -50 -42 -89s14 -69 42 -90z" />
    <glyph glyph-name="nine.tf" horiz-adv-x="573" 
d="M554 476c0 -56 -16 -104 -47 -145l-237 -331h-108l173 242c-17 -1 -31 -2 -41 -2c-79 0 -142 22 -189 65s-71 100 -71 171s24 128 71 171c47 44 110 66 189 66s142 -22 189 -66c47 -43 71 -100 71 -171zM461 476c0 92 -62 148 -167 148s-168 -57 -168 -148
s63 -147 168 -147s167 56 167 147z" />
    <glyph glyph-name="zero.dnom" horiz-adv-x="410" 
d="M334 45c-31 -39 -74 -58 -129 -58s-98 19 -130 58c-31 39 -47 90 -47 155s16 116 47 155c32 39 75 58 130 58s98 -19 129 -58c32 -39 48 -90 48 -155s-16 -116 -48 -155zM132 98c17 -23 42 -35 73 -35s56 12 73 35s26 57 26 102s-9 79 -26 102s-42 35 -73 35
s-56 -12 -73 -35s-26 -57 -26 -102s9 -79 26 -102z" />
    <glyph glyph-name="one.dnom" horiz-adv-x="254" 
d="M8 358l117 42h67v-400h-77v319l-88 -26z" />
    <glyph glyph-name="two.dnom" horiz-adv-x="345" 
d="M315 0h-286v57l162 153c26 24 39 50 39 77c0 32 -24 53 -61 53s-63 -19 -79 -58l-64 36c27 63 74 95 143 95c81 0 139 -53 139 -124c0 -45 -21 -87 -64 -126l-101 -91h172v-72z" />
    <glyph glyph-name="three.dnom" horiz-adv-x="351" 
d="M298 334l-84 -100c64 -13 102 -56 102 -116c0 -80 -58 -131 -149 -131c-71 0 -120 29 -147 86l65 37c15 -34 42 -51 82 -51c47 0 72 23 72 59s-29 60 -73 60h-9l-34 50l84 100h-172v72h263v-66z" />
    <glyph glyph-name="four.dnom" horiz-adv-x="355" 
d="M289 142h47v-71h-47v-71h-76v71h-199v71l142 258h83l-140 -258h114v88h76v-88z" />
    <glyph glyph-name="five.dnom" horiz-adv-x="339" 
d="M113 250h52c85 0 142 -50 142 -133c0 -80 -56 -130 -144 -130c-71 0 -119 29 -146 87l65 36c15 -35 42 -52 80 -52c45 0 71 23 71 60s-26 63 -71 63h-124l15 219h237v-71h-172z" />
    <glyph glyph-name="six.dnom" horiz-adv-x="337" 
d="M163 268h5c44 0 80 -13 108 -40s42 -60 42 -100s-14 -74 -43 -101c-28 -27 -64 -40 -107 -40s-79 13 -107 40s-42 61 -42 101c0 31 8 58 25 81l121 191h87zM113 76c28 -25 82 -25 110 0c14 13 21 31 21 52s-7 38 -21 51c-28 25 -82 25 -110 0c-13 -13 -20 -30 -20 -51
s7 -39 20 -52z" />
    <glyph glyph-name="seven.dnom" horiz-adv-x="296" 
d="M8 328v72h269v-61l-141 -339h-81l138 328h-185z" />
    <glyph glyph-name="eight.dnom" horiz-adv-x="340" 
d="M254 211c42 -23 63 -57 63 -104c0 -73 -58 -120 -147 -120s-147 47 -147 120c0 47 21 81 63 104c-33 20 -50 49 -50 86c0 71 58 116 134 116s134 -45 134 -116c0 -37 -17 -66 -50 -86zM170 344c-40 0 -62 -19 -62 -50c0 -32 22 -53 62 -53c39 0 62 21 62 53
c0 31 -23 50 -62 50zM170 176c-45 0 -72 -22 -72 -59c0 -18 6 -32 19 -43s30 -16 53 -16s40 5 53 16s19 25 19 43c0 36 -28 59 -72 59z" />
    <glyph glyph-name="nine.dnom" horiz-adv-x="337" 
d="M318 272c0 -31 -8 -58 -25 -81l-121 -191h-87l89 132h-5c-44 0 -80 13 -108 40s-42 60 -42 100s14 73 42 100c29 27 65 41 108 41s79 -14 107 -41s42 -60 42 -100zM244 272c0 43 -30 71 -75 71s-76 -28 -76 -71s31 -70 76 -70s75 29 75 70z" />
    <glyph glyph-name="zero.numr" horiz-adv-x="410" 
d="M334 345c-31 -39 -74 -58 -129 -58s-98 19 -130 58c-31 39 -47 90 -47 155s16 116 47 155c32 39 75 58 130 58s98 -19 129 -58c32 -39 48 -90 48 -155s-16 -116 -48 -155zM132 398c17 -23 42 -35 73 -35s56 12 73 35s26 57 26 102s-9 79 -26 102s-42 35 -73 35
s-56 -12 -73 -35s-26 -57 -26 -102s9 -79 26 -102z" />
    <glyph glyph-name="one.numr" horiz-adv-x="254" 
d="M8 658l117 42h67v-400h-77v319l-88 -26z" />
    <glyph glyph-name="two.numr" horiz-adv-x="345" 
d="M315 300h-286v57l162 153c26 24 39 50 39 77c0 32 -24 53 -61 53s-63 -19 -79 -58l-64 36c27 63 74 95 143 95c81 0 139 -53 139 -124c0 -45 -21 -87 -64 -126l-101 -91h172v-72z" />
    <glyph glyph-name="three.numr" horiz-adv-x="351" 
d="M298 634l-84 -100c64 -13 102 -56 102 -116c0 -80 -58 -131 -149 -131c-71 0 -120 29 -147 86l65 37c15 -34 42 -51 82 -51c47 0 72 23 72 59s-29 60 -73 60h-9l-34 50l84 100h-172v72h263v-66z" />
    <glyph glyph-name="four.numr" horiz-adv-x="355" 
d="M289 442h47v-71h-47v-71h-76v71h-199v71l142 258h83l-140 -258h114v88h76v-88z" />
    <glyph glyph-name="five.numr" horiz-adv-x="339" 
d="M113 550h52c85 0 142 -50 142 -133c0 -80 -56 -130 -144 -130c-71 0 -119 29 -146 87l65 36c15 -35 42 -52 80 -52c45 0 71 23 71 60s-26 63 -71 63h-124l15 219h237v-71h-172z" />
    <glyph glyph-name="six.numr" horiz-adv-x="337" 
d="M163 568h5c44 0 80 -13 108 -40s42 -60 42 -100s-14 -74 -43 -101c-28 -27 -64 -40 -107 -40s-79 13 -107 40s-42 61 -42 101c0 31 8 58 25 81l121 191h87zM113 376c28 -25 82 -25 110 0c14 13 21 31 21 52s-7 38 -21 51c-28 25 -82 25 -110 0c-13 -13 -20 -30 -20 -51
s7 -39 20 -52z" />
    <glyph glyph-name="seven.numr" horiz-adv-x="296" 
d="M8 628v72h269v-61l-141 -339h-81l138 328h-185z" />
    <glyph glyph-name="eight.numr" horiz-adv-x="340" 
d="M254 511c42 -23 63 -57 63 -104c0 -73 -58 -120 -147 -120s-147 47 -147 120c0 47 21 81 63 104c-33 20 -50 49 -50 86c0 71 58 116 134 116s134 -45 134 -116c0 -37 -17 -66 -50 -86zM170 644c-40 0 -62 -19 -62 -50c0 -32 22 -53 62 -53c39 0 62 21 62 53
c0 31 -23 50 -62 50zM170 476c-45 0 -72 -22 -72 -59c0 -18 6 -32 19 -43s30 -16 53 -16s40 5 53 16s19 25 19 43c0 36 -28 59 -72 59z" />
    <glyph glyph-name="nine.numr" horiz-adv-x="337" 
d="M318 572c0 -31 -8 -58 -25 -81l-121 -191h-87l89 132h-5c-44 0 -80 13 -108 40s-42 60 -42 100s14 73 42 100c29 27 65 41 108 41s79 -14 107 -41s42 -60 42 -100zM114 623c-28 -25 -28 -77 0 -102c14 -13 32 -19 55 -19s41 6 54 19c28 25 28 77 0 102
c-13 13 -31 20 -54 20s-41 -7 -55 -20z" />
    <glyph glyph-name="zero.sups" horiz-adv-x="410" 
d="M334 505c-31 -39 -74 -58 -129 -58s-98 19 -130 58c-31 39 -47 90 -47 155s16 116 47 155c32 39 75 58 130 58s98 -19 129 -58c32 -39 48 -90 48 -155s-16 -116 -48 -155zM132 558c17 -23 42 -35 73 -35s56 12 73 35s26 57 26 102s-9 79 -26 102s-42 35 -73 35
s-56 -12 -73 -35s-26 -57 -26 -102s9 -79 26 -102z" />
    <glyph glyph-name="one.sups" horiz-adv-x="254" 
d="M8 818l117 42h67v-400h-77v319l-88 -26z" />
    <glyph glyph-name="two.sups" horiz-adv-x="345" 
d="M315 460h-286v57l162 153c26 24 39 50 39 77c0 32 -24 53 -61 53s-63 -19 -79 -58l-64 36c27 63 74 95 143 95c81 0 139 -53 139 -124c0 -45 -21 -87 -64 -126l-101 -91h172v-72z" />
    <glyph glyph-name="three.sups" horiz-adv-x="351" 
d="M298 794l-84 -100c64 -13 102 -56 102 -116c0 -80 -58 -131 -149 -131c-71 0 -120 29 -147 86l65 37c15 -34 42 -51 82 -51c47 0 72 23 72 59s-29 60 -73 60h-9l-34 50l84 100h-172v72h263v-66z" />
    <glyph glyph-name="four.sups" horiz-adv-x="355" 
d="M289 602h47v-71h-47v-71h-76v71h-199v71l142 258h83l-140 -258h114v88h76v-88z" />
    <glyph glyph-name="five.sups" horiz-adv-x="339" 
d="M113 710h52c85 0 142 -50 142 -133c0 -80 -56 -130 -144 -130c-71 0 -119 29 -146 87l65 36c15 -35 42 -52 80 -52c45 0 71 23 71 60s-26 63 -71 63h-124l15 219h237v-71h-172z" />
    <glyph glyph-name="six.sups" horiz-adv-x="337" 
d="M163 728h5c44 0 80 -13 108 -40s42 -60 42 -100s-14 -74 -43 -101c-28 -27 -64 -40 -107 -40s-79 13 -107 40s-42 61 -42 101c0 31 8 58 25 81l121 191h87zM113 536c28 -25 82 -25 110 0c14 13 21 31 21 52s-7 38 -21 51c-28 25 -82 25 -110 0c-13 -13 -20 -30 -20 -51
s7 -39 20 -52z" />
    <glyph glyph-name="seven.sups" horiz-adv-x="296" 
d="M8 788v72h269v-61l-141 -339h-81l138 328h-185z" />
    <glyph glyph-name="eight.sups" horiz-adv-x="340" 
d="M254 671c42 -23 63 -57 63 -104c0 -73 -58 -120 -147 -120s-147 47 -147 120c0 47 21 81 63 104c-33 20 -50 49 -50 86c0 71 58 116 134 116s134 -45 134 -116c0 -37 -17 -66 -50 -86zM170 804c-40 0 -62 -19 -62 -50c0 -32 22 -53 62 -53c39 0 62 21 62 53
c0 31 -23 50 -62 50zM170 636c-45 0 -72 -22 -72 -59c0 -18 6 -32 19 -43s30 -16 53 -16s40 5 53 16s19 25 19 43c0 36 -28 59 -72 59z" />
    <glyph glyph-name="nine.sups" horiz-adv-x="337" 
d="M318 732c0 -31 -8 -58 -25 -81l-121 -191h-87l89 132h-5c-44 0 -80 13 -108 40s-42 60 -42 100s14 73 42 100c29 27 65 41 108 41s79 -14 107 -41s42 -60 42 -100zM114 783c-28 -25 -28 -77 0 -102c14 -13 32 -19 55 -19s41 6 54 19c28 25 28 77 0 102
c-13 13 -31 20 -54 20s-41 -7 -55 -20z" />
    <glyph glyph-name="cent.tf" horiz-adv-x="573" 
d="M464 260l74 -43c-43 -79 -128 -130 -225 -130c-22 0 -44 3 -65 8l-31 -95h-53l36 111c-92 41 -150 132 -150 239c0 75 25 137 75 187c50 51 113 76 188 76c18 0 34 -1 48 -4l29 91h53l-34 -105c57 -21 99 -59 125 -113l-73 -42c-17 34 -43 59 -78 74l-109 -337
c11 -3 24 -4 39 -4c67 0 123 34 151 87zM137 350c0 -68 34 -125 90 -156l107 333c-5 1 -12 1 -21 1c-50 0 -92 -17 -126 -51c-33 -34 -50 -76 -50 -127z" />
    <glyph glyph-name="dollar.tf" horiz-adv-x="573" 
d="M538 186c0 -109 -81 -185 -205 -197v-89h-62v88c-117 7 -196 61 -236 160l80 46c24 -71 76 -110 156 -117v242c-64 20 -100 36 -141 67s-61 76 -61 136c0 55 19 99 57 132c38 34 86 53 145 58v88h62v-89c93 -11 156 -58 190 -142l-78 -45c-21 56 -58 88 -112 97v-230
c64 -20 99 -36 142 -67s63 -77 63 -138zM161 522c0 -53 33 -82 110 -110v211c-69 -7 -110 -45 -110 -101zM333 299v-221c72 9 112 50 112 106c0 57 -33 86 -112 115z" />
    <glyph glyph-name="Euro.tf" horiz-adv-x="573" 
d="M472 184l76 -43c-33 -97 -110 -154 -207 -154c-137 0 -228 105 -251 276h-66v65h60v22c0 14 0 24 1 31h-61v64h67c24 167 114 268 250 268c95 0 170 -52 203 -145l-77 -44c-20 64 -67 99 -126 99c-83 0 -139 -63 -158 -178h221v-64h-227c-1 -7 -1 -17 -1 -31v-22h228v-65
h-222c17 -119 75 -185 159 -185c60 0 110 38 131 106z" />
    <glyph glyph-name="florin.tf" horiz-adv-x="573" 
d="M545 704v-86c-74 26 -120 5 -137 -64l-41 -161h141v-84h-163l-94 -369c-33 -125 -107 -172 -223 -141v85c74 -25 119 -3 136 64l92 361h-139v84h161l43 169c32 126 107 173 224 142z" />
    <glyph glyph-name="uni20BD.tf" horiz-adv-x="573" 
d="M326 268h-138v-81h225v-68h-225v-119h-93v119h-85v68h85v81h-85v84h85v348h231c61 0 112 -21 155 -64c43 -42 64 -93 64 -153s-21 -111 -64 -153c-42 -41 -94 -62 -155 -62zM326 613h-138v-261h138c35 0 64 13 89 38c25 26 38 57 38 93s-12 67 -37 92s-55 38 -90 38z" />
    <glyph glyph-name="sterling.tf" horiz-adv-x="573" 
d="M210 284v-194h353v-90h-533v90h87v194h-69v82h69v134c0 69 21 121 62 158c42 37 91 55 148 55c95 0 165 -51 200 -138l-78 -44c-22 61 -62 92 -121 92c-67 0 -118 -42 -118 -125v-132h224v-82h-224z" />
    <glyph glyph-name="yen.tf" horiz-adv-x="573" 
d="M464 700h103l-215 -348h155v-65h-174v-55h174v-66h-174v-166h-93v166h-173v66h173v55h-173v65h155l-216 348h103l178 -292z" />
    <glyph glyph-name="brevecy" horiz-adv-x="320" 
d="M295 575h-270v76h270v-76z" />
    </font>
</defs>
</svg>
