<?xml version="1.0" standalone="no"?>
<!DOCTYPE svg PUBLIC "-//W3C//DTD SVG 1.1//EN" "http://www.w3.org/Graphics/SVG/1.1/DTD/svg11.dtd" >
<svg xmlns="http://www.w3.org/2000/svg" xmlns:xlink="http://www.w3.org/1999/xlink" version="1.1">
<metadata>
Created by FontForge 20170924 at Thu Jul 21 23:25:05 2016
 By www-data
Copyright \251 2015 by Radomir Tinkov. All rights reserved.
</metadata>
<defs>
<font id="Gilroy-HeavyItalic" horiz-adv-x="575" >
  <font-face 
    font-family="Gilroy"
    font-weight="1000"
    font-style="italic"
    font-stretch="normal"
    units-per-em="1000"
    panose-1="0 0 10 0 0 0 0 0 0 0"
    ascent="775"
    descent="-225"
    x-height="500"
    cap-height="700"
    bbox="-436 -284 1242.03 990"
    underline-thickness="50"
    underline-position="-100"
    slope="-10"
    unicode-range="U+0020-FB02"
  />
<missing-glyph horiz-adv-x="500" 
d="M93 800h317v-1000h-317v1000zM333 700v33h-165v-33h65v-37h-66v-33h166v33h-66v37h66zM267 534v70h-100v-104h166v34h-66zM200 570h33v-36h-33v36zM333 440v33h-166v-33h66v-37h-66v-33h100v70h66zM333 313v100h-33v-66h-133v-34h166zM333 178v113h-100v-56h34v23h33v-47
h-100v80h-33v-113h166zM333 5v113h-166v-113h166zM200 85h100v-47h-100v47zM333 -51v33h-166v-33h70l-70 -47v-33h166v33h-102l70 47h32z" />
    <glyph glyph-name="fi" unicode="fi" 
d="M297 500h282l-88 -500h-185l57 324h-97l-57 -324h-185l57 324h-58l31 176h58c25 148 123 216 300 216c48 0 92 -5 132 -16l-26 -152c-43 7 -83 10 -119 10c-61 0 -95 -19 -102 -58z" />
    <glyph glyph-name="fl" unicode="fl" 
d="M412 716c71 0 138 -5 202 -16l-123 -700h-185l99 562c-5 1 -14 1 -25 1c-47 0 -75 -21 -83 -63h57l-31 -176h-57l-57 -324h-185l57 324h-58l31 176h58c25 148 123 216 300 216z" />
    <glyph glyph-name="f_f" unicode="ff" horiz-adv-x="615" 
d="M699 726l-29 -166c-48 4 -79 -17 -86 -50l-2 -10h77l-31 -176h-77l-57 -324h-185l57 324h-100l-57 -324h-185l57 324h-58l31 176h58c27 151 128 225 300 216l-29 -166c-48 4 -79 -17 -86 -50h100l2 10c27 151 128 225 300 216z" />
    <glyph glyph-name="f_f_i" unicode="ffi" horiz-adv-x="860" 
d="M582 500h282l-88 -500h-185l57 324h-97l-57 -324h-185l57 324h-100l-57 -324h-185l57 324h-58l31 176h58c27 144 131 225 300 216l-29 -166c-48 4 -79 -17 -86 -50h100l2 10c27 144 127 216 300 216c48 0 92 -5 132 -16l-27 -152c-43 7 -83 10 -118 10
c-61 0 -95 -19 -102 -58z" />
    <glyph glyph-name="f_f_l" unicode="ffl" horiz-adv-x="860" 
d="M699 726c71 0 138 -5 202 -16l-125 -710h-185l101 572c-5 1 -14 1 -25 1c-47 0 -75 -21 -83 -63l-2 -10h57l-31 -176h-57l-57 -324h-185l57 324h-100l-57 -324h-185l57 324h-58l31 176h58c27 151 128 225 300 216l-29 -166c-48 4 -79 -17 -86 -50h100l2 10
c25 148 123 216 300 216z" />
    <glyph glyph-name=".notdef" horiz-adv-x="500" 
d="M93 800h317v-1000h-317v1000zM333 700v33h-165v-33h65v-37h-66v-33h166v33h-66v37h66zM267 534v70h-100v-104h166v34h-66zM200 570h33v-36h-33v36zM333 440v33h-166v-33h66v-37h-66v-33h100v70h66zM333 313v100h-33v-66h-133v-34h166zM333 178v113h-100v-56h34v23h33v-47
h-100v80h-33v-113h166zM333 5v113h-166v-113h166zM200 85h100v-47h-100v47zM333 -51v33h-166v-33h70l-70 -47v-33h166v33h-102l70 47h32z" />
    <glyph glyph-name="NULL" horiz-adv-x="0" 
 />
    <glyph glyph-name="CR" horiz-adv-x="333" 
 />
    <glyph glyph-name="space" unicode=" " horiz-adv-x="200" 
 />
    <glyph glyph-name="exclam" unicode="!" horiz-adv-x="310" 
d="M237 260h-160l7 240l35 200h230l-35 -200zM109 -15c-64 0 -105 53 -94 117c5 32 21 59 46 80c26 22 55 33 88 33c64 0 105 -53 94 -117c-11 -65 -65 -113 -134 -113z" />
    <glyph glyph-name="quotedbl" unicode="&#x22;" horiz-adv-x="490" 
d="M230 420h-130l29 280h170zM450 420h-130l29 280h170z" />
    <glyph glyph-name="numbersign" unicode="#" horiz-adv-x="643" 
d="M669 510l-44 -130h-95l-20 -60h95l-43 -130h-97l-48 -140h-144l48 140h-72l-48 -140h-144l48 140h-96l43 130h98l20 60h-97l44 130h98l48 140h144l-48 -140h72l48 140h144l-48 -140h94zM294 320h72l20 60h-72z" />
    <glyph glyph-name="dollar" unicode="$" horiz-adv-x="576" 
d="M363 430l17 -6c92 -35 197 -78 170 -234c-23 -129 -122 -201 -266 -206l-15 -84h-70l15 87c-112 15 -186 77 -215 173l173 89c15 -41 40 -67 75 -78l17 97c-11 3 -21 7 -28 10c-124 51 -176 131 -157 240c11 61 40 110 89 145s107 53 175 53l15 84h70l-16 -91
c87 -18 148 -70 183 -156l-169 -90c-11 29 -26 49 -47 60zM271 498c-3 -16 6 -30 26 -41l14 75c-23 -5 -37 -16 -40 -34zM357 206c3 15 -6 28 -27 38l-13 -75c23 6 37 18 40 37z" />
    <glyph glyph-name="percent" unicode="%" horiz-adv-x="868" 
d="M244 336c-55 0 -99 19 -131 58c-31 39 -42 85 -33 138s35 96 76 131c42 35 91 53 147 53c55 0 98 -19 129 -58c32 -39 43 -85 34 -138s-35 -97 -76 -132s-90 -52 -146 -52zM197 69l-62 41l555 499l62 -41zM264 476c28 0 53 23 58 50c5 28 -12 50 -40 50s-52 -22 -57 -50
c-5 -27 12 -50 39 -50zM602 -16c-55 0 -99 19 -131 58c-31 39 -42 85 -33 138s35 96 76 131c42 35 91 53 147 53c55 0 98 -20 129 -59c32 -39 43 -84 34 -137s-35 -97 -76 -132s-90 -52 -146 -52zM622 124c44 0 74 55 50 85c-22 33 -85 8 -89 -35c-5 -27 12 -50 39 -50z" />
    <glyph glyph-name="ampersand" unicode="&#x26;" horiz-adv-x="702" 
d="M525 379l140 -91c-29 -56 -58 -102 -86 -139l77 -106l-163 -80l-50 66c-55 -30 -115 -45 -182 -45c-85 0 -148 21 -190 64c-41 43 -57 97 -48 161c12 83 63 146 152 189c-19 42 -25 83 -19 123c9 59 36 107 83 142s104 53 172 53c121 0 204 -55 249 -165l-179 -94
c-19 49 -44 73 -75 73c-27 0 -45 -17 -49 -41c-3 -15 -1 -28 11 -49l13 -22c3 -5 10 -14 21 -28l77 -105c17 29 33 60 46 94zM292 150c17 0 34 3 53 10l-83 110c-23 -16 -36 -35 -39 -56c-7 -36 20 -64 69 -64z" />
    <glyph glyph-name="quotesingle" unicode="'" horiz-adv-x="270" 
d="M230 420h-130l29 280h170z" />
    <glyph glyph-name="parenleft" unicode="(" horiz-adv-x="335" 
d="M273 -100h-179c-47 137 -60 307 -33 470c27 154 89 297 186 430h185c-199 -292 -252 -608 -159 -900z" />
    <glyph glyph-name="parenright" unicode=")" horiz-adv-x="334" 
d="M97 800h179c47 -137 60 -307 33 -470c-27 -154 -89 -297 -186 -430h-185c199 292 252 608 159 900z" />
    <glyph glyph-name="asterisk" unicode="*" horiz-adv-x="410" 
d="M338 591l94 10l-18 -104l-91 10l46 -71l-94 -54l-29 79l-57 -79l-82 54l70 71l-93 -10l18 104l90 -10l-45 71l93 54l29 -79l57 79l83 -54z" />
    <glyph glyph-name="plus" unicode="+" horiz-adv-x="560" 
d="M404 440h160l-32 -180h-160l-28 -160h-180l28 160h-160l32 180h160l28 160h180z" />
    <glyph glyph-name="comma" unicode="," horiz-adv-x="315" 
d="M60 195h210l-149 -335h-150z" />
    <glyph glyph-name="hyphen" unicode="-" horiz-adv-x="500" 
d="M444 217h-400l31 174h400z" />
    <glyph glyph-name="period" unicode="." horiz-adv-x="300" 
d="M104 -15c-64 0 -106 53 -95 117c5 32 21 59 47 80c26 22 55 33 88 33c64 0 105 -53 94 -117c-11 -65 -65 -113 -134 -113z" />
    <glyph glyph-name="slash" unicode="/" horiz-adv-x="520" 
d="M597 800l-554 -900h-85l554 900h85z" />
    <glyph glyph-name="zero" unicode="0" horiz-adv-x="630" 
d="M273 -16c-92 0 -159 35 -201 105s-53 160 -33 271c39 223 162 356 353 356c91 0 158 -35 200 -105s53 -160 34 -271c-40 -224 -161 -356 -353 -356zM428 350c19 115 -2 172 -65 172c-64 0 -106 -57 -125 -172c-21 -115 1 -172 64 -172s105 57 126 172z" />
    <glyph glyph-name="one" unicode="1" horiz-adv-x="428" 
d="M67 629l210 71h170l-123 -700h-200l84 481l-124 -29z" />
    <glyph glyph-name="two" unicode="2" horiz-adv-x="546" 
d="M482 0h-506l25 146l278 247c46 40 71 71 74 92s-10 37 -35 37c-35 0 -67 -25 -97 -74l-164 99c65 111 173 169 286 169c68 0 123 -23 166 -68s58 -102 46 -172c-7 -41 -21 -76 -41 -105s-51 -61 -94 -98l-92 -79h188z" />
    <glyph glyph-name="three" unicode="3" horiz-adv-x="545" 
d="M106 700h460l-27 -154l-135 -137c81 -32 129 -105 113 -204c-28 -149 -140 -221 -289 -221c-123 0 -210 57 -241 166l184 95c13 -45 39 -67 79 -67c41 0 64 17 70 52c5 33 -19 50 -52 50h-41l-57 116l107 110h-205z" />
    <glyph glyph-name="four" unicode="4" 
d="M506 282h70l-32 -180h-70l-18 -102h-196l18 102h-294l32 180l262 418h231l-266 -418h67l17 98h196z" />
    <glyph glyph-name="five" unicode="5" horiz-adv-x="550" 
d="M574 700l-34 -194h-238l-13 -51h31c71 0 127 -21 168 -64s54 -103 40 -181c-13 -73 -46 -129 -101 -168c-54 -39 -118 -58 -192 -58c-128 0 -216 57 -248 166l185 97c13 -47 38 -69 86 -69c43 0 67 16 73 48c7 32 -16 52 -51 52h-230l103 422h421z" />
    <glyph glyph-name="six" unicode="6" horiz-adv-x="560" 
d="M559 700l-182 -229c61 -13 106 -42 137 -88s42 -100 31 -162c-27 -147 -139 -237 -302 -237c-85 0 -149 24 -192 73c-42 49 -56 110 -43 184c9 51 29 96 62 135l260 324h229zM347 231c8 45 -11 68 -58 68s-74 -23 -82 -68c-9 -45 14 -68 58 -68c46 0 73 23 82 68z" />
    <glyph glyph-name="seven" unicode="7" horiz-adv-x="490" 
d="M35 506l34 194h489l-28 -164l-296 -536h-226l280 506h-253z" />
    <glyph glyph-name="eight" unicode="8" horiz-adv-x="564" 
d="M570 502c-11 -59 -44 -106 -99 -140c57 -42 80 -100 67 -173c-23 -129 -124 -203 -292 -203c-176 0 -263 87 -239 219c14 75 57 131 129 167c-44 38 -61 86 -50 144c11 61 41 110 90 145c50 35 109 53 178 53c70 0 126 -19 169 -58s58 -90 47 -154zM261 487
c-5 -33 14 -51 54 -51c37 0 67 18 72 51s-17 51 -54 51c-42 0 -66 -17 -72 -51zM345 225c7 37 -16 59 -57 59c-45 0 -70 -20 -77 -59c-8 -37 13 -59 56 -59s69 20 78 59z" />
    <glyph glyph-name="nine" unicode="9" horiz-adv-x="560" 
d="M352 716c85 0 149 -24 191 -73c43 -49 57 -110 44 -184c-9 -51 -29 -96 -62 -135l-260 -324h-229l182 229c-61 13 -107 42 -138 88s-41 100 -30 162c27 147 139 237 302 237zM248 469c-8 -45 11 -68 58 -68s74 23 82 68c9 45 -14 68 -58 68c-46 0 -73 -23 -82 -68z" />
    <glyph glyph-name="colon" unicode=":" horiz-adv-x="300" 
d="M157 285c-64 0 -106 53 -95 117c5 32 21 59 47 80c26 22 55 33 88 33c64 0 105 -53 94 -117c-11 -65 -65 -113 -134 -113zM104 -15c-64 0 -106 53 -95 117c5 32 21 59 47 80c26 22 55 33 88 33c64 0 105 -53 94 -117c-11 -65 -65 -113 -134 -113z" />
    <glyph glyph-name="semicolon" unicode=";" horiz-adv-x="315" 
d="M172 285c-64 0 -106 53 -95 117c5 32 21 59 47 80c26 22 55 33 88 33c64 0 105 -53 94 -117c-11 -65 -65 -113 -134 -113zM55 195h210l-149 -335h-150z" />
    <glyph glyph-name="less" unicode="&#x3c;" horiz-adv-x="510" 
d="M63 435l484 195l-36 -204l-275 -86l245 -86l-33 -184l-415 195z" />
    <glyph glyph-name="equal" unicode="=" horiz-adv-x="500" 
d="M491 375h-439l32 180h439zM451 145h-439l31 180h439z" />
    <glyph glyph-name="greater" unicode="&#x3e;" horiz-adv-x="510" 
d="M65 446l32 184l416 -195l-30 -170l-485 -195l37 204l275 86z" />
    <glyph glyph-name="question" unicode="?" horiz-adv-x="534" 
d="M346 260h-180c8 55 38 100 69 125c47 39 103 67 109 103c4 21 -10 36 -34 36c-33 0 -62 -26 -89 -77l-159 100c59 113 165 169 284 169c67 0 120 -20 159 -61c40 -40 55 -90 44 -150c-11 -56 -43 -104 -80 -133c-52 -41 -117 -74 -123 -112zM209 -15
c-64 0 -106 53 -95 117c5 32 21 59 47 80c26 22 55 33 88 33c64 0 105 -53 94 -117c-11 -65 -65 -113 -134 -113z" />
    <glyph glyph-name="at" unicode="@" horiz-adv-x="764" 
d="M443 612c68 0 127 -18 177 -54c100 -72 141 -186 121 -298c-27 -145 -92 -219 -207 -219c-64 0 -112 31 -127 80c-27 -24 -60 -36 -98 -36c-45 0 -80 17 -104 51c-24 35 -32 76 -23 124c17 95 85 155 169 155c37 0 66 -14 88 -43l6 31h152l-42 -236c-7 -40 2 -60 34 -60
c50 0 84 51 102 153c15 83 -3 155 -54 215c-50 61 -117 91 -202 91c-89 0 -167 -29 -234 -87c-67 -57 -109 -130 -124 -219c-16 -91 3 -169 56 -232c54 -63 127 -94 218 -94c54 0 103 7 147 20l-9 -49c-43 -11 -92 -17 -146 -17c-105 0 -188 36 -251 108
c-62 72 -84 160 -65 264c18 102 65 186 142 252c77 67 168 100 274 100zM332 250c-5 -27 10 -47 35 -47s45 19 50 47c17 61 -79 61 -85 0z" />
    <glyph glyph-name="A" unicode="A" horiz-adv-x="660" 
d="M626 0h-209l-8 90h-202l-40 -90h-221l346 700h234zM374 465l-96 -215h116z" />
    <glyph glyph-name="B" unicode="B" horiz-adv-x="605" 
d="M612 493c-12 -61 -44 -107 -95 -138c53 -37 74 -90 63 -159c-17 -117 -121 -196 -278 -196h-296l123 700h268c76 0 134 -20 173 -59s53 -88 42 -148zM365 528h-66l-17 -94l77 1c29 4 46 19 51 46c5 33 -16 47 -45 47zM385 222c5 29 -6 45 -34 49l-97 1l-18 -100h84
c33 0 58 19 65 50z" />
    <glyph glyph-name="C" unicode="C" horiz-adv-x="721" 
d="M360 -16c-109 0 -193 36 -253 107c-59 71 -80 161 -63 269c17 104 64 189 141 256c78 67 168 100 271 100c137 0 236 -57 295 -172l-183 -97c-27 49 -71 73 -130 73c-48 0 -90 -16 -127 -48s-59 -73 -68 -122c-8 -47 0 -88 24 -121s60 -49 108 -49c55 0 103 26 143 78
l166 -105c-72 -107 -189 -169 -324 -169z" />
    <glyph glyph-name="D" unicode="D" horiz-adv-x="705" 
d="M129 700h290c92 0 165 -35 220 -106s74 -155 57 -254c-18 -101 -63 -183 -135 -246s-160 -94 -265 -94h-290zM498 350c16 92 -32 156 -113 156h-80l-55 -312h80c81 0 151 64 168 156z" />
    <glyph glyph-name="E" unicode="E" horiz-adv-x="540" 
d="M584 700l-32 -182h-255l-13 -76h230l-32 -180h-230l-14 -78h260l-32 -184h-460l123 700h455z" />
    <glyph glyph-name="F" unicode="F" horiz-adv-x="515" 
d="M564 700l-34 -194h-235l-16 -91h230l-34 -194h-230l-39 -221h-200l123 700h435z" />
    <glyph glyph-name="G" unicode="G" horiz-adv-x="773" 
d="M420 413h356l-14 -83c-17 -103 -62 -187 -133 -251c-71 -63 -160 -95 -267 -95c-109 0 -194 36 -255 107c-60 72 -81 162 -63 269c17 105 65 190 142 256c77 67 168 100 272 100c136 0 236 -62 293 -162l-183 -99c-27 43 -71 65 -130 65c-48 0 -90 -16 -127 -48
c-37 -31 -59 -72 -68 -122c-9 -49 0 -91 25 -127c25 -35 62 -53 110 -53c71 0 122 24 153 73h-141z" />
    <glyph glyph-name="H" unicode="H" horiz-adv-x="670" 
d="M455 452l44 248h200l-123 -700h-200l45 258h-170l-45 -258h-200l123 700h200l-44 -248h170z" />
    <glyph glyph-name="I" unicode="I" horiz-adv-x="300" 
d="M6 0l123 700h200l-123 -700h-200z" />
    <glyph glyph-name="J" unicode="J" horiz-adv-x="568" 
d="M236 -16c-119 0 -198 50 -237 149l179 95c15 -37 35 -50 70 -50c45 0 70 19 77 57l82 465h200l-83 -470c-29 -164 -125 -246 -288 -246z" />
    <glyph glyph-name="K" unicode="K" horiz-adv-x="636" 
d="M486 700h232l-277 -351l161 -349h-209l-134 301l-53 -301h-200l123 700h200l-47 -270z" />
    <glyph glyph-name="L" unicode="L" horiz-adv-x="490" 
d="M329 700l-89 -506h230l-34 -194h-430l123 700h200z" />
    <glyph glyph-name="M" unicode="M" horiz-adv-x="830" 
d="M649 700h210l-123 -700h-200l59 337l-196 -258h-18l-114 271l-61 -350h-200l123 700h200l105 -287z" />
    <glyph glyph-name="N" unicode="N" horiz-adv-x="680" 
d="M206 0h-200l123 700h160l161 -336l59 336h200l-123 -700h-160l-161 336z" />
    <glyph glyph-name="O" unicode="O" horiz-adv-x="792" 
d="M369 -16c-76 0 -141 19 -195 56c-108 76 -149 197 -129 322c16 97 62 180 137 249c76 70 169 105 280 105c115 0 209 -47 261 -118s75 -163 60 -256c-15 -97 -60 -181 -135 -252c-74 -71 -167 -106 -279 -106zM270 228c27 -32 65 -48 114 -48s93 16 131 48
c38 33 61 73 70 122s0 89 -27 121c-27 33 -65 49 -114 49s-93 -16 -131 -49c-38 -32 -61 -72 -70 -121s0 -89 27 -122z" />
    <glyph glyph-name="P" unicode="P" horiz-adv-x="595" 
d="M129 700h275c68 0 123 -24 166 -72c43 -47 59 -110 48 -189c-11 -73 -42 -132 -95 -176c-52 -43 -119 -65 -202 -65h-80l-35 -198h-200zM420 449c7 37 -19 57 -50 57h-75l-20 -114h80c31 0 60 22 65 57z" />
    <glyph glyph-name="Q" unicode="Q" horiz-adv-x="797" 
d="M462 716c115 0 209 -47 261 -118s75 -163 60 -256c-13 -85 -48 -159 -105 -222l50 -65l-143 -110l-54 70c-49 -21 -103 -31 -162 -31c-76 0 -141 19 -195 56c-108 76 -149 197 -129 322c16 97 62 180 137 249c76 70 169 105 280 105zM327 279l144 109l86 -111
c13 21 23 46 28 73c9 49 0 89 -27 121c-27 33 -65 49 -114 49s-93 -16 -131 -49c-38 -32 -61 -72 -70 -121s0 -89 27 -122c27 -32 65 -48 114 -48c9 0 15 0 19 1z" />
    <glyph glyph-name="R" unicode="R" horiz-adv-x="625" 
d="M631 445c-15 -85 -61 -148 -140 -188l90 -256h-200l-72 220h-64l-39 -220h-200l124 700h280c73 0 131 -24 175 -73c44 -48 59 -109 46 -183zM377 517h-80l-23 -130h82c39 -1 68 23 75 64s-14 66 -54 66z" />
    <glyph glyph-name="S" unicode="S" horiz-adv-x="591" 
d="M267 -16c-152 0 -245 65 -278 176l173 89c21 -53 62 -80 122 -80c47 0 73 12 78 37c3 16 -5 28 -25 37c-10 5 -19 9 -28 12c-17 7 -56 18 -73 23c-124 43 -176 120 -157 230c11 63 42 113 92 151s111 57 183 57c120 0 207 -58 251 -163l-169 -90c-17 45 -49 68 -95 68
c-35 0 -55 -12 -60 -36c-3 -15 3 -27 18 -36s45 -22 90 -37c57 -19 90 -34 129 -69c40 -35 54 -90 42 -163c-24 -136 -130 -206 -293 -206z" />
    <glyph glyph-name="T" unicode="T" horiz-adv-x="550" 
d="M89 700h530l-34 -194h-165l-89 -506h-200l89 506h-165z" />
    <glyph glyph-name="U" unicode="U" horiz-adv-x="650" 
d="M290 -16c-87 0 -154 24 -201 71s-65 107 -52 179l82 466h200l-78 -444c-9 -52 15 -78 71 -78c57 0 90 26 99 78l78 444h200l-82 -466c-14 -79 -50 -140 -108 -184c-57 -44 -127 -66 -209 -66z" />
    <glyph glyph-name="V" unicode="V" horiz-adv-x="640" 
d="M388 0h-224l-95 700h207l33 -465l197 465h223z" />
    <glyph glyph-name="W" unicode="W" horiz-adv-x="1010" 
d="M351 0h-197l-75 700h205l31 -385l181 385h158l46 -385l168 385h221l-321 -700h-197l-44 374z" />
    <glyph glyph-name="X" unicode="X" horiz-adv-x="645" 
d="M491 700h228l-268 -351l150 -349h-216l-72 168l-129 -168h-228l275 359l-147 341h216l69 -160z" />
    <glyph glyph-name="Y" unicode="Y" horiz-adv-x="654" 
d="M499 700h234l-297 -397l-53 -303h-200l53 302l-157 398h210l68 -212z" />
    <glyph glyph-name="Z" unicode="Z" horiz-adv-x="545" 
d="M114 700h480l-27 -154l-281 -352h229l-34 -194h-495l27 154l282 352h-215z" />
    <glyph glyph-name="bracketleft" unicode="[" horiz-adv-x="340" 
d="M417 800l-31 -176h-95l-97 -548h95l-31 -176h-280l159 900h280z" />
    <glyph glyph-name="backslash" unicode="\" horiz-adv-x="520" 
d="M438 -100h-78l-243 900h78z" />
    <glyph glyph-name="bracketright" unicode="]" horiz-adv-x="340" 
d="M117 800h280l-159 -900h-280l31 176h95l97 548h-95z" />
    <glyph glyph-name="asciicircum" unicode="^" horiz-adv-x="580" 
d="M305 700h128l141 -370h-194l-44 147l-96 -147h-206z" />
    <glyph glyph-name="underscore" unicode="_" horiz-adv-x="510" 
d="M412 -191h-470l31 174h470z" />
    <glyph glyph-name="grave" unicode="`" horiz-adv-x="330" 
d="M363 550h-170l-94 150h206z" />
    <glyph glyph-name="a" unicode="a" horiz-adv-x="606" 
d="M415 444l10 56h185l-88 -500h-185l8 44c-39 -39 -85 -58 -140 -58c-67 0 -117 26 -151 78c-33 52 -45 115 -35 188s38 134 85 185s106 77 175 77c64 0 109 -23 136 -70zM276 156c55 0 93 36 104 91l1 3c9 55 -17 94 -72 94s-97 -38 -106 -94c-9 -55 17 -94 73 -94z" />
    <glyph glyph-name="b" unicode="b" horiz-adv-x="606" 
d="M396 514c65 0 117 -27 154 -81c37 -53 49 -118 36 -193c-13 -76 -44 -137 -91 -184s-102 -70 -167 -70c-64 0 -110 23 -137 70l-10 -56h-185l123 700h185l-42 -239c35 35 80 53 134 53zM403 250c11 57 -19 94 -72 94c-55 0 -97 -37 -106 -94c-11 -57 19 -94 72 -94
c55 0 97 37 106 94z" />
    <glyph glyph-name="c" unicode="c" horiz-adv-x="529" 
d="M255 -14c-81 0 -144 26 -188 79s-60 118 -47 195c13 75 47 136 103 183s121 71 195 71c105 0 178 -53 217 -132l-168 -88c-11 28 -33 42 -66 42c-49 0 -89 -35 -98 -86c-9 -49 20 -86 67 -86c34 0 61 15 80 44l145 -92c-51 -85 -140 -130 -240 -130z" />
    <glyph glyph-name="d" unicode="d" horiz-adv-x="606" 
d="M415 444l45 256h185l-123 -700h-185l8 44c-39 -39 -85 -58 -140 -58c-67 0 -117 26 -151 78c-33 52 -45 115 -35 188s38 134 85 185s106 77 175 77c64 0 109 -23 136 -70zM276 156c53 0 93 35 104 88l2 10c7 53 -18 90 -73 90s-97 -38 -106 -94c-9 -55 17 -94 73 -94z
" />
    <glyph glyph-name="e" unicode="e" horiz-adv-x="553" 
d="M316 514c77 0 137 -26 178 -77c42 -51 57 -113 44 -185c-3 -21 -10 -43 -19 -65h-326c11 -33 40 -50 89 -50c38 0 69 11 92 32l107 -108c-58 -50 -130 -75 -216 -75c-90 0 -157 26 -200 79s-58 118 -45 195c12 73 46 134 101 182s120 72 195 72zM211 306h165
c-3 40 -25 60 -67 60c-45 0 -77 -20 -98 -60z" />
    <glyph glyph-name="f" unicode="f" horiz-adv-x="330" 
d="M412 716l-29 -166c-48 4 -79 -17 -86 -50h77l-31 -176h-77l-57 -324h-185l57 324h-58l31 176h58c27 149 129 225 300 216z" />
    <glyph glyph-name="g" unicode="g" horiz-adv-x="613" 
d="M422 443l10 57h185l-85 -485c-14 -78 -49 -136 -105 -174s-122 -57 -198 -57c-113 0 -202 45 -235 122l161 87c19 -33 50 -49 93 -49c49 0 90 23 99 71l7 41c-35 -33 -80 -50 -133 -50c-149 -1 -215 127 -194 255c9 68 38 127 85 177c47 51 107 76 179 76
c59 0 103 -24 131 -71zM286 170c52 0 92 34 103 85l2 8c7 52 -22 87 -74 87c-53 0 -96 -37 -105 -90s21 -90 74 -90z" />
    <glyph glyph-name="h" unicode="h" 
d="M403 514c107 0 169 -81 144 -225l-51 -289h-185l47 269c8 45 -9 67 -50 67c-43 0 -70 -24 -81 -73l-46 -263h-185l123 700h185l-44 -249c38 42 86 63 143 63z" />
    <glyph glyph-name="i" unicode="i" horiz-adv-x="265" 
d="M99 640c4 27 17 50 40 71s49 31 79 31c29 0 51 -10 68 -31c17 -20 23 -44 18 -71c-9 -56 -61 -102 -118 -102c-29 0 -52 10 -69 30c-17 21 -23 45 -18 72zM181 0h-185l88 500h185z" />
    <glyph glyph-name="j" unicode="j" horiz-adv-x="280" 
d="M233 742c29 0 51 -10 68 -31c17 -20 23 -44 18 -71c-9 -56 -61 -102 -118 -102c-29 0 -52 10 -69 30c-17 21 -23 45 -18 72c4 27 17 50 40 71s49 31 79 31zM11 0l88 500h185l-88 -500c-28 -165 -116 -225 -288 -216l29 166c43 -4 67 13 74 50z" />
    <glyph glyph-name="k" unicode="k" horiz-adv-x="550" 
d="M371 500h212l-197 -252l120 -248h-197l-91 208l-37 -208h-185l123 700h185l-67 -383z" />
    <glyph glyph-name="l" unicode="l" horiz-adv-x="266" 
d="M182 0h-185l57 324l71 406h185l-72 -409z" />
    <glyph glyph-name="m" unicode="m" horiz-adv-x="850" 
d="M669 514c55 0 98 -18 127 -55c30 -37 39 -88 28 -155l-53 -304h-185l49 279c7 38 -7 57 -41 57c-37 0 -60 -21 -71 -64l-47 -272h-185l49 279c7 38 -7 57 -41 57c-37 0 -61 -23 -71 -68l-47 -268h-185l88 500h185l-8 -46c40 40 86 60 139 60c56 0 95 -22 117 -66
c43 44 93 66 152 66z" />
    <glyph glyph-name="n" unicode="n" 
d="M403 514c107 0 169 -81 144 -225l-51 -289h-185l47 269c8 45 -9 67 -50 67c-43 0 -69 -24 -80 -72l-47 -264h-185l88 500h185l-9 -49c39 42 86 63 143 63z" />
    <glyph glyph-name="o" unicode="o" horiz-adv-x="574" 
d="M20 262c12 69 45 129 99 178s122 74 205 74c80 0 141 -28 184 -85c43 -56 59 -120 46 -191c-13 -69 -46 -129 -100 -178c-53 -49 -121 -74 -203 -74s-144 28 -187 84c-42 56 -57 120 -44 192zM211 186c13 -16 32 -24 57 -24s46 8 64 24c19 17 30 38 35 64s1 47 -12 63
c-25 33 -84 33 -121 0c-19 -16 -30 -37 -35 -63s-1 -47 12 -64z" />
    <glyph glyph-name="p" unicode="p" horiz-adv-x="606" 
d="M396 514c65 0 117 -27 154 -81c37 -53 49 -118 36 -193c-13 -76 -44 -137 -91 -184s-102 -70 -167 -70c-64 0 -110 23 -137 70l-45 -256h-185l123 700h185l-7 -39c35 35 80 53 134 53zM403 250c11 57 -19 94 -72 94s-94 -35 -105 -90l-2 -8c-8 -55 20 -90 73 -90
c55 0 97 37 106 94z" />
    <glyph glyph-name="q" unicode="q" horiz-adv-x="606" 
d="M415 444l10 56h185l-123 -700h-185l43 244c-39 -39 -85 -58 -140 -58c-67 0 -117 26 -151 78c-33 52 -45 115 -35 188s38 134 85 185s106 77 175 77c64 0 109 -23 136 -70zM276 156c55 0 96 38 105 94c9 55 -17 94 -72 94s-97 -38 -106 -94c-9 -55 17 -94 73 -94z" />
    <glyph glyph-name="r" unicode="r" horiz-adv-x="390" 
d="M269 500l-17 -97c29 68 92 107 169 107l-35 -200c-39 5 -76 -2 -109 -22s-54 -54 -63 -102l1 8l-34 -194h-185l88 500h185z" />
    <glyph glyph-name="s" unicode="s" horiz-adv-x="479" 
d="M215 -14c-117 0 -193 34 -230 123l157 75c15 -38 41 -57 78 -57c24 0 37 7 40 21c4 19 -33 31 -80 44c-67 18 -152 59 -132 170c6 35 21 64 45 88c49 48 109 64 176 64c96 0 172 -39 205 -116l-148 -69c-12 31 -32 47 -59 49c-20 1 -32 -6 -35 -22
c-13 -66 250 -14 212 -222c-9 -52 -36 -90 -79 -113s-93 -35 -150 -35z" />
    <glyph glyph-name="t" unicode="t" horiz-adv-x="400" 
d="M383 324h-105l-19 -108c-8 -49 13 -54 96 -50l-29 -166c-200 -31 -283 37 -254 206l21 118h-70l31 176h70l15 85l194 55l-24 -140h105z" />
    <glyph glyph-name="u" unicode="u" 
d="M347 236l47 264h185l-88 -500h-185l9 49c-39 -42 -86 -63 -143 -63c-107 0 -169 81 -144 225l51 289h185l-47 -269c-8 -45 9 -67 50 -67c43 0 69 24 80 72z" />
    <glyph glyph-name="v" unicode="v" horiz-adv-x="560" 
d="M270 242l131 258h203l-273 -500h-190l-97 500h187z" />
    <glyph glyph-name="w" unicode="w" horiz-adv-x="801" 
d="M539 235l105 265h200l-233 -500h-188l-21 234l-98 -234h-193l-57 500h185l15 -277l115 277h145z" />
    <glyph glyph-name="x" unicode="x" horiz-adv-x="570" 
d="M397 500h209l-221 -250l141 -250h-192l-66 117l-103 -117h-209l231 261l-135 239h192l60 -106z" />
    <glyph glyph-name="y" unicode="y" horiz-adv-x="570" 
d="M288 234l108 266h218l-251 -485c-83 -161 -204 -232 -363 -215l31 175c69 0 100 10 124 45l-111 480h202z" />
    <glyph glyph-name="z" unicode="z" horiz-adv-x="455" 
d="M74 500h400l-23 -130l-193 -200h168l-30 -170h-420l23 130l193 200h-148z" />
    <glyph glyph-name="braceleft" unicode="{" horiz-adv-x="366" 
d="M311 59l-29 -166c-159 -9 -228 71 -205 196l22 125c7 37 -15 54 -66 50l30 175c52 -4 76 5 84 50l22 125c25 141 117 206 275 196l-29 -166c-36 7 -56 -3 -61 -30l-22 -125c-13 -77 -46 -114 -107 -137c51 -23 71 -69 59 -138l-22 -125c-4 -24 10 -35 49 -30z" />
    <glyph glyph-name="bar" unicode="|" horiz-adv-x="285" 
d="M156 -200h-185l162 920h185z" />
    <glyph glyph-name="braceright" unicode="}" horiz-adv-x="366" 
d="M90 643l29 166c159 9 228 -71 205 -196l-22 -125c-7 -37 15 -54 66 -50l-30 -175c-52 4 -76 -5 -84 -50l-22 -125c-25 -141 -117 -206 -275 -196l29 166c36 -7 56 3 61 30l22 125c13 77 46 114 107 137c-51 23 -71 69 -59 138l22 125c4 24 -10 35 -49 30z" />
    <glyph glyph-name="asciitilde" unicode="~" horiz-adv-x="612" 
d="M170 225l-133 65c25 79 66 133 122 163c57 31 114 30 173 -1c83 -43 117 -38 145 19l133 -65c-26 -79 -67 -133 -124 -164c-56 -30 -113 -29 -171 2c-84 43 -118 38 -145 -19z" />
    <glyph glyph-name="exclamdown" unicode="&#xa1;" horiz-adv-x="310" 
d="M201 515c64 0 105 -53 94 -117c-5 -32 -21 -59 -47 -81c-25 -21 -54 -32 -87 -32c-64 0 -105 53 -94 117c11 65 65 113 134 113zM73 240h160l-7 -240l-35 -200h-230l35 200z" />
    <glyph glyph-name="cent" unicode="&#xa2;" horiz-adv-x="528" 
d="M367 418l-76 -154c32 1 57 16 76 44l145 -92c-51 -85 -140 -130 -240 -130c-25 0 -47 2 -66 7l-46 -93h-67l56 114c-87 44 -129 138 -112 246c13 75 47 136 103 183s121 71 195 71c21 0 41 -2 59 -6l46 92h67l-56 -113c44 -23 78 -58 101 -105l-168 -88
c-5 10 -10 18 -17 24zM220 350c-5 -27 0 -48 15 -64l74 150c-45 -5 -81 -39 -89 -86z" />
    <glyph glyph-name="sterling" unicode="&#xa3;" horiz-adv-x="570" 
d="M465 275h-183l-15 -81h293l-34 -194h-550l34 194h57l15 81h-47l25 140h46l14 77c31 160 143 227 259 224c112 0 191 -55 236 -164l-181 -89c-15 43 -37 65 -66 65c-27 0 -44 -16 -50 -47l-12 -66h184z" />
    <glyph glyph-name="currency" unicode="&#xa4;" horiz-adv-x="526" 
d="M512 592l41 -50l-79 -67c24 -39 32 -83 23 -131c-9 -49 -30 -90 -63 -125l55 -66l-51 -42l-55 67c-41 -25 -86 -38 -133 -38s-87 13 -119 39l-84 -72l-40 50l81 68c-24 40 -32 84 -23 131c9 48 30 89 62 124l-55 67l51 43l56 -68c41 25 86 38 133 38c46 0 85 -13 118 -38
zM324 350c16 55 -84 55 -86 0c-18 -55 82 -55 86 0z" />
    <glyph glyph-name="yen" unicode="&#xa5;" horiz-adv-x="654" 
d="M499 700h234l-241 -323h107l-17 -100h-150l-8 -42h150l-17 -100h-150l-24 -135h-200l24 135h-150l17 100h150l8 42h-150l17 100h108l-128 323h210l68 -212z" />
    <glyph glyph-name="brokenbar" unicode="&#xa6;" horiz-adv-x="285" 
d="M253 350h-185l65 370h185zM156 -200h-185l65 370h185z" />
    <glyph glyph-name="section" unicode="&#xa7;" horiz-adv-x="541" 
d="M349 498l76 -31c83 -39 116 -102 101 -187c-9 -49 -33 -87 -74 -114c17 -29 21 -66 14 -111c-20 -112 -120 -167 -249 -167c-115 0 -188 42 -219 127l152 75c20 -40 44 -54 83 -54c29 0 46 10 49 29c1 12 -5 22 -22 30c-9 5 -17 9 -26 12c-16 7 -49 19 -69 27
c-97 42 -137 107 -121 196c9 50 35 89 78 117c-13 29 -16 63 -9 102c10 55 37 97 80 125c44 28 94 42 149 42c104 0 175 -44 212 -132l-154 -65c-16 38 -37 57 -63 57c-20 0 -36 -11 -39 -27c-3 -15 4 -26 23 -37zM274 275l8 -3l42 -17c11 7 18 17 21 30c2 12 -2 20 -12 26
c-5 6 -23 12 -35 18l-56 24c-9 -7 -15 -17 -17 -28c-4 -24 12 -34 49 -50z" />
    <glyph glyph-name="dieresis" unicode="&#xa8;" horiz-adv-x="391" 
d="M218 555c-39 -33 -92 -33 -120 0c-27 33 -18 87 21 120c40 33 93 33 120 0c28 -33 19 -87 -21 -120zM418 555c-39 -33 -92 -33 -120 0c-27 33 -18 87 21 120c40 33 93 33 120 0c28 -33 19 -87 -21 -120z" />
    <glyph glyph-name="copyright" unicode="&#xa9;" horiz-adv-x="774" 
d="M361 -12c-195 -5 -358 177 -317 372c17 101 64 184 141 251s165 101 264 101c101 0 183 -37 246 -112c64 -74 87 -161 70 -260c-18 -101 -65 -185 -141 -252s-164 -100 -263 -100zM150 131c53 -65 123 -97 209 -97s163 29 231 87c68 59 110 132 125 219s-4 163 -57 228
s-122 98 -208 98s-163 -29 -231 -88c-68 -58 -110 -131 -125 -218s3 -164 56 -229zM383 153c-64 0 -111 21 -142 62c-30 41 -40 90 -31 145c9 51 32 95 70 132c39 37 88 55 148 55c67 0 125 -39 158 -102l-134 -69c-7 16 -20 24 -39 24c-31 0 -55 -23 -59 -50
c-5 -27 12 -50 41 -50c19 0 35 8 48 24l119 -75c-43 -61 -111 -96 -179 -96z" />
    <glyph glyph-name="guillemotleft" unicode="&#xab;" horiz-adv-x="577" 
d="M205 509h157l-150 -206l78 -194h-150l-80 200zM415 509h158l-155 -213l76 -187h-149l-79 195z" />
    <glyph glyph-name="logicalnot" unicode="&#xac;" horiz-adv-x="580" 
d="M64 440h520l-53 -300h-190l21 120h-330z" />
    <glyph glyph-name="registered" unicode="&#xae;" horiz-adv-x="774" 
d="M449 712c101 0 183 -37 246 -112c64 -74 87 -161 70 -260c-18 -101 -65 -185 -141 -252s-164 -100 -263 -100c-195 -5 -358 177 -317 372c17 101 64 184 141 251s165 101 264 101zM590 121c68 59 110 132 125 219s-4 163 -57 228s-122 98 -208 98s-163 -29 -231 -88
c-68 -58 -110 -131 -125 -218s3 -164 56 -229s123 -97 209 -97s163 29 231 87zM283 535h194c37 0 68 -14 91 -43s32 -62 25 -100c-9 -49 -31 -85 -68 -108l47 -119h-146l-32 92h-18l-16 -92h-142zM426 415h-22l-9 -48h22c19 0 30 8 33 24s-5 24 -24 24z" />
    <glyph glyph-name="overscore" unicode="&#xaf;" horiz-adv-x="360" 
d="M393 549h-320l24 140h320z" />
    <glyph glyph-name="degree" unicode="&#xb0;" horiz-adv-x="426" 
d="M253 450c-52 0 -93 18 -123 55s-41 80 -32 130c9 51 33 92 72 125s84 50 137 50s94 -18 124 -55c30 -36 40 -79 31 -130c-9 -50 -32 -92 -71 -125s-85 -50 -138 -50zM273 590c24 0 42 16 46 40c6 35 -33 55 -62 28c-28 -24 -19 -68 16 -68z" />
    <glyph glyph-name="plusminus" unicode="&#xb1;" horiz-adv-x="560" 
d="M444 670l-23 -130h160l-32 -180h-159l-23 -130h-180l23 130h-161l32 180h160l23 130h180zM486 0h-500l32 180h500z" />
    <glyph glyph-name="acute" unicode="&#xb4;" horiz-adv-x="330" 
d="M73 550l101 150h215l-137 -150h-179z" />
    <glyph glyph-name="uni00B5" unicode="&#xb5;" horiz-adv-x="595" 
d="M584 500l-54 -310c-3 -20 5 -30 24 -30h15l-28 -160h-80c-49 0 -84 16 -107 48c-38 -41 -85 -62 -142 -62c-11 0 -22 1 -33 3l-33 -189h-185l123 700h185l-48 -273c-5 -42 12 -63 51 -63c41 0 67 22 79 67l48 269h185z" />
    <glyph glyph-name="paragraph" unicode="&#xb6;" horiz-adv-x="760" 
d="M329 700h489l-33 -194h-72l-124 -706h-180l124 706h-58l-124 -706h-180l77 440c-63 1 -113 25 -150 73c-36 48 -48 104 -37 167s42 116 93 157c52 42 110 63 175 63z" />
    <glyph glyph-name="middot" unicode="&#xb7;" horiz-adv-x="300" 
d="M149 240c-64 0 -106 53 -95 117c5 32 21 59 47 80c26 22 55 33 88 33c64 0 105 -53 94 -117c-11 -65 -65 -113 -134 -113z" />
    <glyph glyph-name="cedilla" unicode="&#xb8;" horiz-adv-x="285" 
d="M168 0l-8 -46c32 -19 44 -48 37 -87c-13 -75 -92 -105 -261 -93l20 114c62 -5 95 0 98 14c2 12 -15 19 -50 20l14 78h150z" />
    <glyph glyph-name="guillemotright" unicode="&#xbb;" horiz-adv-x="578" 
d="M104 509h149l79 -195l-149 -205h-158l155 213zM308 509h150l80 -200l-145 -200h-157l150 206z" />
    <glyph glyph-name="onequarter" unicode="&#xbc;" horiz-adv-x="825" 
d="M55 0l528 700h135l-528 -700h-135zM120 300l43 240l-80 -18l-12 130l141 48h121l-71 -400h-142zM768 171h33l-21 -120h-33l-9 -51h-128l9 51h-190l21 120l148 229h149l-142 -229h35l12 66h128z" />
    <glyph glyph-name="onehalf" unicode="&#xbd;" horiz-adv-x="810" 
d="M55 0l528 700h135l-528 -700h-135zM120 300l43 240l-80 -18l-12 130l141 48h121l-71 -400h-142zM794 279c-8 -47 -32 -81 -87 -122l-42 -32h102l-22 -125h-306l18 102l163 131c21 17 33 31 35 41c2 12 -4 18 -17 18c-15 0 -31 -14 -47 -42l-105 67c43 65 103 97 180 97
c38 0 70 -13 97 -39c27 -25 38 -57 31 -96z" />
    <glyph glyph-name="threequarters" unicode="&#xbe;" horiz-adv-x="869" 
d="M360 419c-15 -89 -76 -133 -181 -133c-84 0 -136 33 -155 98l117 61c7 -24 24 -36 51 -36c19 0 30 6 32 19s-4 20 -18 20h-34l-36 75l57 54h-114l22 123h292l-16 -89l-78 -74c51 -22 71 -61 61 -118zM99 0l528 700h135l-528 -700h-135zM812 171h33l-21 -120h-33l-9 -51
h-128l9 51h-190l21 120l148 229h149l-142 -229h35l12 66h128z" />
    <glyph glyph-name="questiondown" unicode="&#xbf;" horiz-adv-x="534" 
d="M325 515c64 0 106 -53 95 -117c-5 -32 -21 -59 -47 -81c-26 -21 -55 -32 -88 -32c-64 0 -105 53 -94 117c11 65 65 113 134 113zM188 240h180c-8 -55 -38 -99 -70 -126c-45 -37 -102 -66 -108 -102c-4 -21 10 -36 34 -36c33 0 62 26 89 77l159 -100
c-59 -113 -165 -169 -284 -169c-67 0 -120 20 -160 61c-39 40 -54 90 -43 150c11 56 43 104 79 132c54 42 118 75 124 113z" />
    <glyph glyph-name="Agrave" unicode="&#xc0;" horiz-adv-x="660" 
d="M450 900l58 -150h-170l-94 150h206zM626 0h-209l-8 90h-202l-40 -90h-221l346 700h234zM374 465l-96 -215h116z" />
    <glyph glyph-name="Aacute" unicode="&#xc1;" horiz-adv-x="660" 
d="M429 900h215l-137 -150h-179zM-54 0l346 700h234l100 -700h-209l-8 90h-202l-40 -90h-221zM374 465l-96 -215h116z" />
    <glyph glyph-name="Acircumflex" unicode="&#xc2;" horiz-adv-x="660" 
d="M459 740l-36 57l-54 -57h-158l134 160h188l78 -160h-152zM626 0h-209l-8 90h-202l-40 -90h-221l346 700h234zM374 465l-96 -215h116z" />
    <glyph glyph-name="Atilde" unicode="&#xc3;" horiz-adv-x="660" 
d="M424 757c-13 6 -28 17 -38 16c-11 3 -20 -6 -24 -30h-124c20 167 127 186 201 153c27 -14 55 -36 63 14h124c-21 -172 -127 -184 -202 -153zM-54 0l346 700h234l100 -700h-209l-8 90h-202l-40 -90h-221zM374 465l-96 -215h116z" />
    <glyph glyph-name="Adieresis" unicode="&#xc4;" horiz-adv-x="660" 
d="M378 755c-39 -33 -92 -33 -120 0c-27 33 -18 87 21 120c40 33 93 33 120 0c28 -33 19 -87 -21 -120zM578 755c-39 -33 -92 -33 -120 0c-27 33 -18 87 21 120c40 33 93 33 120 0c28 -33 19 -87 -21 -120zM626 0h-209l-8 90h-202l-40 -90h-221l346 700h234zM374 465
l-96 -215h116z" />
    <glyph glyph-name="Aring" unicode="&#xc5;" horiz-adv-x="660" 
d="M626 0h-209l-8 90h-202l-40 -90h-221l341 690c-12 25 -16 52 -11 83c15 81 83 137 172 137c43 0 77 -14 100 -41c24 -27 32 -61 25 -102c-6 -35 -21 -64 -44 -87zM393 770c-3 -17 6 -30 26 -30c21 0 34 10 37 30s-6 30 -27 30s-33 -10 -36 -30zM374 465l-96 -215h116z
" />
    <glyph glyph-name="AE" unicode="&#xc6;" horiz-adv-x="890" 
d="M934 700l-32 -184h-220l-13 -74h195l-32 -180h-195l-14 -78h225l-32 -184h-420l16 90h-177l-64 -90h-225l512 700h476zM469 418l-119 -168h90z" />
    <glyph glyph-name="Ccedilla" unicode="&#xc7;" horiz-adv-x="721" 
d="M375 180c55 0 103 26 143 78l166 -105c-64 -93 -151 -148 -262 -164l-6 -35c32 -19 44 -48 37 -87c-13 -75 -92 -105 -261 -93l20 114c62 -5 95 0 98 14c2 12 -15 19 -50 20l13 71c-83 19 -146 62 -188 129s-56 146 -41 238c17 104 64 189 141 256c78 67 168 100 271 100
c137 0 236 -57 295 -172l-183 -97c-27 49 -71 73 -130 73c-48 0 -90 -16 -127 -48s-59 -73 -68 -122c-8 -47 0 -88 24 -121s60 -49 108 -49z" />
    <glyph glyph-name="Egrave" unicode="&#xc8;" horiz-adv-x="540" 
d="M398 900l58 -150h-170l-94 150h206zM584 700l-32 -182h-255l-13 -76h230l-32 -180h-230l-14 -78h260l-32 -184h-460l123 700h455z" />
    <glyph glyph-name="Eacute" unicode="&#xc9;" horiz-adv-x="540" 
d="M377 900h215l-137 -150h-179zM129 700h455l-32 -182h-255l-13 -76h230l-32 -180h-230l-14 -78h260l-32 -184h-460z" />
    <glyph glyph-name="Ecircumflex" unicode="&#xca;" horiz-adv-x="540" 
d="M407 740l-36 57l-54 -57h-158l134 160h188l78 -160h-152zM584 700l-32 -182h-255l-13 -76h230l-32 -180h-230l-14 -78h260l-32 -184h-460l123 700h455z" />
    <glyph glyph-name="Edieresis" unicode="&#xcb;" horiz-adv-x="540" 
d="M326 755c-39 -33 -92 -33 -120 0c-27 33 -18 87 21 120c40 33 93 33 120 0c28 -33 19 -87 -21 -120zM526 755c-39 -33 -92 -33 -120 0c-27 33 -18 87 21 120c40 33 93 33 120 0c28 -33 19 -87 -21 -120zM584 700l-32 -182h-255l-13 -76h230l-32 -180h-230l-14 -78h260
l-32 -184h-460l123 700h455z" />
    <glyph glyph-name="Igrave" unicode="&#xcc;" horiz-adv-x="300" 
d="M328 750h-170l-94 150h206zM129 700l-123 -700h200l123 700h-200z" />
    <glyph glyph-name="Iacute" unicode="&#xcd;" horiz-adv-x="300" 
d="M148 750l101 150h215l-137 -150h-179zM129 700l-123 -700h200l123 700h-200z" />
    <glyph glyph-name="Icircumflex" unicode="&#xce;" horiz-adv-x="300" 
d="M279 740l-36 57l-54 -57h-158l134 160h188l78 -160h-152zM206 0h-200l123 700h200z" />
    <glyph glyph-name="Idieresis" unicode="&#xcf;" horiz-adv-x="300" 
d="M198 755c-39 -33 -92 -33 -120 0c-27 33 -18 87 21 120c40 33 93 33 120 0c28 -33 19 -87 -21 -120zM398 755c-39 -33 -92 -33 -120 0c-27 33 -18 87 21 120c40 33 93 33 120 0c28 -33 19 -87 -21 -120zM6 0l123 700h200l-123 -700h-200z" />
    <glyph glyph-name="Eth" unicode="&#xd0;" horiz-adv-x="722" 
d="M146 700h290c92 0 165 -35 220 -106s74 -155 57 -254c-18 -101 -63 -183 -135 -246s-160 -94 -265 -94h-290l45 258h-67l31 174h67zM515 350c16 92 -32 156 -113 156h-80l-13 -74h123l-31 -174h-123l-11 -64h80c81 0 151 64 168 156z" />
    <glyph glyph-name="Ntilde" unicode="&#xd1;" horiz-adv-x="680" 
d="M372 743h-124c20 167 127 186 201 153c27 -14 55 -36 63 14h124c-21 -172 -127 -184 -202 -153c-13 6 -28 17 -38 16c-11 3 -20 -6 -24 -30zM206 0h-200l123 700h160l161 -336l59 336h200l-123 -700h-160l-161 336z" />
    <glyph glyph-name="Ograve" unicode="&#xd2;" horiz-adv-x="792" 
d="M576 760h-170l-94 150h206zM369 -16c112 0 205 35 279 106c75 71 120 155 135 252c15 93 -8 185 -60 256s-146 118 -261 118c-111 0 -204 -35 -280 -105c-75 -69 -121 -152 -137 -249c-20 -125 21 -246 129 -322c54 -37 119 -56 195 -56zM270 228c-27 33 -36 73 -27 122
s32 89 70 121c38 33 82 49 131 49s87 -16 114 -49c27 -32 36 -72 27 -121s-32 -89 -70 -122c-38 -32 -82 -48 -131 -48s-87 16 -114 48z" />
    <glyph glyph-name="Oacute" unicode="&#xd3;" horiz-adv-x="792" 
d="M396 760l101 150h215l-137 -150h-179zM369 -16c112 0 205 35 279 106c75 71 120 155 135 252c15 93 -8 185 -60 256s-146 118 -261 118c-111 0 -204 -35 -280 -105c-75 -69 -121 -152 -137 -249c-20 -125 21 -246 129 -322c54 -37 119 -56 195 -56zM270 228
c-27 33 -36 73 -27 122s32 89 70 121c38 33 82 49 131 49s87 -16 114 -49c27 -32 36 -72 27 -121s-32 -89 -70 -122c-38 -32 -82 -48 -131 -48s-87 16 -114 48z" />
    <glyph glyph-name="Ocircumflex" unicode="&#xd4;" horiz-adv-x="792" 
d="M527 750l-36 57l-54 -57h-158l134 160h188l78 -160h-152zM462 716c115 0 209 -47 261 -118s75 -163 60 -256c-15 -97 -60 -181 -135 -252c-74 -71 -167 -106 -279 -106c-76 0 -141 19 -195 56c-108 76 -149 197 -129 322c16 97 62 180 137 249c76 70 169 105 280 105z
M515 228c38 33 61 73 70 122s0 89 -27 121c-27 33 -65 49 -114 49s-93 -16 -131 -49c-38 -32 -61 -72 -70 -121s0 -89 27 -122c27 -32 65 -48 114 -48s93 16 131 48z" />
    <glyph glyph-name="Otilde" unicode="&#xd5;" horiz-adv-x="792" 
d="M430 753h-124c20 167 127 186 201 153c27 -14 55 -36 63 14h124c-21 -172 -127 -184 -202 -153c-13 6 -28 17 -38 16c-11 3 -20 -6 -24 -30zM369 -16c-76 0 -141 19 -195 56c-108 76 -149 197 -129 322c16 97 62 180 137 249c76 70 169 105 280 105
c115 0 209 -47 261 -118s75 -163 60 -256c-15 -97 -60 -181 -135 -252c-74 -71 -167 -106 -279 -106zM270 228c27 -32 65 -48 114 -48s93 16 131 48c38 33 61 73 70 122s0 89 -27 121c-27 33 -65 49 -114 49s-93 -16 -131 -49c-38 -32 -61 -72 -70 -121s0 -89 27 -122z" />
    <glyph glyph-name="Odieresis" unicode="&#xd6;" horiz-adv-x="792" 
d="M446 765c-39 -33 -92 -33 -120 0c-27 33 -18 87 21 120c40 33 93 33 120 0c28 -33 19 -87 -21 -120zM646 765c-39 -33 -92 -33 -120 0c-27 33 -18 87 21 120c40 33 93 33 120 0c28 -33 19 -87 -21 -120zM369 -16c-76 0 -141 19 -195 56c-108 76 -149 197 -129 322
c16 97 62 180 137 249c76 70 169 105 280 105c115 0 209 -47 261 -118s75 -163 60 -256c-15 -97 -60 -181 -135 -252c-74 -71 -167 -106 -279 -106zM270 228c27 -32 65 -48 114 -48s93 16 131 48c38 33 61 73 70 122s0 89 -27 121c-27 33 -65 49 -114 49s-93 -16 -131 -49
c-38 -32 -61 -72 -70 -121s0 -89 27 -122z" />
    <glyph glyph-name="multiply" unicode="&#xd7;" horiz-adv-x="553" 
d="M449 597l113 -128l-141 -122l99 -116l-142 -128l-101 120l-138 -120l-112 128l140 122l-98 116l141 128l101 -119z" />
    <glyph glyph-name="Oslash" unicode="&#xd8;" horiz-adv-x="797" 
d="M785 670l-64 -64c61 -74 83 -162 67 -264c-15 -97 -60 -181 -135 -252c-74 -71 -167 -106 -279 -106c-81 0 -150 22 -207 65l-65 -65l-73 46l79 79c-55 73 -74 158 -58 253c16 97 62 180 137 249c76 70 169 105 280 105c74 0 138 -18 192 -54l53 54zM248 350
c-6 -35 -3 -65 9 -91l250 251c-16 7 -35 10 -58 10c-49 0 -93 -16 -131 -49c-38 -32 -61 -72 -70 -121zM590 350c7 41 2 77 -17 107l-259 -260c21 -11 46 -17 75 -17c49 0 93 16 131 48c38 33 61 73 70 122z" />
    <glyph glyph-name="Ugrave" unicode="&#xd9;" horiz-adv-x="650" 
d="M503 750h-170l-94 150h206zM290 -16c82 0 152 22 209 66c58 44 94 105 108 184l82 466h-200l-78 -444c-9 -52 -42 -78 -99 -78c-56 0 -80 26 -71 78l78 444h-200l-82 -466c-13 -72 5 -132 52 -179s114 -71 201 -71z" />
    <glyph glyph-name="Uacute" unicode="&#xda;" horiz-adv-x="650" 
d="M323 750l101 150h215l-137 -150h-179zM290 -16c82 0 152 22 209 66c58 44 94 105 108 184l82 466h-200l-78 -444c-9 -52 -42 -78 -99 -78c-56 0 -80 26 -71 78l78 444h-200l-82 -466c-13 -72 5 -132 52 -179s114 -71 201 -71z" />
    <glyph glyph-name="Ucircumflex" unicode="&#xdb;" horiz-adv-x="650" 
d="M454 740l-36 57l-54 -57h-158l134 160h188l78 -160h-152zM411 256l78 444h200l-82 -466c-14 -79 -50 -140 -108 -184c-57 -44 -127 -66 -209 -66c-87 0 -154 24 -201 71s-65 107 -52 179l82 466h200l-78 -444c-9 -52 15 -78 71 -78c57 0 90 26 99 78z" />
    <glyph glyph-name="Udieresis" unicode="&#xdc;" horiz-adv-x="650" 
d="M373 755c-39 -33 -92 -33 -120 0c-27 33 -18 87 21 120c40 33 93 33 120 0c28 -33 19 -87 -21 -120zM573 755c-39 -33 -92 -33 -120 0c-27 33 -18 87 21 120c40 33 93 33 120 0c28 -33 19 -87 -21 -120zM290 -16c-87 0 -154 24 -201 71s-65 107 -52 179l82 466h200
l-78 -444c-9 -52 15 -78 71 -78c57 0 90 26 99 78l78 444h200l-82 -466c-14 -79 -50 -140 -108 -184c-57 -44 -127 -66 -209 -66z" />
    <glyph glyph-name="Yacute" unicode="&#xdd;" horiz-adv-x="654" 
d="M426 900h215l-137 -150h-179zM499 700h234l-297 -397l-53 -303h-200l53 302l-157 398h210l68 -212z" />
    <glyph glyph-name="Thorn" unicode="&#xde;" horiz-adv-x="595" 
d="M312 602h75c68 0 123 -24 166 -72c43 -47 59 -110 48 -189c-11 -73 -42 -132 -95 -176c-52 -43 -119 -65 -202 -65h-80l-18 -99h-200l124 700h200zM403 351c7 37 -19 57 -50 57h-75l-20 -114h80c31 0 60 22 65 57z" />
    <glyph glyph-name="germandbls" unicode="&#xdf;" horiz-adv-x="561" 
d="M226 -3l29 166c65 -9 100 4 105 38c4 21 -4 54 -25 99c-20 45 -29 76 -26 92c2 13 11 31 26 55c15 25 25 46 28 63c6 31 -6 46 -35 46c-33 0 -52 -18 -59 -54l-88 -502h-185l88 500c25 144 115 216 268 216c66 0 119 -19 160 -56s57 -79 49 -125c-5 -27 -16 -53 -35 -80
c-19 -26 -29 -45 -32 -58c-15 -54 66 -137 44 -247c-24 -133 -128 -184 -312 -153z" />
    <glyph glyph-name="agrave" unicode="&#xe0;" horiz-adv-x="606" 
d="M381 700l58 -150h-170l-94 150h206zM415 444l10 56h185l-88 -500h-185l8 44c-39 -39 -85 -58 -140 -58c-67 0 -117 26 -151 78c-33 52 -45 115 -35 188s38 134 85 185s106 77 175 77c64 0 109 -23 136 -70zM276 156c55 0 93 36 104 91l1 3c9 55 -17 94 -72 94
s-97 -38 -106 -94c-9 -55 17 -94 73 -94z" />
    <glyph glyph-name="aacute" unicode="&#xe1;" horiz-adv-x="606" 
d="M360 700h215l-137 -150h-179zM415 444l10 56h185l-88 -500h-185l8 44c-39 -39 -85 -58 -140 -58c-67 0 -117 26 -151 78c-33 52 -45 115 -35 188s38 134 85 185s106 77 175 77c64 0 109 -23 136 -70zM276 156c55 0 93 36 104 91l1 3c9 55 -17 94 -72 94s-97 -38 -106 -94
c-9 -55 17 -94 73 -94z" />
    <glyph glyph-name="acircumflex" unicode="&#xe2;" horiz-adv-x="606" 
d="M390 540l-36 57l-54 -57h-158l134 160h188l78 -160h-152zM415 444l10 56h185l-88 -500h-185l8 44c-39 -39 -85 -58 -140 -58c-67 0 -117 26 -151 78c-33 52 -45 115 -35 188s38 134 85 185s106 77 175 77c64 0 109 -23 136 -70zM276 156c55 0 93 36 104 91l1 3
c9 55 -17 94 -72 94s-97 -38 -106 -94c-9 -55 17 -94 73 -94z" />
    <glyph glyph-name="atilde" unicode="&#xe3;" horiz-adv-x="606" 
d="M355 557c-13 6 -28 17 -38 16c-11 3 -20 -6 -24 -30h-124c20 167 127 186 201 153c27 -14 55 -36 63 14h124c-21 -172 -127 -184 -202 -153zM415 444l10 56h185l-88 -500h-185l8 44c-39 -39 -85 -58 -140 -58c-67 0 -117 26 -151 78c-33 52 -45 115 -35 188
s38 134 85 185s106 77 175 77c64 0 109 -23 136 -70zM276 156c55 0 93 36 104 91l1 3c9 55 -17 94 -72 94s-97 -38 -106 -94c-9 -55 17 -94 73 -94z" />
    <glyph glyph-name="adieresis" unicode="&#xe4;" horiz-adv-x="606" 
d="M309 555c-39 -33 -92 -33 -120 0c-27 33 -18 87 21 120c40 33 93 33 120 0c28 -33 19 -87 -21 -120zM509 555c-39 -33 -92 -33 -120 0c-27 33 -18 87 21 120c40 33 93 33 120 0c28 -33 19 -87 -21 -120zM415 444l10 56h185l-88 -500h-185l8 44c-39 -39 -85 -58 -140 -58
c-67 0 -117 26 -151 78c-33 52 -45 115 -35 188s38 134 85 185s106 77 175 77c64 0 109 -23 136 -70zM276 156c55 0 93 36 104 91l1 3c9 55 -17 94 -72 94s-97 -38 -106 -94c-9 -55 17 -94 73 -94z" />
    <glyph glyph-name="aring" unicode="&#xe5;" horiz-adv-x="606" 
d="M346 530c-43 0 -77 14 -100 41s-31 61 -24 102c15 81 83 137 172 137c43 0 77 -14 100 -41c24 -27 32 -61 25 -102c-15 -81 -81 -137 -173 -137zM339 670c-3 -17 6 -30 26 -30c21 0 34 10 37 30s-6 30 -27 30s-33 -10 -36 -30zM415 444l10 56h185l-88 -500h-185l8 44
c-39 -39 -85 -58 -140 -58c-67 0 -117 26 -151 78c-33 52 -45 115 -35 188s38 134 85 185s106 77 175 77c64 0 109 -23 136 -70zM276 156c55 0 93 36 104 91l1 3c9 55 -17 94 -72 94s-97 -38 -106 -94c-9 -55 17 -94 73 -94z" />
    <glyph glyph-name="ae" unicode="&#xe6;" horiz-adv-x="916" 
d="M719 514c67 0 118 -26 151 -77s44 -112 31 -185c-3 -21 -10 -43 -19 -65h-326c11 -33 40 -50 89 -50c38 0 69 11 92 32l107 -108c-58 -50 -117 -75 -176 -75c-70 0 -123 20 -158 61l-8 -47h-165l6 36c-37 -33 -81 -50 -132 -50c-147 -1 -215 134 -192 268
c10 71 40 132 89 183s111 77 186 77c54 0 95 -18 124 -54l7 40h165l-6 -37c39 34 84 51 135 51zM574 306h165c-3 40 -25 60 -67 60c-45 0 -77 -20 -98 -60zM381 249v1c9 53 -20 90 -73 90s-96 -37 -105 -90s20 -90 73 -90s94 36 105 89z" />
    <glyph glyph-name="ccedilla" unicode="&#xe7;" horiz-adv-x="529" 
d="M270 164c34 0 61 15 80 44l145 -92c-39 -67 -98 -108 -176 -124l-7 -38c32 -19 44 -48 37 -87c-13 -75 -92 -105 -261 -93l20 114c62 -5 95 0 98 14c2 12 -15 19 -50 20l14 76c-55 17 -97 50 -124 98s-36 103 -26 164c13 75 47 136 103 183s121 71 195 71
c105 0 178 -53 217 -132l-168 -88c-11 28 -33 42 -66 42c-49 0 -89 -35 -98 -86c-9 -49 20 -86 67 -86z" />
    <glyph glyph-name="egrave" unicode="&#xe8;" horiz-adv-x="553" 
d="M370 710l58 -150h-170l-94 150h206zM316 514c77 0 137 -26 178 -77c42 -51 57 -113 44 -185c-3 -21 -10 -43 -19 -65h-326c11 -33 40 -50 89 -50c38 0 69 11 92 32l107 -108c-58 -50 -130 -75 -216 -75c-90 0 -157 26 -200 79s-58 118 -45 195c12 73 46 134 101 182
s120 72 195 72zM211 306h165c-3 40 -25 60 -67 60c-45 0 -77 -20 -98 -60z" />
    <glyph glyph-name="eacute" unicode="&#xe9;" horiz-adv-x="553" 
d="M349 710h215l-137 -150h-179zM316 514c77 0 137 -26 178 -77c42 -51 57 -113 44 -185c-3 -21 -10 -43 -19 -65h-326c11 -33 40 -50 89 -50c38 0 69 11 92 32l107 -108c-58 -50 -130 -75 -216 -75c-90 0 -157 26 -200 79s-58 118 -45 195c12 73 46 134 101 182
s120 72 195 72zM211 306h165c-3 40 -25 60 -67 60c-45 0 -77 -20 -98 -60z" />
    <glyph glyph-name="ecircumflex" unicode="&#xea;" horiz-adv-x="553" 
d="M379 550l-36 57l-54 -57h-158l134 160h188l78 -160h-152zM316 514c77 0 137 -26 178 -77c42 -51 57 -113 44 -185c-3 -21 -10 -43 -19 -65h-326c11 -33 40 -50 89 -50c38 0 69 11 92 32l107 -108c-58 -50 -130 -75 -216 -75c-90 0 -157 26 -200 79s-58 118 -45 195
c12 73 46 134 101 182s120 72 195 72zM211 306h165c-3 40 -25 60 -67 60c-45 0 -77 -20 -98 -60z" />
    <glyph glyph-name="edieresis" unicode="&#xeb;" horiz-adv-x="553" 
d="M298 565c-39 -33 -92 -33 -120 0c-27 33 -18 87 21 120c40 33 93 33 120 0c28 -33 19 -87 -21 -120zM498 565c-39 -33 -92 -33 -120 0c-27 33 -18 87 21 120c40 33 93 33 120 0c28 -33 19 -87 -21 -120zM316 514c77 0 137 -26 178 -77c42 -51 57 -113 44 -185
c-3 -21 -10 -43 -19 -65h-326c11 -33 40 -50 89 -50c38 0 69 11 92 32l107 -108c-58 -50 -130 -75 -216 -75c-90 0 -157 26 -200 79s-58 118 -45 195c12 73 46 134 101 182s120 72 195 72zM211 306h165c-3 40 -25 60 -67 60c-45 0 -77 -20 -98 -60z" />
    <glyph glyph-name="igrave" unicode="&#xec;" horiz-adv-x="265" 
d="M273 550h-174l-50 150h206zM181 0l88 500h-185l-88 -500h185z" />
    <glyph glyph-name="iacute" unicode="&#xed;" horiz-adv-x="265" 
d="M93 550l66 150h210l-102 -150h-174zM-4 0h185l88 500h-185z" />
    <glyph glyph-name="icircumflex" unicode="&#xee;" horiz-adv-x="265" 
d="M222 540l-27 53l-43 -53h-149l114 160h188l58 -160h-141zM181 0h-185l88 500h185z" />
    <glyph glyph-name="idieresis" unicode="&#xef;" horiz-adv-x="265" 
d="M155 563c-36 -31 -86 -31 -113 0c-25 32 -16 82 20 113c37 32 88 32 113 0c27 -31 17 -81 -20 -113zM332 563c-36 -31 -86 -31 -113 0c-25 32 -16 82 20 113c37 32 88 32 113 0c27 -31 17 -81 -20 -113zM181 0h-185l88 500h185z" />
    <glyph glyph-name="eth" unicode="&#xf0;" horiz-adv-x="562" 
d="M409 552l109 -192c23 -40 30 -87 21 -140c-11 -71 -43 -129 -97 -172c-53 -43 -118 -64 -193 -64c-79 0 -142 23 -187 70s-60 109 -46 186c23 120 112 202 231 219l-21 38l-135 -40l24 140l50 15l-47 88h206l20 -35l148 44l-25 -140zM354 226c3 17 1 31 -6 44
c-13 19 -32 29 -59 29c-45 0 -82 -28 -91 -73s17 -77 64 -77c45 0 85 30 92 77z" />
    <glyph glyph-name="ntilde" unicode="&#xf1;" 
d="M341 567c-13 6 -28 17 -38 16c-11 3 -20 -6 -24 -30h-124c20 167 127 186 201 153c27 -14 55 -36 63 14h124c-21 -172 -127 -184 -202 -153zM403 514c107 0 169 -81 144 -225l-51 -289h-185l47 269c8 45 -9 67 -50 67c-43 0 -69 -24 -80 -72l-47 -264h-185l88 500h185
l-9 -49c39 42 86 63 143 63z" />
    <glyph glyph-name="ograve" unicode="&#xf2;" horiz-adv-x="574" 
d="M432 560h-170l-94 150h206zM20 262c-13 -72 2 -136 44 -192c43 -56 105 -84 187 -84s150 25 203 74c54 49 87 109 100 178c13 71 -3 135 -46 191c-43 57 -104 85 -184 85c-83 0 -151 -25 -205 -74s-87 -109 -99 -178zM211 186c-13 17 -17 38 -12 64s16 47 35 63
c37 33 96 33 121 0c13 -16 17 -37 12 -63s-16 -47 -35 -64c-18 -16 -39 -24 -64 -24s-44 8 -57 24z" />
    <glyph glyph-name="oacute" unicode="&#xf3;" horiz-adv-x="574" 
d="M252 560l101 150h215l-137 -150h-179zM20 262c-13 -72 2 -136 44 -192c43 -56 105 -84 187 -84s150 25 203 74c54 49 87 109 100 178c13 71 -3 135 -46 191c-43 57 -104 85 -184 85c-83 0 -151 -25 -205 -74s-87 -109 -99 -178zM211 186c-13 17 -17 38 -12 64
s16 47 35 63c37 33 96 33 121 0c13 -16 17 -37 12 -63s-16 -47 -35 -64c-18 -16 -39 -24 -64 -24s-44 8 -57 24z" />
    <glyph glyph-name="ocircumflex" unicode="&#xf4;" horiz-adv-x="574" 
d="M383 550l-36 57l-54 -57h-158l134 160h188l78 -160h-152zM324 514c80 0 141 -28 184 -85c43 -56 59 -120 46 -191c-13 -69 -46 -129 -100 -178c-53 -49 -121 -74 -203 -74s-144 28 -187 84c-42 56 -57 120 -44 192c12 69 45 129 99 178s122 74 205 74zM332 186
c19 17 30 38 35 64s1 47 -12 63c-25 33 -84 33 -121 0c-19 -16 -30 -37 -35 -63s-1 -47 12 -64c13 -16 32 -24 57 -24s46 8 64 24z" />
    <glyph glyph-name="otilde" unicode="&#xf5;" horiz-adv-x="574" 
d="M286 553h-124c20 167 127 186 201 153c27 -14 55 -36 63 14h124c-21 -172 -127 -184 -202 -153c-13 6 -28 17 -38 16c-11 3 -20 -6 -24 -30zM20 262c12 69 45 129 99 178s122 74 205 74c80 0 141 -28 184 -85c43 -56 59 -120 46 -191c-13 -69 -46 -129 -100 -178
c-53 -49 -121 -74 -203 -74s-144 28 -187 84c-42 56 -57 120 -44 192zM211 186c13 -16 32 -24 57 -24s46 8 64 24c19 17 30 38 35 64s1 47 -12 63c-25 33 -84 33 -121 0c-19 -16 -30 -37 -35 -63s-1 -47 12 -64z" />
    <glyph glyph-name="odieresis" unicode="&#xf6;" horiz-adv-x="574" 
d="M302 565c-39 -33 -92 -33 -120 0c-27 33 -18 87 21 120c40 33 93 33 120 0c28 -33 19 -87 -21 -120zM502 565c-39 -33 -92 -33 -120 0c-27 33 -18 87 21 120c40 33 93 33 120 0c28 -33 19 -87 -21 -120zM20 262c12 69 45 129 99 178s122 74 205 74c80 0 141 -28 184 -85
c43 -56 59 -120 46 -191c-13 -69 -46 -129 -100 -178c-53 -49 -121 -74 -203 -74s-144 28 -187 84c-42 56 -57 120 -44 192zM211 186c13 -16 32 -24 57 -24s46 8 64 24c19 17 30 38 35 64s1 47 -12 63c-25 33 -84 33 -121 0c-19 -16 -30 -37 -35 -63s-1 -47 12 -64z" />
    <glyph glyph-name="divide" unicode="&#xf7;" horiz-adv-x="540" 
d="M225 565c9 57 59 97 116 97s95 -46 84 -103c-9 -57 -59 -97 -116 -97s-95 46 -84 103zM512 260h-480l32 180h480zM350 135c-9 -57 -58 -97 -115 -97s-94 46 -85 103s59 97 116 97s95 -46 84 -103z" />
    <glyph glyph-name="oslash" unicode="&#xf8;" horiz-adv-x="574" 
d="M556 479l-48 -49c43 -56 59 -120 46 -192c-13 -69 -46 -129 -100 -178c-53 -49 -121 -74 -203 -74c-53 0 -99 13 -137 38l-37 -38l-63 34l49 51c-41 54 -56 118 -43 191c12 69 45 129 99 178s122 74 205 74c50 0 94 -12 133 -37l36 37zM203 250c-2 -13 -2 -25 0 -35
l118 121c-8 1 -14 2 -18 2c-49 0 -91 -36 -100 -88zM371 250c2 14 2 27 0 38l-120 -123c6 -2 13 -3 21 -3c49 0 90 36 99 88z" />
    <glyph glyph-name="ugrave" unicode="&#xf9;" 
d="M369 700l58 -150h-170l-94 150h206zM347 236l47 264h185l-88 -500h-185l9 49c-39 -42 -86 -63 -143 -63c-107 0 -169 81 -144 225l51 289h185l-47 -269c-8 -45 9 -67 50 -67c43 0 69 24 80 72z" />
    <glyph glyph-name="uacute" unicode="&#xfa;" 
d="M348 700h215l-137 -150h-179zM347 236l47 264h185l-88 -500h-185l9 49c-39 -42 -86 -63 -143 -63c-107 0 -169 81 -144 225l51 289h185l-47 -269c-8 -45 9 -67 50 -67c43 0 69 24 80 72z" />
    <glyph glyph-name="ucircumflex" unicode="&#xfb;" 
d="M378 540l-36 57l-54 -57h-158l134 160h188l78 -160h-152zM347 236l47 264h185l-88 -500h-185l9 49c-39 -42 -86 -63 -143 -63c-107 0 -169 81 -144 225l51 289h185l-47 -269c-8 -45 9 -67 50 -67c43 0 69 24 80 72z" />
    <glyph glyph-name="udieresis" unicode="&#xfc;" 
d="M297 555c-39 -33 -92 -33 -120 0c-27 33 -18 87 21 120c40 33 93 33 120 0c28 -33 19 -87 -21 -120zM497 555c-39 -33 -92 -33 -120 0c-27 33 -18 87 21 120c40 33 93 33 120 0c28 -33 19 -87 -21 -120zM347 236l47 264h185l-88 -500h-185l9 49c-39 -42 -86 -63 -143 -63
c-107 0 -169 81 -144 225l51 289h185l-47 -269c-8 -45 9 -67 50 -67c43 0 69 24 80 72z" />
    <glyph glyph-name="yacute" unicode="&#xfd;" horiz-adv-x="570" 
d="M340 700h215l-137 -150h-179zM288 234l108 266h218l-251 -485c-83 -161 -204 -232 -363 -215l31 175c69 0 100 10 124 45l-111 480h202z" />
    <glyph glyph-name="thorn" unicode="&#xfe;" horiz-adv-x="606" 
d="M396 514c65 0 117 -27 154 -81c37 -53 49 -118 36 -193c-13 -76 -44 -137 -91 -184s-102 -70 -167 -70c-64 0 -110 23 -137 70l-45 -256h-185l158 900h185l-42 -239c35 35 80 53 134 53zM403 250c11 57 -19 94 -72 94c-55 0 -97 -37 -106 -94c-11 -57 19 -94 72 -94
c55 0 97 37 106 94z" />
    <glyph glyph-name="ydieresis" unicode="&#xff;" horiz-adv-x="570" 
d="M289 555c-39 -33 -92 -33 -120 0c-27 33 -18 87 21 120c40 33 93 33 120 0c28 -33 19 -87 -21 -120zM489 555c-39 -33 -92 -33 -120 0c-27 33 -18 87 21 120c40 33 93 33 120 0c28 -33 19 -87 -21 -120zM288 234l108 266h218l-251 -485c-83 -161 -204 -232 -363 -215
l31 175c69 0 100 10 124 45l-111 480h202z" />
    <glyph glyph-name="Amacron" unicode="&#x100;" horiz-adv-x="660" 
d="M282 889h320l-24 -140h-320zM626 0h-209l-8 90h-202l-40 -90h-221l346 700h234zM374 465l-96 -215h116z" />
    <glyph glyph-name="amacron" unicode="&#x101;" horiz-adv-x="606" 
d="M213 689h320l-24 -140h-320zM415 444l10 56h185l-88 -500h-185l8 44c-39 -39 -85 -58 -140 -58c-67 0 -117 26 -151 78c-33 52 -45 115 -35 188s38 134 85 185s106 77 175 77c64 0 109 -23 136 -70zM276 156c55 0 93 36 104 91l1 3c9 55 -17 94 -72 94s-97 -38 -106 -94
c-9 -55 17 -94 73 -94z" />
    <glyph glyph-name="Abreve" unicode="&#x102;" horiz-adv-x="660" 
d="M425 732c-57 0 -101 16 -133 47c-31 31 -42 72 -32 123h150c-5 -27 4 -40 28 -40c23 0 37 13 42 40h150c-16 -113 -84 -170 -205 -170zM-54 0l346 700h234l100 -700h-209l-8 90h-202l-40 -90h-221zM374 465l-96 -215h116z" />
    <glyph glyph-name="abreve" unicode="&#x103;" horiz-adv-x="606" 
d="M356 532c-57 0 -101 16 -133 47c-31 31 -42 72 -32 123h150c-5 -27 4 -40 28 -40c23 0 37 13 42 40h150c-16 -113 -84 -170 -205 -170zM415 444l10 56h185l-88 -500h-185l8 44c-39 -39 -85 -58 -140 -58c-67 0 -117 26 -151 78c-33 52 -45 115 -35 188s38 134 85 185
s106 77 175 77c64 0 109 -23 136 -70zM276 156c55 0 93 36 104 91l1 3c9 55 -17 94 -72 94s-97 -38 -106 -94c-9 -55 17 -94 73 -94z" />
    <glyph glyph-name="Aogonek" unicode="&#x104;" horiz-adv-x="660" 
d="M573 -71c-2 -13 4 -19 18 -19c6 0 13 1 20 3l-20 -110c-30 -11 -60 -17 -91 -17c-63 0 -105 35 -94 95c8 43 35 83 81 119h-70l-8 90h-202l-40 -90h-221l346 700h234l100 -700c-32 -28 -50 -52 -53 -71zM374 465l-96 -215h116z" />
    <glyph glyph-name="aogonek" unicode="&#x105;" horiz-adv-x="606" 
d="M610 500l-88 -500c-32 -28 -50 -52 -53 -71c-2 -13 4 -19 18 -19c7 0 13 1 20 3l-20 -110c-30 -11 -60 -17 -91 -17c-120 0 -127 132 -13 214h-46l8 44c-39 -39 -85 -58 -140 -58c-67 0 -117 26 -151 78c-33 52 -45 115 -35 188s38 134 85 185s106 77 175 77
c64 0 109 -23 136 -70l10 56h185zM276 156c55 0 93 36 104 91l1 3c9 55 -17 94 -72 94s-97 -38 -106 -94c-9 -55 17 -94 73 -94z" />
    <glyph glyph-name="Cacute" unicode="&#x106;" horiz-adv-x="721" 
d="M391 760l101 150h215l-137 -150h-179zM360 -16c135 0 252 62 324 169l-166 105c-40 -52 -88 -78 -143 -78c-48 0 -84 16 -108 49s-32 74 -24 121c9 49 31 90 68 122s79 48 127 48c59 0 103 -24 130 -73l183 97c-59 115 -158 172 -295 172c-103 0 -193 -33 -271 -100
c-77 -67 -124 -152 -141 -256c-17 -108 4 -198 63 -269c60 -71 144 -107 253 -107z" />
    <glyph glyph-name="cacute" unicode="&#x107;" horiz-adv-x="529" 
d="M239 560l101 150h215l-137 -150h-179zM255 -14c100 0 189 45 240 130l-145 92c-19 -29 -46 -44 -80 -44c-47 0 -76 37 -67 86c9 51 49 86 98 86c33 0 55 -14 66 -42l168 88c-39 79 -112 132 -217 132c-74 0 -139 -24 -195 -71s-90 -108 -103 -183c-13 -77 3 -142 47 -195
s107 -79 188 -79z" />
    <glyph glyph-name="Cdotaccent" unicode="&#x10a;" horiz-adv-x="721" 
d="M591 845c-11 -52 -60 -95 -112 -95s-87 43 -78 95s59 95 111 95s88 -43 79 -95zM360 -16c-109 0 -193 36 -253 107c-59 71 -80 161 -63 269c17 104 64 189 141 256c78 67 168 100 271 100c137 0 236 -57 295 -172l-183 -97c-27 49 -71 73 -130 73c-48 0 -90 -16 -127 -48
s-59 -73 -68 -122c-8 -47 0 -88 24 -121s60 -49 108 -49c55 0 103 26 143 78l166 -105c-72 -107 -189 -169 -324 -169z" />
    <glyph glyph-name="cdotaccent" unicode="&#x10b;" horiz-adv-x="529" 
d="M439 645c-11 -52 -60 -95 -112 -95s-87 43 -78 95s59 95 111 95s88 -43 79 -95zM255 -14c-81 0 -144 26 -188 79s-60 118 -47 195c13 75 47 136 103 183s121 71 195 71c105 0 178 -53 217 -132l-168 -88c-11 28 -33 42 -66 42c-49 0 -89 -35 -98 -86
c-9 -49 20 -86 67 -86c34 0 61 15 80 44l145 -92c-51 -85 -140 -130 -240 -130z" />
    <glyph glyph-name="Ccaron" unicode="&#x10c;" horiz-adv-x="721" 
d="M568 750h-188l-78 160h150l37 -58l53 58h160zM375 180c55 0 103 26 143 78l166 -105c-72 -107 -189 -169 -324 -169c-109 0 -193 36 -253 107c-59 71 -80 161 -63 269c17 104 64 189 141 256c78 67 168 100 271 100c137 0 236 -57 295 -172l-183 -97
c-27 49 -71 73 -130 73c-48 0 -90 -16 -127 -48s-59 -73 -68 -122c-8 -47 0 -88 24 -121s60 -49 108 -49z" />
    <glyph glyph-name="ccaron" unicode="&#x10d;" horiz-adv-x="529" 
d="M416 550h-188l-78 160h150l37 -58l53 58h160zM301 336c-49 0 -89 -35 -98 -86c-9 -49 20 -86 67 -86c34 0 61 15 80 44l145 -92c-51 -85 -140 -130 -240 -130c-81 0 -144 26 -188 79s-60 118 -47 195c13 75 47 136 103 183s121 71 195 71c105 0 178 -53 217 -132
l-168 -88c-11 28 -33 42 -66 42z" />
    <glyph glyph-name="Dcaron" unicode="&#x10e;" horiz-adv-x="705" 
d="M495 740h-188l-78 160h150l37 -58l53 58h160zM129 700h290c92 0 165 -35 220 -106s74 -155 57 -254c-18 -101 -63 -183 -135 -246s-160 -94 -265 -94h-290zM498 350c16 92 -32 156 -113 156h-80l-55 -312h80c81 0 151 64 168 156z" />
    <glyph glyph-name="dcaron" unicode="&#x10f;" horiz-adv-x="766" 
d="M415 444l45 256h185l-123 -700h-185l8 44c-39 -39 -85 -58 -140 -58c-67 0 -117 26 -151 78c-33 52 -45 115 -35 188s38 134 85 185s106 77 175 77c64 0 109 -23 136 -70zM645 470l50 230h170l-80 -230h-140zM276 156c53 0 93 35 104 88l2 10c7 53 -18 90 -73 90
s-97 -38 -106 -94c-9 -55 17 -94 73 -94z" />
    <glyph glyph-name="Dcroat" unicode="&#x110;" horiz-adv-x="722" 
d="M146 700h290c92 0 165 -35 220 -106s74 -155 57 -254c-18 -101 -63 -183 -135 -246s-160 -94 -265 -94h-290l45 258h-67l31 174h67zM515 350c16 92 -32 156 -113 156h-80l-13 -74h123l-31 -174h-123l-11 -64h80c81 0 151 64 168 156z" />
    <glyph glyph-name="dslash" unicode="&#x111;" horiz-adv-x="621" 
d="M636 650h56l-21 -119h-56l-93 -531h-185l7 38c-38 -35 -84 -52 -137 -52c-68 0 -120 25 -155 76s-46 114 -34 188c11 69 41 126 88 173c48 47 105 71 171 71c63 0 108 -23 135 -68l18 105h-129l21 119h129l9 50h185zM237 304c-19 -17 -31 -38 -36 -64s-1 -47 12 -64
c14 -17 34 -25 61 -25s49 8 68 25s32 38 37 64s1 47 -13 64c-13 17 -33 25 -60 25s-50 -8 -69 -25z" />
    <glyph glyph-name="Emacron" unicode="&#x112;" horiz-adv-x="540" 
d="M230 889h320l-24 -140h-320zM584 700l-32 -182h-255l-13 -76h230l-32 -180h-230l-14 -78h260l-32 -184h-460l123 700h455z" />
    <glyph glyph-name="emacron" unicode="&#x113;" horiz-adv-x="553" 
d="M202 699h320l-24 -140h-320zM316 514c77 0 137 -26 178 -77c42 -51 57 -113 44 -185c-3 -21 -10 -43 -19 -65h-326c11 -33 40 -50 89 -50c38 0 69 11 92 32l107 -108c-58 -50 -130 -75 -216 -75c-90 0 -157 26 -200 79s-58 118 -45 195c12 73 46 134 101 182
s120 72 195 72zM211 306h165c-3 40 -25 60 -67 60c-45 0 -77 -20 -98 -60z" />
    <glyph glyph-name="Edotaccent" unicode="&#x116;" horiz-adv-x="540" 
d="M476 835c-11 -52 -60 -95 -112 -95s-87 43 -78 95s59 95 111 95s88 -43 79 -95zM584 700l-32 -182h-255l-13 -76h230l-32 -180h-230l-14 -78h260l-32 -184h-460l123 700h455z" />
    <glyph glyph-name="edotaccent" unicode="&#x117;" horiz-adv-x="553" 
d="M448 645c-11 -52 -60 -95 -112 -95s-87 43 -78 95s59 95 111 95s88 -43 79 -95zM316 514c77 0 137 -26 178 -77c42 -51 57 -113 44 -185c-3 -21 -10 -43 -19 -65h-326c11 -33 40 -50 89 -50c38 0 69 11 92 32l107 -108c-58 -50 -130 -75 -216 -75c-90 0 -157 26 -200 79
s-58 118 -45 195c12 73 46 134 101 182s120 72 195 72zM211 306h165c-3 40 -25 60 -67 60c-45 0 -77 -20 -98 -60z" />
    <glyph glyph-name="Eogonek" unicode="&#x118;" horiz-adv-x="540" 
d="M584 700l-32 -182h-255l-13 -76h230l-32 -180h-230l-14 -78h260l-32 -184c-32 -28 -50 -52 -53 -71c-2 -13 4 -19 18 -19c7 0 13 1 20 3l-20 -110c-30 -11 -60 -17 -91 -17c-64 0 -105 31 -94 91c7 41 34 82 81 123h-321l123 700h455z" />
    <glyph glyph-name="eogonek" unicode="&#x119;" horiz-adv-x="553" 
d="M316 514c77 0 137 -26 178 -77c42 -51 57 -113 44 -185c-3 -21 -10 -43 -19 -65h-326c11 -33 40 -50 89 -50c38 0 69 11 92 32l107 -108c-15 -12 -26 -20 -33 -25c-61 -43 -95 -76 -103 -99c-5 -15 0 -27 17 -27c5 0 12 1 19 3l-20 -110c-30 -11 -59 -17 -87 -17
c-72 0 -110 41 -98 97c7 37 31 71 74 103c-85 3 -147 31 -188 83c-41 53 -55 116 -42 191c12 73 46 134 101 182s120 72 195 72zM211 306h165c-3 40 -25 60 -67 60c-45 0 -77 -20 -98 -60z" />
    <glyph glyph-name="Ecaron" unicode="&#x11a;" horiz-adv-x="540" 
d="M453 740h-188l-78 160h150l37 -58l53 58h160zM129 700h455l-32 -182h-255l-13 -76h230l-32 -180h-230l-14 -78h260l-32 -184h-460z" />
    <glyph glyph-name="ecaron" unicode="&#x11b;" horiz-adv-x="553" 
d="M425 550h-188l-78 160h150l37 -58l53 58h160zM316 514c77 0 137 -26 178 -77c42 -51 57 -113 44 -185c-3 -21 -10 -43 -19 -65h-326c11 -33 40 -50 89 -50c38 0 69 11 92 32l107 -108c-58 -50 -130 -75 -216 -75c-90 0 -157 26 -200 79s-58 118 -45 195
c12 73 46 134 101 182s120 72 195 72zM211 306h165c-3 40 -25 60 -67 60c-45 0 -77 -20 -98 -60z" />
    <glyph glyph-name="Gbreve" unicode="&#x11e;" horiz-adv-x="773" 
d="M488 742c-57 0 -101 16 -133 47c-31 31 -42 72 -32 123h150c-5 -27 4 -40 28 -40c23 0 37 13 42 40h150c-16 -113 -84 -170 -205 -170zM420 413h356l-14 -83c-17 -103 -62 -187 -133 -251c-71 -63 -160 -95 -267 -95c-109 0 -194 36 -255 107c-60 72 -81 162 -63 269
c17 105 65 190 142 256c77 67 168 100 272 100c136 0 236 -62 293 -162l-183 -99c-27 43 -71 65 -130 65c-48 0 -90 -16 -127 -48c-37 -31 -59 -72 -68 -122c-9 -49 0 -91 25 -127c25 -35 62 -53 110 -53c71 0 122 24 153 73h-141z" />
    <glyph glyph-name="gbreve" unicode="&#x11f;" horiz-adv-x="613" 
d="M366 542c-57 0 -101 16 -133 47c-31 31 -42 72 -32 123h150c-5 -27 4 -40 28 -40c23 0 37 13 42 40h150c-16 -113 -84 -170 -205 -170zM422 443l10 57h185l-85 -485c-14 -78 -49 -136 -105 -174s-122 -57 -198 -57c-113 0 -202 45 -235 122l161 87c19 -33 50 -49 93 -49
c49 0 90 23 99 71l7 41c-35 -33 -80 -50 -133 -50c-149 -1 -215 127 -194 255c9 68 38 127 85 177c47 51 107 76 179 76c59 0 103 -24 131 -71zM286 170c52 0 92 34 103 85l2 8c7 52 -22 87 -74 87c-53 0 -96 -37 -105 -90s21 -90 74 -90z" />
    <glyph glyph-name="Gdotaccent" unicode="&#x120;" horiz-adv-x="773" 
d="M591 845c-11 -52 -60 -95 -112 -95s-87 43 -78 95s59 95 111 95s88 -43 79 -95zM420 413h356l-14 -83c-17 -103 -62 -187 -133 -251c-71 -63 -160 -95 -267 -95c-109 0 -194 36 -255 107c-60 72 -81 162 -63 269c17 105 65 190 142 256c77 67 168 100 272 100
c136 0 236 -62 293 -162l-183 -99c-27 43 -71 65 -130 65c-48 0 -90 -16 -127 -48c-37 -31 -59 -72 -68 -122c-9 -49 0 -91 25 -127c25 -35 62 -53 110 -53c71 0 122 24 153 73h-141z" />
    <glyph glyph-name="gdotaccent" unicode="&#x121;" horiz-adv-x="613" 
d="M469 645c-11 -52 -60 -95 -112 -95s-87 43 -78 95s59 95 111 95s88 -43 79 -95zM422 443l10 57h185l-85 -485c-14 -78 -49 -136 -105 -174s-122 -57 -198 -57c-113 0 -202 45 -235 122l161 87c19 -33 50 -49 93 -49c49 0 90 23 99 71l7 41c-35 -33 -80 -50 -133 -50
c-149 -1 -215 127 -194 255c9 68 38 127 85 177c47 51 107 76 179 76c59 0 103 -24 131 -71zM286 170c52 0 92 34 103 85l2 8c7 52 -22 87 -74 87c-53 0 -96 -37 -105 -90s21 -90 74 -90z" />
    <glyph glyph-name="Gcommaaccent" unicode="&#x122;" horiz-adv-x="773" 
d="M420 413h356l-14 -83c-17 -103 -62 -187 -133 -251c-71 -63 -160 -95 -267 -95c-109 0 -194 36 -255 107c-60 72 -81 162 -63 269c17 105 65 190 142 256c77 67 168 100 272 100c136 0 236 -62 293 -162l-183 -99c-27 43 -71 65 -130 65c-48 0 -90 -16 -127 -48
c-37 -31 -59 -72 -68 -122c-9 -49 0 -91 25 -127c25 -35 62 -53 110 -53c71 0 122 24 153 73h-141zM356 -284h-140l50 230h170z" />
    <glyph glyph-name="gcommaaccent" unicode="&#x123;" horiz-adv-x="613" 
d="M339 800h140l-51 -230h-170zM422 443l10 57h185l-85 -485c-14 -78 -49 -136 -105 -174s-122 -57 -198 -57c-113 0 -202 45 -235 122l161 87c19 -33 50 -49 93 -49c49 0 90 23 99 71l7 41c-35 -33 -80 -50 -133 -50c-149 -1 -215 127 -194 255c9 68 38 127 85 177
c47 51 107 76 179 76c59 0 103 -24 131 -71zM286 170c52 0 92 34 103 85l2 8c7 52 -22 87 -74 87c-53 0 -96 -37 -105 -90s21 -90 74 -90z" />
    <glyph glyph-name="Hbar" unicode="&#x126;" horiz-adv-x="710" 
d="M702 603h60l-26 -146h-60l-80 -457h-200l32 183h-170l-32 -183h-200l80 457h-59l25 146h60l17 97h200l-17 -97h170l17 97h200zM292 377h170l14 80h-170z" />
    <glyph glyph-name="hbar" unicode="&#x127;" horiz-adv-x="590" 
d="M413 489c107 0 169 -81 144 -225l-46 -264h-185l42 244c8 45 -9 67 -50 67c-40 0 -66 -22 -79 -65l-43 -246h-185l93 531h-54l21 119h54l9 50h185l-9 -50h131l-21 -119h-131l-18 -104c38 41 85 62 142 62z" />
    <glyph glyph-name="Imacron" unicode="&#x12a;" horiz-adv-x="300" 
d="M398 749h-320l24 140h320zM6 0l123 700h200l-123 -700h-200z" />
    <glyph glyph-name="imacron" unicode="&#x12b;" horiz-adv-x="265" 
d="M326 549h-280l24 140h280zM181 0h-185l88 500h185z" />
    <glyph glyph-name="Iogonek" unicode="&#x12e;" horiz-adv-x="300" 
d="M329 700l-123 -700c-32 -28 -50 -52 -53 -71c-2 -13 4 -19 18 -19c6 0 13 1 20 3l-20 -110c-30 -11 -60 -17 -91 -17c-63 0 -105 40 -94 101c7 39 34 76 81 113h-61l123 700h200z" />
    <glyph glyph-name="iogonek" unicode="&#x12f;" horiz-adv-x="265" 
d="M218 742c29 0 51 -10 68 -31c17 -20 23 -44 18 -71c-9 -56 -61 -102 -118 -102c-29 0 -52 10 -69 30c-17 21 -23 45 -18 72c4 27 17 50 40 71s49 31 79 31zM32 0h-36l88 500h185l-88 -500c-27 -28 -42 -51 -45 -69c-2 -14 4 -21 18 -21c7 0 13 1 20 3l-20 -110
c-30 -11 -60 -17 -91 -17c-64 0 -103 41 -94 101c5 33 26 71 63 113z" />
    <glyph glyph-name="Idot" unicode="&#x130;" horiz-adv-x="300" 
d="M348 835c-11 -52 -60 -95 -112 -95s-87 43 -78 95s59 95 111 95s88 -43 79 -95zM6 0l123 700h200l-123 -700h-200z" />
    <glyph glyph-name="dotlessi" unicode="&#x131;" horiz-adv-x="265" 
d="M181 0h-185l88 500h185z" />
    <glyph glyph-name="Kcommaaccent" unicode="&#x136;" horiz-adv-x="636" 
d="M486 700h232l-277 -351l161 -349h-209l-134 301l-53 -301h-200l123 700h200l-47 -270zM272 -284h-140l50 230h170z" />
    <glyph glyph-name="kcommaaccent" unicode="&#x137;" horiz-adv-x="550" 
d="M371 500h212l-197 -252l120 -248h-197l-91 208l-37 -208h-185l123 700h185l-67 -383zM240 -284h-140l50 230h170z" />
    <glyph glyph-name="Lacute" unicode="&#x139;" horiz-adv-x="490" 
d="M251 900h215l-137 -150h-179zM329 700l-89 -506h230l-34 -194h-430l123 700h200z" />
    <glyph glyph-name="lacute" unicode="&#x13a;" horiz-adv-x="266" 
d="M134 760l101 150h215l-137 -150h-179zM-3 0h185l56 321l72 409h-185l-71 -406z" />
    <glyph glyph-name="Lcommaaccent" unicode="&#x13b;" horiz-adv-x="490" 
d="M329 700l-89 -506h230l-34 -194h-430l123 700h200zM220 -284h-140l50 230h170z" />
    <glyph glyph-name="lcommaaccent" unicode="&#x13c;" horiz-adv-x="266" 
d="M182 0h-185l57 324l71 406h185l-72 -409zM81 -284h-140l50 230h170z" />
    <glyph glyph-name="Lcaron" unicode="&#x13d;" horiz-adv-x="490" 
d="M129 700h200l-89 -506h230l-34 -194h-430zM333 490l47 210h179l-76 -210h-150z" />
    <glyph glyph-name="lcaron" unicode="&#x13e;" horiz-adv-x="421" 
d="M182 0h-185l57 324l71 406h185l-72 -409zM445 500h-140l51 230h170z" />
    <glyph glyph-name="Lslash" unicode="&#x141;" horiz-adv-x="520" 
d="M290 309l-20 -115h230l-34 -194h-430l35 196l-66 -33l34 193l65 33l55 311h200l-35 -198l132 67l-34 -193z" />
    <glyph glyph-name="lslash" unicode="&#x142;" horiz-adv-x="290" 
d="M279 484l58 31l-31 -173l-58 -31l-54 -311h-185l36 202l-59 -31l31 173l58 31l62 355h185z" />
    <glyph glyph-name="Nacute" unicode="&#x143;" horiz-adv-x="680" 
d="M338 750l101 150h215l-137 -150h-179zM6 0h200l59 336l161 -336h160l123 700h-200l-59 -336l-161 336h-160z" />
    <glyph glyph-name="nacute" unicode="&#x144;" 
d="M346 710h215l-137 -150h-179zM403 514c107 0 169 -81 144 -225l-51 -289h-185l47 269c8 45 -9 67 -50 67c-43 0 -69 -24 -80 -72l-47 -264h-185l88 500h185l-9 -49c39 42 86 63 143 63z" />
    <glyph glyph-name="Ncommaaccent" unicode="&#x145;" horiz-adv-x="680" 
d="M206 0h-200l123 700h160l161 -336l59 336h200l-123 -700h-160l-161 336zM305 -284h-140l50 230h170z" />
    <glyph glyph-name="ncommaaccent" unicode="&#x146;" 
d="M403 514c107 0 169 -81 144 -225l-51 -289h-185l47 269c8 45 -9 67 -50 67c-43 0 -69 -24 -80 -72l-47 -264h-185l88 500h185l-9 -49c39 42 86 63 143 63zM253 -284h-140l50 230h170z" />
    <glyph glyph-name="Ncaron" unicode="&#x147;" horiz-adv-x="680" 
d="M515 740h-188l-78 160h150l37 -58l53 58h160zM450 364l59 336h200l-123 -700h-160l-161 336l-59 -336h-200l123 700h160z" />
    <glyph glyph-name="ncaron" unicode="&#x148;" 
d="M422 550h-188l-78 160h150l37 -58l53 58h160zM403 514c107 0 169 -81 144 -225l-51 -289h-185l47 269c8 45 -9 67 -50 67c-43 0 -69 -24 -80 -72l-47 -264h-185l88 500h185l-9 -49c39 42 86 63 143 63z" />
    <glyph glyph-name="Eng" unicode="&#x14a;" horiz-adv-x="680" 
d="M450 364l59 336h200l-123 -700c-28 -157 -119 -225 -288 -216l29 166c43 -4 67 13 74 50l7 38l-143 298l-59 -336h-200l123 700h160z" />
    <glyph glyph-name="eng" unicode="&#x14b;" 
d="M403 514c107 0 169 -81 144 -225l-51 -289c-28 -160 -107 -215 -266 -203l28 157c30 -1 48 14 53 46l47 269c8 45 -9 67 -50 67c-43 0 -69 -24 -80 -72l-47 -264h-185l88 500h185l-9 -49c39 42 86 63 143 63z" />
    <glyph glyph-name="Omacron" unicode="&#x14c;" horiz-adv-x="792" 
d="M646 759h-320l24 140h320zM369 -16c-76 0 -141 19 -195 56c-108 76 -149 197 -129 322c16 97 62 180 137 249c76 70 169 105 280 105c115 0 209 -47 261 -118s75 -163 60 -256c-15 -97 -60 -181 -135 -252c-74 -71 -167 -106 -279 -106zM270 228c27 -32 65 -48 114 -48
s93 16 131 48c38 33 61 73 70 122s0 89 -27 121c-27 33 -65 49 -114 49s-93 -16 -131 -49c-38 -32 -61 -72 -70 -121s0 -89 27 -122z" />
    <glyph glyph-name="omacron" unicode="&#x14d;" horiz-adv-x="574" 
d="M502 559h-320l24 140h320zM20 262c12 69 45 129 99 178s122 74 205 74c80 0 141 -28 184 -85c43 -56 59 -120 46 -191c-13 -69 -46 -129 -100 -178c-53 -49 -121 -74 -203 -74s-144 28 -187 84c-42 56 -57 120 -44 192zM211 186c13 -16 32 -24 57 -24s46 8 64 24
c19 17 30 38 35 64s1 47 -12 63c-25 33 -84 33 -121 0c-19 -16 -30 -37 -35 -63s-1 -47 12 -64z" />
    <glyph glyph-name="Ohungarumlaut" unicode="&#x150;" horiz-adv-x="792" 
d="M274 750l108 160h174l-114 -160h-168zM477 750l118 160h174l-124 -160h-168zM369 -16c112 0 205 35 279 106c75 71 120 155 135 252c15 93 -8 185 -60 256s-146 118 -261 118c-111 0 -204 -35 -280 -105c-75 -69 -121 -152 -137 -249c-20 -125 21 -246 129 -322
c54 -37 119 -56 195 -56zM270 228c-27 33 -36 73 -27 122s32 89 70 121c38 33 82 49 131 49s87 -16 114 -49c27 -32 36 -72 27 -121s-32 -89 -70 -122c-38 -32 -82 -48 -131 -48s-87 16 -114 48z" />
    <glyph glyph-name="ohungarumlaut" unicode="&#x151;" horiz-adv-x="574" 
d="M130 550l108 160h174l-114 -160h-168zM333 550l118 160h174l-124 -160h-168zM20 262c-13 -72 2 -136 44 -192c43 -56 105 -84 187 -84s150 25 203 74c54 49 87 109 100 178c13 71 -3 135 -46 191c-43 57 -104 85 -184 85c-83 0 -151 -25 -205 -74s-87 -109 -99 -178z
M211 186c-13 17 -17 38 -12 64s16 47 35 63c37 33 96 33 121 0c13 -16 17 -37 12 -63s-16 -47 -35 -64c-18 -16 -39 -24 -64 -24s-44 8 -57 24z" />
    <glyph glyph-name="OE" unicode="&#x152;" horiz-adv-x="955" 
d="M999 700l-32 -184h-215l-13 -74h190l-32 -180h-190l-14 -78h220l-32 -184h-420c-36 -11 -73 -16 -112 -16c-109 0 -190 36 -245 108c-55 73 -75 159 -61 259c13 89 58 179 129 248c71 71 177 117 296 117c45 0 84 -5 116 -16l-35 -197c-28 11 -63 17 -105 17
c-49 0 -93 -16 -131 -49c-38 -32 -61 -72 -70 -121s0 -89 27 -122c27 -32 65 -48 114 -48c41 0 79 5 112 16l88 504h415z" />
    <glyph glyph-name="oe" unicode="&#x153;" horiz-adv-x="903" 
d="M676 514c73 0 129 -26 169 -77c41 -51 55 -113 43 -185c-3 -21 -10 -43 -19 -65h-326c11 -33 40 -50 89 -50c38 0 69 11 92 32l107 -108c-58 -50 -127 -75 -206 -75c-84 0 -146 25 -186 76c-51 -51 -117 -76 -198 -76c-169 -1 -246 138 -221 273c11 69 43 129 96 179
c53 51 119 76 198 76c77 0 134 -26 173 -77c53 51 116 77 189 77zM561 306h165c-3 40 -25 60 -67 60c-45 0 -77 -20 -98 -60zM336 186c19 17 30 38 35 64s1 47 -12 63c-25 33 -84 33 -121 0c-19 -16 -30 -37 -35 -63s-1 -47 12 -64c13 -16 32 -24 57 -24s46 8 64 24z" />
    <glyph glyph-name="Racute" unicode="&#x154;" horiz-adv-x="625" 
d="M379 900h215l-137 -150h-179zM631 445c-15 -85 -61 -148 -140 -188l90 -256h-200l-72 220h-64l-39 -220h-200l124 700h280c73 0 131 -24 175 -73c44 -48 59 -109 46 -183zM377 517h-80l-23 -130h82c39 -1 68 23 75 64s-14 66 -54 66z" />
    <glyph glyph-name="racute" unicode="&#x155;" horiz-adv-x="390" 
d="M256 700h215l-137 -150h-179zM269 500l-17 -97c29 68 92 107 169 107l-35 -200c-39 5 -76 -2 -109 -22s-54 -54 -63 -102l1 8l-34 -194h-185l88 500h185z" />
    <glyph glyph-name="Rcommaaccent" unicode="&#x156;" horiz-adv-x="625" 
d="M631 445c-15 -85 -61 -148 -140 -188l90 -256h-200l-72 220h-64l-39 -220h-200l124 700h280c73 0 131 -24 175 -73c44 -48 59 -109 46 -183zM377 517h-80l-23 -130h82c39 -1 68 23 75 64s-14 66 -54 66zM300 -284h-140l50 230h170z" />
    <glyph glyph-name="rcommaaccent" unicode="&#x157;" horiz-adv-x="390" 
d="M269 500l-17 -97c29 68 92 107 169 107l-35 -200c-39 5 -76 -2 -109 -22s-54 -54 -63 -102l1 8l-34 -194h-185l88 500h185zM78 -284h-140l50 230h170z" />
    <glyph glyph-name="Rcaron" unicode="&#x158;" horiz-adv-x="625" 
d="M455 740h-188l-78 160h150l37 -58l53 58h160zM631 445c-15 -85 -61 -148 -140 -188l90 -256h-200l-72 220h-64l-39 -220h-200l124 700h280c73 0 131 -24 175 -73c44 -48 59 -109 46 -183zM377 517h-80l-23 -130h82c39 -1 68 23 75 64s-14 66 -54 66z" />
    <glyph glyph-name="rcaron" unicode="&#x159;" horiz-adv-x="390" 
d="M332 540h-188l-78 160h150l37 -58l53 58h160zM269 500l-17 -97c29 68 92 107 169 107l-35 -200c-39 5 -76 -2 -109 -22s-54 -54 -63 -102l1 8l-34 -194h-185l88 500h185z" />
    <glyph glyph-name="Sacute" unicode="&#x15a;" horiz-adv-x="591" 
d="M275 760l101 150h215l-137 -150h-179zM267 -16c163 0 269 70 293 206c12 73 -2 128 -42 163c-39 35 -72 50 -129 69c-45 15 -75 28 -90 37s-21 21 -18 36c5 24 25 36 60 36c46 0 78 -23 95 -68l169 90c-44 105 -131 163 -251 163c-72 0 -133 -19 -183 -57
s-81 -88 -92 -151c-19 -110 33 -187 157 -230c17 -5 56 -16 73 -23c9 -3 18 -7 28 -12c20 -9 28 -21 25 -37c-5 -25 -31 -37 -78 -37c-60 0 -101 27 -122 80l-173 -89c33 -111 126 -176 278 -176z" />
    <glyph glyph-name="sacute" unicode="&#x15b;" horiz-adv-x="479" 
d="M200 560l101 150h215l-137 -150h-179zM215 -14c57 0 107 12 150 35s70 61 79 113c38 208 -225 156 -212 222c3 16 15 23 35 22c27 -2 47 -18 59 -49l148 69c-33 77 -109 116 -205 116c-67 0 -127 -16 -176 -64c-24 -24 -39 -53 -45 -88c-20 -111 65 -152 132 -170
c47 -13 84 -25 80 -44c-3 -14 -16 -21 -40 -21c-37 0 -63 19 -78 57l-157 -75c37 -89 113 -123 230 -123z" />
    <glyph glyph-name="Scedilla" unicode="&#x15e;" horiz-adv-x="591" 
d="M389 422c57 -19 90 -34 129 -69c40 -35 54 -90 42 -163c-20 -115 -98 -182 -221 -201l-6 -35c32 -19 44 -48 37 -87c-13 -75 -92 -105 -261 -93l20 114c62 -5 95 0 98 14c2 12 -15 19 -50 20l12 69c-105 18 -172 74 -200 169l173 89c21 -53 62 -80 122 -80
c47 0 73 12 78 37c3 16 -5 28 -25 37c-10 5 -19 9 -28 12c-17 7 -56 18 -73 23c-124 43 -176 120 -157 230c11 63 42 113 92 151s111 57 183 57c120 0 207 -58 251 -163l-169 -90c-17 45 -49 68 -95 68c-35 0 -55 -12 -60 -36c-3 -15 3 -27 18 -36s45 -22 90 -37z" />
    <glyph glyph-name="scedilla" unicode="&#x15f;" horiz-adv-x="479" 
d="M232 356c-13 -66 250 -14 212 -222c-15 -79 -69 -126 -162 -142l-7 -38c32 -19 44 -48 37 -87c-13 -75 -92 -105 -261 -93l20 114c62 -5 95 0 98 14c2 12 -15 19 -50 20l13 71c-72 15 -121 53 -147 116l157 75c15 -38 41 -57 78 -57c24 0 37 7 40 21c4 19 -33 31 -80 44
c-67 18 -152 59 -132 170c6 35 21 64 45 88c49 48 109 64 176 64c96 0 172 -39 205 -116l-148 -69c-12 31 -32 47 -59 49c-20 1 -32 -6 -35 -22z" />
    <glyph glyph-name="Scaron" unicode="&#x160;" horiz-adv-x="591" 
d="M452 750h-188l-78 160h150l37 -58l53 58h160zM389 422c57 -19 90 -34 129 -69c40 -35 54 -90 42 -163c-24 -136 -130 -206 -293 -206c-152 0 -245 65 -278 176l173 89c21 -53 62 -80 122 -80c47 0 73 12 78 37c3 16 -5 28 -25 37c-10 5 -19 9 -28 12c-17 7 -56 18 -73 23
c-124 43 -176 120 -157 230c11 63 42 113 92 151s111 57 183 57c120 0 207 -58 251 -163l-169 -90c-17 45 -49 68 -95 68c-35 0 -55 -12 -60 -36c-3 -15 3 -27 18 -36s45 -22 90 -37z" />
    <glyph glyph-name="scaron" unicode="&#x161;" horiz-adv-x="479" 
d="M377 550h-188l-78 160h150l37 -58l53 58h160zM267 378c-20 1 -32 -6 -35 -22c-13 -66 250 -14 212 -222c-9 -52 -36 -90 -79 -113s-93 -35 -150 -35c-117 0 -193 34 -230 123l157 75c15 -38 41 -57 78 -57c24 0 37 7 40 21c4 19 -33 31 -80 44c-67 18 -152 59 -132 170
c6 35 21 64 45 88c49 48 109 64 176 64c96 0 172 -39 205 -116l-148 -69c-12 31 -32 47 -59 49z" />
    <glyph glyph-name="uni0162" unicode="&#x162;" horiz-adv-x="550" 
d="M89 700h530l-34 -194h-165l-89 -506h-200l89 506h-165zM228 -284h-140l50 230h170z" />
    <glyph glyph-name="uni0163" unicode="&#x163;" horiz-adv-x="400" 
d="M383 324h-105l-19 -108c-8 -49 13 -54 96 -50l-29 -166c-200 -31 -283 37 -254 206l21 118h-70l31 176h70l15 85l194 55l-24 -140h105zM186 -274h-140l50 230h170z" />
    <glyph glyph-name="Tcaron" unicode="&#x164;" horiz-adv-x="550" 
d="M450 740h-188l-78 160h150l37 -58l53 58h160zM89 700h530l-34 -194h-165l-89 -506h-200l89 506h-165z" />
    <glyph glyph-name="tcaron" unicode="&#x165;" horiz-adv-x="447" 
d="M346 532l44 190h160l-74 -190h-130zM139 585l194 55l-24 -140h105l-31 -176h-105l-19 -108c-8 -49 13 -54 96 -50l-29 -166c-200 -31 -283 37 -254 206l21 118h-70l31 176h70z" />
    <glyph glyph-name="Tbar" unicode="&#x166;" horiz-adv-x="550" 
d="M619 700l-34 -194h-165l-17 -94h100l-31 -174h-99l-42 -238h-200l42 238h-101l31 174h100l17 94h-165l34 194h530z" />
    <glyph glyph-name="tbar" unicode="&#x167;" horiz-adv-x="400" 
d="M414 500l-26 -146h-105l-6 -34h70l-21 -120h-69c1 -35 25 -38 98 -34l-29 -166c-197 -31 -282 35 -255 200h-45l21 120h45l6 34h-70l26 146h70l15 85l194 55l-24 -140h105z" />
    <glyph glyph-name="Umacron" unicode="&#x16a;" horiz-adv-x="650" 
d="M573 749h-320l24 140h320zM290 -16c-87 0 -154 24 -201 71s-65 107 -52 179l82 466h200l-78 -444c-9 -52 15 -78 71 -78c57 0 90 26 99 78l78 444h200l-82 -466c-14 -79 -50 -140 -108 -184c-57 -44 -127 -66 -209 -66z" />
    <glyph glyph-name="umacron" unicode="&#x16b;" 
d="M201 689h320l-24 -140h-320zM347 236l47 264h185l-88 -500h-185l9 49c-39 -42 -86 -63 -143 -63c-107 0 -169 81 -144 225l51 289h185l-47 -269c-8 -45 9 -67 50 -67c43 0 69 24 80 72z" />
    <glyph glyph-name="Uring" unicode="&#x16e;" horiz-adv-x="650" 
d="M407 710c-43 0 -77 14 -100 41s-31 61 -24 102c15 81 83 137 172 137c43 0 77 -14 100 -41c24 -27 32 -61 25 -102c-15 -81 -81 -137 -173 -137zM426 820c21 0 34 10 37 30s-6 30 -27 30s-33 -10 -36 -30c-3 -17 6 -30 26 -30zM290 -16c-87 0 -154 24 -201 71
s-65 107 -52 179l82 466h200l-78 -444c-9 -52 15 -78 71 -78c57 0 90 26 99 78l78 444h200l-82 -466c-14 -79 -50 -140 -108 -184c-57 -44 -127 -66 -209 -66z" />
    <glyph glyph-name="uring" unicode="&#x16f;" 
d="M334 530c-43 0 -77 14 -100 41s-31 61 -24 102c15 81 83 137 172 137c43 0 77 -14 100 -41c24 -27 32 -61 25 -102c-15 -81 -81 -137 -173 -137zM327 670c-3 -17 6 -30 26 -30c21 0 34 10 37 30s-6 30 -27 30s-33 -10 -36 -30zM347 236l47 264h185l-88 -500h-185l9 49
c-39 -42 -86 -63 -143 -63c-107 0 -169 81 -144 225l51 289h185l-47 -269c-8 -45 9 -67 50 -67c43 0 69 24 80 72z" />
    <glyph glyph-name="Uhungarumlaut" unicode="&#x170;" horiz-adv-x="650" 
d="M201 740l108 160h174l-114 -160h-168zM404 740l118 160h174l-124 -160h-168zM290 -16c82 0 152 22 209 66c58 44 94 105 108 184l82 466h-200l-78 -444c-9 -52 -42 -78 -99 -78c-56 0 -80 26 -71 78l78 444h-200l-82 -466c-13 -72 5 -132 52 -179s114 -71 201 -71z" />
    <glyph glyph-name="uhungarumlaut" unicode="&#x171;" 
d="M233 700h174l-114 -160h-168zM620 700l-124 -160h-168l118 160h174zM347 236l47 264h185l-88 -500h-185l9 49c-39 -42 -86 -63 -143 -63c-107 0 -169 81 -144 225l51 289h185l-47 -269c-8 -45 9 -67 50 -67c43 0 69 24 80 72z" />
    <glyph glyph-name="Uogonek" unicode="&#x172;" horiz-adv-x="650" 
d="M411 256l78 444h200l-82 -466c-15 -85 -55 -149 -122 -194c-64 -48 -100 -84 -108 -109c-4 -14 2 -21 18 -21c6 0 13 1 20 3l-20 -110c-30 -11 -59 -17 -86 -17c-68 0 -110 37 -99 101c6 36 26 68 61 97c-81 4 -143 29 -187 76c-43 47 -59 105 -47 174l82 466h200
l-78 -444c-9 -52 15 -78 71 -78c57 0 90 26 99 78z" />
    <glyph glyph-name="uogonek" unicode="&#x173;" 
d="M579 500l-88 -500c-32 -28 -50 -52 -53 -71c-2 -13 4 -19 19 -19c6 0 12 1 19 3l-20 -110c-30 -11 -59 -17 -86 -17c-68 0 -110 37 -99 97c7 43 33 82 77 117h-42l9 49c-39 -42 -86 -63 -143 -63c-107 0 -169 81 -144 225l51 289h185l-47 -269c-8 -45 9 -67 50 -67
c43 0 69 24 80 72l47 264h185z" />
    <glyph glyph-name="Wcircumflex" unicode="&#x174;" horiz-adv-x="1010" 
d="M633 740l-36 57l-54 -57h-158l134 160h188l78 -160h-152zM700 315l168 385h221l-321 -700h-197l-44 374l-176 -374h-197l-75 700h205l31 -385l181 385h158z" />
    <glyph glyph-name="wcircumflex" unicode="&#x175;" horiz-adv-x="801" 
d="M499 540l-36 57l-54 -57h-158l134 160h188l78 -160h-152zM539 235l105 265h200l-233 -500h-188l-21 234l-98 -234h-193l-57 500h185l15 -277l115 277h145z" />
    <glyph glyph-name="Ycircumflex" unicode="&#x176;" horiz-adv-x="654" 
d="M456 740l-36 57l-54 -57h-158l134 160h188l78 -160h-152zM499 700h234l-297 -397l-53 -303h-200l53 302l-157 398h210l68 -212z" />
    <glyph glyph-name="ycircumflex" unicode="&#x177;" horiz-adv-x="570" 
d="M370 540l-36 57l-54 -57h-158l134 160h188l78 -160h-152zM288 234l108 266h218l-251 -485c-83 -161 -204 -232 -363 -215l31 175c69 0 100 10 124 45l-111 480h202z" />
    <glyph glyph-name="Ydieresis" unicode="&#x178;" horiz-adv-x="654" 
d="M375 755c-39 -33 -92 -33 -120 0c-27 33 -18 87 21 120c40 33 93 33 120 0c28 -33 19 -87 -21 -120zM575 755c-39 -33 -92 -33 -120 0c-27 33 -18 87 21 120c40 33 93 33 120 0c28 -33 19 -87 -21 -120zM499 700h234l-297 -397l-53 -303h-200l53 302l-157 398h210
l68 -212z" />
    <glyph glyph-name="Zacute" unicode="&#x179;" horiz-adv-x="545" 
d="M380 900h215l-137 -150h-179zM295 506h-215l34 194h480l-27 -154l-281 -352h229l-34 -194h-495l27 154z" />
    <glyph glyph-name="zacute" unicode="&#x17a;" horiz-adv-x="455" 
d="M294 700h215l-137 -150h-179zM192 330h-148l30 170h400l-23 -130l-193 -200h168l-30 -170h-420l23 130z" />
    <glyph glyph-name="Zdotaccent" unicode="&#x17b;" horiz-adv-x="545" 
d="M479 835c-11 -52 -60 -95 -112 -95s-87 43 -78 95s59 95 111 95s88 -43 79 -95zM114 700h480l-27 -154l-281 -352h229l-34 -194h-495l27 154l282 352h-215z" />
    <glyph glyph-name="zdotaccent" unicode="&#x17c;" horiz-adv-x="455" 
d="M393 635c-11 -52 -60 -95 -112 -95s-87 43 -78 95s59 95 111 95s88 -43 79 -95zM74 500h400l-23 -130l-193 -200h168l-30 -170h-420l23 130l193 200h-148z" />
    <glyph glyph-name="Zcaron" unicode="&#x17d;" horiz-adv-x="545" 
d="M456 740h-188l-78 160h150l37 -58l53 58h160zM114 700h480l-27 -154l-281 -352h229l-34 -194h-495l27 154l282 352h-215z" />
    <glyph glyph-name="zcaron" unicode="&#x17e;" horiz-adv-x="455" 
d="M370 540h-188l-78 160h150l37 -58l53 58h160zM192 330h-148l30 170h400l-23 -130l-193 -200h168l-30 -170h-420l23 130z" />
    <glyph glyph-name="florin" unicode="&#x192;" horiz-adv-x="482" 
d="M202 438l35 100c18 53 44 94 79 124c71 60 154 62 247 45l-32 -180c-40 20 -90 1 -109 -52l-13 -37h65l-31 -176h-95l-101 -292c-18 -53 -45 -94 -80 -124c-69 -60 -153 -62 -246 -45l32 180c39 -20 90 0 109 52l79 229h-58l31 176h88z" />
    <glyph glyph-name="Scommaaccent" unicode="&#x218;" horiz-adv-x="591" 
d="M267 -16c-152 0 -245 65 -278 176l173 89c21 -53 62 -80 122 -80c47 0 73 12 78 37c3 16 -5 28 -25 37c-10 5 -19 9 -28 12c-17 7 -56 18 -73 23c-124 43 -176 120 -157 230c11 63 42 113 92 151s111 57 183 57c120 0 207 -58 251 -163l-169 -90c-17 45 -49 68 -95 68
c-35 0 -55 -12 -60 -36c-3 -15 3 -27 18 -36s45 -22 90 -37c57 -19 90 -34 129 -69c40 -35 54 -90 42 -163c-24 -136 -130 -206 -293 -206zM273 -284h-140l50 230h170z" />
    <glyph glyph-name="scommaaccent" unicode="&#x219;" horiz-adv-x="479" 
d="M215 -14c-117 0 -193 34 -230 123l157 75c15 -38 41 -57 78 -57c24 0 37 7 40 21c4 19 -33 31 -80 44c-67 18 -152 59 -132 170c6 35 21 64 45 88c49 48 109 64 176 64c96 0 172 -39 205 -116l-148 -69c-12 31 -32 47 -59 49c-20 1 -32 -6 -35 -22
c-13 -66 250 -14 212 -222c-9 -52 -36 -90 -79 -113s-93 -35 -150 -35zM215 -284h-140l50 230h170z" />
    <glyph glyph-name="uni021A" unicode="&#x21a;" horiz-adv-x="550" 
d="M89 700h530l-34 -194h-165l-89 -506h-200l89 506h-165zM228 -284h-140l50 230h170z" />
    <glyph glyph-name="uni021B" unicode="&#x21b;" horiz-adv-x="400" 
d="M383 324h-105l-19 -108c-8 -49 13 -54 96 -50l-29 -166c-200 -31 -283 37 -254 206l21 118h-70l31 176h70l15 85l194 55l-24 -140h105zM186 -274h-140l50 230h170z" />
    <glyph glyph-name="circumflex" unicode="&#x2c6;" horiz-adv-x="440" 
d="M393 700l78 -160h-152l-36 57l-54 -57h-158l134 160h188z" />
    <glyph glyph-name="caron" unicode="&#x2c7;" horiz-adv-x="440" 
d="M286 642l53 58h160l-134 -160h-188l-78 160h150z" />
    <glyph glyph-name="breve" unicode="&#x2d8;" horiz-adv-x="410" 
d="M265 532c-57 0 -101 16 -133 47c-31 31 -42 72 -32 123h150c-5 -27 4 -40 28 -40c23 0 37 13 42 40h150c-16 -113 -84 -170 -205 -170z" />
    <glyph glyph-name="dotaccent" unicode="&#x2d9;" horiz-adv-x="210" 
d="M278 635c-11 -52 -60 -95 -112 -95s-87 43 -78 95s59 95 111 95s88 -43 79 -95z" />
    <glyph glyph-name="ring" unicode="&#x2da;" horiz-adv-x="338" 
d="M219 530c-43 0 -77 14 -100 41s-31 61 -24 102c15 81 83 137 172 137c43 0 77 -14 100 -41c24 -27 32 -61 25 -102c-15 -81 -81 -137 -173 -137zM238 640c21 0 34 10 37 30s-6 30 -27 30s-33 -10 -36 -30c-3 -17 6 -30 26 -30z" />
    <glyph glyph-name="ogonek" unicode="&#x2db;" horiz-adv-x="238" 
d="M48 -214c-64 0 -105 31 -94 91c7 41 34 82 81 123h139c-32 -28 -50 -52 -53 -71c-2 -13 4 -19 18 -19c6 0 13 1 20 3l-20 -110c-30 -11 -60 -17 -91 -17z" />
    <glyph glyph-name="tilde" unicode="&#x2dc;" horiz-adv-x="399" 
d="M196 543h-124c20 167 127 186 201 153c27 -14 55 -36 63 14h124c-21 -172 -127 -184 -202 -153c-13 6 -28 17 -38 16c-11 3 -20 -6 -24 -30z" />
    <glyph glyph-name="hungarumlaut" unicode="&#x2dd;" horiz-adv-x="507" 
d="M71 540l108 160h174l-114 -160h-168zM274 540l118 160h174l-124 -160h-168z" />
    <glyph glyph-name="gravecomb" unicode="&#x300;" horiz-adv-x="0" 
d="M33 550h-170l-94 150h206z" />
    <glyph glyph-name="acutecomb" unicode="&#x301;" horiz-adv-x="0" 
d="M-227 550l101 150h215l-137 -150h-179z" />
    <glyph glyph-name="uni0302" unicode="&#x302;" horiz-adv-x="0" 
d="M-47 700l78 -160h-152l-36 57l-54 -57h-158l134 160h188z" />
    <glyph glyph-name="tildecomb" unicode="&#x303;" horiz-adv-x="0" 
d="M-203 543h-124c20 167 127 186 201 153c27 -14 55 -36 63 14h124c-21 -172 -127 -184 -202 -153c-13 6 -28 17 -37 16c-13 3 -21 -6 -25 -30z" />
    <glyph glyph-name="uni0304" unicode="&#x304;" horiz-adv-x="0" 
d="M33 549h-320l24 140h320z" />
    <glyph glyph-name="uni0306" unicode="&#x306;" horiz-adv-x="0" 
d="M-155 532c-57 0 -101 16 -132 47c-32 31 -43 72 -33 123h150c-5 -27 4 -40 28 -40c23 0 37 13 42 40h150c-16 -113 -84 -170 -205 -170z" />
    <glyph glyph-name="uni0307" unicode="&#x307;" horiz-adv-x="0" 
d="M48 635c-11 -52 -60 -95 -112 -95s-87 43 -78 95s59 95 111 95s88 -43 79 -95z" />
    <glyph glyph-name="uni0308" unicode="&#x308;" horiz-adv-x="0" 
d="M-191 555c-40 -33 -93 -33 -120 0c-28 33 -19 87 21 120c39 33 92 33 120 0c27 -33 18 -87 -21 -120zM8 555c-39 -33 -92 -33 -119 0c-28 33 -19 87 21 120c39 33 92 33 119 0c28 -33 19 -87 -21 -120z" />
    <glyph glyph-name="uni030A" unicode="&#x30a;" horiz-adv-x="0" 
d="M-119 530c-43 0 -77 14 -100 41s-31 61 -24 102c15 81 83 137 172 137c43 0 77 -14 100 -41c24 -27 32 -61 25 -102c-15 -81 -81 -137 -173 -137zM-100 640c21 0 34 10 37 30s-6 30 -27 30s-33 -10 -36 -30c-3 -17 6 -30 26 -30z" />
    <glyph glyph-name="uni030B" unicode="&#x30b;" horiz-adv-x="0" 
d="M-436 540l108 160h174l-114 -160h-168zM-233 540l118 160h174l-124 -160h-168z" />
    <glyph glyph-name="uni030C" unicode="&#x30c;" horiz-adv-x="0" 
d="M-154 642l53 58h160l-134 -160h-188l-78 160h150z" />
    <glyph glyph-name="uni0312" unicode="&#x312;" horiz-adv-x="0" 
d="M-29 990h140l-51 -230h-170z" />
    <glyph glyph-name="uni0326" unicode="&#x326;" horiz-adv-x="0" 
d="M-154 -284h-140l50 230h170z" />
    <glyph glyph-name="uni0327" unicode="&#x327;" horiz-adv-x="0" 
d="M-117 0l-8 -46c32 -19 44 -48 37 -87c-13 -75 -92 -105 -261 -93l20 114c62 -5 95 0 98 14c2 12 -15 19 -50 20l14 78h150z" />
    <glyph glyph-name="uni0328" unicode="&#x328;" horiz-adv-x="0" 
d="M-190 -214c-64 0 -105 31 -94 91c7 41 34 82 81 123h139c-32 -28 -50 -52 -53 -71c-2 -13 4 -19 18 -19c6 0 13 1 20 3l-20 -110c-30 -11 -60 -17 -91 -17z" />
    <glyph glyph-name="uni0394" unicode="&#x394;" horiz-adv-x="660" 
d="M297 700h224l105 -700h-680zM378 465l-136 -305h164z" />
    <glyph glyph-name="uni03A9" unicode="&#x3a9;" horiz-adv-x="782" 
d="M783 370c-13 -73 -47 -135 -103 -186h54l-32 -184h-284l32 184l2 10c67 27 115 84 128 156c9 49 0 89 -27 121c-27 33 -65 49 -114 49s-93 -16 -131 -49c-38 -32 -61 -72 -70 -121c-13 -71 15 -129 72 -156l-20 -114l-14 -80h-284l32 184h54c-37 53 -50 115 -37 186
c18 102 68 185 150 249c83 65 177 97 282 97s188 -32 247 -97c60 -64 81 -147 63 -249z" />
    <glyph glyph-name="pi" unicode="&#x3c0;" horiz-adv-x="650" 
d="M54 500h630l-31 -176h-70l-57 -324h-185l57 324h-120l-57 -324h-185l57 324h-70z" />
    <glyph glyph-name="uni0401" unicode="&#x401;" horiz-adv-x="540" 
d="M326 755c-39 -33 -92 -33 -120 0c-27 33 -18 87 21 120c40 33 93 33 120 0c28 -33 19 -87 -21 -120zM526 755c-39 -33 -92 -33 -120 0c-27 33 -18 87 21 120c40 33 93 33 120 0c28 -33 19 -87 -21 -120zM584 700l-32 -182h-255l-13 -76h230l-32 -180h-230l-14 -78h260
l-32 -184h-460l123 700h455z" />
    <glyph glyph-name="uni0402" unicode="&#x402;" horiz-adv-x="695" 
d="M504 434c128 0 187 -68 164 -195l-7 -39c-15 -85 -43 -144 -84 -176c-41 -31 -105 -45 -194 -40l30 171c33 -4 46 10 53 45l3 14c8 44 -31 52 -105 31l-43 -245h-200l89 506h-155l34 194h530l-34 -194h-175l-15 -87c35 10 71 15 109 15z" />
    <glyph glyph-name="uni0403" unicode="&#x403;" horiz-adv-x="480" 
d="M345 899h215l-137 -150h-179zM6 0l123 700h430l-34 -194h-230l-89 -506h-200z" />
    <glyph glyph-name="uni0404" unicode="&#x404;" horiz-adv-x="721" 
d="M375 175c57 0 105 28 143 83l166 -105c-72 -107 -189 -169 -324 -169c-109 0 -193 36 -253 107c-59 71 -80 161 -63 269c17 104 64 189 141 256c78 67 168 100 271 100c140 0 243 -67 295 -172l-183 -97c-21 52 -64 78 -130 78c-67 0 -127 -32 -164 -85h211l-32 -180
h-209c19 -52 64 -85 131 -85z" />
    <glyph glyph-name="uni0405" unicode="&#x405;" horiz-adv-x="591" 
d="M267 -16c-152 0 -245 65 -278 176l173 89c21 -53 62 -80 122 -80c47 0 73 12 78 37c3 16 -5 28 -25 37c-10 5 -19 9 -28 12c-17 7 -56 18 -73 23c-124 43 -176 120 -157 230c11 63 42 113 92 151s111 57 183 57c120 0 207 -58 251 -163l-169 -90c-17 45 -49 68 -95 68
c-35 0 -55 -12 -60 -36c-3 -15 3 -27 18 -36s45 -22 90 -37c57 -19 90 -34 129 -69c40 -35 54 -90 42 -163c-24 -136 -130 -206 -293 -206z" />
    <glyph glyph-name="uni0406" unicode="&#x406;" horiz-adv-x="300" 
d="M6 0l123 700h200l-123 -700h-200z" />
    <glyph glyph-name="uni0407" unicode="&#x407;" horiz-adv-x="300" 
d="M198 755c-39 -33 -92 -33 -120 0c-27 33 -18 87 21 120c40 33 93 33 120 0c28 -33 19 -87 -21 -120zM398 755c-39 -33 -92 -33 -120 0c-27 33 -18 87 21 120c40 33 93 33 120 0c28 -33 19 -87 -21 -120zM6 0l123 700h200l-123 -700h-200z" />
    <glyph glyph-name="uni0408" unicode="&#x408;" horiz-adv-x="568" 
d="M236 -16c-119 0 -198 50 -237 149l179 95c15 -37 35 -50 70 -50c45 0 70 19 77 57l82 465h200l-83 -470c-29 -164 -125 -246 -288 -246z" />
    <glyph glyph-name="uni0409" unicode="&#x409;" horiz-adv-x="925" 
d="M641 481h60c65 0 119 -23 163 -70s60 -107 47 -181c-13 -75 -46 -132 -101 -172c-55 -39 -119 -59 -194 -59h-200v1h-60l89 506h-104l-43 -246c-43 -245 -196 -276 -342 -262l32 186c71 -4 99 16 114 100l73 416h504zM667 287h-61l-16 -94h60c36 0 57 16 63 47
s-9 47 -46 47z" />
    <glyph glyph-name="uni040A" unicode="&#x40a;" horiz-adv-x="935" 
d="M651 482h61c65 0 119 -23 163 -70s60 -107 47 -181c-13 -75 -46 -132 -101 -172c-55 -39 -119 -59 -194 -59h-261l51 288h-160l-51 -288h-200l123 700h200l-38 -218h160l38 218h200zM678 288h-61l-17 -94h61c36 0 57 16 63 47s-9 47 -46 47z" />
    <glyph glyph-name="uni040B" unicode="&#x40b;" horiz-adv-x="700" 
d="M510 444c118 0 171 -65 159 -195l-43 -249h-195l39 224c5 31 -11 42 -43 42c-17 0 -37 -3 -61 -9l-45 -257h-200l89 506h-155l34 194h530l-34 -194h-175l-14 -78c42 11 80 16 114 16z" />
    <glyph glyph-name="uni040C" unicode="&#x40c;" horiz-adv-x="636" 
d="M415 899h215l-137 -150h-179zM486 700h232l-277 -351l161 -349h-209l-134 301l-53 -301h-200l123 700h200l-47 -270z" />
    <glyph glyph-name="uni040E" unicode="&#x40e;" horiz-adv-x="650" 
d="M269 898h350l-26 -150h-350zM370 433l139 267h220l-281 -484c-45 -77 -98 -132 -157 -165s-133 -50 -221 -51l33 186c53 1 99 17 138 48l-152 466h200z" />
    <glyph glyph-name="uni040F" unicode="&#x40f;" horiz-adv-x="650" 
d="M390 194l89 506h200l-123 -700h-175l-24 -134h-200l24 134h-175l123 700h200l-89 -506h150z" />
    <glyph glyph-name="uni0410" unicode="&#x410;" horiz-adv-x="660" 
d="M626 0h-209l-8 90h-202l-40 -90h-221l346 700h234zM374 465l-96 -215h116z" />
    <glyph glyph-name="uni0411" unicode="&#x411;" horiz-adv-x="600" 
d="M284 444h110c67 0 118 -22 153 -65c36 -43 48 -97 37 -164c-24 -136 -117 -215 -268 -215h-310l123 700h480l-34 -194h-280zM349 270h-96l-15 -90h95c27 0 48 17 53 45s-10 45 -37 45z" />
    <glyph glyph-name="uni0412" unicode="&#x412;" horiz-adv-x="605" 
d="M612 493c-12 -61 -44 -107 -95 -138c53 -37 74 -90 63 -159c-17 -117 -121 -196 -278 -196h-296l123 700h268c76 0 134 -20 173 -59s53 -88 42 -148zM365 528h-66l-17 -94l77 1c29 4 46 19 51 46c5 33 -16 47 -45 47zM385 222c5 29 -6 45 -34 49l-97 1l-18 -100h84
c33 0 58 19 65 50z" />
    <glyph glyph-name="uni0413" unicode="&#x413;" horiz-adv-x="480" 
d="M129 700h430l-34 -194h-230l-89 -506h-200z" />
    <glyph glyph-name="uni0414" unicode="&#x414;" horiz-adv-x="715" 
d="M200 700h509l-89 -506h75l-58 -328h-200l24 134h-299l-24 -134h-200l57 328h74c37 51 64 122 80 212zM280 194h140l57 322h-109l-20 -112c-16 -89 -39 -159 -68 -210z" />
    <glyph glyph-name="uni0415" unicode="&#x415;" horiz-adv-x="540" 
d="M584 700l-32 -182h-255l-13 -76h230l-32 -180h-230l-14 -78h260l-32 -184h-460l123 700h455z" />
    <glyph glyph-name="uni0416" unicode="&#x416;" horiz-adv-x="932" 
d="M787 700h224l-254 -360l122 -340h-209l-93 311l-55 -311h-200l52 297l-194 -297h-224l259 364l-123 336h209l92 -297l52 297h200l-53 -303z" />
    <glyph glyph-name="uni0417" unicode="&#x417;" horiz-adv-x="564" 
d="M571 493c-11 -65 -45 -113 -100 -142c57 -40 80 -95 67 -165c-23 -127 -126 -202 -298 -202c-131 0 -215 54 -252 161l175 93c13 -43 46 -64 99 -64c47 0 74 16 81 48c5 27 -9 42 -42 45l-106 1l30 170l83 1c35 2 55 17 60 45c5 31 -16 46 -53 46c-42 0 -74 -22 -95 -65
l-159 104c59 95 162 147 282 147c75 0 134 -21 178 -64c45 -43 61 -96 50 -159z" />
    <glyph glyph-name="uni0418" unicode="&#x418;" horiz-adv-x="680" 
d="M166 0h-160l123 700h200l-54 -310l274 310h160l-123 -700h-200l54 310z" />
    <glyph glyph-name="uni0419" unicode="&#x419;" horiz-adv-x="680" 
d="M588 749h-350l26 150h350zM166 0h-160l123 700h200l-54 -310l274 310h160l-123 -700h-200l54 310z" />
    <glyph glyph-name="uni041A" unicode="&#x41a;" horiz-adv-x="636" 
d="M486 700h232l-277 -351l161 -349h-209l-134 301l-53 -301h-200l123 700h200l-47 -270z" />
    <glyph glyph-name="uni041B" unicode="&#x41b;" horiz-adv-x="660" 
d="M-44 -2l32 186c71 -4 99 16 114 100l73 416h514l-123 -700h-200l89 506h-114l-43 -246c-42 -240 -186 -276 -342 -262z" />
    <glyph glyph-name="uni041C" unicode="&#x41c;" horiz-adv-x="830" 
d="M649 700h210l-123 -700h-200l59 337l-196 -258h-18l-114 271l-61 -350h-200l123 700h200l105 -287z" />
    <glyph glyph-name="uni041D" unicode="&#x41d;" horiz-adv-x="670" 
d="M455 452l44 248h200l-123 -700h-200l45 258h-170l-45 -258h-200l123 700h200l-44 -248h170z" />
    <glyph glyph-name="uni041E" unicode="&#x41e;" horiz-adv-x="792" 
d="M369 -16c-76 0 -141 19 -195 56c-108 76 -149 197 -129 322c16 97 62 180 137 249c76 70 169 105 280 105c115 0 209 -47 261 -118s75 -163 60 -256c-15 -97 -60 -181 -135 -252c-74 -71 -167 -106 -279 -106zM270 228c27 -32 65 -48 114 -48s93 16 131 48
c38 33 61 73 70 122s0 89 -27 121c-27 33 -65 49 -114 49s-93 -16 -131 -49c-38 -32 -61 -72 -70 -121s0 -89 27 -122z" />
    <glyph glyph-name="uni041F" unicode="&#x41f;" horiz-adv-x="650" 
d="M129 700h550l-123 -700h-200l89 506h-150l-89 -506h-200z" />
    <glyph glyph-name="uni0420" unicode="&#x420;" horiz-adv-x="595" 
d="M129 700h275c68 0 123 -24 166 -72c43 -47 59 -110 48 -189c-11 -73 -42 -132 -95 -176c-52 -43 -119 -65 -202 -65h-80l-35 -198h-200zM420 449c7 37 -19 57 -50 57h-75l-20 -114h80c31 0 60 22 65 57z" />
    <glyph glyph-name="uni0421" unicode="&#x421;" horiz-adv-x="721" 
d="M360 -16c-109 0 -193 36 -253 107c-59 71 -80 161 -63 269c17 104 64 189 141 256c78 67 168 100 271 100c137 0 236 -57 295 -172l-183 -97c-27 49 -71 73 -130 73c-48 0 -90 -16 -127 -48s-59 -73 -68 -122c-8 -47 0 -88 24 -121s60 -49 108 -49c55 0 103 26 143 78
l166 -105c-72 -107 -189 -169 -324 -169z" />
    <glyph glyph-name="uni0422" unicode="&#x422;" horiz-adv-x="550" 
d="M89 700h530l-34 -194h-165l-89 -506h-200l89 506h-165z" />
    <glyph glyph-name="uni0423" unicode="&#x423;" horiz-adv-x="650" 
d="M370 433l139 267h220l-281 -484c-45 -77 -98 -132 -157 -165s-133 -50 -221 -51l33 186c53 1 99 17 138 48l-152 466h200z" />
    <glyph glyph-name="uni0424" unicode="&#x424;" horiz-adv-x="844" 
d="M600 720l-15 -85c92 -13 161 -47 206 -100c46 -53 62 -118 49 -195c-28 -157 -151 -256 -356 -277l-15 -83h-190l15 85c-92 13 -161 46 -207 99s-62 119 -48 196c27 157 151 256 356 277l15 83h190zM238 350c-11 -59 15 -90 88 -103l38 212c-77 -13 -115 -48 -126 -109z
M642 350c11 61 -15 96 -88 109l-38 -212c79 13 115 44 126 103z" />
    <glyph glyph-name="uni0425" unicode="&#x425;" horiz-adv-x="645" 
d="M491 700h228l-268 -351l150 -349h-216l-72 168l-129 -168h-228l275 359l-147 341h216l69 -160z" />
    <glyph glyph-name="uni0426" unicode="&#x426;" horiz-adv-x="715" 
d="M699 700l-89 -506h85l-58 -328h-200l24 134h-455l123 700h210l-89 -506h150l89 506h210z" />
    <glyph glyph-name="uni0427" unicode="&#x427;" horiz-adv-x="660" 
d="M437 404l52 296h200l-123 -700h-200l37 210c-29 -5 -60 -8 -92 -8c-183 0 -262 98 -234 258l42 240h200l-41 -236c-8 -47 20 -67 81 -68c24 0 50 3 78 8z" />
    <glyph glyph-name="uni0428" unicode="&#x428;" horiz-adv-x="960" 
d="M700 194l89 506h200l-123 -700h-860l123 700h200l-89 -506h130l89 506h200l-89 -506h130z" />
    <glyph glyph-name="uni0429" unicode="&#x429;" horiz-adv-x="1005" 
d="M989 700l-89 -506h85l-58 -328h-200l24 134h-745l123 700h200l-89 -506h130l89 506h200l-89 -506h130l89 506h200z" />
    <glyph glyph-name="uni042A" unicode="&#x42a;" horiz-adv-x="705" 
d="M396 0h-280l90 506h-160l33 194h360l-35 -198h81c67 0 122 -25 164 -74c43 -49 57 -112 44 -187c-27 -151 -136 -241 -297 -241zM370 308l-20 -114h80c31 0 60 22 65 57c7 35 -14 57 -45 57h-80z" />
    <glyph glyph-name="uni042B" unicode="&#x42b;" horiz-adv-x="890" 
d="M286 0h-280l123 700h200l-35 -198h81c67 0 122 -25 164 -74c43 -49 57 -112 44 -187c-27 -151 -136 -241 -297 -241zM796 -1h-200l123 700h200zM260 308l-20 -114h80c31 0 60 22 65 57c7 35 -14 57 -45 57h-80z" />
    <glyph glyph-name="uni042C" unicode="&#x42c;" horiz-adv-x="595" 
d="M294 502h81c67 0 122 -25 164 -74c43 -49 57 -112 44 -187c-27 -151 -136 -241 -297 -241h-280l123 700h200zM385 251c7 35 -14 57 -45 57h-80l-20 -114h80c31 0 60 22 65 57z" />
    <glyph glyph-name="uni042D" unicode="&#x42d;" horiz-adv-x="721" 
d="M395 716c105 0 188 -36 249 -107s84 -161 68 -269c-15 -101 -60 -185 -134 -254c-74 -68 -165 -102 -274 -102c-141 0 -245 64 -297 172l180 95c26 -51 71 -76 135 -76c69 0 123 28 162 85h-212l32 180h211c-16 53 -63 85 -128 85s-122 -30 -155 -78l-159 101
c71 104 191 168 322 168z" />
    <glyph glyph-name="uni042E" unicode="&#x42e;" horiz-adv-x="1077" 
d="M753 716c119 0 212 -47 261 -119s69 -162 54 -257c-15 -92 -60 -178 -131 -246c-69 -67 -174 -110 -293 -110c-85 0 -157 26 -214 78c-57 53 -88 120 -95 201h-83l-46 -263h-200l123 700h200l-43 -243h82c33 79 84 141 153 188s147 71 232 71zM800 228
c38 33 61 73 70 122s0 89 -27 121c-27 33 -65 49 -114 49s-93 -16 -131 -49c-38 -32 -61 -72 -70 -121s0 -89 27 -122c27 -32 65 -48 114 -48s93 16 131 48z" />
    <glyph glyph-name="uni042F" unicode="&#x42f;" horiz-adv-x="630" 
d="M380 701h280l-124 -700h-200l39 220h-17l-164 -220h-228l196 254c-76 45 -107 135 -87 224c13 63 47 115 100 158s122 64 205 64zM270 452c-7 -40 18 -68 58 -67h76l23 132h-76c-41 0 -73 -25 -81 -65z" />
    <glyph glyph-name="uni0430" unicode="&#x430;" horiz-adv-x="606" 
d="M415 444l10 56h185l-88 -500h-185l8 44c-39 -39 -85 -58 -140 -58c-67 0 -117 26 -151 78c-33 52 -45 115 -35 188s38 134 85 185s106 77 175 77c64 0 109 -23 136 -70zM276 156c55 0 93 36 104 91l1 3c9 55 -17 94 -72 94s-97 -38 -106 -94c-9 -55 17 -94 73 -94z" />
    <glyph glyph-name="uni0431" unicode="&#x431;" 
d="M266 -16c-85 0 -150 27 -195 81c-44 54 -59 124 -44 211c29 168 97 261 228 320l38 17l34 15c7 3 16 8 28 13c25 12 30 15 47 24s21 13 33 21c18 13 25 23 36 40l137 -85c-17 -37 -41 -66 -71 -88c-30 -21 -73 -43 -128 -64c-54 -21 -91 -36 -111 -47s-36 -25 -49 -43
c37 26 79 39 128 39c55 0 102 -22 140 -66c39 -43 52 -98 41 -164c-24 -136 -132 -224 -292 -224zM279 139c47 0 87 32 94 76c8 45 -22 78 -69 78c-44 0 -87 -30 -95 -75c-8 -47 22 -79 70 -79z" />
    <glyph glyph-name="uni0432" unicode="&#x432;" horiz-adv-x="524" 
d="M511 347c-7 -45 -32 -77 -75 -97c45 -25 62 -63 53 -112c-16 -92 -84 -138 -203 -138h-290l88 500h275c109 0 168 -64 152 -153zM302 371h-61l-11 -62h61c23 0 36 10 39 30c4 21 -5 32 -28 32zM308 161c3 20 -6 30 -29 30h-69l-11 -62h69c23 0 36 11 40 32z" />
    <glyph glyph-name="uni0433" unicode="&#x433;" horiz-adv-x="410" 
d="M84 500h370l-31 -176h-185l-57 -324h-185l57 324z" />
    <glyph glyph-name="uni0434" unicode="&#x434;" horiz-adv-x="600" 
d="M569 500l-57 -324h65l-55 -310h-175l24 134h-240l-24 -134h-175l55 310h55c32 40 54 96 66 167l28 157h433zM235 176h97l28 160h-73c-13 -68 -31 -121 -52 -160z" />
    <glyph glyph-name="uni0435" unicode="&#x435;" horiz-adv-x="553" 
d="M316 514c77 0 137 -26 178 -77c42 -51 57 -113 44 -185c-3 -21 -10 -43 -19 -65h-326c11 -33 40 -50 89 -50c38 0 69 11 92 32l107 -108c-58 -50 -130 -75 -216 -75c-90 0 -157 26 -200 79s-58 118 -45 195c12 73 46 134 101 182s120 72 195 72zM211 306h165
c-3 40 -25 60 -67 60c-45 0 -77 -20 -98 -60z" />
    <glyph glyph-name="uni0436" unicode="&#x436;" horiz-adv-x="789" 
d="M626 500h207l-187 -263l92 -237h-193l-67 198l-35 -198h-185l33 186l-133 -186h-202l188 256l-84 244h192l60 -192l34 192h185l-35 -200z" />
    <glyph glyph-name="uni0437" unicode="&#x437;" horiz-adv-x="460" 
d="M448 355c-9 -47 -36 -82 -79 -103c45 -27 63 -69 54 -126c-16 -89 -100 -142 -229 -142c-113 0 -185 40 -215 121l147 76c15 -35 35 -49 75 -49c26 0 40 9 43 27c3 16 -11 27 -32 27h-48l22 126h46c21 0 32 8 35 25s-12 29 -33 29c-31 0 -55 -16 -73 -47l-127 83
c64 80 131 112 235 112c55 0 100 -16 136 -49c36 -32 50 -69 43 -110z" />
    <glyph glyph-name="uni0438" unicode="&#x438;" horiz-adv-x="580" 
d="M227 293l208 207h149l-88 -500h-180l36 207l-207 -207h-149l88 500h180z" />
    <glyph glyph-name="uni0439" unicode="&#x439;" horiz-adv-x="580" 
d="M518 549h-350l26 150h350zM227 293l208 207h149l-88 -500h-180l36 207l-207 -207h-149l88 500h180z" />
    <glyph glyph-name="uni043A" unicode="&#x43a;" horiz-adv-x="550" 
d="M379 500h205l-196 -250l118 -250h-205l-85 200l-35 -200h-185l88 500h185l-35 -196z" />
    <glyph glyph-name="uni043B" unicode="&#x43b;" horiz-adv-x="582" 
d="M126 500h460l-88 -500h-185l57 324h-90l-21 -117c-29 -171 -113 -230 -293 -207l30 170c48 -11 74 12 86 77z" />
    <glyph glyph-name="uni043C" unicode="&#x43c;" horiz-adv-x="658" 
d="M467 500h195l-88 -500h-180l39 219l-127 -154h-18l-73 156l-39 -221h-180l88 500h180l68 -171z" />
    <glyph glyph-name="uni043D" unicode="&#x43d;" horiz-adv-x="570" 
d="M360 338l29 162h185l-88 -500h-185l29 162h-120l-29 -162h-185l88 500h185l-29 -162h120z" />
    <glyph glyph-name="uni043E" unicode="&#x43e;" horiz-adv-x="574" 
d="M20 262c12 69 45 129 99 178s122 74 205 74c80 0 141 -28 184 -85c43 -56 59 -120 46 -191c-13 -69 -46 -129 -100 -178c-53 -49 -121 -74 -203 -74s-144 28 -187 84c-42 56 -57 120 -44 192zM211 186c13 -16 32 -24 57 -24s46 8 64 24c19 17 30 38 35 64s1 47 -12 63
c-25 33 -84 33 -121 0c-19 -16 -30 -37 -35 -63s-1 -47 12 -64z" />
    <glyph glyph-name="uni043F" unicode="&#x43f;" horiz-adv-x="570" 
d="M84 500h490l-88 -500h-185l57 324h-120l-57 -324h-185z" />
    <glyph glyph-name="uni0440" unicode="&#x440;" horiz-adv-x="606" 
d="M396 514c65 0 117 -27 154 -81c37 -53 49 -118 36 -193c-13 -76 -44 -137 -91 -184s-102 -70 -167 -70c-64 0 -110 23 -137 70l-45 -256h-185l123 700h185l-7 -39c35 35 80 53 134 53zM403 250c11 57 -19 94 -72 94s-94 -35 -105 -90l-2 -8c-8 -55 20 -90 73 -90
c55 0 97 37 106 94z" />
    <glyph glyph-name="uni0441" unicode="&#x441;" horiz-adv-x="529" 
d="M255 -14c-81 0 -144 26 -188 79s-60 118 -47 195c13 75 47 136 103 183s121 71 195 71c105 0 178 -53 217 -132l-168 -88c-11 28 -33 42 -66 42c-49 0 -89 -35 -98 -86c-9 -49 20 -86 67 -86c34 0 61 15 80 44l145 -92c-51 -85 -140 -130 -240 -130z" />
    <glyph glyph-name="uni0442" unicode="&#x442;" horiz-adv-x="470" 
d="M49 500h460l-31 -176h-136l-57 -324h-186l57 324h-138z" />
    <glyph glyph-name="uni0443" unicode="&#x443;" horiz-adv-x="570" 
d="M288 234l108 266h218l-251 -485c-83 -161 -204 -232 -363 -215l31 175c69 0 100 10 124 45l-111 480h202z" />
    <glyph glyph-name="uni0444" unicode="&#x444;" horiz-adv-x="730" 
d="M534 700l-34 -193c164 -28 234 -133 211 -265c-24 -136 -125 -230 -302 -253l-33 -189h-180l34 191c-164 28 -234 132 -211 267c24 135 124 228 301 251l34 191h180zM528 250c9 44 -11 73 -58 86l-30 -172c50 13 79 41 88 86zM202 250c-9 -44 11 -73 58 -86l30 172
c-50 -13 -79 -41 -88 -86z" />
    <glyph glyph-name="uni0445" unicode="&#x445;" horiz-adv-x="570" 
d="M397 500h209l-221 -250l141 -250h-192l-66 117l-103 -117h-209l231 261l-135 239h192l60 -106z" />
    <glyph glyph-name="uni0446" unicode="&#x446;" horiz-adv-x="615" 
d="M564 500l-57 -324h85l-55 -310h-175l24 134h-390l88 500h185l-57 -324h110l57 324h185z" />
    <glyph glyph-name="uni0447" unicode="&#x447;" horiz-adv-x="540" 
d="M323 295l36 205h185l-88 -500h-185l22 128c-27 -6 -54 -9 -82 -9c-156 0 -197 106 -180 199l33 182h185l-27 -150c-8 -41 11 -61 56 -61c14 0 29 2 45 6z" />
    <glyph glyph-name="uni0448" unicode="&#x448;" horiz-adv-x="830" 
d="M592 176l57 324h185l-88 -500h-750l88 500h185l-57 -324h100l57 324h180l-57 -324h100z" />
    <glyph glyph-name="uni0449" unicode="&#x449;" horiz-adv-x="875" 
d="M824 500l-57 -324h85l-55 -310h-175l24 134h-650l88 500h185l-57 -324h95l57 324h180l-57 -324h95l57 324h185z" />
    <glyph glyph-name="uni044A" unicode="&#x44a;" horiz-adv-x="580" 
d="M316 370h79c55 0 98 -18 129 -55c32 -37 43 -83 33 -140c-21 -117 -97 -175 -227 -175h-264l57 324h-109l30 176h295zM346 220h-56l-13 -70h56c27 0 42 12 46 35s-7 35 -33 35z" />
    <glyph glyph-name="uni044B" unicode="&#x44b;" horiz-adv-x="755" 
d="M246 370h79c55 0 98 -18 129 -55c32 -37 43 -83 33 -140c-21 -117 -97 -175 -227 -175h-264l88 500h185zM486 0l88 500h185l-88 -500h-185zM276 220h-56l-13 -70h56c27 0 42 12 46 35s-7 35 -33 35z" />
    <glyph glyph-name="uni044C" unicode="&#x44c;" horiz-adv-x="510" 
d="M246 370h79c55 0 98 -18 129 -55c32 -37 43 -83 33 -140c-21 -117 -97 -175 -227 -175h-264l88 500h185zM276 220h-56l-13 -70h56c27 0 42 12 46 35s-7 35 -33 35z" />
    <glyph glyph-name="uni044D" unicode="&#x44d;" horiz-adv-x="529" 
d="M280 514c82 0 144 -27 186 -80s56 -117 43 -194c-14 -77 -47 -139 -100 -185s-120 -69 -202 -69c-95 0 -178 54 -213 131l152 80c13 -36 41 -54 84 -54c35 0 65 12 88 37h-130l24 140h130c-14 25 -39 37 -74 37c-44 0 -78 -19 -102 -57l-132 84c55 80 146 130 246 130z
" />
    <glyph glyph-name="uni044E" unicode="&#x44e;" horiz-adv-x="798" 
d="M548 514c175 0 257 -137 231 -272c-11 -70 -44 -130 -99 -181c-54 -50 -122 -75 -205 -75c-125 0 -201 72 -220 176h-45l-29 -162h-185l88 500h185l-29 -162h39c47 104 141 176 269 176zM560 186c19 17 30 38 35 64s1 47 -12 63c-25 33 -84 33 -121 0
c-19 -16 -30 -37 -35 -63s-1 -47 12 -64c13 -16 32 -24 57 -24s46 8 64 24z" />
    <glyph glyph-name="uni044F" unicode="&#x44f;" horiz-adv-x="541" 
d="M281 500h264l-88 -500h-185l25 140h-13l-113 -140h-210l150 176c-47 36 -66 85 -58 148c6 47 29 88 70 123s93 53 158 53zM265 280h56l13 70h-56c-53 0 -62 -70 -13 -70z" />
    <glyph glyph-name="uni0451" unicode="&#x451;" horiz-adv-x="553" 
d="M298 565c-39 -33 -92 -33 -120 0c-27 33 -18 87 21 120c40 33 93 33 120 0c28 -33 19 -87 -21 -120zM498 565c-39 -33 -92 -33 -120 0c-27 33 -18 87 21 120c40 33 93 33 120 0c28 -33 19 -87 -21 -120zM316 514c77 0 137 -26 178 -77c42 -51 57 -113 44 -185
c-3 -21 -10 -43 -19 -65h-326c11 -33 40 -50 89 -50c38 0 69 11 92 32l107 -108c-58 -50 -130 -75 -216 -75c-90 0 -157 26 -200 79s-58 118 -45 195c12 73 46 134 101 182s120 72 195 72zM211 306h165c-3 40 -25 60 -67 60c-45 0 -77 -20 -98 -60z" />
    <glyph glyph-name="uni0452" unicode="&#x452;" horiz-adv-x="590" 
d="M413 489c107 0 169 -81 144 -225l-46 -264c-15 -83 -44 -141 -89 -174c-44 -33 -110 -47 -199 -42l29 166c43 -4 67 13 74 50l42 244c8 45 -9 67 -50 67c-40 0 -66 -22 -79 -65l-43 -246h-185l93 531h-54l21 119h54l9 50h185l-9 -50h131l-21 -119h-131l-18 -104
c38 41 85 62 142 62z" />
    <glyph glyph-name="uni0453" unicode="&#x453;" horiz-adv-x="410" 
d="M260 700h215l-137 -150h-179zM53 324l31 176h370l-31 -176h-185l-57 -324h-185z" />
    <glyph glyph-name="uni0454" unicode="&#x454;" horiz-adv-x="529" 
d="M261 143c44 0 78 19 102 57l132 -84c-55 -80 -146 -130 -246 -130c-80 0 -142 27 -185 80s-57 118 -44 194s47 137 102 184s122 70 200 70c95 0 178 -54 213 -131l-152 -80c-13 36 -41 54 -84 54c-35 0 -65 -12 -88 -37h130l-24 -140h-130c14 -25 39 -37 74 -37z" />
    <glyph glyph-name="uni0455" unicode="&#x455;" horiz-adv-x="479" 
d="M215 -14c-117 0 -193 34 -230 123l157 75c15 -38 41 -57 78 -57c24 0 37 7 40 21c4 19 -33 31 -80 44c-67 18 -152 59 -132 170c6 35 21 64 45 88c49 48 109 64 176 64c96 0 172 -39 205 -116l-148 -69c-12 31 -32 47 -59 49c-20 1 -32 -6 -35 -22
c-13 -66 250 -14 212 -222c-9 -52 -36 -90 -79 -113s-93 -35 -150 -35z" />
    <glyph glyph-name="uni0456" unicode="&#x456;" horiz-adv-x="265" 
d="M99 640c4 27 17 50 40 71s49 31 79 31c29 0 51 -10 68 -31c17 -20 23 -44 18 -71c-9 -56 -61 -102 -118 -102c-29 0 -52 10 -69 30c-17 21 -23 45 -18 72zM181 0h-185l88 500h185z" />
    <glyph glyph-name="uni0457" unicode="&#x457;" horiz-adv-x="265" 
d="M144 555c-39 -33 -92 -33 -120 0c-27 33 -18 87 21 120c40 33 93 33 120 0c28 -33 19 -87 -21 -120zM344 555c-39 -33 -92 -33 -120 0c-27 33 -18 87 21 120c40 33 93 33 120 0c28 -33 19 -87 -21 -120zM181 0h-185l88 500h185z" />
    <glyph glyph-name="uni0458" unicode="&#x458;" horiz-adv-x="280" 
d="M233 742c29 0 51 -10 68 -31c17 -20 23 -44 18 -71c-9 -56 -61 -102 -118 -102c-29 0 -52 10 -69 30c-17 21 -23 45 -18 72c4 27 17 50 40 71s49 31 79 31zM11 0l88 500h185l-88 -500c-28 -165 -116 -225 -288 -216l29 166c43 -4 67 13 74 50z" />
    <glyph glyph-name="uni0459" unicode="&#x459;" horiz-adv-x="802" 
d="M556 360h69c48 0 88 -18 120 -54s43 -81 33 -136c-20 -112 -101 -170 -216 -170h-254l57 324h-85l-21 -117c-29 -171 -113 -230 -293 -207l30 170c48 -11 74 12 86 77l44 253h455zM576 210h-46l-11 -60h46c38 -3 49 63 11 60z" />
    <glyph glyph-name="uni045A" unicode="&#x45a;" horiz-adv-x="785" 
d="M539 360h69c48 0 88 -18 120 -54s43 -81 33 -136c-20 -112 -101 -170 -216 -170h-254l34 194h-110l-34 -194h-185l88 500h185l-25 -140h110l25 140h185zM559 210h-46l-11 -60h46c38 -3 49 63 11 60z" />
    <glyph glyph-name="uni045B" unicode="&#x45b;" horiz-adv-x="590" 
d="M413 489c107 0 169 -81 144 -225l-46 -264h-185l42 244c8 45 -9 67 -50 67c-40 0 -66 -22 -79 -65l-43 -246h-185l93 531h-54l21 119h54l9 50h185l-9 -50h131l-21 -119h-131l-18 -104c38 41 85 62 142 62z" />
    <glyph glyph-name="uni045C" unicode="&#x45c;" horiz-adv-x="550" 
d="M320 700h215l-137 -150h-179zM379 500h205l-196 -250l118 -250h-205l-85 200l-35 -200h-185l88 500h185l-35 -196z" />
    <glyph glyph-name="uni045E" unicode="&#x45e;" horiz-adv-x="570" 
d="M180 699h350l-26 -150h-350zM288 234l108 266h218l-251 -485c-83 -161 -204 -232 -363 -215l31 175c69 0 100 10 124 45l-111 480h202z" />
    <glyph glyph-name="uni045F" unicode="&#x45f;" horiz-adv-x="570" 
d="M332 176l57 324h185l-88 -500h-158l-23 -134h-175l23 134h-157l88 500h185l-57 -324h120z" />
    <glyph glyph-name="uni0490" unicode="&#x490;" horiz-adv-x="480" 
d="M360 700l21 120h200l-56 -314h-230l-89 -506h-200l123 700h231z" />
    <glyph glyph-name="uni0491" unicode="&#x491;" horiz-adv-x="410" 
d="M279 500l18 104h175l-49 -280h-185l-57 -324h-185l57 324l31 176h195z" />
    <glyph glyph-name="Wgrave" unicode="&#x1e80;" horiz-adv-x="1010" 
d="M682 750h-170l-94 150h206zM154 0h197l176 374l44 -374h197l321 700h-221l-168 -385l-46 385h-158l-181 -385l-31 385h-205z" />
    <glyph glyph-name="wgrave" unicode="&#x1e81;" horiz-adv-x="801" 
d="M490 700l58 -150h-170l-94 150h206zM539 235l105 265h200l-233 -500h-188l-21 234l-98 -234h-193l-57 500h185l15 -277l115 277h145z" />
    <glyph glyph-name="Wacute" unicode="&#x1e82;" horiz-adv-x="1010" 
d="M502 750l101 150h215l-137 -150h-179zM154 0h197l176 374l44 -374h197l321 700h-221l-168 -385l-46 385h-158l-181 -385l-31 385h-205z" />
    <glyph glyph-name="wacute" unicode="&#x1e83;" horiz-adv-x="801" 
d="M469 700h215l-137 -150h-179zM539 235l105 265h200l-233 -500h-188l-21 234l-98 -234h-193l-57 500h185l15 -277l115 277h145z" />
    <glyph glyph-name="Wdieresis" unicode="&#x1e84;" horiz-adv-x="1010" 
d="M552 755c-39 -33 -92 -33 -120 0c-27 33 -18 87 21 120c40 33 93 33 120 0c28 -33 19 -87 -21 -120zM752 755c-39 -33 -92 -33 -120 0c-27 33 -18 87 21 120c40 33 93 33 120 0c28 -33 19 -87 -21 -120zM351 0h-197l-75 700h205l31 -385l181 385h158l46 -385l168 385h221
l-321 -700h-197l-44 374z" />
    <glyph glyph-name="wdieresis" unicode="&#x1e85;" horiz-adv-x="801" 
d="M418 555c-39 -33 -92 -33 -120 0c-27 33 -18 87 21 120c40 33 93 33 120 0c28 -33 19 -87 -21 -120zM618 555c-39 -33 -92 -33 -120 0c-27 33 -18 87 21 120c40 33 93 33 120 0c28 -33 19 -87 -21 -120zM539 235l105 265h200l-233 -500h-188l-21 234l-98 -234h-193
l-57 500h185l15 -277l115 277h145z" />
    <glyph glyph-name="Ygrave" unicode="&#x1ef2;" horiz-adv-x="654" 
d="M447 900l58 -150h-170l-94 150h206zM499 700h234l-297 -397l-53 -303h-200l53 302l-157 398h210l68 -212z" />
    <glyph glyph-name="ygrave" unicode="&#x1ef3;" horiz-adv-x="570" 
d="M361 700l58 -150h-170l-94 150h206zM288 234l108 266h218l-251 -485c-83 -161 -204 -232 -363 -215l31 175c69 0 100 10 124 45l-111 480h202z" />
    <glyph glyph-name="endash" unicode="&#x2013;" horiz-adv-x="609" 
d="M553 217h-509l31 174h509z" />
    <glyph glyph-name="emdash" unicode="&#x2014;" horiz-adv-x="709" 
d="M653 217h-609l31 174h609z" />
    <glyph glyph-name="quoteleft" unicode="&#x2018;" horiz-adv-x="315" 
d="M265 365h-210l149 335h150z" />
    <glyph glyph-name="quoteright" unicode="&#x2019;" horiz-adv-x="315" 
d="M149 700h210l-149 -335h-150z" />
    <glyph glyph-name="quotesinglbase" unicode="&#x201a;" horiz-adv-x="315" 
d="M60 195h210l-149 -335h-150z" />
    <glyph glyph-name="quotedblleft" unicode="&#x201c;" horiz-adv-x="565" 
d="M265 365h-210l149 335h150zM515 365h-210l149 335h150z" />
    <glyph glyph-name="quotedblright" unicode="&#x201d;" horiz-adv-x="565" 
d="M149 700h210l-149 -335h-150zM399 700h210l-149 -335h-150z" />
    <glyph glyph-name="quotedblbase" unicode="&#x201e;" horiz-adv-x="565" 
d="M60 195h210l-149 -335h-150zM310 195h210l-149 -335h-150z" />
    <glyph glyph-name="dagger" unicode="&#x2020;" horiz-adv-x="460" 
d="M383 590h107l-31 -174h-107l-73 -416h-185l73 416h-108l31 174h108l19 110h185z" />
    <glyph glyph-name="daggerdbl" unicode="&#x2021;" horiz-adv-x="460" 
d="M490 590l-31 -174h-107l-23 -132h107l-31 -174h-107l-19 -110h-185l19 110h-108l31 174h108l23 132h-108l31 174h108l19 110h185l-19 -110h107z" />
    <glyph glyph-name="bullet" unicode="&#x2022;" horiz-adv-x="420" 
d="M199 170c-50 0 -90 18 -120 55c-29 37 -39 80 -30 130c9 49 33 91 73 124c41 34 86 51 136 51c49 0 89 -18 118 -55c29 -36 40 -79 31 -128c-9 -50 -33 -92 -74 -126c-40 -34 -85 -51 -134 -51z" />
    <glyph glyph-name="ellipsis" unicode="&#x2026;" horiz-adv-x="820" 
d="M104 -15c-64 0 -106 53 -95 117c5 32 21 59 47 80c26 22 55 33 88 33c64 0 105 -53 94 -117c-11 -65 -65 -113 -134 -113zM364 -15c-64 0 -106 53 -95 117c5 32 21 59 47 80c26 22 55 33 88 33c64 0 105 -53 94 -117c-11 -65 -65 -113 -134 -113zM624 -15
c-64 0 -106 53 -95 117c5 32 21 59 47 80c26 22 55 33 88 33c64 0 105 -53 94 -117c-11 -65 -65 -113 -134 -113z" />
    <glyph glyph-name="perthousand" unicode="&#x2030;" horiz-adv-x="1283" 
d="M244 336c-55 0 -99 19 -131 58c-31 39 -42 85 -33 138s35 96 76 131c42 35 91 53 147 53c55 0 98 -19 129 -58c32 -39 43 -85 34 -138s-35 -97 -76 -132s-90 -52 -146 -52zM197 69l-62 41l555 499l62 -41zM264 476c28 0 53 23 58 50c5 28 -12 50 -40 50s-52 -22 -57 -50
c-5 -27 12 -50 39 -50zM602 -16c-55 0 -99 19 -131 58c-31 39 -42 85 -33 138s35 96 76 131c42 35 91 53 147 53c55 0 98 -20 129 -59c32 -39 43 -84 34 -137s-35 -97 -76 -132s-90 -52 -146 -52zM1017 -16c-55 0 -99 19 -131 58c-31 39 -42 85 -33 138s35 96 76 131
c42 35 91 53 147 53c55 0 98 -20 129 -59c32 -39 43 -84 34 -137s-35 -97 -76 -132s-90 -52 -146 -52zM622 124c44 0 74 55 50 85c-22 33 -85 8 -89 -35c-5 -27 12 -50 39 -50zM1037 124c44 0 74 55 50 85c-22 33 -85 8 -89 -35c-5 -27 12 -50 39 -50z" />
    <glyph glyph-name="guilsinglleft" unicode="&#x2039;" horiz-adv-x="367" 
d="M206 509h157l-151 -206l78 -194h-150l-80 200z" />
    <glyph glyph-name="guilsinglright" unicode="&#x203a;" horiz-adv-x="368" 
d="M98 509h150l80 -200l-146 -200h-157l151 206z" />
    <glyph glyph-name="fraction" unicode="&#x2044;" horiz-adv-x="180" 
d="M439 700l-528 -700h-135l528 700h135z" />
    <glyph glyph-name="Euro" unicode="&#x20ac;" horiz-adv-x="643" 
d="M362 178c37 0 70 23 99 68l154 -97c-62 -110 -154 -165 -277 -165c-76 0 -137 24 -182 71c-45 48 -69 112 -74 191h-73l15 84h61c1 9 2 20 5 34c0 2 0 3 1 4h-60l15 84h66c56 168 174 264 335 264c113 0 191 -52 235 -157l-178 -93c-19 37 -46 56 -81 56
c-43 0 -77 -23 -103 -70h141l-15 -84h-156l-3 -18l-3 -20h155l-15 -84h-139c9 -45 34 -68 77 -68z" />
    <glyph glyph-name="uni20BD" unicode="&#x20bd;" horiz-adv-x="615" 
d="M150 701h280c68 0 123 -23 166 -68s59 -102 46 -173c-27 -151 -125 -227 -295 -227h-80l-7 -39h200l-17 -100h-201l-16 -93h-200l16 93h-59l17 100h60l7 39h-60l32 180h60zM395 507h-79l-17 -94h80c37 0 58 16 63 47s-10 47 -47 47z" />
    <glyph glyph-name="uni2116" unicode="&#x2116;" horiz-adv-x="1065" 
d="M886 356c-52 0 -93 18 -123 55s-41 80 -32 130c9 51 33 92 72 125s84 50 137 50s94 -18 124 -55c30 -36 40 -79 31 -130c-9 -50 -32 -92 -71 -125s-85 -50 -138 -50zM206 0h-200l123 700h160l161 -336l59 336h200l-123 -700h-160l-161 336zM906 496c24 0 42 16 46 40
c6 35 -33 55 -62 28c-28 -24 -19 -68 16 -68zM1012 146h-334l31 180h334z" />
    <glyph glyph-name="trademark" unicode="&#x2122;" horiz-adv-x="487" 
d="M283 700l-14 -77h-45l-22 -123h-80l22 123h-48l14 77h173zM451 700h85l-35 -200h-77l15 87l-47 -58h-8l-27 57l-15 -86h-77l35 200h77l26 -64z" />
    <glyph glyph-name="estimated" unicode="&#x212e;" horiz-adv-x="780" 
d="M471 710c107 0 190 -35 247 -105c58 -69 78 -154 60 -255c-2 -10 -8 -15 -18 -15h-560c-10 0 -16 -5 -18 -15l-33 -192c-2 -7 -1 -14 3 -19c46 -59 119 -89 218 -89c95 0 179 32 250 97c6 6 12 9 19 9h35c13 0 17 -10 6 -19c-87 -78 -192 -117 -316 -117
c-115 0 -203 36 -263 108c-59 72 -80 159 -62 262c18 101 67 185 146 251c80 66 175 99 286 99zM633 380l35 194c1 7 -1 14 -4 19c-45 58 -111 87 -198 87c-86 0 -162 -30 -229 -89c-6 -6 -9 -12 -10 -19l-34 -192c-2 -10 2 -15 12 -15h410c10 0 16 5 18 15z" />
    <glyph glyph-name="oneeighth" unicode="&#x215b;" horiz-adv-x="802" 
d="M55 0l528 700h135l-528 -700h-135zM120 300l43 240l-80 -18l-12 130l141 48h121l-71 -400h-142zM785 288c-6 -35 -26 -63 -59 -82c35 -26 48 -59 41 -100c-13 -76 -79 -120 -179 -120c-49 0 -86 12 -113 36s-37 55 -30 92c7 45 33 77 77 98c-27 22 -37 50 -31 84
c13 75 80 118 165 118c41 0 74 -12 100 -35s36 -54 29 -91zM611 280c-2 -14 5 -21 21 -21c17 0 27 7 29 21c3 15 -6 23 -21 23c-16 0 -26 -8 -29 -23zM641 127c3 16 -6 28 -27 28s-33 -9 -37 -28c-3 -19 6 -29 27 -29s34 10 37 29z" />
    <glyph glyph-name="threeeighths" unicode="&#x215c;" horiz-adv-x="846" 
d="M360 419c-15 -89 -76 -133 -181 -133c-84 0 -136 33 -155 98l117 61c7 -24 24 -36 51 -36c19 0 30 6 32 19s-4 20 -18 20h-34l-36 75l57 54h-114l22 123h292l-16 -89l-78 -74c51 -22 71 -61 61 -118zM99 0l528 700h135l-528 -700h-135zM829 288c-6 -35 -26 -63 -59 -82
c35 -26 48 -59 41 -100c-13 -76 -79 -120 -179 -120c-49 0 -86 12 -113 36s-37 55 -30 92c7 45 33 77 77 98c-27 22 -37 50 -31 84c13 75 80 118 165 118c41 0 74 -12 100 -35s36 -54 29 -91zM655 280c-2 -14 5 -21 21 -21c17 0 27 7 29 21c3 15 -6 23 -21 23
c-16 0 -26 -8 -29 -23zM685 127c3 16 -6 28 -27 28s-33 -9 -37 -28c-3 -19 6 -29 27 -29s34 10 37 29z" />
    <glyph glyph-name="fiveeighths" unicode="&#x215d;" horiz-adv-x="854" 
d="M346 414c-15 -85 -84 -128 -167 -128c-80 0 -132 32 -155 96l123 55c6 -22 20 -33 41 -33c17 0 26 6 28 19c3 13 -6 23 -19 23h-137l61 254h260l-21 -123h-143l-6 -24h12c81 0 139 -50 123 -139zM107 0l528 700h135l-528 -700h-135zM837 288c-6 -35 -26 -63 -59 -82
c35 -26 48 -59 41 -100c-13 -76 -79 -120 -179 -120c-49 0 -86 12 -113 36s-37 55 -30 92c7 45 33 77 77 98c-27 22 -37 50 -31 84c13 75 80 118 165 118c41 0 74 -12 100 -35s36 -54 29 -91zM663 280c-2 -14 5 -21 21 -21c17 0 27 7 29 21c3 15 -6 23 -21 23
c-16 0 -26 -8 -29 -23zM693 127c3 16 -6 28 -27 28s-33 -9 -37 -28c-3 -19 6 -29 27 -29s34 10 37 29z" />
    <glyph glyph-name="seveneighths" unicode="&#x215e;" horiz-adv-x="833" 
d="M361 594l-156 -294h-148l147 277h-146l21 123h300zM86 0l528 700h135l-528 -700h-135zM816 288c-6 -35 -26 -63 -59 -82c35 -26 48 -59 41 -100c-13 -76 -79 -120 -179 -120c-49 0 -86 12 -113 36s-37 55 -30 92c7 45 33 77 77 98c-27 22 -37 50 -31 84
c13 75 80 118 165 118c41 0 74 -12 100 -35s36 -54 29 -91zM642 280c-2 -14 5 -21 21 -21c17 0 27 7 29 21c3 15 -6 23 -21 23c-16 0 -26 -8 -29 -23zM672 127c3 16 -6 28 -27 28s-33 -9 -37 -28c-3 -19 6 -29 27 -29s34 10 37 29z" />
    <glyph glyph-name="arrowleft" unicode="&#x2190;" horiz-adv-x="780" 
d="M400 437h383l-31 -175h-402l175 -212h-230l-247 300l353 300h250z" />
    <glyph glyph-name="arrowup" unicode="&#x2191;" horiz-adv-x="660" 
d="M409 700l247 -300l-40 -228l-170 206l-67 -378h-185l64 360l-245 -208l44 248z" />
    <glyph glyph-name="arrowright" unicode="&#x2192;" horiz-adv-x="780" 
d="M291 650h230l247 -300l-353 -300h-250l250 212h-383l31 175h404z" />
    <glyph glyph-name="arrowdown" unicode="&#x2193;" horiz-adv-x="660" 
d="M502 700l-63 -359l244 207l-44 -248l-353 -300l-247 300l40 228l171 -208l67 380h185z" />
    <glyph glyph-name="arrowboth" unicode="&#x2194;" horiz-adv-x="1180" 
d="M699 640h230l239 -290l-341 -290h-250l238 202h-465l167 -202h-230l-239 290l341 290h250l-239 -203h466z" />
    <glyph glyph-name="arrowupdn" unicode="&#x2195;" horiz-adv-x="640" 
d="M673 610l-40 -228l-162 197l-77 -438l231 197l-44 -248l-340 -290l-239 290l40 228l163 -198l78 440l-233 -198l44 248l341 290z" />
    <glyph glyph-name="uni2196" unicode="&#x2196;" horiz-adv-x="660" 
d="M521 632l139 -168h-303l256 -309l-144 -121l-255 308l-53 -302l-138 168l74 424h424z" />
    <glyph glyph-name="uni2197" unicode="&#x2197;" horiz-adv-x="660" 
d="M76 464l197 168h424l-74 -424l-198 -168l50 282l-340 -288l-118 141l342 289h-283z" />
    <glyph glyph-name="uni2198" unicode="&#x2198;" horiz-adv-x="660" 
d="M480 352l53 302l139 -168l-75 -424h-424l-138 168h302l-256 311l144 121z" />
    <glyph glyph-name="uni2199" unicode="&#x2199;" horiz-adv-x="660" 
d="M559 659l118 -141l-342 -288h284l-198 -168h-424l75 424l197 168l-49 -281z" />
    <glyph glyph-name="partialdiff" unicode="&#x2202;" horiz-adv-x="581" 
d="M319 716c81 0 146 -35 194 -106s63 -161 44 -270c-41 -239 -166 -356 -347 -356c-152 0 -218 117 -196 230c10 60 38 112 84 155c47 44 105 66 176 66c36 0 69 -7 100 -20c-1 83 -36 125 -107 127c-42 1 -84 -10 -126 -31l30 169c42 24 91 36 148 36zM244 154
c43 0 77 35 102 104c-21 11 -44 17 -71 17c-39 0 -70 -26 -77 -65c-5 -32 15 -56 46 -56z" />
    <glyph glyph-name="emptyset" unicode="&#x2205;" horiz-adv-x="804" 
d="M682 720h145l-110 -121c59 -73 80 -160 63 -259c-18 -100 -67 -184 -146 -251s-168 -101 -268 -101c-59 0 -113 14 -163 43l-46 -51h-145l110 121c-60 74 -81 160 -63 259c17 100 66 184 145 251c80 67 170 101 270 101c58 0 112 -14 162 -43zM188 350
c-10 -56 -2 -105 25 -148l331 366c-27 11 -54 16 -83 16c-65 0 -124 -23 -177 -68s-85 -101 -96 -166zM652 350c10 57 1 106 -26 148l-331 -366c27 -11 54 -16 83 -16c65 0 124 23 177 68c53 46 86 101 97 166z" />
    <glyph glyph-name="product" unicode="&#x220f;" horiz-adv-x="620" 
d="M156 -200h-185l158 900h520l-158 -900h-185l127 724h-150z" />
    <glyph glyph-name="summation" unicode="&#x2211;" horiz-adv-x="550" 
d="M441 -200h-500l29 165l240 305l-121 284l25 146h470l-32 -184h-238l109 -256l-217 -276h267z" />
    <glyph glyph-name="minus" unicode="&#x2212;" horiz-adv-x="560" 
d="M532 260h-500l32 180h500z" />
    <glyph glyph-name="radical" unicode="&#x221a;" horiz-adv-x="700" 
d="M376 0h-179l-78 172h-113l31 172h208l53 -133l299 589h200z" />
    <glyph glyph-name="infinity" unicode="&#x221e;" horiz-adv-x="830" 
d="M643 555c59 0 105 -20 139 -61s46 -91 35 -150c-11 -60 -37 -108 -79 -145c-42 -36 -92 -54 -151 -54c-67 0 -123 30 -170 91c-65 -61 -129 -91 -194 -91c-59 0 -105 20 -139 61s-46 91 -35 150c11 60 37 108 79 144c42 37 92 55 151 55c67 0 123 -30 170 -91
c65 61 129 91 194 91zM270 315c22 0 47 12 74 35c-19 23 -39 35 -62 35c-25 0 -40 -12 -44 -35s12 -35 32 -35zM628 350c4 23 -12 35 -32 35c-23 0 -48 -12 -74 -35c17 -23 38 -35 62 -35c25 0 39 12 44 35z" />
    <glyph glyph-name="integral" unicode="&#x222b;" horiz-adv-x="482" 
d="M-80 -204l32 180c40 -20 92 1 109 52l175 505c18 53 44 94 79 124c71 60 154 62 247 45l-32 -180c-40 20 -92 -1 -109 -52l-175 -505c-18 -53 -45 -94 -80 -124c-69 -60 -153 -62 -246 -45z" />
    <glyph glyph-name="approxequal" unicode="&#x2248;" horiz-adv-x="578" 
d="M311 372c-86 37 -134 28 -194 -9l-58 50c23 76 60 127 111 153s105 24 164 -6c84 -44 115 -42 142 17l119 -59c-56 -152 -168 -206 -284 -146zM137 119l-120 59c57 152 168 206 285 146c86 -38 134 -28 194 9l58 -50c-23 -76 -60 -127 -111 -153s-105 -24 -164 6
c-42 21 -73 31 -93 29c-19 -1 -36 -17 -49 -46z" />
    <glyph glyph-name="notequal" unicode="&#x2260;" horiz-adv-x="500" 
d="M523 555l-32 -180h-168l-30 -50h189l-31 -180h-268l-58 -95h-80l58 95h-91l31 180h170l30 50h-191l32 180h269l58 95h80l-58 -95h90z" />
    <glyph glyph-name="lessequal" unicode="&#x2264;" horiz-adv-x="510" 
d="M84 555l475 145l-35 -200l-290 -56l270 -56l-33 -188l-424 145l18 105zM436 0h-450l32 180h450z" />
    <glyph glyph-name="greaterequal" unicode="&#x2265;" horiz-adv-x="510" 
d="M76 512l33 188l425 -145l-19 -105l-18 -105l-476 -145l35 200l290 56zM436 0h-450l32 180h450z" />
    <glyph glyph-name="lozenge" unicode="&#x25ca;" horiz-adv-x="620" 
d="M360 0h-188l-124 350l247 350h188l125 -350zM252 335l43 -123l109 153l-44 123z" />
    <glyph glyph-name="i.loclTRK" horiz-adv-x="265" 
d="M294 635c-11 -52 -60 -95 -112 -95s-87 43 -78 95s59 95 111 95s88 -43 79 -95zM181 0h-185l88 500h185z" />
    <glyph glyph-name="f_f_j" horiz-adv-x="860" 
d="M582 500h282l-88 -500c-28 -165 -116 -225 -288 -216l29 166c43 -4 67 13 74 50l57 324h-97l-57 -324h-185l57 324h-100l-57 -324h-185l57 324h-58l31 176h58c27 151 128 225 300 216l-29 -166c-48 4 -79 -17 -86 -50h100l2 10c25 148 123 216 300 216
c48 0 92 -5 132 -16l-27 -152c-43 7 -83 10 -118 10c-61 0 -95 -19 -102 -58z" />
    <glyph glyph-name="f_j" 
d="M297 500h282l-88 -500c-28 -165 -116 -225 -288 -216l29 166c43 -4 67 13 74 50l57 324h-97l-57 -324h-185l57 324h-58l31 176h58c25 148 123 216 300 216c48 0 92 -5 132 -16l-26 -152c-43 7 -83 10 -119 10c-61 0 -95 -19 -102 -58z" />
    <glyph glyph-name="uni0414.loclBGR" horiz-adv-x="740" 
d="M561 700l82 -506h82l-59 -328h-200l24 134h-329l-24 -134h-200l59 328h80l261 506h224zM416 475l-130 -281h160z" />
    <glyph glyph-name="uni041B.loclBGR" horiz-adv-x="640" 
d="M169 0h-223l341 700h224l95 -700h-207l-35 465z" />
    <glyph glyph-name="uni0424.loclBGR" horiz-adv-x="874" 
d="M629 800l-17 -97c91 -18 160 -60 207 -125s63 -145 46 -238c-17 -95 -58 -172 -125 -233c-67 -60 -151 -97 -253 -112l-17 -95h-190l17 97c-91 18 -160 60 -207 125s-62 145 -46 238c17 95 58 172 125 232c67 61 151 98 253 113l17 95h190zM667 350
c15 86 -14 141 -89 164l-57 -328c81 23 130 78 146 164zM243 350c-16 -86 13 -141 88 -164l57 328c-81 -23 -130 -78 -145 -164z" />
    <glyph glyph-name="uni0414.ss01" horiz-adv-x="715" 
d="M200 700h509l-89 -506h75l-34 -194h-699l33 194h74c37 51 64 122 80 212zM280 194h140l57 322h-109l-20 -112c-16 -89 -39 -159 -68 -210z" />
    <glyph glyph-name="uni0426.ss01" horiz-adv-x="715" 
d="M699 700l-89 -506h85l-34 -194h-655l123 700h210l-89 -506h150l89 506h210z" />
    <glyph glyph-name="uni0429.ss01" horiz-adv-x="1005" 
d="M989 700l-89 -506h85l-34 -194h-945l123 700h200l-89 -506h130l89 506h200l-89 -506h130l89 506h200z" />
    <glyph glyph-name="uni0414.loclBGR.ss01" horiz-adv-x="740" 
d="M561 700l82 -506h82l-35 -194h-729l35 194h80l261 506h224zM416 475l-130 -281h160z" />
    <glyph glyph-name="uni0432.loclBGR" horiz-adv-x="558" 
d="M539 518c-9 -45 -33 -86 -74 -122c57 -37 84 -104 68 -188c-25 -143 -127 -222 -284 -222c-74 0 -131 23 -171 70c-39 47 -53 108 -40 182l42 239c27 158 118 237 271 237c61 0 110 -19 147 -57s51 -84 41 -139zM321 544c-29 0 -48 -21 -55 -62l-11 -61l10 2
c13 3 26 5 39 6c29 21 45 44 49 68c5 28 -7 47 -32 47zM349 218c9 47 -22 69 -82 57l-39 -8l-7 -39c-7 -43 13 -68 53 -68s70 22 75 58z" />
    <glyph glyph-name="uni0433.loclBGR" horiz-adv-x="473" 
d="M212 -14c-65 0 -118 16 -160 48c-41 33 -57 79 -46 138c12 71 58 114 107 129c73 22 158 20 164 52c2 14 -7 21 -27 21c-27 0 -48 -14 -64 -42l-141 62c43 80 116 120 221 120c57 0 106 -17 145 -50c40 -33 55 -77 46 -132c-12 -68 -57 -111 -106 -127
c-72 -23 -158 -24 -162 -54c-3 -16 10 -25 30 -25c31 0 57 17 76 51l147 -72c-45 -79 -121 -119 -230 -119z" />
    <glyph glyph-name="uni0434.loclBGR" horiz-adv-x="613" 
d="M422 443l10 57h185l-85 -485c-14 -78 -49 -136 -105 -174s-122 -57 -198 -57c-113 0 -202 45 -235 122l161 87c19 -33 50 -49 93 -49c49 0 90 23 99 71l7 41c-35 -33 -80 -50 -133 -50c-149 -1 -215 127 -194 255c9 68 38 127 85 177c47 51 107 76 179 76
c59 0 103 -24 131 -71zM286 170c52 0 92 34 103 85l2 8c7 52 -22 87 -74 87c-53 0 -96 -37 -105 -90s21 -90 74 -90z" />
    <glyph glyph-name="uni0436.loclBGR" horiz-adv-x="789" 
d="M158 0h-202l188 256l-84 244h192l60 -192l69 392h185l-70 -400l130 200h207l-187 -263l92 -237h-193l-67 198l-35 -198h-185l33 186z" />
    <glyph glyph-name="uni0438.loclBGR" 
d="M347 236l47 264h185l-88 -500h-185l9 49c-39 -42 -86 -63 -143 -63c-107 0 -169 81 -144 225l51 289h185l-47 -269c-8 -45 9 -67 50 -67c43 0 69 24 80 72z" />
    <glyph glyph-name="uni0439.loclBGR" 
d="M188 699h350l-26 -150h-350zM347 236l47 264h185l-88 -500h-185l9 49c-39 -42 -86 -63 -143 -63c-107 0 -169 81 -144 225l51 289h185l-47 -269c-8 -45 9 -67 50 -67c43 0 69 24 80 72z" />
    <glyph glyph-name="uni043A.loclBGR" horiz-adv-x="550" 
d="M371 500h212l-197 -252l120 -248h-197l-91 208l-37 -208h-185l123 700h185l-67 -383z" />
    <glyph glyph-name="uni043B.loclBGR" horiz-adv-x="560" 
d="M419 500l97 -500h-187l-39 258l-131 -258h-203l273 500h190z" />
    <glyph glyph-name="uni043F.loclBGR" 
d="M403 514c107 0 169 -81 144 -225l-51 -289h-185l47 269c8 45 -9 67 -50 67c-43 0 -69 -24 -80 -72l-47 -264h-185l88 500h185l-9 -49c39 42 86 63 143 63z" />
    <glyph glyph-name="uni0442.loclBGR" horiz-adv-x="850" 
d="M669 514c55 0 98 -18 127 -55c30 -37 39 -88 28 -155l-53 -304h-185l49 279c7 38 -7 57 -41 57c-37 0 -60 -21 -71 -64l-47 -272h-185l49 279c7 38 -7 57 -41 57c-37 0 -61 -23 -71 -68l-47 -268h-185l88 500h185l-8 -46c40 40 86 60 139 60c56 0 95 -22 117 -66
c43 44 93 66 152 66z" />
    <glyph glyph-name="uni0446.loclBGR" horiz-adv-x="620" 
d="M550 166h45l-53 -300h-170l26 150c-22 11 -38 26 -49 45c-43 -50 -100 -75 -172 -75c-54 0 -96 19 -125 58s-37 95 -24 167l51 289h185l-47 -269c-8 -45 9 -67 50 -67c43 0 70 24 81 73l46 263h185l-53 -304c-3 -20 5 -30 24 -30z" />
    <glyph glyph-name="uni0448.loclBGR" horiz-adv-x="850" 
d="M622 232l47 268h185l-88 -500h-185l8 46c-40 -40 -86 -60 -139 -60c-56 0 -95 22 -117 66c-43 -44 -93 -66 -152 -66c-55 0 -98 18 -128 55c-29 37 -38 88 -27 155l53 304h185l-49 -279c-7 -38 7 -57 41 -57c37 0 60 21 71 64l47 272h185l-49 -279c-7 -38 7 -57 41 -57
c37 0 61 23 71 68z" />
    <glyph glyph-name="uni0449.loclBGR" horiz-adv-x="895" 
d="M825 166h45l-53 -300h-170l26 150c-20 9 -36 24 -49 44c-45 -49 -101 -74 -169 -74c-59 0 -100 22 -122 66c-43 -44 -93 -66 -152 -66c-55 0 -98 18 -128 55c-29 37 -38 88 -27 155l53 304h185l-49 -279c-7 -38 7 -57 41 -57c37 0 60 21 71 64l47 272h185l-49 -279
c-7 -38 7 -57 41 -57c39 0 62 23 71 70l47 266h185l-53 -304c-3 -20 5 -30 24 -30z" />
    <glyph glyph-name="uni044C.loclBGR" horiz-adv-x="495" 
d="M237 378h56c62 0 110 -20 143 -60s45 -89 35 -148c-20 -115 -108 -186 -248 -186c-73 0 -127 20 -162 59c-35 40 -46 92 -35 157l53 300h180zM294 187c5 27 -7 40 -38 40h-45l-6 -32c-5 -31 7 -46 37 -46c31 0 48 13 52 38z" />
    <glyph glyph-name="uni044A.loclBGR" horiz-adv-x="570" 
d="M312 378h56c66 0 115 -20 146 -59s42 -89 32 -149c-20 -115 -108 -186 -248 -186c-73 0 -127 20 -162 59c-35 40 -46 92 -35 157l23 130h-110l30 170h290zM369 187c5 27 -7 40 -38 40h-45l-6 -32c-5 -31 7 -46 37 -46c31 0 48 13 52 38z" />
    <glyph glyph-name="uni044E.loclBGR" horiz-adv-x="798" 
d="M548 514c175 0 257 -137 231 -272c-11 -70 -44 -130 -99 -181c-54 -50 -122 -75 -205 -75c-125 0 -201 72 -220 176h-46l-28 -162h-185l123 700h185l-64 -362h39c47 104 141 176 269 176zM560 186c19 17 30 38 35 64s1 47 -12 63c-25 33 -84 33 -121 0
c-19 -16 -30 -37 -35 -63s-1 -47 12 -64c13 -16 32 -24 57 -24s46 8 64 24z" />
    <glyph glyph-name="zero.sinf" horiz-adv-x="410" 
d="M138 -174c-55 0 -98 21 -129 62s-41 95 -30 160c24 131 107 206 219 206c55 0 98 -21 129 -63c32 -41 42 -94 30 -159c-23 -131 -106 -206 -219 -206zM125 40c-9 -49 1 -73 30 -73s47 24 56 73s-1 73 -30 73s-47 -24 -56 -73z" />
    <glyph glyph-name="one.sinf" horiz-adv-x="284" 
d="M-10 192l141 48h121l-71 -400h-142l43 240l-80 -18z" />
    <glyph glyph-name="two.sinf" horiz-adv-x="350" 
d="M258 -160h-306l18 102l163 131c21 17 33 31 35 41c2 12 -4 18 -17 18c-15 0 -31 -14 -47 -42l-105 67c43 65 103 97 180 97c38 0 70 -13 97 -39c27 -25 38 -57 31 -96c-8 -47 -32 -81 -87 -122l-42 -32h102z" />
    <glyph glyph-name="three.sinf" horiz-adv-x="340" 
d="M20 240h292l-16 -89l-78 -74c51 -22 71 -61 61 -118c-15 -89 -76 -133 -181 -133c-84 0 -136 33 -155 98l117 61c7 -24 24 -36 51 -36c19 0 30 6 32 19s-4 20 -18 20h-34l-36 75l57 54h-114z" />
    <glyph glyph-name="four.sinf" horiz-adv-x="366" 
d="M281 11h33l-21 -120h-33l-9 -51h-128l9 51h-190l21 120l148 229h149l-142 -229h35l12 66h128z" />
    <glyph glyph-name="five.sinf" horiz-adv-x="326" 
d="M299 240l-21 -123h-143l-6 -24h12c81 0 139 -50 123 -139c-15 -85 -84 -128 -167 -128c-80 0 -132 32 -155 96l123 55c6 -22 20 -33 41 -33c17 0 26 6 28 19c3 13 -6 23 -19 23h-137l61 254h260z" />
    <glyph glyph-name="six.sinf" horiz-adv-x="344" 
d="M288 240l-93 -127c65 -20 101 -78 89 -146c-15 -87 -82 -141 -181 -141c-48 0 -85 15 -112 44s-36 66 -29 109c6 33 19 60 38 83l136 178h152zM154 -27c4 20 -4 30 -25 30s-33 -10 -37 -30c-3 -20 6 -30 26 -30c21 0 33 10 36 30z" />
    <glyph glyph-name="seven.sinf" horiz-adv-x="310" 
d="M-23 117l21 123h300l-18 -106l-156 -294h-148l147 277h-146z" />
    <glyph glyph-name="eight.sinf" horiz-adv-x="344" 
d="M298 128c-6 -35 -26 -63 -59 -82c35 -26 48 -59 41 -100c-13 -76 -79 -120 -179 -120c-49 0 -86 12 -113 36s-37 55 -30 92c7 45 33 77 77 98c-27 22 -37 50 -31 84c13 75 80 118 165 118c41 0 74 -12 100 -35s36 -54 29 -91zM124 120c-2 -14 5 -21 21 -21
c17 0 27 7 29 21c3 15 -6 23 -21 23c-16 0 -26 -8 -29 -23zM154 -33c3 16 -6 28 -27 28s-33 -9 -37 -28c-3 -19 6 -29 27 -29s34 10 37 29z" />
    <glyph glyph-name="nine.sinf" horiz-adv-x="344" 
d="M167 254c48 0 85 -15 112 -44s36 -66 29 -109c-6 -33 -19 -60 -38 -83l-136 -178h-152l93 127c-65 20 -101 78 -89 146c15 87 82 141 181 141zM116 107c-4 -20 4 -30 25 -30s33 10 37 30c3 20 -6 30 -26 30c-21 0 -33 -10 -36 -30z" />
    <glyph glyph-name="zero.tf" horiz-adv-x="600" 
d="M261 -16c-91 0 -159 35 -202 105c-43 71 -55 161 -35 271c19 111 59 198 120 261s138 95 230 95c91 0 158 -35 201 -105s55 -160 36 -271c-20 -111 -60 -198 -121 -261s-137 -95 -229 -95zM413 350c19 115 -2 172 -65 172c-64 0 -106 -57 -125 -172
c-21 -115 1 -172 64 -172s105 57 126 172z" />
    <glyph glyph-name="one.tf" horiz-adv-x="600" 
d="M496 700l-89 -506h168l-34 -194h-560l34 194h192l50 287l-124 -29l-17 177l210 71h170z" />
    <glyph glyph-name="two.tf" horiz-adv-x="600" 
d="M526 0h-540l25 146l310 237c43 33 67 62 72 87c5 32 -12 52 -47 52c-49 0 -91 -36 -115 -92l-161 103c57 120 174 183 305 183c44 0 84 -9 120 -28c73 -37 120 -120 101 -220c-7 -41 -21 -75 -40 -103c-19 -27 -49 -56 -89 -87l-109 -84h202z" />
    <glyph glyph-name="three.tf" horiz-adv-x="600" 
d="M126 700h490l-27 -154l-138 -136c88 -29 134 -101 117 -200c-28 -155 -141 -226 -305 -226c-136 0 -237 64 -262 188l184 95c13 -59 47 -89 102 -89c49 0 77 17 83 52c6 33 -16 50 -65 50h-42l-58 116l113 110h-226z" />
    <glyph glyph-name="four.tf" horiz-adv-x="600" 
d="M521 282h70l-32 -180h-70l-18 -102h-196l18 102h-314l32 180l277 418h236l-279 -418h80l19 108h196z" />
    <glyph glyph-name="five.tf" horiz-adv-x="600" 
d="M614 700l-34 -194h-264l-13 -53h42c79 0 141 -21 184 -63c43 -41 58 -101 44 -180c-13 -74 -47 -130 -102 -169c-55 -38 -122 -57 -199 -57c-140 0 -239 59 -268 175l186 92c13 -49 46 -73 98 -73c51 0 80 16 86 47c7 35 -18 51 -69 51h-244l103 424h450z" />
    <glyph glyph-name="six.tf" horiz-adv-x="600" 
d="M579 700l-180 -218c67 -12 116 -42 149 -89s44 -103 33 -167c-13 -73 -49 -132 -106 -176s-129 -66 -216 -66s-153 25 -198 75c-45 51 -60 113 -47 187c10 59 34 109 73 148l261 306h231zM383 236c8 45 -20 73 -73 73s-89 -28 -97 -73c-9 -45 17 -73 72 -73
c53 0 89 26 98 73z" />
    <glyph glyph-name="seven.tf" horiz-adv-x="600" 
d="M65 506l34 194h550l-28 -164l-326 -536h-227l305 506h-308z" />
    <glyph glyph-name="eight.tf" horiz-adv-x="600" 
d="M602 502c-11 -61 -45 -108 -102 -140c60 -43 84 -100 71 -172c-24 -131 -130 -204 -313 -204c-87 0 -153 20 -198 59c-45 40 -61 92 -50 157c14 75 58 131 132 168c-46 37 -64 85 -53 144c11 63 43 112 95 147c53 35 117 53 194 53c73 0 131 -19 175 -58s60 -90 49 -154z
M420 487c5 33 -21 51 -69 51c-52 0 -81 -17 -87 -51s17 -51 69 -51s81 17 87 51zM378 225c7 37 -17 59 -72 59s-85 -20 -92 -59s16 -59 71 -59s86 20 93 59z" />
    <glyph glyph-name="nine.tf" horiz-adv-x="600" 
d="M376 716c87 0 152 -25 197 -76c45 -50 61 -112 48 -186c-10 -59 -34 -109 -73 -148l-261 -306h-231l180 218c-67 12 -117 42 -150 89s-43 103 -32 167c13 73 48 132 105 176s130 66 217 66zM252 464c-8 -45 18 -73 73 -73c53 0 89 28 97 73c9 45 -17 73 -72 73
c-53 0 -89 -26 -98 -73z" />
    <glyph glyph-name="zero.dnom" horiz-adv-x="411" 
d="M167 -14c-55 0 -98 21 -129 62s-41 95 -30 160c24 131 107 206 219 206c55 0 98 -21 129 -63c32 -41 42 -94 30 -159c-23 -131 -106 -206 -219 -206zM154 200c-9 -49 1 -73 30 -73s47 24 56 73s-1 73 -30 73s-47 -24 -56 -73z" />
    <glyph glyph-name="one.dnom" horiz-adv-x="279" 
d="M18 352l141 48h121l-71 -400h-142l43 240l-80 -18z" />
    <glyph glyph-name="two.dnom" horiz-adv-x="351" 
d="M286 0h-306l18 102l163 131c21 17 33 31 35 41c2 12 -4 18 -17 18c-15 0 -31 -14 -47 -42l-105 67c43 65 103 97 180 97c38 0 70 -13 97 -39c27 -25 38 -57 31 -96c-8 -47 -32 -81 -87 -122l-42 -32h102z" />
    <glyph glyph-name="three.dnom" horiz-adv-x="323" 
d="M48 400h292l-16 -89l-78 -74c51 -22 71 -61 61 -118c-15 -89 -76 -133 -181 -133c-84 0 -136 33 -155 98l117 61c7 -24 24 -36 51 -36c19 0 30 6 32 19s-4 20 -18 20h-34l-36 75l57 54h-114z" />
    <glyph glyph-name="four.dnom" horiz-adv-x="366" 
d="M309 171h33l-21 -120h-33l-9 -51h-128l9 51h-190l21 120l148 229h149l-142 -229h35l12 66h128z" />
    <glyph glyph-name="five.dnom" horiz-adv-x="331" 
d="M328 400l-21 -123h-143l-6 -24h12c81 0 139 -50 123 -139c-15 -85 -84 -128 -167 -128c-80 0 -132 32 -155 96l123 55c6 -22 20 -33 41 -33c17 0 26 6 28 19c3 13 -6 23 -19 23h-137l61 254h260z" />
    <glyph glyph-name="six.dnom" horiz-adv-x="344" 
d="M316 400l-93 -127c65 -20 101 -78 89 -146c-15 -87 -82 -141 -181 -141c-48 0 -85 15 -112 44s-36 66 -29 109c6 33 19 60 38 83l136 178h152zM182 133c4 20 -4 30 -25 30s-33 -10 -37 -30c-3 -20 6 -30 26 -30c21 0 33 10 36 30z" />
    <glyph glyph-name="seven.dnom" horiz-adv-x="310" 
d="M5 277l21 123h300l-18 -106l-156 -294h-148l147 277h-146z" />
    <glyph glyph-name="eight.dnom" horiz-adv-x="343" 
d="M326 288c-6 -35 -26 -63 -59 -82c35 -26 48 -59 41 -100c-13 -76 -79 -120 -179 -120c-49 0 -86 12 -113 36s-37 55 -30 92c7 45 33 77 77 98c-27 22 -37 50 -31 84c13 75 80 118 165 118c41 0 74 -12 100 -35s36 -54 29 -91zM152 280c-2 -14 5 -21 21 -21
c17 0 27 7 29 21c3 15 -6 23 -21 23c-16 0 -26 -8 -29 -23zM182 127c3 16 -6 28 -27 28s-33 -9 -37 -28c-3 -19 6 -29 27 -29s34 10 37 29z" />
    <glyph glyph-name="nine.dnom" horiz-adv-x="344" 
d="M195 414c48 0 85 -15 112 -44s36 -66 29 -109c-6 -33 -19 -60 -38 -83l-136 -178h-152l93 127c-65 20 -101 78 -89 146c15 87 82 141 181 141zM144 267c-4 -20 4 -30 25 -30s33 10 37 30c3 20 -6 30 -26 30c-21 0 -33 -10 -36 -30z" />
    <glyph glyph-name="zero.numr" horiz-adv-x="410" 
d="M219 286c-55 0 -98 21 -129 62s-41 95 -30 160c24 131 107 206 219 206c55 0 98 -21 129 -63c32 -41 42 -94 30 -159c-23 -131 -106 -206 -219 -206zM206 500c-9 -49 1 -73 30 -73s47 24 56 73s-1 73 -30 73s-47 -24 -56 -73z" />
    <glyph glyph-name="one.numr" horiz-adv-x="279" 
d="M71 652l141 48h121l-71 -400h-142l43 240l-80 -18z" />
    <glyph glyph-name="two.numr" horiz-adv-x="351" 
d="M339 300h-306l18 102l163 131c21 17 33 31 35 41c2 12 -4 18 -17 18c-15 0 -31 -14 -47 -42l-105 67c43 65 103 97 180 97c38 0 70 -13 97 -39c27 -25 38 -57 31 -96c-8 -47 -32 -81 -87 -122l-42 -32h102z" />
    <glyph glyph-name="three.numr" horiz-adv-x="323" 
d="M101 700h292l-16 -89l-78 -74c51 -22 71 -61 61 -118c-15 -89 -76 -133 -181 -133c-84 0 -136 33 -155 98l117 61c7 -24 24 -36 51 -36c19 0 30 6 32 19s-4 20 -18 20h-34l-36 75l57 54h-114z" />
    <glyph glyph-name="four.numr" horiz-adv-x="366" 
d="M362 471h33l-21 -120h-33l-9 -51h-128l9 51h-190l21 120l148 229h149l-142 -229h35l12 66h128z" />
    <glyph glyph-name="five.numr" horiz-adv-x="331" 
d="M381 700l-21 -123h-143l-6 -24h12c81 0 139 -50 123 -139c-15 -85 -84 -128 -167 -128c-80 0 -132 32 -155 96l123 55c6 -22 20 -33 41 -33c17 0 26 6 28 19c3 13 -6 23 -19 23h-137l61 254h260z" />
    <glyph glyph-name="six.numr" horiz-adv-x="344" 
d="M369 700l-93 -127c65 -20 101 -78 89 -146c-15 -87 -82 -141 -181 -141c-48 0 -85 15 -112 44s-36 66 -29 109c6 33 19 60 38 83l136 178h152zM235 433c4 20 -4 30 -25 30s-33 -10 -37 -30c-3 -20 6 -30 26 -30c21 0 33 10 36 30z" />
    <glyph glyph-name="seven.numr" horiz-adv-x="310" 
d="M58 577l21 123h300l-18 -106l-156 -294h-148l147 277h-146z" />
    <glyph glyph-name="eight.numr" horiz-adv-x="343" 
d="M379 588c-6 -35 -26 -63 -59 -82c35 -26 48 -59 41 -100c-13 -76 -79 -120 -179 -120c-49 0 -86 12 -113 36s-37 55 -30 92c7 45 33 77 77 98c-27 22 -37 50 -31 84c13 75 80 118 165 118c41 0 74 -12 100 -35s36 -54 29 -91zM205 580c-2 -14 5 -21 21 -21
c17 0 27 7 29 21c3 15 -6 23 -21 23c-16 0 -26 -8 -29 -23zM235 427c3 16 -6 28 -27 28s-33 -9 -37 -28c-3 -19 6 -29 27 -29s34 10 37 29z" />
    <glyph glyph-name="nine.numr" horiz-adv-x="344" 
d="M248 714c48 0 85 -15 112 -44s36 -66 29 -109c-6 -33 -19 -60 -38 -83l-136 -178h-152l93 127c-65 20 -101 78 -89 146c15 87 82 141 181 141zM197 567c-4 -20 4 -30 25 -30s33 10 37 30c3 20 -6 30 -26 30c-21 0 -33 -10 -36 -30z" />
    <glyph glyph-name="zero.sups" horiz-adv-x="411" 
d="M248 446c-55 0 -98 21 -129 62s-41 95 -30 160c24 131 107 206 219 206c55 0 98 -21 129 -63c32 -41 42 -94 30 -159c-23 -131 -106 -206 -219 -206zM235 660c-9 -49 1 -73 30 -73s47 24 56 73s-1 73 -30 73s-47 -24 -56 -73z" />
    <glyph glyph-name="one.sups" horiz-adv-x="279" 
d="M99 812l141 48h121l-71 -400h-142l43 240l-80 -18z" />
    <glyph glyph-name="two.sups" horiz-adv-x="351" 
d="M367 460h-306l18 102l163 131c21 17 33 31 35 41c2 12 -4 18 -17 18c-15 0 -31 -14 -47 -42l-105 67c43 65 103 97 180 97c38 0 70 -13 97 -39c27 -25 38 -57 31 -96c-8 -47 -32 -81 -87 -122l-42 -32h102z" />
    <glyph glyph-name="three.sups" horiz-adv-x="324" 
d="M130 860h292l-16 -89l-78 -74c51 -22 71 -61 61 -118c-15 -89 -76 -133 -181 -133c-84 0 -136 33 -155 98l117 61c7 -24 24 -36 51 -36c19 0 30 6 32 19s-4 20 -18 20h-34l-36 75l57 54h-114z" />
    <glyph glyph-name="four.sups" horiz-adv-x="366" 
d="M390 631h33l-21 -120h-33l-9 -51h-128l9 51h-190l21 120l148 229h149l-142 -229h35l12 66h128z" />
    <glyph glyph-name="five.sups" horiz-adv-x="331" 
d="M409 860l-21 -123h-143l-6 -24h12c81 0 139 -50 123 -139c-15 -85 -84 -128 -167 -128c-80 0 -132 32 -155 96l123 55c6 -22 20 -33 41 -33c17 0 26 6 28 19c3 13 -6 23 -19 23h-137l61 254h260z" />
    <glyph glyph-name="six.sups" horiz-adv-x="345" 
d="M398 860l-93 -127c65 -20 101 -78 89 -146c-15 -87 -82 -141 -181 -141c-48 0 -85 15 -112 44s-36 66 -29 109c6 33 19 60 38 83l136 178h152zM264 593c4 20 -4 30 -25 30s-33 -10 -37 -30c-3 -20 6 -30 26 -30c21 0 33 10 36 30z" />
    <glyph glyph-name="seven.sups" horiz-adv-x="311" 
d="M87 737l21 123h300l-18 -106l-156 -294h-148l147 277h-146z" />
    <glyph glyph-name="eight.sups" horiz-adv-x="343" 
d="M407 748c-6 -35 -26 -63 -59 -82c35 -26 48 -59 41 -100c-13 -76 -79 -120 -179 -120c-49 0 -86 12 -113 36s-37 55 -30 92c7 45 33 77 77 98c-27 22 -37 50 -31 84c13 75 80 118 165 118c41 0 74 -12 100 -35s36 -54 29 -91zM233 740c-2 -14 5 -21 21 -21
c17 0 27 7 29 21c3 15 -6 23 -21 23c-16 0 -26 -8 -29 -23zM263 587c3 16 -6 28 -27 28s-33 -9 -37 -28c-3 -19 6 -29 27 -29s34 10 37 29z" />
    <glyph glyph-name="nine.sups" horiz-adv-x="344" 
d="M276 874c48 0 85 -15 112 -44s36 -66 29 -109c-6 -33 -19 -60 -38 -83l-136 -178h-152l93 127c-65 20 -101 78 -89 146c15 87 82 141 181 141zM225 727c-4 -20 4 -30 25 -30s33 10 37 30c3 20 -6 30 -26 30c-21 0 -33 -10 -36 -30z" />
    <glyph glyph-name="cent.tf" horiz-adv-x="600" 
d="M409 418l-76 -154c32 1 57 16 76 44l145 -92c-51 -85 -140 -130 -240 -130c-25 0 -47 2 -66 7l-46 -93h-67l56 114c-87 44 -129 138 -112 246c13 75 47 136 103 183s121 71 195 71c21 0 41 -2 59 -6l46 92h67l-56 -113c44 -23 78 -58 101 -105l-168 -88
c-5 10 -10 18 -17 24zM262 350c-5 -27 0 -48 15 -64l74 150c-45 -5 -81 -39 -89 -86z" />
    <glyph glyph-name="dollar.tf" horiz-adv-x="600" 
d="M391 424c101 -29 206 -79 178 -234c-23 -131 -123 -201 -274 -206l-15 -84h-70l15 87c-121 13 -196 76 -225 173l173 89c17 -44 45 -70 85 -79l17 98l-28 10c-128 50 -182 130 -163 240c11 61 40 109 89 144s110 53 181 54l15 84h70l-16 -90c93 -17 157 -69 193 -157
l-169 -90c-11 33 -30 54 -56 63l-17 -97c3 -1 9 -2 17 -5zM276 498c-4 -17 7 -32 32 -44l14 78c-27 -5 -43 -16 -46 -34zM376 206c3 17 -9 30 -35 40l-14 -78c29 5 46 17 49 38z" />
    <glyph glyph-name="Euro.tf" horiz-adv-x="600" 
d="M332 178c35 0 66 19 94 56l149 -95c-63 -103 -152 -155 -267 -155c-141 0 -226 102 -233 262h-71l15 84h61c1 13 3 23 4 30c0 1 1 5 1 8h-59l15 84h66c53 167 167 264 315 264c105 0 179 -53 222 -160l-180 -94c-13 40 -36 60 -69 60s-61 -23 -83 -70h119l-15 -84h-130
l-3 -18l-3 -20h129l-15 -84h-118c5 -45 23 -68 56 -68z" />
    <glyph glyph-name="florin.tf" horiz-adv-x="600" 
d="M273 438l43 100c70 164 220 199 355 169l-32 -180c-76 19 -125 2 -147 -51l-15 -38h106l-31 -176h-147l-119 -292c-66 -165 -220 -199 -355 -169l32 180c70 -18 116 -1 138 52l97 229h-106l31 176h150z" />
    <glyph glyph-name="uni20BD.tf" horiz-adv-x="600" 
d="M145 701h270c68 0 123 -23 166 -68s59 -102 46 -173c-27 -151 -125 -227 -295 -227h-70l-7 -39h190l-17 -100h-191l-16 -93h-200l16 93h-54l17 100h55l7 39h-55l32 180h55zM380 507h-69l-17 -94h70c37 0 58 16 63 47s-10 47 -47 47z" />
    <glyph glyph-name="sterling.tf" horiz-adv-x="600" 
d="M485 275h-203l-15 -81h313l-34 -194h-570l34 194h57l15 81h-47l25 140h46l14 77c13 76 45 132 96 169s109 55 173 55c119 0 201 -55 246 -164l-181 -89c-16 43 -41 65 -74 65c-32 0 -58 -21 -63 -54l-10 -59h203z" />
    <glyph glyph-name="yen.tf" horiz-adv-x="600" 
d="M447 700h232l-222 -323h115l-17 -100h-150l-8 -42h150l-17 -100h-150l-24 -135h-200l24 135h-150l17 100h150l8 42h-150l17 100h116l-109 323h212l45 -190z" />
    <glyph glyph-name="brevecy" horiz-adv-x="430" 
d="M443 549h-350l26 150h350z" />
    </font>
</defs>
</svg>
