<?xml version="1.0" standalone="no"?>
<!DOCTYPE svg PUBLIC "-//W3C//DTD SVG 1.1//EN" "http://www.w3.org/Graphics/SVG/1.1/DTD/svg11.dtd" >
<svg xmlns="http://www.w3.org/2000/svg" xmlns:xlink="http://www.w3.org/1999/xlink" version="1.1">
<metadata></metadata>
<defs>
<font id="nunitolight_italic" horiz-adv-x="1228" >
<font-face units-per-em="2048" ascent="1638" descent="-410" />
<missing-glyph horiz-adv-x="516" />
<glyph horiz-adv-x="0" />
<glyph unicode="&#xd;" horiz-adv-x="516" />
<glyph horiz-adv-x="0" />
<glyph horiz-adv-x="0" />
<glyph unicode=" "  horiz-adv-x="516" />
<glyph unicode="&#x09;" horiz-adv-x="516" />
<glyph unicode="&#xa0;" horiz-adv-x="516" />
<glyph unicode="!" horiz-adv-x="450" d="M98 88q0 43 28 70.5t69 27.5t67.5 -27.5t26.5 -70.5t-26.5 -70.5t-67.5 -27.5t-69 27.5t-28 70.5zM176 389l41 989q2 35 25.5 55.5t58.5 20.5q33 0 52.5 -21.5t15.5 -56.5l-113 -987q-2 -20 -14.5 -32.5t-28.5 -12.5t-27.5 12.5t-9.5 32.5z" />
<glyph unicode="&#x22;" horiz-adv-x="835" d="M211 924l2 442q0 43 22.5 65.5t57.5 22.5q31 0 49 -18.5t18 -51.5l-2 -18l-63 -442q-6 -45 -45 -45q-19 0 -29 12t-10 33zM612 924l2 442q0 43 22.5 65.5t57.5 22.5q31 0 49 -18.5t18 -51.5l-2 -18l-63 -442q-6 -45 -45 -45q-19 0 -29 12t-10 33z" />
<glyph unicode="#" d="M68 436q0 20 16 33.5t39 13.5h207l96 494h-262q-23 0 -39 16.5t-16 38.5q0 20 16 33.5t39 13.5h282l66 340q2 18 17.5 29.5t35.5 11.5q27 0 42.5 -20.5t8.5 -48.5l-61 -312h299l66 340q4 18 18 29.5t35 11.5q27 0 42 -20.5t9 -48.5l-61 -312h178q23 0 39 -16t16 -39 q0 -20 -16.5 -33.5t-38.5 -13.5h-199l-96 -494h254q23 0 39 -16t16 -39q0 -20 -16.5 -33.5t-38.5 -13.5h-275l-67 -350q-2 -18 -16.5 -29.5t-34.5 -11.5q-27 0 -42.5 20.5t-9.5 48.5l64 322h-301l-68 -350q-2 -18 -16.5 -29.5t-34.5 -11.5q-27 0 -42 20.5t-9 48.5l63 322 h-188q-23 0 -39 16.5t-16 38.5zM438 483h299l97 494h-299z" />
<glyph unicode="$" d="M78 215q0 23 14 40t35 17q18 0 33 -14q100 -84 205.5 -123t232.5 -39q180 0 279.5 76t99.5 211q0 74 -46 121t-114.5 75.5t-187.5 65.5q-143 43 -233.5 84t-153 117t-62.5 196q0 119 59.5 213.5t167 148.5t246.5 56l15 168q2 27 18 44.5t41 17.5t40 -17.5t13 -44.5 l-12 -174q117 -12 218 -57t175 -117q21 -20 21 -47q0 -25 -15.5 -42t-40.5 -17t-47 20q-88 80 -190.5 117t-226.5 37q-162 0 -256.5 -80t-94.5 -217q0 -84 50.5 -138.5t122 -85t198.5 -71.5q139 -43 223 -81t142.5 -106.5t58.5 -177.5q0 -174 -124 -285.5t-333 -121.5 l-12 -168q-2 -27 -18.5 -44.5t-40.5 -17.5q-25 0 -40.5 17.5t-13.5 44.5l13 168q-258 20 -426 168q-33 27 -33 63z" />
<glyph unicode="%" horiz-adv-x="1890" d="M164 967q0 231 94 362t260 131q162 0 247 -99t85 -292q0 -231 -94 -361t-260 -130q-160 0 -246 100t-86 289zM285 952q0 -141 51 -208.5t160 -67.5q112 0 172.5 104.5t60.5 302.5q0 143 -52 212t-159 69q-115 0 -174 -105.5t-59 -306.5zM449 16q0 20 12 41l911 1387 q23 35 58 35q20 0 35.5 -14.5t15.5 -34.5q0 -23 -15 -44l-911 -1386q-22 -35 -57 -35q-20 0 -34.5 14.5t-14.5 36.5zM1079 373q0 233 93.5 364t261.5 131q162 0 245.5 -99t83.5 -292q0 -231 -93 -361t-261 -130q-160 0 -245 99t-85 288zM1200 360q0 -143 51.5 -209.5 t159.5 -66.5q113 0 172 104.5t59 303.5q0 143 -51 210.5t-157 67.5q-115 0 -174.5 -104.5t-59.5 -305.5z" />
<glyph unicode="&#x26;" horiz-adv-x="1343" d="M119 354q0 131 81 236.5t265 218.5h1t1 2q-100 115 -137 187.5t-37 154.5q0 137 92 221t244 84q141 0 224 -75.5t83 -204.5q0 -106 -63.5 -189.5t-237.5 -197.5l366 -416q88 170 101 418q2 27 19.5 42t41.5 15q25 0 40.5 -15.5t13.5 -43.5q-16 -295 -138 -502l191 -215 q16 -19 16 -39q0 -23 -17.5 -38t-39.5 -15q-27 0 -47 22l-170 191q-84 -100 -197 -154.5t-248 -54.5q-131 0 -233.5 46t-158.5 130t-56 192zM242 356q0 -121 89 -192.5t240 -71.5q113 0 206 47t163 137l-401 453h-2q-164 -102 -229.5 -184t-65.5 -189zM418 1153 q0 -66 29.5 -124t115.5 -159q147 94 201.5 159t54.5 140q0 84 -52 134.5t-136 50.5q-96 0 -154.5 -55.5t-58.5 -145.5z" />
<glyph unicode="'" horiz-adv-x="432" d="M211 924l2 442q0 43 22.5 65.5t57.5 22.5q31 0 49 -18.5t18 -51.5l-2 -18l-63 -442q-6 -45 -45 -45q-19 0 -29 12t-10 33z" />
<glyph unicode="(" horiz-adv-x="608" d="M213 377q0 293 76 565t215 492q18 31 51 30q18 0 31.5 -10t13.5 -29q0 -14 -8 -28q-252 -492 -252 -1024q0 -369 117 -690q4 -12 4 -21q0 -23 -16.5 -36t-36.5 -13q-35 0 -50 33q-145 346 -145 731z" />
<glyph unicode=")" horiz-adv-x="608" d="M16 -348q0 14 9 29q252 475 251 1024q0 369 -116 690q-4 12 -4 20q0 23 16 36t37 13q35 0 49 -32q145 -355 145 -732q0 -291 -75.5 -562t-214.5 -494q-18 -31 -52 -31q-18 0 -31.5 10t-13.5 29z" />
<glyph unicode="*" horiz-adv-x="919" d="M109 1100q0 23 16 38t43 13l268 -10l-141 229q-12 18 -12 35q0 20 15 34.5t34 14.5q35 0 51 -35l125 -235l125 235q18 35 51 35q18 0 33.5 -14.5t15.5 -36.5q0 -18 -10 -35l-141 -227l266 10q29 2 45 -13.5t16 -37.5q0 -20 -16 -35.5t-45 -15.5l-266 8l141 -226 q10 -14 10 -34t-15.5 -36t-33.5 -16q-33 0 -51 35l-125 236l-125 -238q-18 -33 -49 -33q-20 0 -35.5 14.5t-15.5 35.5q0 16 12 34l141 228l-268 -8q-29 0 -44 15t-15 36z" />
<glyph unicode="+" d="M123 582q0 20 16.5 35.5t38.5 15.5h397l31 393q2 23 18.5 39t37.5 16q20 0 34.5 -16t12.5 -39l-31 -393h391q23 0 38 -14.5t15 -36.5q0 -23 -16 -38.5t-39 -15.5h-399l-31 -391q-2 -23 -17.5 -39t-37.5 -16q-20 0 -35 16.5t-12 38.5l30 391h-391q-23 0 -37 15.5t-14 38.5 z" />
<glyph unicode="," horiz-adv-x="450" d="M90 -178q0 20 19 39q55 59 69 131q-35 4 -57.5 30.5t-22.5 65.5q0 45 26 71.5t66 26.5q43 0 70 -30.5t27 -87.5q0 -78 -30 -145.5t-81 -119.5q-20 -20 -43 -20q-18 0 -30.5 11t-12.5 28z" />
<glyph unicode="-" horiz-adv-x="862" d="M145 543q0 25 16.5 40t43.5 15h463q29 0 43 -15.5t14 -39.5q0 -23 -16.5 -37t-44.5 -14h-461q-29 0 -43.5 14t-14.5 37z" />
<glyph unicode="." horiz-adv-x="450" d="M98 88q0 43 28 70.5t69 27.5t67.5 -27.5t26.5 -70.5t-26.5 -70.5t-67.5 -27.5t-69 27.5t-28 70.5z" />
<glyph unicode="/" horiz-adv-x="550" d="M-74 -72q0 14 4 23l617 1542q8 18 22.5 28.5t30.5 10.5q23 0 39 -14.5t16 -36.5q0 -16 -4 -25l-612 -1542q-14 -37 -55 -37q-23 0 -40.5 14.5t-17.5 36.5z" />
<glyph unicode="0" d="M131 612q0 266 62.5 457t181.5 291t284 100q233 0 354.5 -159.5t121.5 -469.5q0 -403 -139.5 -625t-391.5 -222q-231 0 -352 159.5t-121 468.5zM262 590q0 -252 85 -373t261 -121q195 0 295.5 191.5t100.5 566.5q0 252 -84 373t-261 121q-195 0 -296 -191.5t-101 -566.5z " />
<glyph unicode="1" d="M236 53q0 25 15 41.5t42 16.5h276l95 1171l-232 -141q-14 -8 -31 -8q-25 0 -41 17t-16 42q0 31 29 47l325 205q23 14 47 14q25 0 39.5 -15.5t12.5 -37.5l-103 -1294h273q24 0 39.5 -15.5t15.5 -40.5t-15.5 -40t-41.5 -15h-674q-25 0 -40 15.5t-15 37.5z" />
<glyph unicode="2" d="M137 51q0 29 27 55l549 558q133 135 187 233t54 205q0 113 -71.5 180.5t-192.5 67.5q-115 0 -212 -38t-187 -114q-25 -18 -45 -18t-32.5 13t-12.5 36q0 33 35 65q84 76 204.5 121t247.5 45q180 0 286.5 -96t106.5 -260q0 -131 -65.5 -252t-220.5 -277l-467 -464h696 q49 -1 49 -52q0 -25 -14.5 -42t-44.5 -17h-821q-25 0 -40.5 14.5t-15.5 36.5z" />
<glyph unicode="3" d="M104 193q0 25 15.5 42t38.5 17q25 0 43 -16q166 -139 381 -140q162 0 255 82t93 232q0 268 -336 268h-115q-23 0 -36 16.5t-13 40.5q0 25 13.5 39t37.5 14h111q166 0 264 87.5t98 236.5q0 109 -73.5 173.5t-196.5 64.5q-111 0 -207 -38t-186 -114q-25 -18 -45 -18 t-32.5 13t-12.5 36q0 33 35 65q84 76 204.5 121t249.5 45q178 0 284.5 -94t106.5 -252q0 -127 -72.5 -229.5t-197.5 -147.5q117 -30 181.5 -114t64.5 -209q0 -129 -58.5 -225.5t-168 -149.5t-255.5 -53q-131 0 -247.5 43t-200.5 114q-23 20 -23 50z" />
<glyph unicode="4" d="M92 381q0 23 21 49l764 993q27 33 61 33q27 0 42 -16.5t13 -44.5l-75 -959h176q26 0 40.5 -15t14.5 -40t-15.5 -39t-41.5 -14h-183l-22 -279q-2 -27 -20.5 -43t-43.5 -16q-27 0 -45 18.5t-16 46.5l22 273h-624q-29 0 -48.5 14t-19.5 39zM254 436h539l61 781z" />
<glyph unicode="5" d="M160 199q0 23 15 40t38 17q27 0 47 -18q168 -141 365 -142q166 0 264 103.5t98 275.5q0 141 -85 226t-224 85q-215 0 -344 -165q-20 -25 -53 -25q-25 0 -40.5 17.5t-13.5 50.5l58 716q2 29 20.5 46.5t46.5 17.5h735q29 0 44.5 -14.5t15.5 -38.5q0 -27 -15.5 -41.5 t-44.5 -14.5h-679l-46 -567q59 61 145.5 95t180.5 34q127 0 224.5 -52t150.5 -146.5t53 -217.5q0 -145 -62.5 -257.5t-175 -175t-257.5 -62.5q-123 0 -239 43t-198 116q-25 23 -24 54z" />
<glyph unicode="6" horiz-adv-x="1226" d="M137 600q0 260 73 454.5t207 300t312 105.5q127 0 238.5 -43t191.5 -127q25 -26 25 -55q0 -25 -14.5 -41t-36.5 -16q-23 0 -52 24q-72 70 -163 109t-189 39q-197 0 -316.5 -165t-144.5 -472l-6 -74q55 119 161.5 188.5t242.5 69.5q133 0 235.5 -54.5t157.5 -153.5 t55 -228q0 -137 -60.5 -246t-168 -170t-240.5 -61q-244 0 -376 159.5t-132 456.5zM299 426q0 -150 95 -241t251 -91q152 0 246 101.5t94 265.5q0 147 -91 236t-243 89q-100 0 -181 -46t-126 -129t-45 -185z" />
<glyph unicode="7" d="M219 1389q0 27 16.5 41t45.5 14h817q26 0 41.5 -15.5t15.5 -39.5q0 -20 -12 -46l-770 -1329q-20 -35 -56 -34q-23 0 -40 15t-17 40q0 12 10 33l734 1265h-723q-29 0 -45.5 15.5t-16.5 40.5z" />
<glyph unicode="8" d="M96 371q0 131 81 233.5t220 138.5q-104 39 -159.5 121t-55.5 197q0 119 60.5 209t172 140t259.5 50q219 0 340 -95t121 -259q0 -133 -72 -231.5t-195 -139.5q246 -76 246 -348q0 -121 -62.5 -211t-179 -139t-274.5 -49q-244 0 -373 98t-129 285zM225 371q0 -272 367 -273 q188 0 290.5 76t102.5 215q0 150 -87 218.5t-286 68.5q-387 0 -387 -305zM311 1053q0 -125 87 -196t251 -71q172 0 264.5 82t92.5 226q0 123 -84 189.5t-250 66.5q-174 0 -267.5 -78t-93.5 -219z" />
<glyph unicode="9" d="M82 209q0 25 14.5 41t36.5 16q25 0 51 -24q72 -70 163 -109t190 -39q197 0 316.5 165t143.5 472l7 74q-55 -119 -162 -188.5t-242 -69.5q-133 0 -235.5 54t-157.5 153.5t-55 228.5q0 137 60 245.5t167.5 170t241.5 61.5q243 0 375 -159.5t132 -456.5q0 -260 -72.5 -454.5 t-206.5 -300t-312 -105.5q-127 0 -239 43t-192 127q-25 25 -24 55zM281 983q0 -147 91 -236.5t242 -89.5q101 0 182 46.5t126 129t45 185.5q0 150 -95.5 241t-250.5 91q-152 0 -246 -101.5t-94 -265.5z" />
<glyph unicode=":" horiz-adv-x="450" d="M98 88q0 43 28 70.5t69 27.5t67.5 -27.5t26.5 -70.5t-26.5 -70.5t-67.5 -27.5t-69 27.5t-28 70.5zM164 918q0 43 27.5 70.5t68.5 27.5t67.5 -27.5t26.5 -70.5t-26.5 -71t-67.5 -28t-68.5 27.5t-27.5 71.5z" />
<glyph unicode=";" horiz-adv-x="450" d="M90 -178q0 20 19 39q55 59 69 131q-35 4 -57.5 30.5t-22.5 65.5q0 45 26 71.5t66 26.5q43 0 70 -30.5t27 -87.5q0 -78 -30 -145.5t-81 -119.5q-20 -20 -43 -20q-18 0 -30.5 11t-12.5 28zM164 918q0 43 27.5 70.5t68.5 27.5t67.5 -27.5t26.5 -70.5t-26.5 -71t-67.5 -28 t-68.5 27.5t-27.5 71.5z" />
<glyph unicode="&#x3c;" d="M123 575q0 27 14.5 48.5t38.5 31.5l889 398q17 8 37 8q23 0 38 -13.5t15 -33.5q0 -31 -33 -45l-874 -387l813 -389q25 -12 24 -39q0 -25 -17 -40.5t-42 -15.5q-16 0 -37 11l-825 397q-41 23 -41 69z" />
<glyph unicode="=" d="M104 379q0 20 16.5 34.5t39.5 14.5h891q23 0 37 -16.5t14 -38.5q0 -20 -16.5 -34.5t-38.5 -14.5h-891q-23 0 -37.5 16t-14.5 39zM135 788q0 20 16.5 35t38.5 15h891q23 0 37.5 -16.5t14.5 -39.5q0 -20 -16.5 -34.5t-39.5 -14.5h-891q-22 0 -36.5 16.5t-14.5 38.5z" />
<glyph unicode="&#x3e;" d="M86 147q4 31 35 46l874 387l-813 389q-27 12 -26 45q2 20 19.5 33.5t41.5 13.5q20 0 37 -8l825 -398q47 -22 43 -73q-6 -53 -55 -76l-889 -397q-25 -10 -39 -11q-25 0 -40 14.5t-13 34.5z" />
<glyph unicode="?" horiz-adv-x="892" d="M51 1227q0 41 31 65q86 78 208 123t238 45q166 0 263.5 -78.5t97.5 -210.5q0 -82 -29 -149.5t-69.5 -120.5t-114.5 -131q-100 -106 -156.5 -190t-75.5 -197q-10 -39 -41 -39q-18 0 -28 12.5t-8 32.5q6 96 37.5 173t73.5 134.5t110 132.5q88 98 129 168t41 162 q0 88 -63.5 139.5t-174.5 51.5q-102 0 -191 -37t-196 -117q-23 -16 -43 -16q-18 0 -28.5 13t-10.5 34zM285 88q0 43 27.5 70.5t68.5 27.5t67.5 -27.5t26.5 -70.5t-26.5 -70.5t-67.5 -27.5t-68.5 27.5t-27.5 70.5z" />
<glyph unicode="@" horiz-adv-x="1888" d="M115 563q0 266 112.5 468t309 312.5t438.5 110.5q262 0 447.5 -109.5t278.5 -280.5t93 -357q0 -207 -61.5 -336t-153.5 -184.5t-193 -55.5q-111 0 -172 48t-63 136h-4q-49 -84 -130 -134t-183 -50q-129 0 -213 93t-84 261q0 137 54 260t152.5 199t227.5 76q100 0 174 -49 t94 -125h2l19 108q4 20 19 31.5t38 11.5q27 0 40 -16t9 -45l-90 -516q-6 -39 -6 -70q0 -70 33.5 -98.5t101.5 -28.5q63 0 127.5 47t109 156t44.5 281q0 158 -79 305t-240 242.5t-392 95.5q-213 0 -384 -96.5t-269.5 -274.5t-98.5 -416q0 -231 90 -404t260 -267.5t404 -94.5 q168 0 294 49.5t208 137.5q29 29 57 28q20 0 34.5 -16t14.5 -39q0 -27 -20 -47q-98 -102 -250 -159.5t-338 -57.5q-260 0 -455.5 108.5t-301 306t-105.5 455.5zM643 494q0 -129 61.5 -200t151.5 -71q109 0 187.5 65.5t120.5 169t42 218.5q0 121 -60.5 185.5t-164.5 64.5 q-102 0 -179 -62.5t-118 -162t-41 -207.5z" />
<glyph unicode="A" horiz-adv-x="1474" d="M43 47q0 16 8 33l684 1325q25 49 76 49q25 0 45.5 -14.5t30.5 -42.5l477 -1323q4 -9 4 -25q0 -27 -18.5 -44t-42.5 -17q-18 0 -34 12t-24 35l-125 350h-784l-182 -358q-16 -37 -56 -37q-25 0 -42 16.5t-17 40.5zM395 496h690l-284 794z" />
<glyph unicode="B" horiz-adv-x="1372" d="M156 76l100 1304q2 29 21.5 46.5t48.5 17.5h471q223 0 339.5 -91t116.5 -261q0 -129 -67.5 -221.5t-196.5 -135.5q121 -30 182.5 -112t61.5 -205q0 -199 -128 -308.5t-360 -109.5h-522q-33 0 -52 21.5t-15 54.5zM283 109h462q177 0 269 74.5t92 224.5q0 270 -336 270 h-442zM336 788h432q170 0 264 77t94 222q0 248 -333 248h-414z" />
<glyph unicode="C" horiz-adv-x="1386" d="M147 659q0 242 83 423.5t237 279.5t362 98q158 0 288 -47t218 -137q20 -20 21 -47q0 -25 -15.5 -42.5t-37.5 -17.5q-20 0 -39 17q-88 84 -191.5 123t-247.5 39q-170 0 -293.5 -83t-188 -239t-64.5 -369q0 -268 129 -414.5t366 -146.5q113 0 218.5 39t191.5 117 q23 20 45 20q20 0 32.5 -15t12.5 -38q0 -29 -23 -49q-203 -186 -503 -186q-181 0 -317 80.5t-210 233.5t-74 361z" />
<glyph unicode="D" horiz-adv-x="1497" d="M156 76l100 1304q2 29 21.5 46.5t48.5 17.5h389q324 0 497.5 -172t173.5 -488q0 -244 -84.5 -420t-246.5 -270t-391 -94h-441q-33 0 -52 21.5t-15 54.5zM283 111h376q293 0 443.5 175t150.5 500q0 547 -542 547h-332z" />
<glyph unicode="E" horiz-adv-x="1185" d="M154 68l102 1314q4 61 68 62h780q24 0 39.5 -15.5t15.5 -37.5q0 -25 -15.5 -40.5t-41.5 -15.5h-723l-43 -547h676q25 0 40 -15t15 -40t-15.5 -40t-41.5 -15h-682l-45 -569h716q25 0 40.5 -15.5t15.5 -38.5q0 -25 -15.5 -40t-42.5 -15h-782q-33 0 -48 17.5t-13 50.5z" />
<glyph unicode="F" horiz-adv-x="1132" d="M152 55l104 1327q2 31 20.5 46.5t49.5 15.5h757q25 0 40.5 -15.5t15.5 -37.5q0 -25 -15.5 -40.5t-42.5 -15.5h-702l-43 -547h655q25 0 40.5 -15t15.5 -40t-15.5 -40t-42.5 -15h-663l-50 -629q-2 -29 -19 -44t-44 -15t-45 18.5t-16 46.5z" />
<glyph unicode="G" horiz-adv-x="1472" d="M145 639q0 248 87 433t247 285.5t375 100.5q301 0 481 -174q27 -20 27 -57q0 -25 -15.5 -42.5t-35.5 -17.5q-18 0 -39 17q-94 86 -193.5 125t-224.5 39q-180 0 -310 -84t-199 -242t-69 -375q0 -266 131.5 -409.5t389.5 -143.5q90 0 187 17.5t177 48.5l37 473h-324 q-29 0 -45 14.5t-16 38.5q0 25 16.5 39t44.5 14h373q33 0 51.5 -20.5t16.5 -52.5l-39 -531q-6 -53 -49 -69q-88 -37 -207 -59.5t-223 -22.5q-315 0 -483.5 173t-168.5 482z" />
<glyph unicode="H" horiz-adv-x="1544" d="M154 55l104 1340q2 27 20.5 43t43.5 16q27 0 45 -17.5t16 -47.5l-47 -601h917l50 607q2 27 19 43t44 16t45.5 -17.5t15.5 -47.5l-106 -1340q-2 -27 -19.5 -43t-44.5 -16t-45 17.5t-16 47.5l49 623h-917l-49 -629q-2 -27 -20.5 -43t-43.5 -16q-27 0 -45 18.5t-16 46.5z " />
<glyph unicode="I" horiz-adv-x="499" d="M154 55l104 1340q2 27 20.5 43t43.5 16q29 0 46 -17.5t15 -47.5l-104 -1340q-2 -29 -19.5 -44t-44.5 -15t-45 18.5t-16 46.5z" />
<glyph unicode="J" horiz-adv-x="636" d="M-53 47q0 20 14 33.5t39 15.5l66 4q113 8 176 79t73 198l80 1014q2 29 20.5 46t47.5 17t45 -17.5t14 -45.5l-82 -1018q-14 -178 -107 -273.5t-261 -105.5l-68 -4q-29 -2 -44 14t-13 43z" />
<glyph unicode="K" horiz-adv-x="1255" d="M154 55l104 1340q2 25 20.5 42t43.5 17q27 0 46 -19.5t15 -45.5l-47 -611l813 662q17 12 35 12q23 0 40 -16.5t17 -38.5q0 -27 -22 -43l-766 -617l702 -651q18 -18 19 -39q0 -23 -17.5 -39t-40.5 -16t-39 16l-747 688l-51 -647q-2 -25 -20.5 -42t-43.5 -17 q-27 0 -45 19.5t-16 45.5z" />
<glyph unicode="L" horiz-adv-x="1091" d="M154 68l104 1327q2 27 20.5 43t45.5 16q29 0 45 -17.5t14 -47.5l-100 -1278h698q25 0 40 -15.5t15 -40.5t-15 -40t-42 -15h-764q-33 0 -49 17.5t-12 50.5z" />
<glyph unicode="M" horiz-adv-x="1720" d="M154 53l104 1338q2 29 19.5 46t46.5 17q39 0 61 -47l467 -1055l635 1065q23 41 65 41q27 0 41.5 -15.5t10.5 -37.5l-107 -1360q-2 -27 -19.5 -41t-41.5 -14q-25 0 -42.5 17.5t-15.5 45.5l92 1135l-563 -930q-10 -16 -26.5 -26.5t-36.5 -10.5q-47 0 -66 43l-416 922 l-90 -1141q-2 -27 -19 -41t-42 -14t-42 17.5t-15 45.5z" />
<glyph unicode="N" horiz-adv-x="1505" d="M152 55l104 1336q2 31 19.5 47t43.5 16q37 0 58 -35l801 -1202l94 1180q2 27 18.5 42t42.5 15q25 0 42.5 -18.5t15.5 -44.5l-107 -1340q-4 -61 -57 -61q-35 0 -62 35l-800 1210l-97 -1188q-2 -27 -18.5 -42t-40.5 -15q-25 0 -42 18.5t-15 46.5z" />
<glyph unicode="O" horiz-adv-x="1550" d="M147 659q0 242 82 423.5t231.5 279.5t348.5 98q195 0 336 -81t217 -233.5t76 -361.5q0 -242 -81 -423t-231.5 -279t-351.5 -98q-192 0 -333.5 80.5t-217.5 233.5t-76 361zM279 657q0 -270 129 -414.5t368 -144.5q164 0 284 82t183.5 236.5t63.5 367.5q0 272 -129 417 t-369 145q-164 0 -283.5 -82t-183 -238t-63.5 -369z" />
<glyph unicode="P" horiz-adv-x="1306" d="M152 55l104 1327q4 61 68 62h471q221 0 338.5 -104.5t117.5 -286.5q0 -221 -135 -333t-373 -112h-424l-43 -559q-2 -27 -20 -43t-43 -16q-27 0 -45 18.5t-16 46.5zM328 717h413q383 0 383 332q0 139 -83 212.5t-250 73.5h-414z" />
<glyph unicode="Q" horiz-adv-x="1550" d="M147 659q0 242 82 423.5t231.5 279.5t348.5 98q195 0 336 -81t217 -233.5t76 -361.5q0 -297 -120 -500.5t-345 -269.5q37 -16 67.5 -50t59.5 -91l88 -164q8 -14 8 -31q0 -25 -18.5 -40t-42.5 -15q-39 0 -60 37l-106 199q-68 121 -234 127q-176 6 -308 87t-206 230.5 t-74 355.5zM279 657q0 -270 129 -414.5t368 -144.5q164 0 284 82t183.5 236.5t63.5 367.5q0 272 -129 417t-369 145q-164 0 -283.5 -82t-183 -238t-63.5 -369z" />
<glyph unicode="R" horiz-adv-x="1396" d="M154 57l102 1323q2 29 21.5 46.5t48.5 17.5h501q219 0 337 -96.5t118 -280.5q0 -188 -106.5 -298t-313.5 -126q45 -18 79 -56t71 -104l223 -409q8 -14 8 -31q0 -23 -18.5 -38t-42.5 -15q-39 0 -60 39l-235 434q-49 94 -109.5 129t-171.5 35h-282l-45 -578 q-2 -29 -19.5 -44t-46.5 -15t-46 17.5t-13 49.5zM332 735h446q190 0 284.5 79t94.5 245q0 141 -83 208.5t-249 67.5h-446z" />
<glyph unicode="S" horiz-adv-x="1243" d="M84 256q14 16 35 16q20 0 33 -12q102 -86 213.5 -126t252.5 -40q190 0 291 74t101 205q0 78 -48.5 129t-122 79.5t-196.5 63.5q-154 43 -248 83t-159.5 120t-65.5 211q0 121 63.5 212t181 140t275.5 49q147 0 276.5 -47t219.5 -133q20 -20 20 -49q0 -23 -15 -40t-38 -17 q-27 0 -49 20q-82 74 -187.5 115t-226.5 41q-190 0 -290.5 -76t-100.5 -211q0 -88 52 -145.5t130 -88t207 -67.5q150 -43 239 -81t150.5 -110.5t61.5 -191.5q0 -182 -140.5 -288.5t-380.5 -106.5q-326 0 -516 168q-32 26 -32 61q0 27 14 43z" />
<glyph unicode="T" horiz-adv-x="1208" d="M84 1389q0 25 15.5 40t41.5 15h1071q25 0 40.5 -15.5t15.5 -39.5q0 -25 -15.5 -40.5t-42.5 -15.5h-475l-102 -1284q-2 -27 -19.5 -43t-44.5 -16q-26 0 -44.5 18.5t-16.5 46.5l100 1278h-469q-25 0 -40 15.5t-15 40.5z" />
<glyph unicode="U" horiz-adv-x="1474" d="M178 479q0 25 4 78l66 838q2 27 20.5 43t42.5 16q27 0 45.5 -18.5t16.5 -46.5l-66 -826q-2 -25 -2 -69q0 -397 402 -398q219 0 334.5 109.5t134.5 335.5l67 854q2 27 19.5 43t44.5 16t45 -17.5t16 -47.5l-68 -834q-23 -287 -172 -429t-421 -142q-261 0 -395 128t-134 367 z" />
<glyph unicode="V" horiz-adv-x="1392" d="M109 1395q0 27 18 43t43 16q43 0 57 -41l443 -1253l639 1261q14 33 55 33q23 0 40 -14.5t17 -36.5q0 -16 -8 -33l-680 -1335q-25 -45 -74 -45q-25 0 -45 14t-28 39l-473 1329q-4 16 -4 23z" />
<glyph unicode="W" horiz-adv-x="2244" d="M166 1397q0 27 18.5 42t42.5 15q20 0 36 -11t22 -34l325 -1231l520 1225q10 25 28 38t38 13t37.5 -13.5t23.5 -37.5l324 -1223l526 1239q15 35 56 35q23 0 39 -14.5t16 -36.5q0 -14 -6 -31l-572 -1337q-8 -23 -27.5 -34t-39.5 -11q-23 0 -41.5 13t-24.5 40l-325 1202 l-518 -1210q-8 -23 -28 -34t-40 -11q-23 0 -41 13t-27 40l-360 1333q-2 6 -2 21z" />
<glyph unicode="X" horiz-adv-x="1306" d="M29 45q0 20 18 45l553 653l-424 615q-12 18 -12 37q0 25 20.5 42t44.5 17q29 0 47 -27l404 -591l496 596q20 22 47 22q23 0 41 -16.5t18 -38.5q0 -23 -16 -41l-521 -619l451 -653q12 -16 12 -39q0 -25 -19.5 -41t-43.5 -16q-35 0 -51 28l-426 627l-533 -633 q-20 -25 -47 -24q-25 0 -42 16t-17 41z" />
<glyph unicode="Y" horiz-adv-x="1210" d="M92 1399q0 25 18.5 39t43.5 14q33 0 51 -27l420 -626l514 620q28 35 63 35q23 0 37 -14.5t14 -36.5q0 -25 -16 -43l-555 -670l-49 -641q-2 -27 -20.5 -43t-43.5 -16q-27 0 -46 18.5t-17 46.5l51 635l-451 670q-14 20 -14 39z" />
<glyph unicode="Z" horiz-adv-x="1196" d="M47 55q0 23 14 43l951 1237h-807q-25 0 -40 15.5t-15 38.5q0 25 15 40t42 15h921q23 0 36.5 -15.5t13.5 -35.5q0 -29 -17 -47l-948 -1237h829q27 0 41.5 -14.5t14.5 -39.5t-15.5 -40t-42.5 -15h-940q-25 0 -39 15.5t-14 39.5z" />
<glyph unicode="[" horiz-adv-x="608" d="M174 -178l113 1431q6 92 58 141.5t144 49.5h132q29 0 44 -12.5t15 -34.5q0 -25 -17.5 -40.5t-46.5 -15.5h-108q-90 0 -96 -94l-113 -1419q-6 -94 80 -94h108q55 0 56 -49q0 -27 -16.5 -40.5t-45.5 -13.5h-135q-92 0 -136 49.5t-36 141.5z" />
<glyph unicode="\" horiz-adv-x="550" d="M49 1458q-8 33 12.5 54.5t49.5 21.5q18 0 32.5 -11.5t20.5 -33.5l371 -1540q8 -31 -12.5 -51.5t-49.5 -20.5q-45 0 -53 43z" />
<glyph unicode="]" horiz-adv-x="608" d="M-63 -322q0 25 17 40.5t44 15.5h111q90 0 96 94l112 1419q4 47 -16 70.5t-65 23.5h-107q-55 0 -55 50q0 27 16 40t45 13h135q92 0 136.5 -49t35.5 -142l-112 -1431q-10 -92 -60.5 -141.5t-142.5 -49.5h-131q-29 0 -44 12.5t-15 34.5z" />
<glyph unicode="^" d="M121 336q0 14 8 31l475 874q10 20 29.5 32.5t44.5 12.5q23 0 40 -12t25 -33l338 -876q4 -17 4 -23q0 -23 -18 -39t-39 -16q-29 0 -37 24l-325 842l-455 -842q-12 -25 -39 -24q-20 0 -35.5 13t-15.5 36z" />
<glyph unicode="_" horiz-adv-x="1024" d="M-43 -45q2 18 17.5 31.5t37.5 13.5h922q23 0 36 -13.5t11 -31.5q0 -18 -15.5 -30.5t-39.5 -12.5h-920q-22 0 -35.5 12.5t-13.5 30.5z" />
<glyph unicode="`" horiz-adv-x="614" d="M114 1493q0 27 18.5 44t43.5 17q43 0 63 -47l144 -336q4 -8 4 -20q0 -16 -11.5 -25.5t-27.5 -9.5q-27 0 -41 23l-180 313q-12 23 -13 41z" />
<glyph unicode="a" horiz-adv-x="1077" d="M115 270q0 113 60.5 178.5t193.5 95t358 29.5h72l6 70q2 16 2 45q0 115 -54.5 168t-166.5 53q-160 0 -336 -110q-14 -8 -27 -8q-20 0 -33.5 16t-13.5 39q0 35 31 55q74 53 178 85t205 32q340 0 340 -328q0 -33 -2 -51l-45 -592q-2 -27 -18.5 -42t-43.5 -15 q-29 0 -46 18.5t-15 46.5l8 115q-45 -88 -127 -136t-188 -48q-150 0 -244 79.5t-94 204.5zM246 279q0 -84 61.5 -134.5t165.5 -50.5q127 0 215 87t98 227l7 73h-60q-188 0 -292.5 -18.5t-149.5 -62.5t-45 -121z" />
<glyph unicode="b" horiz-adv-x="1173" d="M129 53l107 1346q2 27 22.5 42t44.5 15q27 0 43 -14.5t14 -42.5l-45 -563q49 86 139.5 134t196.5 48q125 0 221.5 -59.5t149.5 -168t53 -253.5q0 -164 -58.5 -289t-163.5 -193.5t-243 -68.5q-123 0 -214 54t-132 155l-12 -142q-2 -33 -20.5 -48t-45.5 -15q-29 0 -45 15 t-12 48zM287 461q0 -178 83 -271.5t236 -93.5q158 0 249 119t91 326q0 174 -84 271t-235 97q-158 0 -249 -119.5t-91 -328.5z" />
<glyph unicode="c" horiz-adv-x="972" d="M100 465q0 166 59.5 291t171 193.5t261.5 68.5q102 0 191 -31t141 -78q25 -23 24 -53q0 -25 -15 -43t-36 -18q-14 0 -31 12q-129 102 -276 102q-170 0 -264.5 -118.5t-94.5 -329.5q0 -170 85 -267.5t241 -97.5q76 0 138.5 25.5t123.5 75.5q18 12 33 12q20 0 35.5 -16.5 t15.5 -36.5q0 -23 -18 -41q-61 -61 -151.5 -95t-188.5 -34q-133 0 -234.5 59t-156 168t-54.5 252z" />
<glyph unicode="d" horiz-adv-x="1173" d="M100 465q0 164 58.5 290t164 194.5t242.5 68.5q121 0 211 -52.5t133 -148.5l45 582q2 29 21.5 43t46.5 14t43 -15.5t14 -41.5l-104 -1346q-2 -33 -21.5 -48t-46.5 -15t-43 15t-14 48l10 115q-51 -86 -141 -134t-195 -48q-125 0 -221 59t-149.5 168t-53.5 252zM231 467 q0 -178 83 -274.5t235 -96.5q158 0 249 120t91 327q0 178 -83 272t-237 94q-158 0 -248 -117.5t-90 -324.5z" />
<glyph unicode="e" horiz-adv-x="1077" d="M100 465q0 164 59.5 289t170 194.5t258.5 69.5q197 0 299 -116t102 -343q0 -39 -19.5 -58.5t-49.5 -19.5h-691v-20q0 -172 86 -268.5t248 -96.5q84 0 163 25.5t138 71.5q20 14 39 14q20 0 33.5 -14.5t13.5 -36.5q0 -29 -24 -52q-55 -51 -158.5 -84.5t-208.5 -33.5 q-213 0 -336 130t-123 349zM238 573h636v24q0 150 -70 231q-76 87 -210 87q-152 0 -243 -89t-113 -253z" />
<glyph unicode="f" horiz-adv-x="645" d="M41 944q0 23 13.5 36t37.5 13h158l4 51q16 197 114.5 293.5t293.5 106.5l34 2q31 2 47.5 -12.5t16.5 -36.5q0 -20 -15.5 -35.5t-39.5 -18.5l-60 -4q-127 -8 -190.5 -75.5t-73.5 -204.5l-4 -66h248q25 0 38 -13t13 -36t-13.5 -37t-39.5 -14h-254l-66 -842 q-2 -31 -20.5 -46t-42.5 -15q-27 0 -45.5 15t-16.5 46l64 842h-150q-25 0 -38 14.5t-13 36.5z" />
<glyph unicode="g" horiz-adv-x="1181" d="M102 489q0 158 57.5 278t164 185.5t245.5 65.5q125 0 215 -53.5t134 -149.5l12 135q2 33 20.5 48.5t44.5 15.5q29 0 45.5 -15.5t14.5 -48.5l-72 -893q-35 -440 -451 -440q-121 0 -222 30.5t-175 86.5q-31 23 -31 55q0 23 15.5 39t36.5 16q16 0 26 -8q86 -57 166 -82.5 t184 -25.5q303 0 328 323l14 168q-47 -90 -138 -139t-201 -49q-197 0 -315 125t-118 333zM233 485q0 -168 83 -256t239 -88q160 0 251 112t91 308q0 166 -85 257t-237 91q-162 0 -252 -112.5t-90 -311.5z" />
<glyph unicode="h" horiz-adv-x="1148" d="M129 53l107 1346q2 27 21 42t46 15t43 -14.5t14 -42.5l-45 -563q51 88 140.5 135t201.5 47q166 0 254 -84t88 -250q0 -37 -2 -55l-43 -576q-2 -33 -21.5 -48t-45.5 -15q-27 0 -43.5 15t-14.5 48l43 568q2 16 2 47q0 239 -235 239h-2q-152 0 -241 -88t-101 -244l-41 -522 q-4 -33 -22.5 -48t-45.5 -15q-29 0 -45 15t-12 48z" />
<glyph unicode="i" horiz-adv-x="454" d="M129 53l72 903q2 29 21.5 43.5t45.5 14.5q27 0 43.5 -14.5t14.5 -43.5l-72 -903q-4 -33 -22.5 -48t-45.5 -15q-28 0 -44.5 15t-12.5 48zM203 1333q0 41 25.5 65.5t66.5 24.5t67 -24.5t26 -65.5q0 -39 -26 -63.5t-67 -24.5t-66.5 24.5t-25.5 63.5z" />
<glyph unicode="j" horiz-adv-x="454" d="M-248 -324q0 20 14.5 35t38.5 17l60 4q127 8 188.5 73.5t71.5 202.5l76 944q2 31 20.5 46.5t42.5 15.5q27 0 45.5 -15.5t16.5 -46.5l-74 -929q-14 -195 -111.5 -290t-290.5 -106l-38 -2q-31 -2 -46.5 12.5t-13.5 38.5zM203 1333q0 41 25.5 65.5t66.5 24.5t67 -24.5 t26 -65.5q0 -39 -26 -63.5t-67 -24.5t-66.5 24.5t-25.5 63.5z" />
<glyph unicode="k" horiz-adv-x="991" d="M129 55l107 1342q2 27 22.5 42t44.5 15q29 0 44 -17.5t13 -47.5l-67 -854l541 456q16 15 36 15q23 0 39.5 -16.5t16.5 -39.5t-21 -41l-469 -395l453 -428q18 -18 18 -39q0 -23 -17.5 -40t-39.5 -17q-23 0 -39 16l-522 477l-35 -436q-2 -27 -19.5 -42t-41.5 -15 q-27 0 -46.5 18.5t-17.5 46.5z" />
<glyph unicode="l" horiz-adv-x="454" d="M129 53l107 1346q2 29 21 43t46 14t43 -14.5t14 -42.5l-106 -1346q-4 -33 -22.5 -48t-45.5 -15q-28 0 -44.5 15t-12.5 48z" />
<glyph unicode="m" horiz-adv-x="1726" d="M129 53l72 903q2 29 21.5 43.5t45.5 14.5q27 0 42.5 -14.5t13.5 -43.5l-11 -120q98 182 316 182q238 0 297 -191q49 90 139 140.5t203 50.5q153 0 232 -84t79 -246q0 -39 -2 -59l-45 -576q-2 -33 -20.5 -48t-45.5 -15t-44 15t-15 48l45 568q2 20 2 55q0 119 -51 175 t-160 56q-137 0 -217 -87t-92 -247l-41 -520q-2 -33 -20.5 -48t-45.5 -15t-44 15t-15 48l45 568q2 20 2 55q0 119 -51 175t-160 56q-135 0 -215 -87t-94 -247l-41 -520q-4 -33 -22.5 -48t-45.5 -15q-29 0 -45 15t-12 48z" />
<glyph unicode="n" horiz-adv-x="1148" d="M129 53l72 903q2 29 21.5 43.5t45.5 14.5q27 0 42.5 -14.5t13.5 -43.5l-11 -125q51 88 140.5 137.5t203.5 49.5q166 0 254 -84t88 -250q0 -37 -2 -55l-43 -576q-2 -33 -21.5 -48t-45.5 -15q-27 0 -43.5 15t-14.5 48l43 568q2 16 2 47q0 239 -235 239h-2q-152 0 -241 -88 t-101 -244l-41 -522q-4 -33 -22.5 -48t-45.5 -15q-29 0 -45 15t-12 48z" />
<glyph unicode="o" horiz-adv-x="1116" d="M100 465q0 166 58.5 291t166 193.5t246.5 68.5q135 0 236.5 -59.5t156 -168t54.5 -253.5q0 -164 -58.5 -289t-166 -193.5t-248.5 -68.5q-133 0 -234.5 59t-156 168t-54.5 252zM231 459q0 -176 82 -269.5t238 -93.5q158 0 248 120t90 327q0 174 -84 270t-234 96 q-160 0 -250 -119.5t-90 -330.5z" />
<glyph unicode="p" horiz-adv-x="1173" d="M98 -322l103 1272q2 33 21.5 48.5t45.5 15.5q27 0 43.5 -15.5t14.5 -48.5l-11 -112q49 84 140.5 132t195.5 48q125 0 221.5 -58.5t149.5 -167t53 -253.5q0 -164 -58.5 -290t-163.5 -194.5t-243 -68.5q-121 0 -212 54t-134 153l-41 -515q-2 -29 -20.5 -43t-44.5 -14 q-27 0 -44.5 14.5t-15.5 42.5zM287 461q0 -178 83 -271.5t236 -93.5q158 0 248 118t90 325q0 176 -83 273t-234 97q-158 0 -249 -119.5t-91 -328.5z" />
<glyph unicode="q" horiz-adv-x="1173" d="M98 467q0 164 58.5 289t164 193.5t242.5 68.5q123 0 214 -54.5t132 -152.5l13 139q2 33 20.5 48.5t44.5 15.5q29 0 45.5 -15.5t14.5 -48.5l-103 -1272q-2 -29 -21.5 -43t-45.5 -14q-27 0 -43.5 14.5t-14.5 42.5l39 490q-49 -86 -139 -134t-197 -48q-125 0 -221 59 t-149.5 168t-53.5 254zM229 463q0 -174 83 -270.5t235 -96.5q158 0 249 120t91 327q0 178 -83 272t-237 94q-158 0 -248 -118.5t-90 -327.5z" />
<glyph unicode="r" horiz-adv-x="694" d="M129 53l72 903q2 29 21.5 43.5t45.5 14.5q27 0 42.5 -14.5t13.5 -43.5l-11 -127q51 86 134 130.5t206 54.5l23 2q29 2 45 -12.5t16 -38.5q-2 -23 -15 -39.5t-40 -18.5l-55 -6q-156 -14 -238 -94t-94 -225l-41 -529q-4 -33 -22.5 -48t-45.5 -15q-29 0 -45 15t-12 48z" />
<glyph unicode="s" horiz-adv-x="978" d="M74 154q0 25 13 40t34 15q16 0 35 -12q72 -51 144.5 -77t160.5 -26q264 0 264 166q0 53 -33 87t-82 53.5t-133 43.5q-104 31 -167.5 58.5t-108.5 82t-45 142.5q0 135 104.5 213t278.5 78q100 0 189 -33t140 -86q20 -20 21 -45q0 -23 -14.5 -39t-36.5 -16q-20 0 -45 18 q-49 41 -116 66.5t-138 25.5q-123 0 -188.5 -45t-65.5 -131q0 -53 32.5 -86t78.5 -52.5t134 -45.5q102 -29 167 -56.5t110 -83t45 -143.5q0 -129 -107.5 -204.5t-287.5 -75.5q-107 0 -203 31.5t-154 80.5q-27 25 -26 56z" />
<glyph unicode="t" horiz-adv-x="669" d="M41 944q0 23 14.5 36t36.5 13h158l20 256q4 25 21.5 41.5t44.5 16.5q29 0 45 -17.5t14 -44.5l-20 -252h250q23 0 37 -13t14 -36q0 -25 -14.5 -38t-38.5 -13h-254l-43 -543q-2 -14 -2 -41q0 -104 49 -160.5t137 -56.5q29 0 52.5 3t33.5 3q18 0 29.5 -13t11.5 -38 q0 -33 -32 -46t-113 -13q-135 0 -214 81t-79 226q0 29 2 45l43 553h-152q-23 0 -37 13.5t-14 37.5z" />
<glyph unicode="u" horiz-adv-x="1132" d="M147 322q0 35 3 53l45 575q2 33 21.5 48.5t45.5 15.5q27 0 43.5 -15.5t13.5 -48.5l-45 -565q-2 -16 -2 -49q0 -240 232 -240q145 0 233 88t101 246l41 520q2 33 21.5 48.5t45.5 15.5q27 0 43.5 -15.5t14.5 -48.5l-72 -903q-2 -29 -21.5 -43t-46.5 -14t-42 14t-13 43 l10 127q-51 -90 -138 -139t-196 -49q-164 0 -251 85t-87 251z" />
<glyph unicode="v" horiz-adv-x="1042" d="M76 944q0 25 18.5 41t42.5 16q41 0 56 -40l296 -836l437 844q18 35 51 35q25 0 42 -15.5t17 -40.5q0 -16 -8 -30l-461 -879q-12 -25 -34.5 -38t-47.5 -13q-27 0 -50 16t-34 45l-321 871q-4 8 -4 24z" />
<glyph unicode="w" horiz-adv-x="1712" d="M119 946q0 27 19.5 43.5t43.5 16.5q20 0 35.5 -11.5t22.5 -33.5l223 -814l348 797q12 31 34.5 46.5t47.5 15.5t46.5 -16.5t29.5 -45.5l221 -792l354 817q18 35 53 35q27 0 46.5 -16.5t19.5 -41.5q0 -12 -6 -24l-391 -877q-12 -25 -34 -38t-48 -13q-27 0 -50.5 16.5 t-31.5 44.5l-221 774l-344 -784q-10 -25 -32 -38t-48 -13q-29 0 -52.5 16.5t-31.5 44.5l-252 871q-2 6 -2 20z" />
<glyph unicode="x" horiz-adv-x="1048" d="M37 45q0 23 18 41l394 428l-306 393q-14 16 -14 35q0 27 20.5 45.5t45.5 18.5q29 0 45 -23l288 -379l353 379q20 21 45 21q23 0 41 -16.5t18 -39.5t-16 -39l-369 -399l326 -424q14 -16 14 -37q0 -23 -20.5 -41t-45.5 -18q-29 0 -45 22l-311 408l-381 -412 q-18 -20 -43 -20q-23 0 -40 17.5t-17 39.5z" />
<glyph unicode="y" horiz-adv-x="1042" d="M76 944q0 25 18.5 41t42.5 16q41 0 56 -40l296 -836l437 844q18 35 51 35q25 0 42 -15.5t17 -40.5q0 -16 -8 -30l-663 -1260q-20 -37 -60 -37q-23 0 -39 13.5t-16 33.5q0 12 8 27l162 307l-340 918q-4 8 -4 24z" />
<glyph unicode="z" horiz-adv-x="1021" d="M53 47q0 25 21 45l710 801h-583q-25 0 -38 14.5t-13 36.5q0 23 14 36t39 13h706q23 0 36 -14t13 -35q0 -25 -20 -49l-702 -793h620q25 0 39 -14t14 -37t-15 -37t-40 -14h-752q-23 0 -36 13.5t-13 33.5z" />
<glyph unicode="{" horiz-adv-x="684" d="M96 539q0 23 16.5 36t49.5 15q84 6 119.5 45t42.5 123l36 495q6 92 57.5 141.5t143.5 49.5h137q27 0 42.5 -13.5t15.5 -35.5q0 -25 -16.5 -39.5t-41.5 -14.5h-114q-92 0 -99 -94l-39 -502q-8 -88 -53 -140t-108 -66q61 -14 99 -66.5t30 -140.5l-39 -504q-6 -94 80 -94 h106q27 0 42 -14.5t15 -36.5q0 -25 -15 -38.5t-44 -13.5h-117q-104 0 -152 49.5t-40 141.5l39 497q6 86 -23.5 124t-113.5 42q-55 6 -56 54z" />
<glyph unicode="|" horiz-adv-x="518" d="M135 -315l133 1706q2 27 21.5 45t44.5 18q27 0 43 -18.5t14 -44.5l-133 -1706q-4 -29 -23.5 -46.5t-46.5 -17.5q-24 0 -40.5 18.5t-12.5 45.5z" />
<glyph unicode="}" horiz-adv-x="684" d="M-66 -319q0 25 17.5 39t46.5 14h108q92 0 99 94l41 504q6 88 52 140t108 67q-59 14 -96.5 66t-30.5 140l36 502q4 47 -16 70.5t-66 23.5h-106q-27 0 -41 13.5t-14 36.5q0 27 15 40t44 13h117q205 0 192 -191l-37 -495q-6 -86 24 -124t114 -42q53 -6 53 -53 q0 -20 -16.5 -36t-47.5 -18q-84 -4 -120.5 -43t-42.5 -123l-37 -497q-8 -92 -58.5 -141.5t-142.5 -49.5h-137q-27 0 -42.5 13.5t-15.5 36.5z" />
<glyph unicode="~" d="M133 537q0 16 12 34q94 145 248 146q66 0 124 -23.5t147 -72.5q66 -37 107.5 -55.5t80.5 -18.5q100 0 162 90q20 31 51 31q18 0 31.5 -11.5t13.5 -29.5t-14 -35q-94 -145 -246 -146q-66 0 -124 24t-146 73q-66 37 -108 55t-81 18q-100 0 -162 -90q-20 -31 -53 -30 q-18 0 -30.5 11t-12.5 30z" />
<glyph unicode="&#xa2;" d="M195 465q0 236 116.5 383t319.5 168l14 172q2 27 18.5 44t41.5 17q27 0 41 -17.5t12 -43.5l-13 -172q86 -8 158 -38t115 -69q25 -23 24 -53q0 -25 -15 -43t-36 -18q-14 0 -30 12q-66 49 -132.5 75.5t-144.5 26.5q-172 0 -265 -118.5t-93 -329.5q0 -170 85 -267.5 t240 -97.5q76 0 138.5 25.5t123.5 75.5q16 12 33 12q20 0 34.5 -15.5t14.5 -37.5q0 -23 -18 -41q-57 -57 -139 -91t-176 -38l-13 -170q-2 -27 -18.5 -44.5t-40.5 -17.5q-25 0 -40 17.5t-13 44.5l12 178q-164 29 -259 153.5t-95 317.5z" />
<glyph unicode="&#xa3;" d="M55 55q0 25 17.5 40.5t44.5 15.5h170l45 561h-178q-20 0 -32.5 14t-12.5 37t15 37t38 14h178l22 285q16 188 126 294.5t288 106.5q121 0 231.5 -46t184.5 -130q22 -24 22 -55q0 -23 -14 -39t-35 -16q-18 0 -45 22q-68 70 -158 112t-184 42q-129 0 -204.5 -75t-86.5 -214 l-22 -287h342q23 0 35 -14.5t12 -36.5q0 -23 -15.5 -37t-37.5 -14h-344l-45 -561h653q27 0 41 -15.5t14 -40.5q0 -27 -16.5 -41t-44.5 -14h-950q-53 0 -54 55z" />
<glyph unicode="&#xa5;" d="M104 1391q0 27 18.5 44t41.5 17q27 0 45 -25l430 -626l528 626q21 27 50 27q23 0 38 -16.5t15 -38.5q0 -23 -17 -41l-491 -580h299q20 0 32.5 -14t12.5 -37t-15.5 -37t-37.5 -14h-361l-16 -205h360q20 0 32.5 -14.5t12.5 -36.5q0 -23 -15 -37t-38 -14h-360l-25 -314 q-2 -31 -18.5 -48t-44.5 -17q-29 0 -46.5 18.5t-15.5 46.5l25 314h-363q-20 0 -32.5 14t-12.5 37t15.5 37t37.5 14h363l16 205h-362q-20 0 -32.5 14.5t-12.5 36.5q0 23 15 37t38 14h301l-399 580q-10 12 -11 33z" />
<glyph unicode="&#xa8;" horiz-adv-x="614" d="M118 1333q0 39 25 62.5t61 23.5q37 0 62.5 -24.5t25.5 -61.5t-25.5 -60.5t-62.5 -23.5q-36 0 -61 23.5t-25 60.5zM456 1333q0 37 26 61.5t62 24.5q37 0 61.5 -24.5t24.5 -61.5t-24.5 -60.5t-61.5 -23.5q-36 0 -62 23.5t-26 60.5z" />
<glyph unicode="&#xa9;" horiz-adv-x="1669" d="M121 723q0 205 96 372t264 263t373 96t372 -96t263 -263t96 -372t-96 -372t-264 -264t-371 -97q-205 0 -373 97t-264 264t-96 372zM207 723q0 -180 85 -329.5t232.5 -235.5t329.5 -86q180 0 327.5 86t232.5 235.5t85 329.5t-85 328.5t-232.5 234.5t-327.5 86 q-182 0 -329.5 -86t-232.5 -234.5t-85 -328.5zM459 723q0 205 110.5 322.5t294.5 117.5q152 0 281 -98q23 -18 22 -47q0 -20 -10 -35.5t-29 -15.5q-14 0 -38 14q-66 45 -111 64.5t-111 19.5q-137 0 -210.5 -89t-73.5 -253q0 -166 73.5 -255t210.5 -89q66 0 111 19.5 t111 64.5q25 14 38 14q18 0 28.5 -15.5t10.5 -35.5q0 -27 -22 -47q-49 -49 -123 -73.5t-158 -24.5q-184 0 -294.5 118.5t-110.5 323.5z" />
<glyph unicode="&#xaa;" horiz-adv-x="671" d="M111 1012q0 98 82.5 139t281.5 41h41l2 37q8 135 -119 135q-90 0 -186 -57q-12 -6 -23 -7q-14 0 -25 12.5t-11 28.5q0 29 28 50q41 29 104.5 46t125.5 17q106 0 163.5 -53t57.5 -156l-2 -31l-27 -323q-2 -27 -17.5 -41t-37.5 -14q-25 0 -42.5 15t-14.5 40l4 45 q-29 -47 -76 -73.5t-107 -26.5q-88 0 -145 49t-57 127zM225 1018q0 -41 32 -67.5t77 -26.5q72 0 120 46t54 122l2 32h-35q-141 0 -195.5 -22.5t-54.5 -83.5z" />
<glyph unicode="&#xab;" horiz-adv-x="851" d="M119 539q0 20 16 43l189 286q20 31 55 31q20 0 34.5 -11t14.5 -30q0 -14 -8 -29l-170 -286l121 -287q4 -8 4 -23q0 -18 -15.5 -31.5t-35.5 -13.5q-35 0 -52 31l-143 285q-10 20 -10 35zM465 539q0 20 16 43l189 286q20 31 55 31q20 0 34.5 -11t14.5 -30q0 -14 -8 -29 l-170 -286l121 -287q4 -8 4 -23q0 -18 -15.5 -31.5t-35.5 -13.5q-35 0 -52 31l-143 285q-10 20 -10 35z" />
<glyph unicode="&#xac;" d="M139 801q0 20 17.5 33.5t40.5 13.5h890q23 0 38.5 -16.5t13.5 -38.5l-35 -424q-2 -23 -19.5 -38.5t-40.5 -15.5q-18 0 -29 15.5t-9 38.5l28 376h-844q-23 0 -37 16.5t-14 39.5z" />
<glyph unicode="&#xad;" horiz-adv-x="862" d="M145 543q0 25 16.5 40t43.5 15h463q29 0 43 -15.5t14 -39.5q0 -23 -16.5 -37t-44.5 -14h-461q-29 0 -43.5 14t-14.5 37z" />
<glyph unicode="&#xae;" horiz-adv-x="1669" d="M121 723q0 205 96 372t264 263t373 96t372 -96t263 -263t96 -372t-96 -372t-264 -264t-371 -97q-205 0 -372 97t-264 264t-97 372zM207 723q0 -182 85 -330.5t233.5 -234.5t328.5 -86t327.5 86t232.5 234.5t85 330.5t-85 330.5t-232.5 233.5t-327.5 85t-328.5 -85 t-233.5 -233.5t-85 -330.5zM530 340l60 756q4 27 20.5 42t42.5 15h269q293 0 292 -238q0 -106 -63.5 -173.5t-179.5 -82.5q55 -20 98 -92l115 -211q8 -14 8 -28q0 -20 -17.5 -34.5t-39.5 -14.5q-37 0 -58 34l-139 252q-27 47 -57.5 64.5t-85.5 17.5h-123l-23 -307 q-2 -29 -19.5 -44t-43.5 -15q-27 0 -42.5 15t-13.5 44zM678 745h227q191 0 191 166q0 80 -45 113t-146 33h-200z" />
<glyph unicode="&#xb1;" d="M80 55q0 20 16.5 34.5t38.5 14.5h891q23 0 37 -16t14 -39q0 -20 -16.5 -34.5t-38.5 -14.5h-891q-23 0 -37 16.5t-14 38.5zM129 662q0 23 16.5 37t40.5 14h396l24 313q2 23 19.5 39t40.5 16q20 0 32.5 -16t10.5 -39l-25 -313h391q23 0 38 -16.5t13 -39.5q-2 -20 -18 -33.5 t-39 -13.5h-395l-25 -311q-2 -23 -19.5 -40t-39.5 -17q-20 0 -32.5 16t-10.5 39l24 313h-391q-20 0 -35.5 15.5t-15.5 36.5z" />
<glyph unicode="&#xb4;" horiz-adv-x="614" d="M331 1153q0 16 11 29l282 338q25 31 58 30q27 0 47 -18.5t20 -44.5q0 -27 -26 -51l-326 -306q-15 -14 -31 -14q-14 0 -24.5 10.5t-10.5 26.5z" />
<glyph unicode="&#xb5;" horiz-adv-x="1132" d="M94 -322l101 1272q2 33 21.5 48.5t45.5 15.5q27 0 43.5 -15.5t13.5 -48.5l-45 -565q-2 -16 -2 -49q0 -240 232 -240q145 0 232 89t102 245l41 520q2 33 21.5 48.5t45.5 15.5q27 0 43.5 -15.5t14.5 -48.5l-72 -903q-2 -29 -21.5 -43t-46.5 -14t-42 14t-13 43l10 127 q-51 -90 -138 -139t-194 -49q-156 0 -237 77l-31 -385q-2 -27 -22.5 -42t-44.5 -15q-29 0 -44.5 14.5t-13.5 42.5z" />
<glyph unicode="&#xb8;" horiz-adv-x="614" d="M78 -326q0 18 13 30.5t34 12.5q10 0 16 -2q61 -18 117 -18q61 0 93 20.5t32 57.5q0 29 -18.5 44t-53.5 15q-31 0 -59.5 -10t-36.5 -10q-16 0 -27.5 12t-9.5 27l37 188h102l-26 -131q25 6 51 6q66 0 105.5 -37t39.5 -100q0 -78 -62.5 -124t-168.5 -46q-82 0 -147 24 q-31 10 -31 41z" />
<glyph unicode="&#xba;" horiz-adv-x="681" d="M98 1118q0 150 85 243t229 93q125 0 199.5 -77t74.5 -203q0 -154 -86 -246t-229 -92q-123 0 -198 77.5t-75 204.5zM215 1118q0 -92 41 -140t117 -48q92 0 143 63.5t51 177.5q0 90 -41 139.5t-118 49.5q-92 0 -142.5 -64.5t-50.5 -177.5z" />
<glyph unicode="&#xbb;" horiz-adv-x="851" d="M84 227q0 14 8 29l174 287l-123 286q-4 8 -4 23q0 20 15.5 33.5t35.5 13.5q35 0 50 -31l145 -286q10 -20 10 -37q0 -20 -14 -41l-193 -285q-20 -33 -57 -33q-20 0 -33.5 11.5t-13.5 29.5zM430 227q0 14 8 29l174 287l-123 286q-4 8 -4 23q0 20 15.5 33.5t35.5 13.5 q35 0 50 -31l145 -286q10 -20 10 -37q0 -20 -14 -41l-193 -285q-20 -33 -57 -33q-20 0 -33.5 11.5t-13.5 29.5z" />
<glyph unicode="&#xc0;" horiz-adv-x="1474" d="M43 47q0 16 8 33l684 1325q25 49 76 49q25 0 45.5 -14.5t30.5 -42.5l477 -1323q4 -9 4 -25q0 -27 -18.5 -44t-42.5 -17q-18 0 -34 12t-24 35l-125 350h-784l-182 -358q-16 -37 -56 -37q-25 0 -42 16.5t-17 40.5zM395 496h690l-284 794zM583 1839q0 23 16.5 38t38.5 15 q37 0 60 -39l139 -239q6 -12 6 -23q0 -14 -10 -24.5t-27 -10.5q-20 0 -36 19l-170 219q-16 23 -17 45z" />
<glyph unicode="&#xc1;" horiz-adv-x="1474" d="M43 47q0 16 8 33l684 1325q25 49 76 49q25 0 45.5 -14.5t30.5 -42.5l477 -1323q4 -9 4 -25q0 -27 -18.5 -44t-42.5 -17q-18 0 -34 12t-24 35l-125 350h-784l-182 -358q-16 -37 -56 -37q-25 0 -42 16.5t-17 40.5zM395 496h690l-284 794zM802 1589q0 12 11 29l168 233 q31 39 63 39q23 0 39 -15t16 -38q0 -29 -26 -55l-199 -207q-19 -19 -39 -19q-14 0 -23.5 9.5t-9.5 23.5z" />
<glyph unicode="&#xc2;" horiz-adv-x="1474" d="M43 47q0 16 8 33l684 1325q25 49 76 49q25 0 45.5 -14.5t30.5 -42.5l477 -1323q4 -9 4 -25q0 -27 -18.5 -44t-42.5 -17q-18 0 -34 12t-24 35l-125 350h-784l-182 -358q-16 -37 -56 -37q-25 0 -42 16.5t-17 40.5zM395 496h690l-284 794zM575 1606q0 20 14 34l189 213 q31 35 71 35q39 0 64 -35l147 -206q14 -20 15 -39q0 -20 -15.5 -36t-38.5 -16q-33 0 -53 35l-125 197l-168 -211q-18 -25 -45 -25q-23 0 -39 16.5t-16 37.5z" />
<glyph unicode="&#xc3;" horiz-adv-x="1474" d="M43 47q0 16 8 33l684 1325q25 49 76 49q25 0 45.5 -14.5t30.5 -42.5l477 -1323q4 -9 4 -25q0 -27 -18.5 -44t-42.5 -17q-18 0 -34 12t-24 35l-125 350h-784l-182 -358q-16 -37 -56 -37q-25 0 -42 16.5t-17 40.5zM395 496h690l-284 794zM516 1671q0 33 24.5 69t66.5 60.5 t95 24.5q59 0 158 -53q31 -16 62.5 -28.5t53.5 -12.5q39 0 60.5 15t44.5 44q8 12 17 21.5t20 9.5q16 0 26.5 -12.5t10.5 -30.5q0 -33 -25 -70t-68 -61.5t-94 -24.5q-59 0 -157 53q-31 16 -63 28.5t-54 12.5q-39 0 -60.5 -15t-44.5 -44t-39 -29t-25 12.5t-9 30.5z" />
<glyph unicode="&#xc4;" horiz-adv-x="1474" d="M43 47q0 16 8 33l684 1325q25 49 76 49q25 0 45.5 -14.5t30.5 -42.5l477 -1323q4 -9 4 -25q0 -27 -18.5 -44t-42.5 -17q-18 0 -34 12t-24 35l-125 350h-784l-182 -358q-16 -37 -56 -37q-25 0 -42 16.5t-17 40.5zM395 496h690l-284 794zM579 1722q0 37 24.5 60.5 t61.5 23.5t62.5 -23.5t25.5 -60.5t-25.5 -60.5t-62.5 -23.5t-61.5 24t-24.5 60zM917 1722q0 37 25.5 60.5t62.5 23.5t61.5 -23.5t24.5 -60.5t-24.5 -60.5t-61.5 -23.5t-62.5 24t-25.5 60z" />
<glyph unicode="&#xc5;" horiz-adv-x="1474" d="M43 47q0 16 8 33l680 1321q-51 23 -83 71t-32 107q0 84 58.5 141.5t142.5 57.5t143.5 -57.5t59.5 -141.5q0 -63 -37 -113.5t-96 -70.5l477 -1321q4 -9 4 -25q0 -27 -18.5 -44t-42.5 -17q-18 0 -34 12t-24 35l-125 350h-784l-182 -358q-16 -37 -56 -37q-25 0 -42 16.5 t-17 40.5zM395 496h690l-284 794zM717 1579q0 -43 28.5 -73.5t71.5 -30.5t73 30.5t30 73.5q0 45 -29 76t-74 31q-43 0 -71.5 -31t-28.5 -76z" />
<glyph unicode="&#xc6;" horiz-adv-x="2025" d="M16 43q0 20 15 41l897 1319q29 41 78 41h936q26 0 41.5 -15.5t15.5 -39.5q0 -25 -15.5 -40.5t-41.5 -15.5h-863l74 -545h698q25 0 40.5 -15t15.5 -40t-15.5 -40t-42.5 -15h-682l76 -567h594q27 0 42 -15.5t15 -40.5t-16 -40t-43 -15h-635q-29 0 -47 14.5t-20 40.5 l-43 330h-715l-244 -362q-23 -35 -57 -35q-23 0 -40.5 15t-17.5 40zM449 496h626l-102 780z" />
<glyph unicode="&#xc7;" horiz-adv-x="1386" d="M147 659q0 242 83 423.5t237 279.5t362 98q158 0 288 -47t218 -137q21 -20 21 -47q0 -25 -15.5 -42.5t-37.5 -17.5q-20 0 -39 17q-88 84 -191.5 123t-247.5 39q-170 0 -293.5 -83t-188 -239t-64.5 -369q0 -268 129 -414.5t366 -146.5q113 0 218.5 39t191.5 117 q23 20 45 20q20 0 32.5 -15t12.5 -38q0 -29 -23 -49q-193 -178 -475 -186l-16 -74q25 6 51 6q66 0 105.5 -37t39.5 -100q0 -78 -62.5 -124t-168.5 -46q-82 0 -147 24q-31 10 -31 41q0 18 13 30.5t34 12.5q10 0 16 -2q61 -18 117 -18q61 0 93 20.5t32 57.5q0 29 -18.5 44 t-53.5 15q-31 0 -59.5 -10t-36.5 -10q-16 0 -27.5 12t-9.5 27l27 135q-244 25 -385.5 202t-141.5 469z" />
<glyph unicode="&#xc8;" horiz-adv-x="1185" d="M154 68l102 1314q4 61 68 62h780q24 0 39.5 -15.5t15.5 -37.5q0 -25 -15.5 -40.5t-41.5 -15.5h-723l-43 -547h676q25 0 40 -15t15 -40t-15.5 -40t-41.5 -15h-682l-45 -569h716q25 0 40.5 -15.5t15.5 -38.5q0 -25 -15.5 -40t-42.5 -15h-782q-33 0 -48 17.5t-13 50.5z M506 1839q0 23 16.5 38t38.5 15q37 0 60 -39l139 -239q6 -12 6 -23q0 -14 -10 -24.5t-27 -10.5q-20 0 -36 19l-170 219q-16 23 -17 45z" />
<glyph unicode="&#xc9;" horiz-adv-x="1185" d="M154 68l102 1314q4 61 68 62h780q24 0 39.5 -15.5t15.5 -37.5q0 -25 -15.5 -40.5t-41.5 -15.5h-723l-43 -547h676q25 0 40 -15t15 -40t-15.5 -40t-41.5 -15h-682l-45 -569h716q25 0 40.5 -15.5t15.5 -38.5q0 -25 -15.5 -40t-42.5 -15h-782q-33 0 -48 17.5t-13 50.5z M725 1589q0 12 11 29l168 233q31 39 63 39q23 0 39 -15t16 -38q0 -29 -26 -55l-199 -207q-19 -19 -39 -19q-14 0 -23.5 9.5t-9.5 23.5z" />
<glyph unicode="&#xca;" horiz-adv-x="1185" d="M154 68l102 1314q4 61 68 62h780q24 0 39.5 -15.5t15.5 -37.5q0 -25 -15.5 -40.5t-41.5 -15.5h-723l-43 -547h676q25 0 40 -15t15 -40t-15.5 -40t-41.5 -15h-682l-45 -569h716q25 0 40.5 -15.5t15.5 -38.5q0 -25 -15.5 -40t-42.5 -15h-782q-33 0 -48 17.5t-13 50.5z M498 1606q0 20 14 34l189 213q31 35 71 35q39 0 64 -35l147 -206q14 -20 15 -39q0 -20 -15.5 -36t-38.5 -16q-33 0 -53 35l-125 197l-168 -211q-18 -25 -45 -25q-23 0 -39 16.5t-16 37.5z" />
<glyph unicode="&#xcb;" horiz-adv-x="1185" d="M154 68l102 1314q4 61 68 62h780q24 0 39.5 -15.5t15.5 -37.5q0 -25 -15.5 -40.5t-41.5 -15.5h-723l-43 -547h676q25 0 40 -15t15 -40t-15.5 -40t-41.5 -15h-682l-45 -569h716q25 0 40.5 -15.5t15.5 -38.5q0 -25 -15.5 -40t-42.5 -15h-782q-33 0 -48 17.5t-13 50.5z M502 1722q0 37 24.5 60.5t61.5 23.5t62.5 -23.5t25.5 -60.5t-25.5 -60.5t-62.5 -23.5t-61.5 24t-24.5 60zM840 1722q0 37 25.5 60.5t62.5 23.5t61.5 -23.5t24.5 -60.5t-24.5 -60.5t-61.5 -23.5t-62.5 24t-25.5 60z" />
<glyph unicode="&#xcc;" horiz-adv-x="499" d="M96 1839q0 23 16.5 38t38.5 15q37 0 60 -39l139 -239q6 -12 6 -23q0 -14 -10 -24.5t-27 -10.5q-20 0 -36 19l-170 219q-16 23 -17 45zM154 55l104 1340q2 27 20.5 43t43.5 16q29 0 46 -17.5t15 -47.5l-104 -1340q-2 -29 -19.5 -44t-44.5 -15t-45 18.5t-16 46.5z" />
<glyph unicode="&#xcd;" horiz-adv-x="499" d="M154 55l104 1340q2 27 20.5 43t43.5 16q29 0 46 -17.5t15 -47.5l-104 -1340q-2 -29 -19.5 -44t-44.5 -15t-45 18.5t-16 46.5zM315 1589q0 12 11 29l168 233q31 39 63 39q23 0 39 -15t16 -38q0 -29 -26 -55l-199 -207q-19 -19 -39 -19q-14 0 -23.5 9.5t-9.5 23.5z" />
<glyph unicode="&#xce;" horiz-adv-x="499" d="M88 1606q0 20 14 34l189 213q31 35 71 35q39 0 64 -35l147 -206q14 -20 15 -39q0 -20 -15.5 -36t-38.5 -16q-33 0 -53 35l-125 197l-168 -211q-18 -25 -45 -25q-23 0 -39 16.5t-16 37.5zM154 55l104 1340q2 27 20.5 43t43.5 16q29 0 46 -17.5t15 -47.5l-104 -1340 q-2 -29 -19.5 -44t-44.5 -15t-45 18.5t-16 46.5z" />
<glyph unicode="&#xcf;" horiz-adv-x="499" d="M92 1722q0 37 24.5 60.5t61.5 23.5t62.5 -23.5t25.5 -60.5t-25.5 -60.5t-62.5 -23.5t-61.5 24t-24.5 60zM154 55l104 1340q2 27 20.5 43t43.5 16q29 0 46 -17.5t15 -47.5l-104 -1340q-2 -29 -19.5 -44t-44.5 -15t-45 18.5t-16 46.5zM430 1722q0 37 25.5 60.5t62.5 23.5 t61.5 -23.5t24.5 -60.5t-24.5 -60.5t-61.5 -23.5t-62.5 24t-25.5 60z" />
<glyph unicode="&#xd0;" horiz-adv-x="1515" d="M18 733q0 23 16.5 37t45.5 14h147l47 596q2 29 20.5 46.5t47.5 17.5h391q324 0 497 -172t173 -488q0 -244 -84 -420t-246 -270t-391 -94h-440q-33 0 -52.5 21.5t-17.5 54.5l47 604h-137q-31 0 -47.5 14.5t-16.5 38.5zM301 111h377q293 0 443.5 175t150.5 500 q0 547 -545 547h-330l-43 -549h342q61 0 62 -51q0 -25 -15.5 -39t-44.5 -14h-352z" />
<glyph unicode="&#xd1;" horiz-adv-x="1505" d="M152 55l104 1336q2 31 19.5 47t43.5 16q37 0 58 -35l801 -1202l94 1180q2 27 18.5 42t42.5 15q25 0 42.5 -18.5t15.5 -44.5l-107 -1340q-4 -61 -57 -61q-35 0 -62 35l-800 1210l-97 -1188q-2 -27 -18.5 -42t-40.5 -15q-25 0 -42 18.5t-15 46.5zM533 1671q0 33 24.5 69 t66.5 60.5t95 24.5q59 0 158 -53q31 -16 62.5 -28.5t53.5 -12.5q39 0 60.5 15t44.5 44q8 12 17 21.5t20 9.5q16 0 26.5 -12.5t10.5 -30.5q0 -33 -25 -70t-68 -61.5t-94 -24.5q-59 0 -157 53q-31 16 -63 28.5t-54 12.5q-39 0 -60.5 -15t-44.5 -44t-39 -29t-25 12.5t-9 30.5z " />
<glyph unicode="&#xd2;" horiz-adv-x="1550" d="M147 659q0 242 82 423.5t231.5 279.5t348.5 98q195 0 336 -81t217 -233.5t76 -361.5q0 -242 -81 -423t-231.5 -279t-351.5 -98q-192 0 -333.5 80.5t-217.5 233.5t-76 361zM279 657q0 -270 129 -414.5t368 -144.5q164 0 284 82t183.5 236.5t63.5 367.5q0 272 -129 417 t-369 145q-164 0 -283.5 -82t-183 -238t-63.5 -369zM620 1839q0 23 16.5 38t38.5 15q37 0 60 -39l139 -239q6 -12 6 -23q0 -14 -10 -24.5t-27 -10.5q-20 0 -36 19l-170 219q-16 23 -17 45z" />
<glyph unicode="&#xd3;" horiz-adv-x="1550" d="M147 659q0 242 82 423.5t231.5 279.5t348.5 98q195 0 336 -81t217 -233.5t76 -361.5q0 -242 -81 -423t-231.5 -279t-351.5 -98q-192 0 -333.5 80.5t-217.5 233.5t-76 361zM279 657q0 -270 129 -414.5t368 -144.5q164 0 284 82t183.5 236.5t63.5 367.5q0 272 -129 417 t-369 145q-164 0 -283.5 -82t-183 -238t-63.5 -369zM839 1589q0 12 11 29l168 233q31 39 63 39q23 0 39 -15t16 -38q0 -29 -26 -55l-199 -207q-19 -19 -39 -19q-14 0 -23.5 9.5t-9.5 23.5z" />
<glyph unicode="&#xd4;" horiz-adv-x="1550" d="M147 659q0 242 82 423.5t231.5 279.5t348.5 98q195 0 336 -81t217 -233.5t76 -361.5q0 -242 -81 -423t-231.5 -279t-351.5 -98q-192 0 -333.5 80.5t-217.5 233.5t-76 361zM279 657q0 -270 129 -414.5t368 -144.5q164 0 284 82t183.5 236.5t63.5 367.5q0 272 -129 417 t-369 145q-164 0 -283.5 -82t-183 -238t-63.5 -369zM612 1606q0 20 14 34l189 213q31 35 71 35q39 0 64 -35l147 -206q14 -20 15 -39q0 -20 -15.5 -36t-38.5 -16q-33 0 -53 35l-125 197l-168 -211q-18 -25 -45 -25q-23 0 -39 16.5t-16 37.5z" />
<glyph unicode="&#xd5;" horiz-adv-x="1550" d="M147 659q0 242 82 423.5t231.5 279.5t348.5 98q195 0 336 -81t217 -233.5t76 -361.5q0 -242 -81 -423t-231.5 -279t-351.5 -98q-192 0 -333.5 80.5t-217.5 233.5t-76 361zM279 657q0 -270 129 -414.5t368 -144.5q164 0 284 82t183.5 236.5t63.5 367.5q0 272 -129 417 t-369 145q-164 0 -283.5 -82t-183 -238t-63.5 -369zM553 1671q0 33 24.5 69t66.5 60.5t95 24.5q59 0 158 -53q31 -16 62.5 -28.5t53.5 -12.5q39 0 60.5 15t44.5 44q8 12 17 21.5t20 9.5q16 0 26.5 -12.5t10.5 -30.5q0 -33 -25 -70t-68 -61.5t-94 -24.5q-59 0 -157 53 q-31 16 -63 28.5t-54 12.5q-39 0 -60.5 -15t-44.5 -44t-39 -29t-25 12.5t-9 30.5z" />
<glyph unicode="&#xd6;" horiz-adv-x="1550" d="M147 659q0 242 82 423.5t231.5 279.5t348.5 98q195 0 336 -81t217 -233.5t76 -361.5q0 -242 -81 -423t-231.5 -279t-351.5 -98q-192 0 -333.5 80.5t-217.5 233.5t-76 361zM279 657q0 -270 129 -414.5t368 -144.5q164 0 284 82t183.5 236.5t63.5 367.5q0 272 -129 417 t-369 145q-164 0 -283.5 -82t-183 -238t-63.5 -369zM616 1722q0 37 24.5 60.5t61.5 23.5t62.5 -23.5t25.5 -60.5t-25.5 -60.5t-62.5 -23.5t-61.5 24t-24.5 60zM954 1722q0 37 25.5 60.5t62.5 23.5t61.5 -23.5t24.5 -60.5t-24.5 -60.5t-61.5 -23.5t-62.5 24t-25.5 60z" />
<glyph unicode="&#xd8;" horiz-adv-x="1550" d="M147 659q0 242 82 423.5t231.5 279.5t348.5 98q207 0 352 -90l78 117q20 29 49 29q23 0 38 -14.5t15 -37.5q0 -18 -12 -37l-82 -122q92 -88 141.5 -220.5t49.5 -300.5q0 -242 -81 -423t-231.5 -279t-351.5 -98t-348 88l-76 -115q-20 -29 -49 -29q-20 0 -35.5 14.5 t-15.5 37.5q0 18 12 36l80 121q-94 86 -144.5 219t-50.5 303zM279 657q0 -274 131 -417l686 1032q-113 74 -287 74q-164 0 -283.5 -82t-183 -238t-63.5 -369zM494 170q115 -72 282 -72q164 0 284 82t183.5 236.5t63.5 367.5q0 270 -129 416z" />
<glyph unicode="&#xd9;" horiz-adv-x="1474" d="M178 479q0 25 4 78l66 838q2 27 20.5 43t42.5 16q27 0 45.5 -18.5t16.5 -46.5l-66 -826q-2 -25 -2 -69q0 -397 402 -398q219 0 334.5 109.5t134.5 335.5l67 854q2 27 19.5 43t44.5 16t45 -17.5t16 -47.5l-68 -834q-23 -287 -172 -429t-421 -142q-261 0 -395 128t-134 367 zM583 1839q0 23 16.5 38t38.5 15q37 0 60 -39l139 -239q6 -12 6 -23q0 -14 -10 -24.5t-27 -10.5q-20 0 -36 19l-170 219q-16 23 -17 45z" />
<glyph unicode="&#xda;" horiz-adv-x="1474" d="M178 479q0 25 4 78l66 838q2 27 20.5 43t42.5 16q27 0 45.5 -18.5t16.5 -46.5l-66 -826q-2 -25 -2 -69q0 -397 402 -398q219 0 334.5 109.5t134.5 335.5l67 854q2 27 19.5 43t44.5 16t45 -17.5t16 -47.5l-68 -834q-23 -287 -172 -429t-421 -142q-261 0 -395 128t-134 367 zM802 1589q0 12 11 29l168 233q31 39 63 39q23 0 39 -15t16 -38q0 -29 -26 -55l-199 -207q-19 -19 -39 -19q-14 0 -23.5 9.5t-9.5 23.5z" />
<glyph unicode="&#xdb;" horiz-adv-x="1474" d="M178 479q0 25 4 78l66 838q2 27 20.5 43t42.5 16q27 0 45.5 -18.5t16.5 -46.5l-66 -826q-2 -25 -2 -69q0 -397 402 -398q219 0 334.5 109.5t134.5 335.5l67 854q2 27 19.5 43t44.5 16t45 -17.5t16 -47.5l-68 -834q-23 -287 -172 -429t-421 -142q-261 0 -395 128t-134 367 zM575 1606q0 20 14 34l189 213q31 35 71 35q39 0 64 -35l147 -206q14 -20 15 -39q0 -20 -15.5 -36t-38.5 -16q-33 0 -53 35l-125 197l-168 -211q-18 -25 -45 -25q-23 0 -39 16.5t-16 37.5z" />
<glyph unicode="&#xdc;" horiz-adv-x="1474" d="M178 479q0 25 4 78l66 838q2 27 20.5 43t42.5 16q27 0 45.5 -18.5t16.5 -46.5l-66 -826q-2 -25 -2 -69q0 -397 402 -398q219 0 334.5 109.5t134.5 335.5l67 854q2 27 19.5 43t44.5 16t45 -17.5t16 -47.5l-68 -834q-23 -287 -172 -429t-421 -142q-261 0 -395 128t-134 367 zM579 1722q0 37 24.5 60.5t61.5 23.5t62.5 -23.5t25.5 -60.5t-25.5 -60.5t-62.5 -23.5t-61.5 24t-24.5 60zM917 1722q0 37 25.5 60.5t62.5 23.5t61.5 -23.5t24.5 -60.5t-24.5 -60.5t-61.5 -23.5t-62.5 24t-25.5 60z" />
<glyph unicode="&#xdd;" horiz-adv-x="1210" d="M92 1399q0 25 18.5 39t43.5 14q33 0 51 -27l420 -626l514 620q28 35 63 35q23 0 37 -14.5t14 -36.5q0 -25 -16 -43l-555 -670l-49 -641q-2 -27 -20.5 -43t-43.5 -16q-27 0 -46 18.5t-17 46.5l51 635l-451 670q-14 20 -14 39zM669 1589q0 12 11 29l168 233q31 39 63 39 q23 0 39 -15t16 -38q0 -29 -26 -55l-199 -207q-19 -19 -39 -19q-14 0 -23.5 9.5t-9.5 23.5z" />
<glyph unicode="&#xde;" horiz-adv-x="1306" d="M154 55l104 1340q2 27 20.5 43t43.5 16q27 0 45 -17.5t16 -47.5l-21 -271h431q208 0 321 -92t113 -270q0 -190 -123 -298t-356 -108h-447l-22 -301q-2 -27 -20.5 -43t-43.5 -16q-27 0 -45 18.5t-16 46.5zM311 459h430q185 0 272 73.5t87 221.5q0 133 -79 194.5t-235 61.5 h-432z" />
<glyph unicode="&#xdf;" horiz-adv-x="1224" d="M129 53l76 955q16 211 136 327.5t321 116.5q145 0 229 -63.5t84 -174.5q0 -92 -49 -155.5t-140 -136.5q-70 -57 -102.5 -97.5t-32.5 -87.5q0 -66 52.5 -102.5t158.5 -75.5q88 -33 143.5 -62.5t94.5 -80.5t39 -131q0 -135 -102.5 -217t-268.5 -82q-96 0 -190.5 30.5 t-153.5 81.5q-27 20 -27 54q0 23 14.5 40t34.5 17q16 0 35 -12q74 -53 143.5 -78t149.5 -25q109 0 174.5 50.5t65.5 134.5q0 68 -54.5 104.5t-162.5 73.5q-88 33 -143.5 59.5t-93.5 75.5t-38 125q0 84 44 140t134 130q78 63 116 109.5t38 109.5q0 66 -52 103t-143 37 q-152 0 -233.5 -85t-95.5 -260l-76 -948q-4 -29 -22.5 -46t-45.5 -17q-31 0 -46 17.5t-11 45.5z" />
<glyph unicode="&#xe0;" horiz-adv-x="1077" d="M115 270q0 113 60.5 178.5t193.5 95t358 29.5h72l6 70q2 16 2 45q0 115 -54.5 168t-166.5 53q-160 0 -336 -110q-14 -8 -27 -8q-20 0 -33.5 16t-13.5 39q0 35 31 55q74 53 178 85t205 32q340 0 340 -328q0 -33 -2 -51l-45 -592q-2 -27 -18.5 -42t-43.5 -15 q-29 0 -46 18.5t-15 46.5l8 115q-45 -88 -127 -136t-188 -48q-150 0 -244 79.5t-94 204.5zM246 279q0 -84 61.5 -134.5t165.5 -50.5q127 0 215 87t98 227l7 73h-60q-188 0 -292.5 -18.5t-149.5 -62.5t-45 -121zM364 1493q0 27 18.5 44t43.5 17q43 0 63 -47l144 -336 q4 -8 4 -20q0 -16 -11.5 -25.5t-27.5 -9.5q-27 0 -41 23l-180 313q-12 23 -13 41z" />
<glyph unicode="&#xe1;" horiz-adv-x="1077" d="M115 270q0 113 60.5 178.5t193.5 95t358 29.5h72l6 70q2 16 2 45q0 115 -54.5 168t-166.5 53q-160 0 -336 -110q-14 -8 -27 -8q-20 0 -33.5 16t-13.5 39q0 35 31 55q74 53 178 85t205 32q340 0 340 -328q0 -33 -2 -51l-45 -592q-2 -27 -18.5 -42t-43.5 -15 q-29 0 -46 18.5t-15 46.5l8 115q-45 -88 -127 -136t-188 -48q-150 0 -244 79.5t-94 204.5zM246 279q0 -84 61.5 -134.5t165.5 -50.5q127 0 215 87t98 227l7 73h-60q-188 0 -292.5 -18.5t-149.5 -62.5t-45 -121zM581 1153q0 16 11 29l282 338q25 31 58 30q27 0 47 -18.5 t20 -44.5q0 -27 -26 -51l-326 -306q-15 -14 -31 -14q-14 0 -24.5 10.5t-10.5 26.5z" />
<glyph unicode="&#xe2;" horiz-adv-x="1077" d="M115 270q0 113 60.5 178.5t193.5 95t358 29.5h72l6 70q2 16 2 45q0 115 -54.5 168t-166.5 53q-160 0 -336 -110q-14 -8 -27 -8q-20 0 -33.5 16t-13.5 39q0 35 31 55q74 53 178 85t205 32q340 0 340 -328q0 -33 -2 -51l-45 -592q-2 -27 -18.5 -42t-43.5 -15 q-29 0 -46 18.5t-15 46.5l8 115q-45 -88 -127 -136t-188 -48q-150 0 -244 79.5t-94 204.5zM246 279q0 -84 61.5 -134.5t165.5 -50.5q127 0 215 87t98 227l7 73h-60q-188 0 -292.5 -18.5t-149.5 -62.5t-45 -121zM362 1169q0 18 13 37l194 297q31 45 72 45q43 0 63 -45 l148 -299q6 -14 6 -28q0 -25 -18.5 -42.5t-41.5 -17.5q-31 0 -45 33l-120 287l-168 -287q-9 -16 -23 -24.5t-27 -8.5q-23 0 -38 15.5t-15 37.5z" />
<glyph unicode="&#xe3;" horiz-adv-x="1077" d="M115 270q0 113 60.5 178.5t193.5 95t358 29.5h72l6 70q2 16 2 45q0 115 -54.5 168t-166.5 53q-160 0 -336 -110q-14 -8 -27 -8q-20 0 -33.5 16t-13.5 39q0 35 31 55q74 53 178 85t205 32q340 0 340 -328q0 -33 -2 -51l-45 -592q-2 -27 -18.5 -42t-43.5 -15 q-29 0 -46 18.5t-15 46.5l8 115q-45 -88 -127 -136t-188 -48q-150 0 -244 79.5t-94 204.5zM246 279q0 -84 61.5 -134.5t165.5 -50.5q127 0 215 87t98 227l7 73h-60q-188 0 -292.5 -18.5t-149.5 -62.5t-45 -121zM303 1272q0 35 25.5 79t68.5 74.5t94 30.5q37 0 75 -19.5 t81 -54.5q47 -33 70.5 -45t46.5 -12q35 0 56 19.5t46 54.5q14 23 23.5 33t21.5 10q14 0 23.5 -12.5t9.5 -30.5q0 -35 -25.5 -79t-68.5 -75t-95 -31q-36 0 -74 19.5t-81 54.5q-47 33 -70.5 45.5t-46.5 12.5q-35 0 -57.5 -19.5t-42.5 -54.5q-14 -23 -23.5 -33t-21.5 -10 q-14 0 -24.5 12t-10.5 31z" />
<glyph unicode="&#xe4;" horiz-adv-x="1077" d="M115 270q0 113 60.5 178.5t193.5 95t358 29.5h72l6 70q2 16 2 45q0 115 -54.5 168t-166.5 53q-160 0 -336 -110q-14 -8 -27 -8q-20 0 -33.5 16t-13.5 39q0 35 31 55q74 53 178 85t205 32q340 0 340 -328q0 -33 -2 -51l-45 -592q-2 -27 -18.5 -42t-43.5 -15 q-29 0 -46 18.5t-15 46.5l8 115q-45 -88 -127 -136t-188 -48q-150 0 -244 79.5t-94 204.5zM246 279q0 -84 61.5 -134.5t165.5 -50.5q127 0 215 87t98 227l7 73h-60q-188 0 -292.5 -18.5t-149.5 -62.5t-45 -121zM368 1333q0 39 25 62.5t61 23.5q37 0 62.5 -24.5t25.5 -61.5 t-25.5 -60.5t-62.5 -23.5q-36 0 -61 23.5t-25 60.5zM706 1333q0 37 26 61.5t62 24.5q37 0 61.5 -24.5t24.5 -61.5t-24.5 -60.5t-61.5 -23.5q-36 0 -62 23.5t-26 60.5z" />
<glyph unicode="&#xe5;" horiz-adv-x="1077" d="M115 270q0 113 60.5 178.5t193.5 95t358 29.5h72l6 70q2 16 2 45q0 115 -54.5 168t-166.5 53q-160 0 -336 -110q-14 -8 -27 -8q-20 0 -33.5 16t-13.5 39q0 35 31 55q74 53 178 85t205 32q340 0 340 -328q0 -33 -2 -51l-45 -592q-2 -27 -18.5 -42t-43.5 -15 q-29 0 -46 18.5t-15 46.5l8 115q-45 -88 -127 -136t-188 -48q-150 0 -244 79.5t-94 204.5zM246 279q0 -84 61.5 -134.5t165.5 -50.5q127 0 215 87t98 227l7 73h-60q-188 0 -292.5 -18.5t-149.5 -62.5t-45 -121zM420 1333q0 82 59 139.5t143 57.5t143.5 -57.5t59.5 -139.5 q0 -84 -59.5 -141t-143.5 -57t-143 57t-59 141zM522 1333q0 -45 28.5 -75.5t71.5 -30.5q45 0 74 30.5t29 75.5q0 43 -30 74t-73 31t-71.5 -31t-28.5 -74z" />
<glyph unicode="&#xe6;" horiz-adv-x="1755" d="M115 270q0 111 59 177.5t192.5 96t360.5 29.5h78l6 70q2 18 2 49q0 113 -54 165t-169 52q-168 0 -340 -110q-14 -8 -29 -8q-20 0 -32.5 15t-12.5 38q0 37 31 57q74 53 179.5 85t207.5 32q254 0 319 -182q61 88 153.5 135t209.5 47q190 0 291.5 -116t101.5 -343 q0 -39 -19.5 -58.5t-50.5 -19.5h-675v-20q0 -172 86 -268.5t250 -96.5q74 0 149.5 25.5t134.5 71.5q20 14 39 14q20 0 33.5 -14.5t13.5 -36.5q0 -29 -24 -52q-55 -51 -155.5 -84.5t-193.5 -33.5q-158 0 -263 71.5t-148 200.5q-47 -127 -151.5 -199.5t-241.5 -72.5 q-150 0 -244 79.5t-94 204.5zM246 279q0 -84 60.5 -134.5t160.5 -50.5q133 0 224 92.5t104 239.5l4 55h-66q-201 0 -305 -20.5t-143 -63.5t-39 -118zM932 573h622q6 168 -67.5 255t-204.5 87q-147 0 -237.5 -89t-112.5 -253z" />
<glyph unicode="&#xe7;" horiz-adv-x="972" d="M100 465q0 166 59.5 291t171 193.5t261.5 68.5q102 0 191 -31t141 -78q25 -23 24 -53q0 -25 -15 -43t-36 -18q-14 0 -31 12q-129 102 -276 102q-170 0 -264.5 -118.5t-94.5 -329.5q0 -170 85 -267.5t241 -97.5q76 0 138.5 25.5t123.5 75.5q18 12 33 12q20 0 35.5 -16.5 t15.5 -36.5q0 -23 -18 -41q-59 -59 -147.5 -93t-184.5 -36l-16 -76q25 6 51 6q66 0 105.5 -37t39.5 -100q0 -78 -62.5 -124t-168.5 -46q-82 0 -148 24q-31 10 -30 41q0 18 13 30.5t34 12.5q10 0 16 -2q61 -18 117 -18q61 0 93 20.5t32 57.5q0 29 -18.5 44t-53.5 15 q-31 0 -59.5 -10t-36.5 -10q-16 0 -27.5 12t-9.5 27l27 141q-162 29 -256.5 154.5t-94.5 316.5z" />
<glyph unicode="&#xe8;" horiz-adv-x="1077" d="M100 465q0 164 59.5 289t170 194.5t258.5 69.5q197 0 299 -116t102 -343q0 -39 -19.5 -58.5t-49.5 -19.5h-691v-20q0 -172 86 -268.5t248 -96.5q84 0 163 25.5t138 71.5q20 14 39 14q20 0 33.5 -14.5t13.5 -36.5q0 -29 -24 -52q-55 -51 -158.5 -84.5t-208.5 -33.5 q-213 0 -336 130t-123 349zM238 573h636q6 168 -69.5 255t-210.5 87q-152 0 -243 -89t-113 -253zM372 1493q0 27 18.5 44t43.5 17q43 0 63 -47l144 -336q4 -8 4 -20q0 -16 -11.5 -25.5t-27.5 -9.5q-27 0 -41 23l-180 313q-12 23 -13 41z" />
<glyph unicode="&#xe9;" horiz-adv-x="1077" d="M100 465q0 164 59.5 289t170 194.5t258.5 69.5q197 0 299 -116t102 -343q0 -39 -19.5 -58.5t-49.5 -19.5h-691v-20q0 -172 86 -268.5t248 -96.5q84 0 163 25.5t138 71.5q20 14 39 14q20 0 33.5 -14.5t13.5 -36.5q0 -29 -24 -52q-55 -51 -158.5 -84.5t-208.5 -33.5 q-213 0 -336 130t-123 349zM238 573h636q6 168 -69.5 255t-210.5 87q-152 0 -243 -89t-113 -253zM589 1153q0 16 11 29l282 338q25 31 58 30q27 0 47 -18.5t20 -44.5q0 -27 -26 -51l-326 -306q-15 -14 -31 -14q-14 0 -24.5 10.5t-10.5 26.5z" />
<glyph unicode="&#xea;" horiz-adv-x="1077" d="M100 465q0 164 59.5 289t170 194.5t258.5 69.5q197 0 299 -116t102 -343q0 -39 -19.5 -58.5t-49.5 -19.5h-691v-20q0 -172 86 -268.5t248 -96.5q84 0 163 25.5t138 71.5q20 14 39 14q20 0 33.5 -14.5t13.5 -36.5q0 -29 -24 -52q-55 -51 -158.5 -84.5t-208.5 -33.5 q-213 0 -336 130t-123 349zM238 573h636q6 168 -69.5 255t-210.5 87q-152 0 -243 -89t-113 -253zM370 1169q0 18 13 37l194 297q31 45 72 45q43 0 63 -45l148 -299q6 -14 6 -28q0 -25 -18.5 -42.5t-41.5 -17.5q-31 0 -45 33l-120 287l-168 -287q-9 -16 -23 -24.5t-27 -8.5 q-23 0 -38 15.5t-15 37.5z" />
<glyph unicode="&#xeb;" horiz-adv-x="1077" d="M100 465q0 164 59.5 289t170 194.5t258.5 69.5q197 0 299 -116t102 -343q0 -39 -19.5 -58.5t-49.5 -19.5h-691v-20q0 -172 86 -268.5t248 -96.5q84 0 163 25.5t138 71.5q20 14 39 14q20 0 33.5 -14.5t13.5 -36.5q0 -29 -24 -52q-55 -51 -158.5 -84.5t-208.5 -33.5 q-213 0 -336 130t-123 349zM238 573h636q6 168 -69.5 255t-210.5 87q-152 0 -243 -89t-113 -253zM376 1333q0 39 25 62.5t61 23.5q37 0 62.5 -24.5t25.5 -61.5t-25.5 -60.5t-62.5 -23.5q-36 0 -61 23.5t-25 60.5zM714 1333q0 37 26 61.5t62 24.5q37 0 61.5 -24.5t24.5 -61.5 t-24.5 -60.5t-61.5 -23.5q-36 0 -62 23.5t-26 60.5z" />
<glyph unicode="&#xec;" horiz-adv-x="454" d="M35 1493q0 27 18.5 44t43.5 17q43 0 63 -47l144 -336q4 -8 4 -20q0 -16 -11.5 -25.5t-27.5 -9.5q-27 0 -41 23l-180 313q-12 23 -13 41zM129 53l72 903q2 29 21.5 43.5t45.5 14.5q27 0 43.5 -14.5t14.5 -43.5l-72 -903q-4 -33 -22.5 -48t-45.5 -15q-28 0 -44.5 15 t-12.5 48z" />
<glyph unicode="&#xed;" horiz-adv-x="454" d="M129 53l72 903q2 29 21.5 43.5t45.5 14.5q27 0 43.5 -14.5t14.5 -43.5l-72 -903q-4 -33 -22.5 -48t-45.5 -15q-28 0 -44.5 15t-12.5 48zM252 1153q0 16 11 29l282 338q25 31 58 30q27 0 47 -18.5t20 -44.5q0 -27 -26 -51l-326 -306q-15 -14 -31 -14q-14 0 -24.5 10.5 t-10.5 26.5z" />
<glyph unicode="&#xee;" horiz-adv-x="454" d="M33 1169q0 18 13 37l194 297q31 45 72 45q43 0 63 -45l148 -299q6 -14 6 -28q0 -25 -18.5 -42.5t-41.5 -17.5q-31 0 -45 33l-120 287l-168 -287q-9 -16 -23 -24.5t-27 -8.5q-23 0 -38 15.5t-15 37.5zM129 53l72 903q2 29 21.5 43.5t45.5 14.5q27 0 43.5 -14.5t14.5 -43.5 l-72 -903q-4 -33 -22.5 -48t-45.5 -15q-28 0 -44.5 15t-12.5 48z" />
<glyph unicode="&#xef;" horiz-adv-x="454" d="M39 1333q0 39 25 62.5t61 23.5q37 0 62.5 -24.5t25.5 -61.5t-25.5 -60.5t-62.5 -23.5q-36 0 -61 23.5t-25 60.5zM129 53l72 903q2 29 21.5 43.5t45.5 14.5q27 0 43.5 -14.5t14.5 -43.5l-72 -903q-4 -33 -22.5 -48t-45.5 -15q-28 0 -44.5 15t-12.5 48zM377 1333 q0 37 26 61.5t62 24.5q37 0 61.5 -24.5t24.5 -61.5t-24.5 -60.5t-61.5 -23.5q-36 0 -62 23.5t-26 60.5z" />
<glyph unicode="&#xf0;" horiz-adv-x="1124" d="M96 426q0 150 58.5 264.5t165 178t245.5 63.5q123 0 215 -51.5t135 -137.5q-14 246 -170 414l-296 -113q-6 -2 -17 -2q-18 0 -31.5 15.5t-13.5 34.5q0 31 31 41l252 94q-96 76 -228 125q-39 14 -39 51q0 20 13.5 35.5t34.5 15.5q8 0 20 -4q186 -63 315 -178l234 88 q12 4 18 4q18 0 30.5 -14.5t12.5 -32.5q0 -33 -30 -43l-195 -74q178 -215 178 -541q0 -340 -133 -506.5t-360 -166.5q-203 0 -324 119.5t-121 320.5zM227 422q0 -158 82 -242t238 -84q158 0 249 107.5t91 298.5q0 150 -85 234.5t-235 84.5q-160 0 -250 -106.5t-90 -292.5z " />
<glyph unicode="&#xf1;" horiz-adv-x="1148" d="M129 53l72 903q2 29 21.5 43.5t45.5 14.5q27 0 42.5 -14.5t13.5 -43.5l-11 -125q51 88 140.5 137.5t203.5 49.5q166 0 254 -84t88 -250q0 -37 -2 -55l-43 -576q-2 -33 -21.5 -48t-45.5 -15q-27 0 -43.5 15t-14.5 48l43 568q2 16 2 47q0 240 -237 239q-152 0 -241 -88 t-101 -244l-41 -522q-4 -33 -22.5 -48t-45.5 -15q-29 0 -45 15t-12 48zM320 1272q0 35 25.5 79t68.5 74.5t94 30.5q37 0 75 -19.5t81 -54.5q47 -33 70.5 -45t46.5 -12q35 0 56 19.5t46 54.5q14 23 23.5 33t21.5 10q14 0 23.5 -12.5t9.5 -30.5q0 -35 -25.5 -79t-68.5 -75 t-95 -31q-36 0 -74 19.5t-81 54.5q-47 33 -70.5 45.5t-46.5 12.5q-35 0 -57.5 -19.5t-42.5 -54.5q-14 -23 -23.5 -33t-21.5 -10q-14 0 -24.5 12t-10.5 31z" />
<glyph unicode="&#xf2;" horiz-adv-x="1116" d="M100 465q0 166 58.5 291t166 193.5t246.5 68.5q135 0 236.5 -59.5t156 -168t54.5 -253.5q0 -164 -58.5 -289t-166 -193.5t-248.5 -68.5q-133 0 -234.5 59t-156 168t-54.5 252zM231 459q0 -176 82 -269.5t238 -93.5q158 0 248 120t90 327q0 174 -84 270t-234 96 q-160 0 -250 -119.5t-90 -330.5zM366 1493q0 27 18.5 44t43.5 17q43 0 63 -47l144 -336q4 -8 4 -20q0 -16 -11.5 -25.5t-27.5 -9.5q-27 0 -41 23l-180 313q-12 23 -13 41z" />
<glyph unicode="&#xf3;" horiz-adv-x="1116" d="M100 465q0 166 58.5 291t166 193.5t246.5 68.5q135 0 236.5 -59.5t156 -168t54.5 -253.5q0 -164 -58.5 -289t-166 -193.5t-248.5 -68.5q-133 0 -234.5 59t-156 168t-54.5 252zM231 459q0 -176 82 -269.5t238 -93.5q158 0 248 120t90 327q0 174 -84 270t-234 96 q-160 0 -250 -119.5t-90 -330.5zM583 1153q0 16 11 29l282 338q25 31 58 30q27 0 47 -18.5t20 -44.5q0 -27 -26 -51l-326 -306q-15 -14 -31 -14q-14 0 -24.5 10.5t-10.5 26.5z" />
<glyph unicode="&#xf4;" horiz-adv-x="1116" d="M100 465q0 166 58.5 291t166 193.5t246.5 68.5q135 0 236.5 -59.5t156 -168t54.5 -253.5q0 -164 -58.5 -289t-166 -193.5t-248.5 -68.5q-133 0 -234.5 59t-156 168t-54.5 252zM231 459q0 -176 82 -269.5t238 -93.5q158 0 248 120t90 327q0 174 -84 270t-234 96 q-160 0 -250 -119.5t-90 -330.5zM364 1169q0 18 13 37l194 297q31 45 72 45q43 0 63 -45l148 -299q6 -14 6 -28q0 -25 -18.5 -42.5t-41.5 -17.5q-31 0 -45 33l-120 287l-168 -287q-9 -16 -23 -24.5t-27 -8.5q-23 0 -38 15.5t-15 37.5z" />
<glyph unicode="&#xf5;" horiz-adv-x="1116" d="M100 465q0 166 58.5 291t166 193.5t246.5 68.5q135 0 236.5 -59.5t156 -168t54.5 -253.5q0 -164 -58.5 -289t-166 -193.5t-248.5 -68.5q-133 0 -234.5 59t-156 168t-54.5 252zM231 459q0 -176 82 -269.5t238 -93.5q158 0 248 120t90 327q0 174 -84 270t-234 96 q-160 0 -250 -119.5t-90 -330.5zM305 1272q0 35 25.5 79t68.5 74.5t94 30.5q37 0 75 -19.5t81 -54.5q47 -33 70.5 -45t46.5 -12q35 0 56 19.5t46 54.5q14 23 23.5 33t21.5 10q14 0 23.5 -12.5t9.5 -30.5q0 -35 -25.5 -79t-68.5 -75t-95 -31q-36 0 -74 19.5t-81 54.5 q-47 33 -70.5 45.5t-46.5 12.5q-35 0 -57.5 -19.5t-42.5 -54.5q-14 -23 -23.5 -33t-21.5 -10q-14 0 -24.5 12t-10.5 31z" />
<glyph unicode="&#xf6;" horiz-adv-x="1116" d="M100 465q0 166 58.5 291t166 193.5t246.5 68.5q135 0 236.5 -59.5t156 -168t54.5 -253.5q0 -164 -58.5 -289t-166 -193.5t-248.5 -68.5q-133 0 -234.5 59t-156 168t-54.5 252zM231 459q0 -176 82 -269.5t238 -93.5q158 0 248 120t90 327q0 174 -84 270t-234 96 q-160 0 -250 -119.5t-90 -330.5zM370 1333q0 39 25 62.5t61 23.5q37 0 62.5 -24.5t25.5 -61.5t-25.5 -60.5t-62.5 -23.5q-36 0 -61 23.5t-25 60.5zM708 1333q0 37 26 61.5t62 24.5q37 0 61.5 -24.5t24.5 -61.5t-24.5 -60.5t-61.5 -23.5q-36 0 -62 23.5t-26 60.5z" />
<glyph unicode="&#xf7;" d="M123 584q0 20 16.5 34.5t38.5 14.5h891q23 0 37 -16.5t14 -38.5q0 -20 -16.5 -35t-38.5 -15h-891q-22 0 -36.5 16.5t-14.5 39.5zM487 225q0 43 27 68.5t66 25.5t64.5 -25.5t25.5 -68.5q0 -41 -26 -67.5t-64 -26.5q-39 0 -66 26.5t-27 67.5zM547 938q0 43 25.5 68.5 t66.5 25.5q39 0 64.5 -25.5t25.5 -68.5q0 -41 -26.5 -67.5t-63.5 -26.5q-41 0 -66.5 26.5t-25.5 67.5z" />
<glyph unicode="&#xf8;" horiz-adv-x="1116" d="M100 465q0 166 58.5 291t166 193.5t246.5 68.5q131 0 234 -57l55 83q20 29 47 29q18 0 30.5 -12t12.5 -33q0 -18 -12 -37l-57 -88q65 -63 101 -156.5t36 -209.5q0 -164 -58.5 -289t-166 -193.5t-248.5 -68.5q-129 0 -232 57l-55 -84q-16 -29 -45 -29q-18 0 -31.5 12.5 t-13.5 32.5q0 18 12 37l58 88q-66 61 -102 154.5t-36 210.5zM229 459q0 -168 74 -258l440 665q-70 43 -172 43q-160 0 -251 -120.5t-91 -329.5zM375 137q76 -41 176 -41q158 0 248 120t90 327q0 166 -76 260z" />
<glyph unicode="&#xf9;" horiz-adv-x="1132" d="M147 322q0 35 3 53l45 575q2 33 21.5 48.5t45.5 15.5q27 0 43.5 -15.5t13.5 -48.5l-45 -565q-2 -16 -2 -49q0 -240 232 -240q145 0 233 88t101 246l41 520q2 33 21.5 48.5t45.5 15.5q27 0 43.5 -15.5t14.5 -48.5l-72 -903q-2 -29 -21.5 -43t-46.5 -14t-42 14t-13 43 l10 127q-51 -90 -138 -139t-196 -49q-164 0 -251 85t-87 251zM372 1493q0 27 18.5 44t43.5 17q43 0 63 -47l144 -336q4 -8 4 -20q0 -16 -11.5 -25.5t-27.5 -9.5q-27 0 -41 23l-180 313q-12 23 -13 41z" />
<glyph unicode="&#xfa;" horiz-adv-x="1132" d="M147 322q0 35 3 53l45 575q2 33 21.5 48.5t45.5 15.5q27 0 43.5 -15.5t13.5 -48.5l-45 -565q-2 -16 -2 -49q0 -240 232 -240q145 0 233 88t101 246l41 520q2 33 21.5 48.5t45.5 15.5q27 0 43.5 -15.5t14.5 -48.5l-72 -903q-2 -29 -21.5 -43t-46.5 -14t-42 14t-13 43 l10 127q-51 -90 -138 -139t-196 -49q-164 0 -251 85t-87 251zM589 1153q0 16 11 29l282 338q25 31 58 30q27 0 47 -18.5t20 -44.5q0 -27 -26 -51l-326 -306q-15 -14 -31 -14q-14 0 -24.5 10.5t-10.5 26.5z" />
<glyph unicode="&#xfb;" horiz-adv-x="1132" d="M147 322q0 35 3 53l45 575q2 33 21.5 48.5t45.5 15.5q27 0 43.5 -15.5t13.5 -48.5l-45 -565q-2 -16 -2 -49q0 -240 232 -240q145 0 233 88t101 246l41 520q2 33 21.5 48.5t45.5 15.5q27 0 43.5 -15.5t14.5 -48.5l-72 -903q-2 -29 -21.5 -43t-46.5 -14t-42 14t-13 43 l10 127q-51 -90 -138 -139t-196 -49q-164 0 -251 85t-87 251zM370 1169q0 18 13 37l194 297q31 45 72 45q43 0 63 -45l148 -299q6 -14 6 -28q0 -25 -18.5 -42.5t-41.5 -17.5q-31 0 -45 33l-120 287l-168 -287q-9 -16 -23 -24.5t-27 -8.5q-23 0 -38 15.5t-15 37.5z" />
<glyph unicode="&#xfc;" horiz-adv-x="1132" d="M147 322q0 35 3 53l45 575q2 33 21.5 48.5t45.5 15.5q27 0 43.5 -15.5t13.5 -48.5l-45 -565q-2 -16 -2 -49q0 -240 232 -240q145 0 233 88t101 246l41 520q2 33 21.5 48.5t45.5 15.5q27 0 43.5 -15.5t14.5 -48.5l-72 -903q-2 -29 -21.5 -43t-46.5 -14t-42 14t-13 43 l10 127q-51 -90 -138 -139t-196 -49q-164 0 -251 85t-87 251zM376 1333q0 39 25 62.5t61 23.5q37 0 62.5 -24.5t25.5 -61.5t-25.5 -60.5t-62.5 -23.5q-36 0 -61 23.5t-25 60.5zM714 1333q0 37 26 61.5t62 24.5q37 0 61.5 -24.5t24.5 -61.5t-24.5 -60.5t-61.5 -23.5 q-36 0 -62 23.5t-26 60.5z" />
<glyph unicode="&#xfd;" horiz-adv-x="1042" d="M76 944q0 25 18.5 41t42.5 16q41 0 56 -40l296 -836l437 844q18 35 51 35q25 0 42 -15.5t17 -40.5q0 -16 -8 -30l-663 -1260q-20 -37 -60 -37q-23 0 -39 13.5t-16 33.5q0 12 8 27l162 307l-340 918q-4 8 -4 24zM546 1153q0 16 11 29l282 338q25 31 58 30q27 0 47 -18.5 t20 -44.5q0 -27 -26 -51l-326 -306q-15 -14 -31 -14q-14 0 -24.5 10.5t-10.5 26.5z" />
<glyph unicode="&#xfe;" horiz-adv-x="1173" d="M98 -322l138 1713q2 33 21 48t46 15t44.5 -15.5t14.5 -47.5l-45 -549q51 82 140.5 129t193.5 47q125 0 221.5 -58.5t149.5 -167t53 -253.5q0 -164 -58.5 -290t-163.5 -194.5t-243 -68.5q-121 0 -212 54t-134 153l-41 -515q-2 -29 -20.5 -43t-44.5 -14q-27 0 -44.5 14.5 t-15.5 42.5zM287 461q0 -178 83 -271.5t236 -93.5q158 0 248 118t90 325q0 176 -83 273t-234 97q-158 0 -249 -119.5t-91 -328.5z" />
<glyph unicode="&#xff;" horiz-adv-x="1042" d="M76 944q0 25 18.5 41t42.5 16q41 0 56 -40l296 -836l437 844q18 35 51 35q25 0 42 -15.5t17 -40.5q0 -16 -8 -30l-663 -1260q-20 -37 -60 -37q-23 0 -39 13.5t-16 33.5q0 12 8 27l162 307l-340 918q-4 8 -4 24zM333 1333q0 39 25 62.5t61 23.5q37 0 62.5 -24.5 t25.5 -61.5t-25.5 -60.5t-62.5 -23.5q-36 0 -61 23.5t-25 60.5zM671 1333q0 37 26 61.5t62 24.5q37 0 61.5 -24.5t24.5 -61.5t-24.5 -60.5t-61.5 -23.5q-36 0 -62 23.5t-26 60.5z" />
<glyph unicode="&#x100;" horiz-adv-x="1474" d="M43 47q0 16 8 33l684 1325q25 49 76 49q25 0 45.5 -14.5t30.5 -42.5l477 -1323q4 -9 4 -25q0 -27 -18.5 -44t-42.5 -17q-18 0 -34 12t-24 35l-125 350h-784l-182 -358q-16 -37 -56 -37q-25 0 -42 16.5t-17 40.5zM395 496h690l-284 794zM522 1722q0 27 18.5 40.5 t48.5 13.5h498q61 0 61 -54q0 -25 -18 -39t-49 -14h-498q-31 0 -46 14.5t-15 38.5z" />
<glyph unicode="&#x101;" horiz-adv-x="1077" d="M115 270q0 113 60.5 178.5t193.5 95t358 29.5h72l6 70q2 16 2 45q0 115 -54.5 168t-166.5 53q-160 0 -336 -110q-14 -8 -27 -8q-20 0 -33.5 16t-13.5 39q0 35 31 55q74 53 178 85t205 32q340 0 340 -328q0 -33 -2 -51l-45 -592q-2 -27 -18.5 -42t-43.5 -15 q-29 0 -46 18.5t-15 46.5l8 115q-45 -88 -127 -136t-188 -48q-150 0 -244 79.5t-94 204.5zM246 279q0 -84 61.5 -134.5t165.5 -50.5q127 0 215 87t98 227l7 73h-60q-188 0 -292.5 -18.5t-149.5 -62.5t-45 -121zM311 1333q0 27 18.5 40t49.5 13h497q61 0 62 -51 q0 -27 -18.5 -40t-49.5 -13h-498q-61 0 -61 51z" />
<glyph unicode="&#x102;" horiz-adv-x="1474" d="M43 47q0 16 8 33l684 1325q25 49 76 49q25 0 45.5 -14.5t30.5 -42.5l477 -1323q4 -9 4 -25q0 -27 -18.5 -44t-42.5 -17q-18 0 -34 12t-24 35l-125 350h-784l-182 -358q-16 -37 -56 -37q-25 0 -42 16.5t-17 40.5zM395 496h690l-284 794zM526 1802q0 20 15.5 33.5 t33.5 13.5q35 0 53 -32q35 -66 83 -94.5t118 -28.5t124 28.5t97 94.5q12 16 28.5 25t31.5 9q20 0 33.5 -11t13.5 -32q0 -18 -11 -34q-51 -90 -135 -135.5t-186 -45.5q-103 0 -178.5 45t-114.5 136q-6 16 -6 28z" />
<glyph unicode="&#x103;" horiz-adv-x="1077" d="M115 270q0 113 60.5 178.5t193.5 95t358 29.5h72l6 70q2 16 2 45q0 115 -54.5 168t-166.5 53q-160 0 -336 -110q-14 -8 -27 -8q-20 0 -33.5 16t-13.5 39q0 35 31 55q74 53 178 85t205 32q340 0 340 -328q0 -33 -2 -51l-45 -592q-2 -27 -18.5 -42t-43.5 -15 q-29 0 -46 18.5t-15 46.5l8 115q-45 -88 -127 -136t-188 -48q-150 0 -244 79.5t-94 204.5zM246 279q0 -84 61.5 -134.5t165.5 -50.5q127 0 215 87t98 227l7 73h-60q-188 0 -292.5 -18.5t-149.5 -62.5t-45 -121zM315 1421q0 25 16.5 40.5t36.5 15.5q35 0 54 -41 q27 -70 79 -106t119 -36q139 0 219 142q23 41 58 41q18 0 31.5 -13.5t13.5 -33.5q0 -18 -8 -35q-47 -98 -132 -149.5t-190 -51.5q-102 0 -178 51t-113 150q-6 16 -6 26z" />
<glyph unicode="&#x104;" horiz-adv-x="1474" d="M41 47q0 16 8 33l684 1325q25 49 76 49q25 0 45 -14.5t31 -42.5l475 -1321q6 -14 6 -29q0 -23 -16.5 -39t-36.5 -18q-68 -2 -110 -48t-42 -116q0 -61 33 -93t92 -32q47 0 100 27q21 8 29 8q14 0 23.5 -10.5t9.5 -26.5q0 -14 -9 -30.5t-26 -24.5q-63 -35 -145 -35 q-98 0 -157.5 54t-59.5 142q0 92 47 158t139 96l-115 326h-784l-182 -358q-16 -37 -56 -37q-25 0 -42 16.5t-17 40.5zM393 496h688l-282 794z" />
<glyph unicode="&#x105;" horiz-adv-x="1077" d="M115 270q0 111 59 177.5t192.5 96t360.5 29.5h72l6 70q2 16 2 45q0 115 -53.5 168t-167.5 53q-160 0 -336 -110q-14 -8 -29 -8q-18 0 -31.5 16t-13.5 39q0 35 31 55q76 53 180.5 85t202.5 32q340 0 340 -328q0 -33 -2 -51l-45 -590q-2 -41 -43 -49q-70 -8 -120 -53 t-50 -121q0 -61 32.5 -93t92.5 -32q45 0 100 27q17 6 27 6q16 0 24 -10.5t8 -26.5q0 -14 -8 -29.5t-24 -23.5q-68 -35 -142 -35q-102 0 -162.5 54t-60.5 142t52.5 154t150.5 96l8 115q-47 -92 -129 -138t-186 -46q-150 0 -244 79.5t-94 204.5zM246 279q0 -84 61.5 -134.5 t165.5 -50.5q127 0 215 87t98 227l7 73h-60q-201 0 -305 -20.5t-143 -63.5t-39 -118z" />
<glyph unicode="&#x106;" horiz-adv-x="1386" d="M147 659q0 242 83 423.5t237 279.5t362 98q158 0 288 -47t218 -137q20 -20 21 -47q0 -25 -15.5 -42.5t-37.5 -17.5q-20 0 -39 17q-88 84 -191.5 123t-247.5 39q-170 0 -293.5 -83t-188 -239t-64.5 -369q0 -268 129 -414.5t366 -146.5q113 0 218.5 39t191.5 117 q23 20 45 20q20 0 32.5 -15t12.5 -38q0 -29 -23 -49q-203 -186 -503 -186q-181 0 -317 80.5t-210 233.5t-74 361zM852 1589q0 12 11 29l168 233q31 39 63 39q23 0 39 -15t16 -38q0 -29 -26 -55l-199 -207q-19 -19 -39 -19q-14 0 -23.5 9.5t-9.5 23.5z" />
<glyph unicode="&#x107;" horiz-adv-x="972" d="M100 465q0 166 59.5 291t171 193.5t261.5 68.5q102 0 191 -31t141 -78q25 -23 24 -53q0 -25 -15 -43t-36 -18q-14 0 -31 12q-129 102 -276 102q-170 0 -264.5 -118.5t-94.5 -329.5q0 -170 85 -267.5t241 -97.5q76 0 138.5 25.5t123.5 75.5q18 12 33 12q20 0 35.5 -16.5 t15.5 -36.5q0 -23 -18 -41q-61 -61 -151.5 -95t-188.5 -34q-133 0 -234.5 59t-156 168t-54.5 252zM589 1153q0 16 11 29l282 338q25 31 58 30q27 0 47 -18.5t20 -44.5q0 -27 -26 -51l-326 -306q-15 -14 -31 -14q-14 0 -24.5 10.5t-10.5 26.5z" />
<glyph unicode="&#x108;" horiz-adv-x="1386" d="M147 659q0 242 83 423.5t237 279.5t362 98q158 0 288 -47t218 -137q20 -20 21 -47q0 -25 -15.5 -42.5t-37.5 -17.5q-20 0 -39 17q-88 84 -191.5 123t-247.5 39q-170 0 -293.5 -83t-188 -239t-64.5 -369q0 -268 129 -414.5t366 -146.5q113 0 218.5 39t191.5 117 q23 20 45 20q20 0 32.5 -15t12.5 -38q0 -29 -23 -49q-203 -186 -503 -186q-181 0 -317 80.5t-210 233.5t-74 361zM625 1606q0 20 14 34l189 213q31 35 71 35q39 0 64 -35l147 -206q14 -20 15 -39q0 -20 -15.5 -36t-38.5 -16q-33 0 -53 35l-125 197l-168 -211 q-18 -25 -45 -25q-23 0 -39 16.5t-16 37.5z" />
<glyph unicode="&#x109;" horiz-adv-x="972" d="M100 465q0 166 59.5 291t171 193.5t261.5 68.5q102 0 191 -31t141 -78q25 -23 24 -53q0 -25 -15 -43t-36 -18q-14 0 -31 12q-129 102 -276 102q-170 0 -264.5 -118.5t-94.5 -329.5q0 -170 85 -267.5t241 -97.5q76 0 138.5 25.5t123.5 75.5q18 12 33 12q20 0 35.5 -16.5 t15.5 -36.5q0 -23 -18 -41q-61 -61 -151.5 -95t-188.5 -34q-133 0 -234.5 59t-156 168t-54.5 252zM370 1169q0 18 13 37l194 297q31 45 72 45q43 0 63 -45l148 -299q6 -14 6 -28q0 -25 -18.5 -42.5t-41.5 -17.5q-31 0 -45 33l-120 287l-168 -287q-9 -16 -23 -24.5t-27 -8.5 q-23 0 -38 15.5t-15 37.5z" />
<glyph unicode="&#x10a;" horiz-adv-x="1386" d="M147 659q0 242 83 423.5t237 279.5t362 98q158 0 288 -47t218 -137q20 -20 21 -47q0 -25 -15.5 -42.5t-37.5 -17.5q-20 0 -39 17q-88 84 -191.5 123t-247.5 39q-170 0 -293.5 -83t-188 -239t-64.5 -369q0 -268 129 -414.5t366 -146.5q113 0 218.5 39t191.5 117 q23 20 45 20q20 0 32.5 -15t12.5 -38q0 -29 -23 -49q-203 -186 -503 -186q-181 0 -317 80.5t-210 233.5t-74 361zM793 1722q0 41 25.5 65.5t66.5 24.5t66.5 -24.5t25.5 -65.5q0 -39 -25.5 -63.5t-66.5 -24.5t-66.5 24.5t-25.5 63.5z" />
<glyph unicode="&#x10b;" horiz-adv-x="972" d="M100 465q0 166 59.5 291t171 193.5t261.5 68.5q102 0 191 -31t141 -78q25 -23 24 -53q0 -25 -15 -43t-36 -18q-14 0 -31 12q-129 102 -276 102q-170 0 -264.5 -118.5t-94.5 -329.5q0 -170 85 -267.5t241 -97.5q76 0 138.5 25.5t123.5 75.5q18 12 33 12q20 0 35.5 -16.5 t15.5 -36.5q0 -23 -18 -41q-61 -61 -151.5 -95t-188.5 -34q-133 0 -234.5 59t-156 168t-54.5 252zM540 1333q0 41 25.5 65.5t66.5 24.5t67 -24.5t26 -65.5q0 -39 -26 -63.5t-67 -24.5t-66.5 24.5t-25.5 63.5z" />
<glyph unicode="&#x10c;" horiz-adv-x="1386" d="M147 659q0 242 83 423.5t237 279.5t362 98q158 0 288 -47t218 -137q20 -20 21 -47q0 -25 -15.5 -42.5t-37.5 -17.5q-20 0 -39 17q-88 84 -191.5 123t-247.5 39q-170 0 -293.5 -83t-188 -239t-64.5 -369q0 -268 129 -414.5t366 -146.5q113 0 218.5 39t191.5 117 q23 20 45 20q20 0 32.5 -15t12.5 -38q0 -29 -23 -49q-203 -186 -503 -186q-181 0 -317 80.5t-210 233.5t-74 361zM643 1835q0 20 15.5 34.5t38.5 14.5q35 0 53 -33l125 -198l168 211q18 24 45 24q23 0 39 -16.5t16 -36.5t-14 -35l-189 -213q-31 -35 -71 -35q-39 0 -64 35 l-147 209q-14 20 -15 39z" />
<glyph unicode="&#x10d;" horiz-adv-x="972" d="M100 465q0 166 59.5 291t171 193.5t261.5 68.5q102 0 191 -31t141 -78q25 -23 24 -53q0 -25 -15 -43t-36 -18q-14 0 -31 12q-129 102 -276 102q-170 0 -264.5 -118.5t-94.5 -329.5q0 -170 85 -267.5t241 -97.5q76 0 138.5 25.5t123.5 75.5q18 12 33 12q20 0 35.5 -16.5 t15.5 -36.5q0 -23 -18 -41q-61 -61 -151.5 -95t-188.5 -34q-133 0 -234.5 59t-156 168t-54.5 252zM397 1489q0 25 18.5 43t40.5 18q31 0 45 -34l121 -287l168 287q8 16 22.5 24t26.5 8q23 0 38 -15t15 -38q0 -18 -12 -37l-194 -297q-31 -45 -72 -45q-43 0 -64 45l-147 299 q-6 16 -6 29z" />
<glyph unicode="&#x10e;" horiz-adv-x="1497" d="M156 76l100 1304q2 29 21.5 46.5t48.5 17.5h389q324 0 497.5 -172t173.5 -488q0 -244 -84.5 -420t-246.5 -270t-391 -94h-441q-33 0 -52 21.5t-15 54.5zM283 111h376q293 0 443.5 175t150.5 500q0 547 -542 547h-332zM604 1835q0 20 15.5 34.5t38.5 14.5q35 0 53 -33 l125 -198l168 211q18 24 45 24q23 0 39 -16.5t16 -36.5t-14 -35l-189 -213q-31 -35 -71 -35q-39 0 -64 35l-147 209q-14 20 -15 39z" />
<glyph unicode="&#x10f;" horiz-adv-x="1173" d="M100 465q0 164 58.5 290t164 194.5t242.5 68.5q121 0 211 -52.5t133 -148.5l45 582q2 29 21.5 43t46.5 14t43 -15.5t14 -41.5l-104 -1346q-2 -33 -21.5 -48t-46.5 -15t-43 15t-14 48l10 115q-51 -86 -141 -134t-195 -48q-125 0 -221 59t-149.5 168t-53.5 252zM231 467 q0 -178 83 -274.5t235 -96.5q158 0 249 120t91 327q0 178 -83 272t-237 94q-158 0 -248 -117.5t-90 -324.5zM1128 1085l25 301q2 33 21.5 51.5t42.5 18.5t38 -15.5t15 -41.5q0 -14 -2 -23l-68 -297q-2 -16 -13 -24t-24 -8q-14 0 -25.5 10t-9.5 28z" />
<glyph unicode="&#x110;" horiz-adv-x="1515" d="M18 733q0 23 16.5 37t45.5 14h147l47 596q2 29 20.5 46.5t47.5 17.5h391q324 0 497 -172t173 -488q0 -244 -84 -420t-246 -270t-391 -94h-440q-33 0 -52.5 21.5t-17.5 54.5l47 604h-137q-31 0 -47.5 14.5t-16.5 38.5zM301 111h377q293 0 443.5 175t150.5 500 q0 547 -545 547h-330l-43 -549h342q61 0 62 -51q0 -25 -15.5 -39t-44.5 -14h-352z" />
<glyph unicode="&#x111;" horiz-adv-x="1173" d="M100 465q0 164 58.5 290t164 194.5t242.5 68.5q121 0 211 -53.5t133 -149.5l27 334h-354q-23 0 -37.5 14.5t-14.5 36.5q0 20 14.5 34.5t39.5 14.5h360l12 150q2 29 20.5 43t45.5 14t44 -14.5t15 -42.5l-12 -150h148q24 0 38.5 -14t14.5 -37q0 -20 -14.5 -34.5 t-38.5 -14.5h-156l-86 -1096q-2 -33 -21.5 -48t-46.5 -15t-43 15t-14 48l10 115q-51 -86 -141 -134t-195 -48q-125 0 -221 59t-149.5 168t-53.5 252zM231 467q0 -178 83 -274.5t235 -96.5q158 0 249 120t91 327q0 178 -83 272t-237 94q-158 0 -248 -117.5t-90 -324.5z" />
<glyph unicode="&#x112;" horiz-adv-x="1185" d="M154 68l102 1314q4 61 68 62h780q24 0 39.5 -15.5t15.5 -37.5q0 -25 -15.5 -40.5t-41.5 -15.5h-723l-43 -547h676q25 0 40 -15t15 -40t-15.5 -40t-41.5 -15h-682l-45 -569h716q25 0 40.5 -15.5t15.5 -38.5q0 -25 -15.5 -40t-42.5 -15h-782q-33 0 -48 17.5t-13 50.5z M445 1722q0 27 18.5 40.5t48.5 13.5h498q61 0 61 -54q0 -25 -18 -39t-49 -14h-498q-31 0 -46 14.5t-15 38.5z" />
<glyph unicode="&#x113;" horiz-adv-x="1077" d="M100 465q0 164 59.5 289t170 194.5t258.5 69.5q197 0 299 -116t102 -343q0 -39 -19.5 -58.5t-49.5 -19.5h-691v-20q0 -172 86 -268.5t248 -96.5q84 0 163 25.5t138 71.5q20 14 39 14q20 0 33.5 -14.5t13.5 -36.5q0 -29 -24 -52q-55 -51 -158.5 -84.5t-208.5 -33.5 q-213 0 -336 130t-123 349zM238 573h636q6 168 -69.5 255t-210.5 87q-152 0 -243 -89t-113 -253zM319 1333q0 27 18.5 40t49.5 13h497q61 0 62 -51q0 -27 -18.5 -40t-49.5 -13h-498q-61 0 -61 51z" />
<glyph unicode="&#x114;" horiz-adv-x="1185" d="M154 68l102 1314q4 61 68 62h780q24 0 39.5 -15.5t15.5 -37.5q0 -25 -15.5 -40.5t-41.5 -15.5h-723l-43 -547h676q25 0 40 -15t15 -40t-15.5 -40t-41.5 -15h-682l-45 -569h716q25 0 40.5 -15.5t15.5 -38.5q0 -25 -15.5 -40t-42.5 -15h-782q-33 0 -48 17.5t-13 50.5z M449 1802q0 20 15.5 33.5t33.5 13.5q35 0 53 -32q35 -66 83 -94.5t118 -28.5t124 28.5t97 94.5q12 16 28.5 25t31.5 9q20 0 33.5 -11t13.5 -32q0 -18 -11 -34q-51 -90 -135 -135.5t-186 -45.5q-103 0 -178.5 45t-114.5 136q-6 16 -6 28z" />
<glyph unicode="&#x115;" horiz-adv-x="1077" d="M100 465q0 164 59.5 289t170 194.5t258.5 69.5q197 0 299 -116t102 -343q0 -39 -19.5 -58.5t-49.5 -19.5h-691v-20q0 -172 86 -268.5t248 -96.5q84 0 163 25.5t138 71.5q20 14 39 14q20 0 33.5 -14.5t13.5 -36.5q0 -29 -24 -52q-55 -51 -158.5 -84.5t-208.5 -33.5 q-213 0 -336 130t-123 349zM238 573h636q6 168 -69.5 255t-210.5 87q-152 0 -243 -89t-113 -253zM323 1421q0 25 16.5 40.5t36.5 15.5q35 0 54 -41q27 -70 79 -106t119 -36q139 0 219 142q23 41 58 41q18 0 31.5 -13.5t13.5 -33.5q0 -18 -8 -35q-47 -98 -132 -149.5 t-190 -51.5q-102 0 -178 51t-113 150q-6 16 -6 26z" />
<glyph unicode="&#x116;" horiz-adv-x="1185" d="M154 68l102 1314q4 61 68 62h780q24 0 39.5 -15.5t15.5 -37.5q0 -25 -15.5 -40.5t-41.5 -15.5h-723l-43 -547h676q25 0 40 -15t15 -40t-15.5 -40t-41.5 -15h-682l-45 -569h716q25 0 40.5 -15.5t15.5 -38.5q0 -25 -15.5 -40t-42.5 -15h-782q-33 0 -48 17.5t-13 50.5z M666 1722q0 41 25.5 65.5t66.5 24.5t66.5 -24.5t25.5 -65.5q0 -39 -25.5 -63.5t-66.5 -24.5t-66.5 24.5t-25.5 63.5z" />
<glyph unicode="&#x117;" horiz-adv-x="1077" d="M100 465q0 164 59.5 289t170 194.5t258.5 69.5q197 0 299 -116t102 -343q0 -39 -19.5 -58.5t-49.5 -19.5h-691v-20q0 -172 86 -268.5t248 -96.5q84 0 163 25.5t138 71.5q20 14 39 14q20 0 33.5 -14.5t13.5 -36.5q0 -29 -24 -52q-55 -51 -158.5 -84.5t-208.5 -33.5 q-213 0 -336 130t-123 349zM238 573h636q6 168 -69.5 255t-210.5 87q-152 0 -243 -89t-113 -253zM540 1333q0 41 25.5 65.5t66.5 24.5t67 -24.5t26 -65.5q0 -39 -26 -63.5t-67 -24.5t-66.5 24.5t-25.5 63.5z" />
<glyph unicode="&#x118;" horiz-adv-x="1185" d="M154 68l102 1314q4 61 68 62h780q24 0 39.5 -15.5t15.5 -37.5q0 -25 -15.5 -40.5t-41.5 -15.5h-723l-43 -547h676q25 0 40 -15t15 -40t-15.5 -40t-41.5 -15h-682l-45 -569h716q25 0 40.5 -15.5t15.5 -38.5q0 -25 -14.5 -39t-39.5 -16q-100 -2 -149 -51t-49 -123 q0 -61 32.5 -93t92.5 -32q45 0 100 27q16 6 27 6q16 0 24 -10.5t8 -26.5q0 -14 -8 -29.5t-24 -23.5q-68 -35 -146 -35q-98 0 -158.5 54t-60.5 142q0 117 90 195h-565q-33 0 -48 17.5t-13 50.5z" />
<glyph unicode="&#x119;" horiz-adv-x="1077" d="M100 465q0 164 59.5 289t170 194.5t258.5 69.5q197 0 299 -116t102 -343q0 -39 -19.5 -58.5t-49.5 -19.5h-691v-20q0 -172 86 -268.5t248 -96.5q84 0 163 25.5t138 71.5q20 14 39 14q20 0 33.5 -14.5t13.5 -36.5q0 -29 -24 -52q-41 -35 -105 -63q-113 -51 -155.5 -103.5 t-42.5 -111.5q0 -61 32.5 -93t94.5 -32q45 0 98 27q20 8 29 8q14 0 23 -10.5t9 -26.5q0 -14 -9 -30.5t-26 -24.5q-63 -35 -145 -35q-98 0 -157.5 54t-59.5 142q0 111 82 183q-12 -2 -35 -2q-213 0 -336 130t-123 349zM238 573h636q6 168 -69.5 255t-210.5 87 q-152 0 -243 -89t-113 -253z" />
<glyph unicode="&#x11a;" horiz-adv-x="1185" d="M154 68l102 1314q4 61 68 62h780q24 0 39.5 -15.5t15.5 -37.5q0 -25 -15.5 -40.5t-41.5 -15.5h-723l-43 -547h676q25 0 40 -15t15 -40t-15.5 -40t-41.5 -15h-682l-45 -569h716q25 0 40.5 -15.5t15.5 -38.5q0 -25 -15.5 -40t-42.5 -15h-782q-33 0 -48 17.5t-13 50.5z M516 1835q0 20 15.5 34.5t38.5 14.5q35 0 53 -33l125 -198l168 211q18 24 45 24q23 0 39 -16.5t16 -36.5t-14 -35l-189 -213q-31 -35 -71 -35q-39 0 -64 35l-147 209q-14 20 -15 39z" />
<glyph unicode="&#x11b;" horiz-adv-x="1077" d="M100 465q0 164 59.5 289t170 194.5t258.5 69.5q197 0 299 -116t102 -343q0 -39 -19.5 -58.5t-49.5 -19.5h-691v-20q0 -172 86 -268.5t248 -96.5q84 0 163 25.5t138 71.5q20 14 39 14q20 0 33.5 -14.5t13.5 -36.5q0 -29 -24 -52q-55 -51 -158.5 -84.5t-208.5 -33.5 q-213 0 -336 130t-123 349zM238 573h636q6 168 -69.5 255t-210.5 87q-152 0 -243 -89t-113 -253zM397 1489q0 25 18.5 43t40.5 18q31 0 45 -34l121 -287l168 287q8 16 22.5 24t26.5 8q23 0 38 -15t15 -38q0 -18 -12 -37l-194 -297q-31 -45 -72 -45q-43 0 -64 45l-147 299 q-6 16 -6 29z" />
<glyph unicode="&#x11c;" horiz-adv-x="1472" d="M145 639q0 248 87 433t247 285.5t375 100.5q301 0 481 -174q27 -20 27 -57q0 -25 -15.5 -42.5t-35.5 -17.5q-18 0 -39 17q-94 86 -193.5 125t-224.5 39q-180 0 -310 -84t-199 -242t-69 -375q0 -266 131.5 -409.5t389.5 -143.5q90 0 187 17.5t177 48.5l37 473h-324 q-29 0 -45 14.5t-16 38.5q0 25 16.5 39t44.5 14h373q33 0 51.5 -20.5t16.5 -52.5l-39 -531q-6 -53 -49 -69q-88 -37 -207 -59.5t-223 -22.5q-315 0 -483.5 173t-168.5 482zM633 1606q0 20 14 34l189 213q31 35 71 35q39 0 64 -35l147 -206q14 -20 15 -39q0 -20 -15.5 -36 t-38.5 -16q-33 0 -53 35l-125 197l-168 -211q-18 -25 -45 -25q-23 0 -39 16.5t-16 37.5z" />
<glyph unicode="&#x11d;" horiz-adv-x="1181" d="M102 489q0 158 57.5 278t164 185.5t245.5 65.5q125 0 215 -53.5t134 -149.5l12 135q2 33 20.5 48.5t44.5 15.5q29 0 45.5 -15.5t14.5 -48.5l-72 -893q-35 -440 -451 -440q-121 0 -222 30.5t-175 86.5q-31 23 -31 55q0 23 15.5 39t36.5 16q16 0 26 -8q86 -57 166 -82.5 t184 -25.5q303 0 328 323l14 168q-47 -90 -138 -139t-201 -49q-197 0 -315 125t-118 333zM233 485q0 -168 83 -256t239 -88q160 0 251 112t91 308q0 166 -85 257t-237 91q-162 0 -252 -112.5t-90 -311.5zM399 1169q0 18 13 37l194 297q31 45 72 45q43 0 63 -45l148 -299 q6 -14 6 -28q0 -25 -18.5 -42.5t-41.5 -17.5q-31 0 -45 33l-120 287l-168 -287q-9 -16 -23 -24.5t-27 -8.5q-23 0 -38 15.5t-15 37.5z" />
<glyph unicode="&#x11e;" horiz-adv-x="1472" d="M145 639q0 248 87 433t247 285.5t375 100.5q301 0 481 -174q27 -20 27 -57q0 -25 -15.5 -42.5t-35.5 -17.5q-18 0 -39 17q-94 86 -193.5 125t-224.5 39q-180 0 -310 -84t-199 -242t-69 -375q0 -266 131.5 -409.5t389.5 -143.5q90 0 187 17.5t177 48.5l37 473h-324 q-29 0 -45 14.5t-16 38.5q0 25 16.5 39t44.5 14h373q33 0 51.5 -20.5t16.5 -52.5l-39 -531q-6 -53 -49 -69q-88 -37 -207 -59.5t-223 -22.5q-315 0 -483.5 173t-168.5 482zM584 1802q0 20 15.5 33.5t33.5 13.5q35 0 53 -32q35 -66 83 -94.5t118 -28.5t124 28.5t97 94.5 q12 16 28.5 25t31.5 9q20 0 33.5 -11t13.5 -32q0 -18 -11 -34q-51 -90 -135 -135.5t-186 -45.5q-103 0 -178.5 45t-114.5 136q-6 16 -6 28z" />
<glyph unicode="&#x11f;" horiz-adv-x="1181" d="M102 489q0 158 57.5 278t164 185.5t245.5 65.5q125 0 215 -53.5t134 -149.5l12 135q2 33 20.5 48.5t44.5 15.5q29 0 45.5 -15.5t14.5 -48.5l-72 -893q-35 -440 -451 -440q-121 0 -222 30.5t-175 86.5q-31 23 -31 55q0 23 15.5 39t36.5 16q16 0 26 -8q86 -57 166 -82.5 t184 -25.5q303 0 328 323l14 168q-47 -90 -138 -139t-201 -49q-197 0 -315 125t-118 333zM233 485q0 -168 83 -256t239 -88q160 0 251 112t91 308q0 166 -85 257t-237 91q-162 0 -252 -112.5t-90 -311.5zM352 1421q0 25 16.5 40.5t36.5 15.5q35 0 54 -41q27 -70 79 -106 t119 -36q139 0 219 142q23 41 58 41q18 0 31.5 -13.5t13.5 -33.5q0 -18 -8 -35q-47 -98 -132 -149.5t-190 -51.5q-102 0 -178 51t-113 150q-6 16 -6 26z" />
<glyph unicode="&#x120;" horiz-adv-x="1472" d="M145 639q0 248 87 433t247 285.5t375 100.5q301 0 481 -174q27 -20 27 -57q0 -25 -15.5 -42.5t-35.5 -17.5q-18 0 -39 17q-94 86 -193.5 125t-224.5 39q-180 0 -310 -84t-199 -242t-69 -375q0 -266 131.5 -409.5t389.5 -143.5q90 0 187 17.5t177 48.5l37 473h-324 q-29 0 -45 14.5t-16 38.5q0 25 16.5 39t44.5 14h373q33 0 51.5 -20.5t16.5 -52.5l-39 -531q-6 -53 -49 -69q-88 -37 -207 -59.5t-223 -22.5q-315 0 -483.5 173t-168.5 482zM801 1722q0 41 25.5 65.5t66.5 24.5t66.5 -24.5t25.5 -65.5q0 -39 -25.5 -63.5t-66.5 -24.5 t-66.5 24.5t-25.5 63.5z" />
<glyph unicode="&#x121;" horiz-adv-x="1181" d="M102 489q0 158 57.5 278t164 185.5t245.5 65.5q125 0 215 -53.5t134 -149.5l12 135q2 33 20.5 48.5t44.5 15.5q29 0 45.5 -15.5t14.5 -48.5l-72 -893q-35 -440 -451 -440q-121 0 -222 30.5t-175 86.5q-31 23 -31 55q0 23 15.5 39t36.5 16q16 0 26 -8q86 -57 166 -82.5 t184 -25.5q303 0 328 323l14 168q-47 -90 -138 -139t-201 -49q-197 0 -315 125t-118 333zM233 485q0 -168 83 -256t239 -88q160 0 251 112t91 308q0 166 -85 257t-237 91q-162 0 -252 -112.5t-90 -311.5zM569 1333q0 41 25.5 65.5t66.5 24.5t67 -24.5t26 -65.5 q0 -39 -26 -63.5t-67 -24.5t-66.5 24.5t-25.5 63.5z" />
<glyph unicode="&#x122;" horiz-adv-x="1472" d="M145 639q0 248 87 433t247 285.5t375 100.5q301 0 481 -174q27 -20 27 -57q0 -25 -15.5 -42.5t-35.5 -17.5q-18 0 -39 17q-94 86 -193.5 125t-224.5 39q-180 0 -310 -84t-199 -242t-69 -375q0 -266 131.5 -409.5t389.5 -143.5q90 0 187 17.5t177 48.5l37 473h-324 q-29 0 -45 14.5t-16 38.5q0 25 16.5 39t44.5 14h373q33 0 51.5 -20.5t16.5 -52.5l-39 -531q-6 -53 -49 -69q-88 -37 -207 -59.5t-223 -22.5q-315 0 -483.5 173t-168.5 482zM661 -483q0 14 17 34q57 63 73 136q-39 0 -62.5 21.5t-23.5 58.5q0 39 26 65.5t67 26.5 q43 0 67.5 -27t24.5 -80q0 -66 -25.5 -129t-81.5 -119q-23 -23 -45 -22q-16 0 -26.5 10t-10.5 25z" />
<glyph unicode="&#x123;" horiz-adv-x="1181" d="M102 489q0 158 57.5 278t164 185.5t245.5 65.5q125 0 215 -53.5t134 -149.5l12 135q2 33 20.5 48.5t44.5 15.5q29 0 45.5 -15.5t14.5 -48.5l-72 -893q-35 -440 -451 -440q-121 0 -222 30.5t-175 86.5q-31 23 -31 55q0 23 15.5 39t36.5 16q16 0 26 -8q86 -57 166 -82.5 t184 -25.5q303 0 328 323l14 168q-47 -90 -138 -139t-201 -49q-197 0 -315 125t-118 333zM233 485q0 -168 83 -256t239 -88q160 0 251 112t91 308q0 166 -85 257t-237 91q-162 0 -252 -112.5t-90 -311.5zM557 1282q0 66 25.5 129.5t80.5 118.5q23 23 48 22q14 0 24 -9 t10 -23q0 -20 -16 -37q-59 -66 -72 -135q37 0 60.5 -21.5t23.5 -58.5q0 -41 -22.5 -66.5t-61.5 -25.5q-45 0 -72.5 26.5t-27.5 79.5z" />
<glyph unicode="&#x124;" horiz-adv-x="1544" d="M154 55l104 1340q2 27 20.5 43t43.5 16q27 0 45 -17.5t16 -47.5l-47 -601h917l50 607q2 27 19 43t44 16t45.5 -17.5t15.5 -47.5l-106 -1340q-2 -27 -19.5 -43t-44.5 -16t-45 17.5t-16 47.5l49 623h-917l-49 -629q-2 -27 -20.5 -43t-43.5 -16q-27 0 -45 18.5t-16 46.5z M610 1606q0 20 14 34l189 213q31 35 71 35q39 0 64 -35l147 -206q14 -20 15 -39q0 -20 -15.5 -36t-38.5 -16q-33 0 -53 35l-125 197l-168 -211q-18 -25 -45 -25q-23 0 -39 16.5t-16 37.5z" />
<glyph unicode="&#x125;" horiz-adv-x="1148" d="M66 1606q0 20 14 34l189 213q31 35 71 35q39 0 64 -35l147 -206q14 -20 15 -39q0 -20 -15.5 -36t-38.5 -16q-33 0 -53 35l-125 197l-168 -211q-18 -25 -45 -25q-23 0 -39 16.5t-16 37.5zM129 53l107 1346q2 27 21 42t46 15t43 -14.5t14 -42.5l-45 -563q51 88 140.5 135 t201.5 47q166 0 254 -84t88 -250q0 -37 -2 -55l-43 -576q-2 -33 -21.5 -48t-45.5 -15q-27 0 -43.5 15t-14.5 48l43 568q2 16 2 47q0 240 -237 239q-152 0 -241 -88t-101 -244l-41 -522q-4 -33 -22.5 -48t-45.5 -15q-29 0 -45 15t-12 48z" />
<glyph unicode="&#x126;" horiz-adv-x="1581" d="M49 1124q0 23 16.5 38.5t38.5 15.5h158l17 217q2 27 19 43t44 16t45.5 -17.5t15.5 -47.5l-16 -211h918l16 217q2 27 20.5 43t42.5 16q27 0 45.5 -17.5t16.5 -47.5l-16 -211h147q22 0 37.5 -15.5t15.5 -38.5q0 -20 -16.5 -35.5t-38.5 -15.5h-154l-80 -1024q-2 -27 -20 -43 t-43 -16q-27 0 -45.5 18.5t-15.5 46.5l49 623h-920l-49 -629q-2 -27 -19.5 -43t-44.5 -16t-45 17.5t-16 47.5l82 1018h-152q-23 0 -38 15.5t-15 35.5zM356 788h918l22 285h-917z" />
<glyph unicode="&#x127;" horiz-adv-x="1148" d="M14 1200q0 20 15.5 34.5t40.5 14.5h153l13 150q2 27 21 42t46 15t43 -14.5t14 -42.5l-12 -150h354q25 0 38.5 -14t13.5 -37q0 -20 -14.5 -34.5t-39.5 -14.5h-360l-25 -313q51 88 140.5 135t201.5 47q166 0 254 -84t88 -250q0 -37 -2 -55l-43 -576q-2 -33 -21.5 -48 t-45.5 -15q-27 0 -43.5 15t-14.5 48l43 568q2 16 2 47q0 240 -237 239q-152 0 -241 -88t-101 -244l-41 -522q-4 -33 -22.5 -48t-45.5 -15q-29 0 -45 15t-12 48l86 1096h-147q-25 0 -39.5 14.5t-14.5 36.5z" />
<glyph unicode="&#x128;" horiz-adv-x="499" d="M29 1671q0 33 24.5 69t66.5 60.5t95 24.5q59 0 158 -53q31 -16 62.5 -28.5t53.5 -12.5q39 0 60.5 15t44.5 44q8 12 17 21.5t20 9.5q16 0 26.5 -12.5t10.5 -30.5q0 -33 -25 -70t-68 -61.5t-94 -24.5q-59 0 -157 53q-31 16 -63 28.5t-54 12.5q-39 0 -60.5 -15t-44.5 -44 t-39 -29t-25 12.5t-9 30.5zM154 55l104 1340q2 27 20.5 43t43.5 16q29 0 46 -17.5t15 -47.5l-104 -1340q-2 -29 -19.5 -44t-44.5 -15t-45 18.5t-16 46.5z" />
<glyph unicode="&#x129;" horiz-adv-x="454" d="M-26 1272q0 35 25.5 79t68.5 74.5t94 30.5q37 0 75 -19.5t81 -54.5q47 -33 70.5 -45t46.5 -12q35 0 56 19.5t46 54.5q14 23 23.5 33t21.5 10q14 0 23.5 -12.5t9.5 -30.5q0 -35 -25.5 -79t-68.5 -75t-95 -31q-36 0 -74 19.5t-81 54.5q-47 33 -70.5 45.5t-46.5 12.5 q-35 0 -57.5 -19.5t-42.5 -54.5q-14 -23 -23.5 -33t-21.5 -10q-14 0 -24.5 12t-10.5 31zM129 53l72 903q2 29 21.5 43.5t45.5 14.5q27 0 43.5 -14.5t14.5 -43.5l-72 -903q-4 -33 -22.5 -48t-45.5 -15q-28 0 -44.5 15t-12.5 48z" />
<glyph unicode="&#x12a;" horiz-adv-x="499" d="M35 1722q0 27 18.5 40.5t48.5 13.5h498q61 0 61 -54q0 -25 -18 -39t-49 -14h-498q-31 0 -46 14.5t-15 38.5zM154 55l104 1340q2 27 20.5 43t43.5 16q29 0 46 -17.5t15 -47.5l-104 -1340q-2 -29 -19.5 -44t-44.5 -15t-45 18.5t-16 46.5z" />
<glyph unicode="&#x12b;" horiz-adv-x="454" d="M-18 1333q0 27 18.5 40t49.5 13h497q61 0 62 -51q0 -27 -18.5 -40t-49.5 -13h-498q-61 0 -61 51zM129 53l72 903q2 29 21.5 43.5t45.5 14.5q27 0 43.5 -14.5t14.5 -43.5l-72 -903q-4 -33 -22.5 -48t-45.5 -15q-28 0 -44.5 15t-12.5 48z" />
<glyph unicode="&#x12c;" horiz-adv-x="499" d="M39 1802q0 20 15.5 33.5t33.5 13.5q35 0 53 -32q35 -66 83 -94.5t118 -28.5t124 28.5t97 94.5q12 16 28.5 25t31.5 9q20 0 33.5 -11t13.5 -32q0 -18 -11 -34q-51 -90 -135 -135.5t-186 -45.5q-103 0 -178.5 45t-114.5 136q-6 16 -6 28zM154 55l104 1340q2 27 20.5 43 t43.5 16q29 0 46 -17.5t15 -47.5l-104 -1340q-2 -29 -19.5 -44t-44.5 -15t-45 18.5t-16 46.5z" />
<glyph unicode="&#x12d;" horiz-adv-x="454" d="M-14 1421q0 25 16.5 40.5t36.5 15.5q35 0 54 -41q27 -70 79 -106t119 -36q139 0 219 142q23 41 58 41q18 0 31.5 -13.5t13.5 -33.5q0 -18 -8 -35q-47 -98 -132 -149.5t-190 -51.5q-102 0 -178 51t-113 150q-6 16 -6 26zM129 53l72 903q2 29 21.5 43.5t45.5 14.5 q27 0 43.5 -14.5t14.5 -43.5l-72 -903q-4 -33 -22.5 -48t-45.5 -15q-28 0 -44.5 15t-12.5 48z" />
<glyph unicode="&#x12e;" horiz-adv-x="499" d="M-47 -195q0 98 53 166t148 92l104 1332q2 27 20.5 43t43.5 16q29 0 46 -17.5t15 -47.5l-104 -1340q-2 -27 -18.5 -41t-43.5 -16q-74 -8 -112.5 -52t-38.5 -114q0 -61 32.5 -93t91.5 -32q47 0 101 27q16 6 26 6q16 0 24.5 -10.5t8.5 -24.5q0 -37 -33 -55q-63 -35 -145 -35 q-98 0 -158.5 54t-60.5 142z" />
<glyph unicode="&#x12f;" horiz-adv-x="454" d="M-72 -195q0 96 53.5 164t147.5 94l72 893q2 29 21.5 43.5t45.5 14.5q27 0 43.5 -14.5t14.5 -43.5l-72 -903q-2 -27 -18.5 -43t-42.5 -18q-72 -6 -112 -51t-40 -115q0 -61 32.5 -93t92.5 -32q45 0 100 27q20 8 27 8q16 0 24.5 -10.5t8.5 -26.5q0 -37 -33 -55 q-68 -35 -148 -35q-98 0 -157.5 54t-59.5 142zM199 1333q0 41 25.5 65.5t66.5 24.5t66.5 -24.5t25.5 -65.5q0 -39 -25.5 -63.5t-66.5 -24.5t-66.5 24.5t-25.5 63.5z" />
<glyph unicode="&#x130;" horiz-adv-x="499" d="M154 55l104 1340q2 27 20.5 43t43.5 16q29 0 46 -17.5t15 -47.5l-104 -1340q-2 -29 -19.5 -44t-44.5 -15t-45 18.5t-16 46.5zM256 1722q0 41 25.5 65.5t66.5 24.5t66.5 -24.5t25.5 -65.5q0 -39 -25.5 -63.5t-66.5 -24.5t-66.5 24.5t-25.5 63.5z" />
<glyph unicode="&#x131;" horiz-adv-x="454" d="M129 53l72 903q2 29 21.5 43.5t45.5 14.5q27 0 43.5 -14.5t14.5 -43.5l-72 -903q-4 -33 -22.5 -48t-45.5 -15q-28 0 -44.5 15t-12.5 48z" />
<glyph unicode="&#x134;" horiz-adv-x="636" d="M-53 47q0 20 14 33.5t39 15.5l66 4q113 8 176 79t73 198l80 1014q2 29 20.5 46t47.5 17t45 -17.5t14 -45.5l-82 -1018q-14 -178 -107 -273.5t-261 -105.5l-68 -4q-29 -2 -44 14t-13 43zM225 1606q0 20 14 34l189 213q31 35 71 35q39 0 64 -35l147 -206q14 -20 15 -39 q0 -20 -15.5 -36t-38.5 -16q-33 0 -53 35l-125 197l-168 -211q-18 -25 -45 -25q-23 0 -39 16.5t-16 37.5z" />
<glyph unicode="&#x135;" horiz-adv-x="454" d="M-248 -324q0 20 14.5 35t38.5 17l60 4q127 8 188.5 73.5t71.5 202.5l76 944q2 31 20.5 46.5t42.5 15.5q27 0 45.5 -15.5t16.5 -46.5l-74 -929q-14 -195 -111.5 -290t-290.5 -106l-38 -2q-31 -2 -46.5 12.5t-13.5 38.5zM33 1169q0 18 13 37l194 297q31 45 72 45 q43 0 63 -45l148 -299q6 -14 6 -28q0 -25 -18.5 -42.5t-41.5 -17.5q-31 0 -45 33l-120 287l-168 -287q-9 -16 -23 -24.5t-27 -8.5q-23 0 -38 15.5t-15 37.5z" />
<glyph unicode="&#x136;" horiz-adv-x="1255" d="M154 55l104 1340q2 25 20.5 42t43.5 17q27 0 46 -19.5t15 -45.5l-47 -611l813 662q17 12 35 12q23 0 40 -16.5t17 -38.5q0 -27 -22 -43l-766 -617l702 -651q18 -18 19 -39q0 -23 -17.5 -39t-40.5 -16t-39 16l-747 688l-51 -647q-2 -25 -20.5 -42t-43.5 -17 q-27 0 -45 19.5t-16 45.5zM485 -483q0 14 17 34q57 63 73 136q-39 0 -62.5 21.5t-23.5 58.5q0 39 26 65.5t67 26.5q43 0 67.5 -27t24.5 -80q0 -66 -25.5 -129t-81.5 -119q-23 -23 -45 -22q-16 0 -26.5 10t-10.5 25z" />
<glyph unicode="&#x137;" horiz-adv-x="991" d="M129 55l107 1342q2 27 22.5 42t44.5 15q29 0 44 -17.5t13 -47.5l-67 -854l541 456q16 15 36 15q23 0 39.5 -16.5t16.5 -39.5t-21 -41l-469 -395l453 -428q18 -18 18 -39q0 -23 -17.5 -40t-39.5 -17q-23 0 -39 16l-522 477l-35 -436q-2 -27 -19.5 -42t-41.5 -15 q-27 0 -46.5 18.5t-17.5 46.5zM348 -483q0 14 17 34q57 63 73 136q-39 0 -62.5 21.5t-23.5 58.5q0 39 26 65.5t67 26.5q43 0 67.5 -27t24.5 -80q0 -66 -25.5 -129t-81.5 -119q-23 -23 -45 -22q-16 0 -26.5 10t-10.5 25z" />
<glyph unicode="&#x138;" horiz-adv-x="991" d="M129 53l72 903q2 29 21.5 43.5t45.5 14.5q27 0 43.5 -14.5t14.5 -43.5l-33 -424l541 459q16 15 36 15q23 0 39.5 -16.5t16.5 -39.5t-21 -41l-469 -395l453 -428q18 -18 18 -39q0 -23 -17.5 -40t-39.5 -17q-23 0 -39 16l-522 477l-35 -430q-4 -33 -22.5 -48t-45.5 -15 q-29 0 -45 15t-12 48z" />
<glyph unicode="&#x139;" horiz-adv-x="1091" d="M154 68l104 1327q2 27 20.5 43t45.5 16q29 0 45 -17.5t14 -47.5l-100 -1278h698q25 0 40 -15.5t15 -40.5t-15 -40t-42 -15h-764q-33 0 -49 17.5t-12 50.5zM315 1589q0 12 11 29l168 233q31 39 63 39q23 0 39 -15t16 -38q0 -29 -26 -55l-199 -207q-19 -19 -39 -19 q-14 0 -23.5 9.5t-9.5 23.5z" />
<glyph unicode="&#x13a;" horiz-adv-x="454" d="M129 53l107 1346q2 29 21 43t46 14t43 -14.5t14 -42.5l-106 -1346q-4 -33 -22.5 -48t-45.5 -15q-28 0 -44.5 15t-12.5 48zM293 1589q0 12 11 29l168 233q31 39 63 39q23 0 39 -15t16 -38q0 -29 -26 -55l-199 -207q-19 -19 -39 -19q-14 0 -23.5 9.5t-9.5 23.5z" />
<glyph unicode="&#x13b;" horiz-adv-x="1091" d="M154 68l104 1327q2 27 20.5 43t45.5 16q29 0 45 -17.5t14 -47.5l-100 -1278h698q25 0 40 -15.5t15 -40.5t-15 -40t-42 -15h-764q-33 0 -49 17.5t-12 50.5zM481 -483q0 14 17 34q57 63 73 136q-39 0 -62.5 21.5t-23.5 58.5q0 39 26 65.5t67 26.5q43 0 67.5 -27t24.5 -80 q0 -66 -25.5 -129t-81.5 -119q-23 -23 -45 -22q-16 0 -26.5 10t-10.5 25z" />
<glyph unicode="&#x13c;" horiz-adv-x="454" d="M80 -483q0 14 17 34q57 63 73 136q-39 0 -62.5 21.5t-23.5 58.5q0 39 26 65.5t67 26.5q43 0 67.5 -27t24.5 -80q0 -66 -25.5 -129t-81.5 -119q-23 -23 -45 -22q-16 0 -26.5 10t-10.5 25zM129 53l107 1346q2 29 21 43t46 14t43 -14.5t14 -42.5l-106 -1346 q-4 -33 -22.5 -48t-45.5 -15q-28 0 -44.5 15t-12.5 48z" />
<glyph unicode="&#x13d;" horiz-adv-x="1091" d="M154 68l104 1327q2 27 20.5 43t45.5 16q29 0 45 -17.5t14 -47.5l-100 -1278h698q25 0 40 -15.5t15 -40.5t-15 -40t-42 -15h-764q-33 0 -49 17.5t-12 50.5zM531 1085l22 304q2 33 20.5 50t43.5 17q23 0 39 -16.5t16 -44.5q0 -12 -2 -19l-63 -297q-8 -32 -41 -32 q-14 0 -25.5 10t-9.5 28z" />
<glyph unicode="&#x13e;" horiz-adv-x="454" d="M129 53l107 1346q2 29 21 43t46 14t43 -14.5t14 -42.5l-106 -1346q-4 -33 -22.5 -48t-45.5 -15q-28 0 -44.5 15t-12.5 48zM414 1085l24 301q2 33 21.5 51.5t44.5 18.5q20 0 35.5 -15.5t15.5 -41.5q0 -14 -2 -23l-68 -297q-2 -16 -13 -24t-23 -8q-14 0 -25.5 10t-9.5 28z " />
<glyph unicode="&#x13f;" horiz-adv-x="1091" d="M154 68l104 1327q2 27 20.5 43t45.5 16q29 0 45 -17.5t14 -47.5l-100 -1278h698q25 0 40 -15.5t15 -40.5t-15 -40t-42 -15h-764q-33 0 -49 17.5t-12 50.5zM618 723q0 41 25.5 65.5t66.5 24.5t66.5 -24.5t25.5 -65.5q0 -39 -25.5 -63.5t-66.5 -24.5t-66.5 24.5t-25.5 63.5 z" />
<glyph unicode="&#x140;" horiz-adv-x="468" d="M129 53l107 1346q2 29 21 43t46 14t43 -14.5t14 -42.5l-106 -1346q-4 -33 -22.5 -48t-45.5 -15q-28 0 -44.5 15t-12.5 48zM369 723q0 41 25.5 65.5t66.5 24.5t66.5 -24.5t25.5 -65.5q0 -39 -25.5 -63.5t-66.5 -24.5t-66.5 24.5t-25.5 63.5z" />
<glyph unicode="&#x141;" horiz-adv-x="1110" d="M10 608q0 33 31 47l184 103l51 637q2 27 19.5 43t46.5 16t45 -17.5t14 -47.5l-43 -560l334 185q12 6 25 6q20 0 34.5 -16.5t14.5 -38.5q0 -29 -27 -43l-391 -215l-47 -596h696q25 0 40.5 -15.5t15.5 -40.5t-15.5 -40t-42.5 -15h-762q-33 0 -49 17.5t-14 50.5l45 565 l-127 -70q-14 -8 -29 -8q-20 0 -34.5 16.5t-14.5 36.5z" />
<glyph unicode="&#x142;" horiz-adv-x="538" d="M6 610q0 27 29 41l194 107l52 641q2 29 20 43t45 14t44.5 -14.5t15.5 -42.5l-46 -570l132 74q12 6 24 6q20 0 35.5 -16t15.5 -37q0 -29 -28 -45l-189 -104l-53 -654q-2 -33 -21.5 -48t-46.5 -15t-43 15t-14 48l47 582l-135 -74q-12 -6 -23 -6q-20 0 -37.5 17.5 t-17.5 37.5z" />
<glyph unicode="&#x143;" horiz-adv-x="1505" d="M152 55l104 1336q2 31 19.5 47t43.5 16q37 0 58 -35l801 -1202l94 1180q2 27 18.5 42t42.5 15q25 0 42.5 -18.5t15.5 -44.5l-107 -1340q-4 -61 -57 -61q-35 0 -62 35l-800 1210l-97 -1188q-2 -27 -18.5 -42t-40.5 -15q-25 0 -42 18.5t-15 46.5zM819 1589q0 12 11 29 l168 233q31 39 63 39q23 0 39 -15t16 -38q0 -29 -26 -55l-199 -207q-19 -19 -39 -19q-14 0 -23.5 9.5t-9.5 23.5z" />
<glyph unicode="&#x144;" horiz-adv-x="1148" d="M129 53l72 903q2 29 21.5 43.5t45.5 14.5q27 0 42.5 -14.5t13.5 -43.5l-11 -125q51 88 140.5 137.5t203.5 49.5q166 0 254 -84t88 -250q0 -37 -2 -55l-43 -576q-2 -33 -21.5 -48t-45.5 -15q-27 0 -43.5 15t-14.5 48l43 568q2 16 2 47q0 240 -237 239q-152 0 -241 -88 t-101 -244l-41 -522q-4 -33 -22.5 -48t-45.5 -15q-29 0 -45 15t-12 48zM598 1153q0 16 11 29l282 338q25 31 58 30q27 0 47 -18.5t20 -44.5q0 -27 -26 -51l-326 -306q-15 -14 -31 -14q-14 0 -24.5 10.5t-10.5 26.5z" />
<glyph unicode="&#x145;" horiz-adv-x="1505" d="M152 55l104 1336q2 31 19.5 47t43.5 16q37 0 58 -35l801 -1202l94 1180q2 27 18.5 42t42.5 15q25 0 42.5 -18.5t15.5 -44.5l-107 -1340q-4 -61 -57 -61q-35 0 -62 35l-800 1210l-97 -1188q-2 -27 -18.5 -42t-40.5 -15q-25 0 -42 18.5t-15 46.5zM606 -483q0 14 17 34 q57 63 73 136q-39 0 -62.5 21.5t-23.5 58.5q0 39 26 65.5t67 26.5q43 0 67.5 -27t24.5 -80q0 -66 -25.5 -129t-81.5 -119q-23 -23 -45 -22q-16 0 -26.5 10t-10.5 25z" />
<glyph unicode="&#x146;" horiz-adv-x="1148" d="M129 53l72 903q2 29 21.5 43.5t45.5 14.5q27 0 42.5 -14.5t13.5 -43.5l-11 -125q51 88 140.5 137.5t203.5 49.5q166 0 254 -84t88 -250q0 -37 -2 -55l-43 -576q-2 -33 -21.5 -48t-45.5 -15q-27 0 -43.5 15t-14.5 48l43 568q2 16 2 47q0 240 -237 239q-152 0 -241 -88 t-101 -244l-41 -522q-4 -33 -22.5 -48t-45.5 -15q-29 0 -45 15t-12 48zM426 -483q0 14 17 34q57 63 73 136q-39 0 -62.5 21.5t-23.5 58.5q0 39 26 65.5t67 26.5q43 0 67.5 -27t24.5 -80q0 -66 -25.5 -129t-81.5 -119q-23 -23 -45 -22q-16 0 -26.5 10t-10.5 25z" />
<glyph unicode="&#x147;" horiz-adv-x="1505" d="M152 55l104 1336q2 31 19.5 47t43.5 16q37 0 58 -35l801 -1202l94 1180q2 27 18.5 42t42.5 15q25 0 42.5 -18.5t15.5 -44.5l-107 -1340q-4 -61 -57 -61q-35 0 -62 35l-800 1210l-97 -1188q-2 -27 -18.5 -42t-40.5 -15q-25 0 -42 18.5t-15 46.5zM610 1835q0 20 15.5 34.5 t38.5 14.5q35 0 53 -33l125 -198l168 211q18 24 45 24q23 0 39 -16.5t16 -36.5t-14 -35l-189 -213q-31 -35 -71 -35q-39 0 -64 35l-147 209q-14 20 -15 39z" />
<glyph unicode="&#x148;" horiz-adv-x="1148" d="M129 53l72 903q2 29 21.5 43.5t45.5 14.5q27 0 42.5 -14.5t13.5 -43.5l-11 -125q51 88 140.5 137.5t203.5 49.5q166 0 254 -84t88 -250q0 -37 -2 -55l-43 -576q-2 -33 -21.5 -48t-45.5 -15q-27 0 -43.5 15t-14.5 48l43 568q2 16 2 47q0 240 -237 239q-152 0 -241 -88 t-101 -244l-41 -522q-4 -33 -22.5 -48t-45.5 -15q-29 0 -45 15t-12 48zM406 1489q0 25 18.5 43t40.5 18q31 0 45 -34l121 -287l168 287q8 16 22.5 24t26.5 8q23 0 38 -15t15 -38q0 -18 -12 -37l-194 -297q-31 -45 -72 -45q-43 0 -64 45l-147 299q-6 16 -6 29z" />
<glyph unicode="&#x149;" horiz-adv-x="1148" d="M129 53l72 903q2 29 21.5 43.5t45.5 14.5q27 0 42.5 -14.5t13.5 -43.5l-11 -125q51 88 140.5 137.5t203.5 49.5q166 0 254 -84t88 -250q0 -37 -2 -55l-43 -576q-2 -33 -21.5 -48t-45.5 -15q-27 0 -43.5 15t-14.5 48l43 568q2 16 2 47q0 240 -237 239q-152 0 -241 -88 t-101 -244l-41 -522q-4 -33 -22.5 -48t-45.5 -15q-29 0 -45 15t-12 48zM276 1212q0 16 17 33q61 66 74 135q-37 0 -60.5 21.5t-23.5 58.5q0 39 25.5 64.5t66.5 25.5q92 0 92 -102q0 -63 -26.5 -128t-80.5 -122q-20 -20 -45 -20q-16 0 -27.5 10t-11.5 24z" />
<glyph unicode="&#x14a;" horiz-adv-x="1505" d="M152 55l104 1336q2 31 19.5 47t43.5 16q37 0 58 -35l801 -1202l94 1180q2 27 18.5 42t42.5 15q25 0 42.5 -18.5t15.5 -44.5l-111 -1387q-14 -178 -107.5 -273.5t-261.5 -105.5l-69 -4q-29 -2 -43.5 13.5t-14.5 39.5q0 20 13.5 37t38.5 17l84 4q102 4 166.5 76.5 t74.5 197.5l2 21l-798 1208l-97 -1188q-2 -27 -18.5 -42t-40.5 -15q-25 0 -42 18.5t-15 46.5z" />
<glyph unicode="&#x14b;" horiz-adv-x="1148" d="M129 53l72 903q2 29 21.5 43.5t45.5 14.5q27 0 42.5 -14.5t13.5 -43.5l-11 -125q51 88 140.5 137.5t203.5 49.5q168 0 255 -84t87 -250q0 -37 -2 -55l-47 -606q-14 -195 -111.5 -290t-289.5 -106l-39 -2q-29 -2 -44 13.5t-15 37.5q0 20 14 35t41 17l59 4 q125 8 186.5 74.5t71.5 201.5l49 613q2 16 2 47q0 123 -59 181t-178 58q-152 0 -241 -88t-101 -244l-41 -522q-4 -33 -22.5 -48t-45.5 -15q-29 0 -45 15t-12 48z" />
<glyph unicode="&#x14c;" horiz-adv-x="1550" d="M147 659q0 242 82 423.5t231.5 279.5t348.5 98q195 0 336 -81t217 -233.5t76 -361.5q0 -242 -81 -423t-231.5 -279t-351.5 -98q-192 0 -333.5 80.5t-217.5 233.5t-76 361zM279 657q0 -270 129 -414.5t368 -144.5q164 0 284 82t183.5 236.5t63.5 367.5q0 272 -129 417 t-369 145q-164 0 -283.5 -82t-183 -238t-63.5 -369zM559 1722q0 27 18.5 40.5t48.5 13.5h498q61 0 61 -54q0 -25 -18 -39t-49 -14h-498q-31 0 -46 14.5t-15 38.5z" />
<glyph unicode="&#x14d;" horiz-adv-x="1116" d="M100 465q0 166 58.5 291t166 193.5t246.5 68.5q135 0 236.5 -59.5t156 -168t54.5 -253.5q0 -164 -58.5 -289t-166 -193.5t-248.5 -68.5q-133 0 -234.5 59t-156 168t-54.5 252zM231 459q0 -176 82 -269.5t238 -93.5q158 0 248 120t90 327q0 174 -84 270t-234 96 q-160 0 -250 -119.5t-90 -330.5zM313 1333q0 27 18.5 40t49.5 13h497q61 0 62 -51q0 -27 -18.5 -40t-49.5 -13h-498q-61 0 -61 51z" />
<glyph unicode="&#x14e;" horiz-adv-x="1550" d="M147 659q0 242 82 423.5t231.5 279.5t348.5 98q195 0 336 -81t217 -233.5t76 -361.5q0 -242 -81 -423t-231.5 -279t-351.5 -98q-192 0 -333.5 80.5t-217.5 233.5t-76 361zM279 657q0 -270 129 -414.5t368 -144.5q164 0 284 82t183.5 236.5t63.5 367.5q0 272 -129 417 t-369 145q-164 0 -283.5 -82t-183 -238t-63.5 -369zM563 1802q0 20 15.5 33.5t33.5 13.5q35 0 53 -32q35 -66 83 -94.5t118 -28.5t124 28.5t97 94.5q12 16 28.5 25t31.5 9q20 0 33.5 -11t13.5 -32q0 -18 -11 -34q-51 -90 -135 -135.5t-186 -45.5q-103 0 -178.5 45 t-114.5 136q-6 16 -6 28z" />
<glyph unicode="&#x14f;" horiz-adv-x="1116" d="M100 465q0 166 58.5 291t166 193.5t246.5 68.5q135 0 236.5 -59.5t156 -168t54.5 -253.5q0 -164 -58.5 -289t-166 -193.5t-248.5 -68.5q-133 0 -234.5 59t-156 168t-54.5 252zM231 459q0 -176 82 -269.5t238 -93.5q158 0 248 120t90 327q0 174 -84 270t-234 96 q-160 0 -250 -119.5t-90 -330.5zM317 1421q0 25 16.5 40.5t36.5 15.5q35 0 54 -41q27 -70 79 -106t119 -36q139 0 219 142q23 41 58 41q18 0 31.5 -13.5t13.5 -33.5q0 -18 -8 -35q-47 -98 -132 -149.5t-190 -51.5q-102 0 -178 51t-113 150q-6 16 -6 26z" />
<glyph unicode="&#x150;" horiz-adv-x="1550" d="M147 659q0 242 82 423.5t231.5 279.5t348.5 98q195 0 336 -81t217 -233.5t76 -361.5q0 -242 -81 -423t-231.5 -279t-351.5 -98q-192 0 -333.5 80.5t-217.5 233.5t-76 361zM279 657q0 -270 129 -414.5t368 -144.5q164 0 284 82t183.5 236.5t63.5 367.5q0 272 -129 417 t-369 145q-164 0 -283.5 -82t-183 -238t-63.5 -369zM721 1583q0 12 6 21l123 235q23 47 63 47q20 0 34.5 -14t14.5 -35q0 -20 -18 -45l-166 -219q-11 -17 -29 -17q-12 0 -20 7.5t-8 19.5zM956 1583q0 12 6 21l123 235q23 47 64 47q20 0 33.5 -14t13.5 -35q0 -23 -17 -45 l-166 -219q-10 -17 -28 -17q-12 0 -20.5 7.5t-8.5 19.5z" />
<glyph unicode="&#x151;" horiz-adv-x="1116" d="M100 465q0 166 58.5 291t166 193.5t246.5 68.5q135 0 236.5 -59.5t156 -168t54.5 -253.5q0 -164 -58.5 -289t-166 -193.5t-248.5 -68.5q-133 0 -234.5 59t-156 168t-54.5 252zM231 459q0 -176 82 -269.5t238 -93.5q158 0 248 120t90 327q0 174 -84 270t-234 96 q-160 0 -250 -119.5t-90 -330.5zM465 1157l106 336q8 29 26.5 44t39.5 15q23 0 39 -16t16 -41q0 -18 -12 -43l-154 -317q-8 -21 -31 -21q-16 0 -26.5 12.5t-3.5 30.5zM702 1157l105 336q8 29 27.5 44t39.5 15q23 0 38 -16t15 -41q0 -23 -10 -43l-155 -317q-8 -21 -31 -21 q-14 0 -24.5 12.5t-4.5 30.5z" />
<glyph unicode="&#x152;" horiz-adv-x="2142" d="M147 659q0 244 84 420t246 270.5t391 94.5h1192q27 0 42.5 -15.5t15.5 -37.5q0 -25 -15.5 -40.5t-42.5 -15.5h-727l-43 -547h678q27 0 42 -15t15 -40q0 -23 -15 -39t-42 -16h-686l-45 -569h721q25 0 40 -15.5t15 -38.5q0 -25 -15.5 -40t-41.5 -15h-1139q-324 0 -497 172 t-173 487zM279 657q0 -270 136 -409t408 -139h291l96 1226h-338q-293 0 -443 -176t-150 -502z" />
<glyph unicode="&#x153;" horiz-adv-x="1853" d="M100 465q0 166 58.5 291t166 193.5t248.5 68.5q145 0 243.5 -65.5t144.5 -196.5q55 125 159.5 193.5t249.5 68.5q195 0 296 -116t101 -343q0 -39 -19 -58.5t-50 -19.5h-684v-20q0 -172 87 -268.5t253 -96.5q76 0 152.5 25.5t135.5 71.5q20 14 39 14q20 0 34 -14.5 t14 -36.5q0 -29 -25 -52q-55 -51 -156.5 -84.5t-195.5 -33.5q-154 0 -257.5 66.5t-152.5 189.5q-53 -119 -156.5 -187.5t-242.5 -68.5q-133 0 -233.5 59t-155 168t-54.5 252zM231 459q0 -176 82 -269.5t238 -93.5q158 0 248 120t90 327q0 174 -84 270t-234 96 q-160 0 -250 -119.5t-90 -330.5zM1022 573h631q6 168 -69 255t-208 87q-149 0 -240.5 -89t-113.5 -253z" />
<glyph unicode="&#x154;" horiz-adv-x="1396" d="M154 57l102 1323q2 29 21.5 46.5t48.5 17.5h501q219 0 337 -96.5t118 -280.5q0 -188 -106.5 -298t-313.5 -126q45 -18 79 -56t71 -104l223 -409q8 -14 8 -31q0 -23 -18.5 -38t-42.5 -15q-39 0 -60 39l-235 434q-49 94 -109.5 129t-171.5 35h-282l-45 -578 q-2 -29 -19.5 -44t-46.5 -15t-46 17.5t-13 49.5zM332 735h446q190 0 284.5 79t94.5 245q0 141 -83 208.5t-249 67.5h-446zM755 1589q0 12 11 29l168 233q31 39 63 39q23 0 39 -15t16 -38q0 -29 -26 -55l-199 -207q-19 -19 -39 -19q-14 0 -23.5 9.5t-9.5 23.5z" />
<glyph unicode="&#x155;" horiz-adv-x="694" d="M129 53l72 903q2 29 21.5 43.5t45.5 14.5q27 0 42.5 -14.5t13.5 -43.5l-11 -127q51 86 134 130.5t206 54.5l23 2q29 2 45 -12.5t16 -38.5q-2 -23 -15 -39.5t-40 -18.5l-55 -6q-156 -14 -238 -94t-94 -225l-41 -529q-4 -33 -22.5 -48t-45.5 -15q-29 0 -45 15t-12 48z M452 1153q0 16 11 29l282 338q25 31 58 30q27 0 47 -18.5t20 -44.5q0 -27 -26 -51l-326 -306q-15 -14 -31 -14q-14 0 -24.5 10.5t-10.5 26.5z" />
<glyph unicode="&#x156;" horiz-adv-x="1396" d="M154 57l102 1323q2 29 21.5 46.5t48.5 17.5h501q219 0 337 -96.5t118 -280.5q0 -188 -106.5 -298t-313.5 -126q45 -18 79 -56t71 -104l223 -409q8 -14 8 -31q0 -23 -18.5 -38t-42.5 -15q-39 0 -60 39l-235 434q-49 94 -109.5 129t-171.5 35h-282l-45 -578 q-2 -29 -19.5 -44t-46.5 -15t-46 17.5t-13 49.5zM332 735h446q190 0 284.5 79t94.5 245q0 141 -83 208.5t-249 67.5h-446zM542 -483q0 14 17 34q57 63 73 136q-39 0 -62.5 21.5t-23.5 58.5q0 39 26 65.5t67 26.5q43 0 67.5 -27t24.5 -80q0 -66 -25.5 -129t-81.5 -119 q-23 -23 -45 -22q-16 0 -26.5 10t-10.5 25z" />
<glyph unicode="&#x157;" horiz-adv-x="694" d="M80 -483q0 14 17 34q57 63 73 136q-39 0 -62.5 21.5t-23.5 58.5q0 39 26 65.5t67 26.5q43 0 67.5 -27t24.5 -80q0 -66 -25.5 -129t-81.5 -119q-23 -23 -45 -22q-16 0 -26.5 10t-10.5 25zM129 53l72 903q2 29 21.5 43.5t45.5 14.5q27 0 42.5 -14.5t13.5 -43.5l-11 -127 q51 86 134 130.5t206 54.5l23 2q29 2 45 -12.5t16 -38.5q-2 -23 -15 -39.5t-40 -18.5l-55 -6q-156 -14 -238 -94t-94 -225l-41 -529q-4 -33 -22.5 -48t-45.5 -15q-29 0 -45 15t-12 48z" />
<glyph unicode="&#x158;" horiz-adv-x="1396" d="M154 57l102 1323q2 29 21.5 46.5t48.5 17.5h501q219 0 337 -96.5t118 -280.5q0 -188 -106.5 -298t-313.5 -126q45 -18 79 -56t71 -104l223 -409q8 -14 8 -31q0 -23 -18.5 -38t-42.5 -15q-39 0 -60 39l-235 434q-49 94 -109.5 129t-171.5 35h-282l-45 -578 q-2 -29 -19.5 -44t-46.5 -15t-46 17.5t-13 49.5zM332 735h446q190 0 284.5 79t94.5 245q0 141 -83 208.5t-249 67.5h-446zM546 1835q0 20 15.5 34.5t38.5 14.5q35 0 53 -33l125 -198l168 211q18 24 45 24q23 0 39 -16.5t16 -36.5t-14 -35l-189 -213q-31 -35 -71 -35 q-39 0 -64 35l-147 209q-14 20 -15 39z" />
<glyph unicode="&#x159;" horiz-adv-x="694" d="M129 53l72 903q2 29 21.5 43.5t45.5 14.5q27 0 42.5 -14.5t13.5 -43.5l-11 -127q51 86 134 130.5t206 54.5l23 2q29 2 45 -12.5t16 -38.5q-2 -23 -15 -39.5t-40 -18.5l-55 -6q-156 -14 -238 -94t-94 -225l-41 -529q-4 -33 -22.5 -48t-45.5 -15q-29 0 -45 15t-12 48z M260 1489q0 25 18.5 43t40.5 18q31 0 45 -34l121 -287l168 287q8 16 22.5 24t26.5 8q23 0 38 -15t15 -38q0 -18 -12 -37l-194 -297q-31 -45 -72 -45q-43 0 -64 45l-147 299q-6 16 -6 29z" />
<glyph unicode="&#x15a;" horiz-adv-x="1243" d="M70 215q0 25 14 41t35 16q20 0 33 -12q102 -86 213.5 -126t252.5 -40q190 0 291 74t101 205q0 78 -48.5 129t-122 79.5t-196.5 63.5q-154 43 -248 83t-159.5 120t-65.5 211q0 121 63.5 212t181 140t275.5 49q147 0 276.5 -47t219.5 -133q20 -20 20 -49q0 -23 -15 -40 t-38 -17q-27 0 -49 20q-82 74 -187.5 115t-226.5 41q-190 0 -290.5 -76t-100.5 -211q0 -88 52 -145.5t130 -88t207 -67.5q150 -43 239 -81t150.5 -110.5t61.5 -191.5q0 -182 -140.5 -288.5t-380.5 -106.5q-326 0 -516 168q-33 27 -32 63zM688 1589q0 12 11 29l168 233 q31 39 63 39q23 0 39 -15t16 -38q0 -29 -26 -55l-199 -207q-19 -19 -39 -19q-14 0 -23.5 9.5t-9.5 23.5z" />
<glyph unicode="&#x15b;" horiz-adv-x="978" d="M74 154q0 25 13 40t34 15q16 0 35 -12q72 -51 144.5 -77t160.5 -26q264 0 264 166q0 53 -33 87t-82 53.5t-133 43.5q-104 31 -167.5 58.5t-108.5 82t-45 142.5q0 135 104.5 213t278.5 78q100 0 189 -33t140 -86q20 -20 21 -45q0 -23 -14.5 -39t-36.5 -16q-20 0 -45 18 q-49 41 -116 66.5t-138 25.5q-123 0 -188.5 -45t-65.5 -131q0 -53 32.5 -86t78.5 -52.5t134 -45.5q102 -29 167 -56.5t110 -83t45 -143.5q0 -129 -107.5 -204.5t-287.5 -75.5q-107 0 -203 31.5t-154 80.5q-27 25 -26 56zM530 1153q0 16 11 29l282 338q25 31 58 30 q27 0 47 -18.5t20 -44.5q0 -27 -26 -51l-326 -306q-15 -14 -31 -14q-14 0 -24.5 10.5t-10.5 26.5z" />
<glyph unicode="&#x15c;" horiz-adv-x="1243" d="M70 215q0 25 14 41t35 16q20 0 33 -12q102 -86 213.5 -126t252.5 -40q190 0 291 74t101 205q0 78 -48.5 129t-122 79.5t-196.5 63.5q-154 43 -248 83t-159.5 120t-65.5 211q0 121 63.5 212t181 140t275.5 49q147 0 276.5 -47t219.5 -133q20 -20 20 -49q0 -23 -15 -40 t-38 -17q-27 0 -49 20q-82 74 -187.5 115t-226.5 41q-190 0 -290.5 -76t-100.5 -211q0 -88 52 -145.5t130 -88t207 -67.5q150 -43 239 -81t150.5 -110.5t61.5 -191.5q0 -182 -140.5 -288.5t-380.5 -106.5q-326 0 -516 168q-33 27 -32 63zM461 1606q0 20 14 34l189 213 q31 35 71 35q39 0 64 -35l147 -206q14 -20 15 -39q0 -20 -15.5 -36t-38.5 -16q-33 0 -53 35l-125 197l-168 -211q-18 -25 -45 -25q-23 0 -39 16.5t-16 37.5z" />
<glyph unicode="&#x15d;" horiz-adv-x="978" d="M74 154q0 25 13 40t34 15q16 0 35 -12q72 -51 144.5 -77t160.5 -26q264 0 264 166q0 53 -33 87t-82 53.5t-133 43.5q-104 31 -167.5 58.5t-108.5 82t-45 142.5q0 135 104.5 213t278.5 78q100 0 189 -33t140 -86q20 -20 21 -45q0 -23 -14.5 -39t-36.5 -16q-20 0 -45 18 q-49 41 -116 66.5t-138 25.5q-123 0 -188.5 -45t-65.5 -131q0 -53 32.5 -86t78.5 -52.5t134 -45.5q102 -29 167 -56.5t110 -83t45 -143.5q0 -129 -107.5 -204.5t-287.5 -75.5q-107 0 -203 31.5t-154 80.5q-27 25 -26 56zM311 1169q0 18 13 37l194 297q31 45 72 45 q43 0 63 -45l148 -299q6 -14 6 -28q0 -25 -18.5 -42.5t-41.5 -17.5q-31 0 -45 33l-120 287l-168 -287q-9 -16 -23 -24.5t-27 -8.5q-23 0 -38 15.5t-15 37.5z" />
<glyph unicode="&#x15e;" horiz-adv-x="1243" d="M70 215q0 25 14 41t35 16q20 0 33 -12q102 -86 213.5 -126t252.5 -40q190 0 291 74t101 205q0 78 -48.5 129t-122 79.5t-196.5 63.5q-154 43 -248 83t-159.5 120t-65.5 211q0 121 63.5 212t181 140t275.5 49q147 0 276.5 -47t219.5 -133q20 -20 20 -49q0 -23 -15 -40 t-38 -17q-27 0 -49 20q-82 74 -187.5 115t-226.5 41q-190 0 -290.5 -76t-100.5 -211q0 -88 52 -145.5t130 -88t207 -67.5q150 -43 239 -81t150.5 -110.5t61.5 -191.5q0 -182 -140.5 -288.5t-377.5 -106.5l-15 -74q25 6 51 6q66 0 106 -37t40 -100q0 -78 -62.5 -124 t-169.5 -46q-82 0 -147 24q-31 10 -31 41q0 18 13.5 30.5t33.5 12.5q10 0 17 -2q61 -18 116 -18q61 0 93 20.5t32 57.5q0 29 -18 44t-53 15q-31 0 -59.5 -10t-37.5 -10q-16 0 -27 12t-9 27l26 135q-256 20 -418 164q-33 27 -32 63z" />
<glyph unicode="&#x15f;" horiz-adv-x="978" d="M74 154q0 25 13 40t34 15q16 0 35 -12q72 -51 144.5 -77t160.5 -26q264 0 264 166q0 53 -33 87t-82 53.5t-133 43.5q-104 31 -167.5 58.5t-108.5 82t-45 142.5q0 135 104.5 213t278.5 78q100 0 189 -33t140 -86q20 -20 21 -45q0 -23 -14.5 -39t-36.5 -16q-20 0 -45 18 q-49 41 -116 66.5t-138 25.5q-123 0 -188.5 -45t-65.5 -131q0 -53 32.5 -86t78.5 -52.5t134 -45.5q102 -29 167 -56.5t110 -83t45 -143.5q0 -127 -102.5 -201.5t-272.5 -78.5l-16 -76q25 6 51 6q66 0 105.5 -37t39.5 -100q0 -78 -62.5 -124t-168.5 -46q-82 0 -147 24 q-31 10 -31 41q0 18 13 30.5t34 12.5q10 0 16 -2q61 -18 117 -18q61 0 93 20.5t32 57.5q0 29 -18.5 44t-53.5 15q-31 0 -59.5 -10t-36.5 -10q-16 0 -27.5 12t-9.5 27l27 137q-82 10 -156 39.5t-119 68.5q-27 25 -26 56z" />
<glyph unicode="&#x160;" horiz-adv-x="1243" d="M70 215q0 25 14 41t35 16q20 0 33 -12q102 -86 213.5 -126t252.5 -40q190 0 291 74t101 205q0 78 -48.5 129t-122 79.5t-196.5 63.5q-154 43 -248 83t-159.5 120t-65.5 211q0 121 63.5 212t181 140t275.5 49q147 0 276.5 -47t219.5 -133q20 -20 20 -49q0 -23 -15 -40 t-38 -17q-27 0 -49 20q-82 74 -187.5 115t-226.5 41q-190 0 -290.5 -76t-100.5 -211q0 -88 52 -145.5t130 -88t207 -67.5q150 -43 239 -81t150.5 -110.5t61.5 -191.5q0 -182 -140.5 -288.5t-380.5 -106.5q-326 0 -516 168q-33 27 -32 63zM479 1835q0 20 15.5 34.5t38.5 14.5 q35 0 53 -33l125 -198l168 211q18 24 45 24q23 0 39 -16.5t16 -36.5t-14 -35l-189 -213q-31 -35 -71 -35q-39 0 -64 35l-147 209q-14 20 -15 39z" />
<glyph unicode="&#x161;" horiz-adv-x="978" d="M74 154q0 25 13 40t34 15q16 0 35 -12q72 -51 144.5 -77t160.5 -26q264 0 264 166q0 53 -33 87t-82 53.5t-133 43.5q-104 31 -167.5 58.5t-108.5 82t-45 142.5q0 135 104.5 213t278.5 78q100 0 189 -33t140 -86q20 -20 21 -45q0 -23 -14.5 -39t-36.5 -16q-20 0 -45 18 q-49 41 -116 66.5t-138 25.5q-123 0 -188.5 -45t-65.5 -131q0 -53 32.5 -86t78.5 -52.5t134 -45.5q102 -29 167 -56.5t110 -83t45 -143.5q0 -129 -107.5 -204.5t-287.5 -75.5q-107 0 -203 31.5t-154 80.5q-27 25 -26 56zM338 1489q0 25 18.5 43t40.5 18q31 0 45 -34 l121 -287l168 287q8 16 22.5 24t26.5 8q23 0 38 -15t15 -38q0 -18 -12 -37l-194 -297q-31 -45 -72 -45q-43 0 -64 45l-147 299q-6 16 -6 29z" />
<glyph unicode="&#x162;" horiz-adv-x="1208" d="M84 1389q0 25 15.5 40t41.5 15h1071q25 0 40.5 -15.5t15.5 -39.5q0 -25 -15.5 -40.5t-42.5 -15.5h-475l-102 -1284q-4 -41 -35 -53l-18 -86q25 6 51 6q66 0 105.5 -37t39.5 -100q0 -78 -62.5 -124t-168.5 -46q-82 0 -148 24q-31 10 -30 41q0 18 13 30.5t34 12.5 q10 0 16 -2q61 -18 117 -18q61 0 93 20.5t32 57.5q0 29 -18.5 44t-53.5 15q-31 0 -59.5 -10t-36.5 -10q-16 0 -27.5 12t-9.5 27l37 188h4v14l100 1278h-469q-25 0 -40 15.5t-15 40.5z" />
<glyph unicode="&#x163;" horiz-adv-x="669" d="M41 944q0 23 14.5 36t36.5 13h158l20 256q4 25 21.5 41.5t44.5 16.5q29 0 45 -17.5t14 -44.5l-20 -252h250q23 0 37 -13t14 -36q0 -25 -14.5 -38t-38.5 -13h-254l-43 -543q-2 -14 -2 -41q0 -104 49 -160.5t137 -56.5q29 0 52.5 3t33.5 3q18 0 29.5 -13t11.5 -38 q0 -33 -32 -46t-113 -13q-33 0 -68 6l-16 -84q25 6 51 6q66 0 105.5 -37t39.5 -100q0 -78 -62.5 -124t-168.5 -46q-82 0 -148 24q-31 10 -30 41q0 18 13 30.5t34 12.5q10 0 16 -2q61 -18 117 -18q61 0 93 20.5t32 57.5q0 29 -18.5 44t-53.5 15q-31 0 -59.5 -10t-36.5 -10 q-16 0 -27.5 12t-9.5 27l35 176q-61 35 -96 104.5t-35 161.5q0 31 2 45l43 553h-152q-23 0 -37 13.5t-14 37.5z" />
<glyph unicode="&#x164;" horiz-adv-x="1208" d="M84 1389q0 25 15.5 40t41.5 15h1071q25 0 40.5 -15.5t15.5 -39.5q0 -25 -15.5 -40.5t-42.5 -15.5h-475l-102 -1284q-2 -27 -19.5 -43t-44.5 -16q-26 0 -44.5 18.5t-16.5 46.5l100 1278h-469q-25 0 -40 15.5t-15 40.5zM460 1835q0 20 15.5 34.5t38.5 14.5q35 0 53 -33 l125 -198l168 211q18 24 45 24q23 0 39 -16.5t16 -36.5t-14 -35l-189 -213q-31 -35 -71 -35q-39 0 -64 35l-147 209q-14 20 -15 39z" />
<glyph unicode="&#x165;" horiz-adv-x="669" d="M41 944q0 23 14.5 36t36.5 13h158l20 256q4 25 21.5 41.5t44.5 16.5q29 0 45 -17.5t14 -44.5l-20 -252h250q23 0 37 -13t14 -36q0 -25 -14.5 -38t-38.5 -13h-254l-43 -543q-2 -14 -2 -41q0 -104 49 -160.5t137 -56.5q29 0 52.5 3t33.5 3q18 0 29.5 -13t11.5 -38 q0 -33 -32 -46t-113 -13q-135 0 -214 81t-79 226q0 29 2 45l43 553h-152q-23 0 -37 13.5t-14 37.5zM498 1122l24 273q2 29 20.5 45t43.5 16q23 0 39 -14.5t16 -38.5q0 -12 -2 -19l-64 -268q-7 -29 -40 -29q-16 0 -27.5 9.5t-9.5 25.5z" />
<glyph unicode="&#x166;" horiz-adv-x="1208" d="M84 1389q0 25 15.5 40t41.5 15h1071q25 0 40.5 -15.5t15.5 -39.5q0 -25 -15.5 -40.5t-42.5 -15.5h-475l-43 -549h248q25 0 39 -14t14 -37t-14 -38t-41 -15h-254l-51 -631q-2 -27 -19.5 -43t-44.5 -16t-45 18.5t-16 46.5l49 625h-250q-25 0 -39 15.5t-14 37.5 q0 23 14.5 37t38.5 14h258l43 549h-469q-25 0 -40 15.5t-15 40.5z" />
<glyph unicode="&#x167;" horiz-adv-x="690" d="M51 944q0 23 13.5 36t37.5 13h158l21 256q2 27 21.5 42.5t43.5 15.5q27 0 44.5 -16.5t15.5 -45.5l-21 -252h250q23 0 37 -13t14 -36t-14.5 -37t-38.5 -14h-254l-23 -268h207q25 0 39 -14.5t14 -35.5q0 -23 -14 -37t-39 -14h-213l-14 -174q-2 -14 -2 -41q0 -106 53 -161.5 t152 -55.5q27 0 65 6h6q14 0 24.5 -13t10.5 -30q0 -18 -12 -33.5t-39 -21.5q-18 -12 -72 -12q-150 0 -231.5 82t-81.5 229q0 27 2 41l14 184h-110q-25 0 -39.5 14.5t-14.5 34.5q0 23 14.5 37.5t39.5 14.5h118l21 268h-152q-25 0 -38 14.5t-13 36.5z" />
<glyph unicode="&#x168;" horiz-adv-x="1474" d="M178 479q0 25 4 78l66 838q2 27 20.5 43t42.5 16q27 0 45.5 -18.5t16.5 -46.5l-66 -826q-2 -25 -2 -69q0 -397 402 -398q219 0 334.5 109.5t134.5 335.5l67 854q2 27 19.5 43t44.5 16t45 -17.5t16 -47.5l-68 -834q-23 -287 -172 -429t-421 -142q-261 0 -395 128t-134 367 zM516 1671q0 33 24.5 69t66.5 60.5t95 24.5q59 0 158 -53q31 -16 62.5 -28.5t53.5 -12.5q39 0 60.5 15t44.5 44q8 12 17 21.5t20 9.5q16 0 26.5 -12.5t10.5 -30.5q0 -33 -25 -70t-68 -61.5t-94 -24.5q-59 0 -157 53q-31 16 -63 28.5t-54 12.5q-39 0 -60.5 -15t-44.5 -44 t-39 -29t-25 12.5t-9 30.5z" />
<glyph unicode="&#x169;" horiz-adv-x="1132" d="M147 322q0 35 3 53l45 575q2 33 21.5 48.5t45.5 15.5q27 0 43.5 -15.5t13.5 -48.5l-45 -565q-2 -16 -2 -49q0 -240 232 -240q145 0 233 88t101 246l41 520q2 33 21.5 48.5t45.5 15.5q27 0 43.5 -15.5t14.5 -48.5l-72 -903q-2 -29 -21.5 -43t-46.5 -14t-42 14t-13 43 l10 127q-51 -90 -138 -139t-196 -49q-164 0 -251 85t-87 251zM311 1272q0 35 25.5 79t68.5 74.5t94 30.5q37 0 75 -19.5t81 -54.5q47 -33 70.5 -45t46.5 -12q35 0 56 19.5t46 54.5q14 23 23.5 33t21.5 10q14 0 23.5 -12.5t9.5 -30.5q0 -35 -25.5 -79t-68.5 -75t-95 -31 q-36 0 -74 19.5t-81 54.5q-47 33 -70.5 45.5t-46.5 12.5q-35 0 -57.5 -19.5t-42.5 -54.5q-14 -23 -23.5 -33t-21.5 -10q-14 0 -24.5 12t-10.5 31z" />
<glyph unicode="&#x16a;" horiz-adv-x="1474" d="M178 479q0 25 4 78l66 838q2 27 20.5 43t42.5 16q27 0 45.5 -18.5t16.5 -46.5l-66 -826q-2 -25 -2 -69q0 -397 402 -398q219 0 334.5 109.5t134.5 335.5l67 854q2 27 19.5 43t44.5 16t45 -17.5t16 -47.5l-68 -834q-23 -287 -172 -429t-421 -142q-261 0 -395 128t-134 367 zM522 1722q0 27 18.5 40.5t48.5 13.5h498q61 0 61 -54q0 -25 -18 -39t-49 -14h-498q-31 0 -46 14.5t-15 38.5z" />
<glyph unicode="&#x16b;" horiz-adv-x="1132" d="M147 322q0 35 3 53l45 575q2 33 21.5 48.5t45.5 15.5q27 0 43.5 -15.5t13.5 -48.5l-45 -565q-2 -16 -2 -49q0 -240 232 -240q145 0 233 88t101 246l41 520q2 33 21.5 48.5t45.5 15.5q27 0 43.5 -15.5t14.5 -48.5l-72 -903q-2 -29 -21.5 -43t-46.5 -14t-42 14t-13 43 l10 127q-51 -90 -138 -139t-196 -49q-164 0 -251 85t-87 251zM319 1333q0 27 18.5 40t49.5 13h497q61 0 62 -51q0 -27 -18.5 -40t-49.5 -13h-498q-61 0 -61 51z" />
<glyph unicode="&#x16c;" horiz-adv-x="1474" d="M178 479q0 25 4 78l66 838q2 27 20.5 43t42.5 16q27 0 45.5 -18.5t16.5 -46.5l-66 -826q-2 -25 -2 -69q0 -397 402 -398q219 0 334.5 109.5t134.5 335.5l67 854q2 27 19.5 43t44.5 16t45 -17.5t16 -47.5l-68 -834q-23 -287 -172 -429t-421 -142q-261 0 -395 128t-134 367 zM526 1802q0 20 15.5 33.5t33.5 13.5q35 0 53 -32q35 -66 83 -94.5t118 -28.5t124 28.5t97 94.5q12 16 28.5 25t31.5 9q20 0 33.5 -11t13.5 -32q0 -18 -11 -34q-51 -90 -135 -135.5t-186 -45.5q-103 0 -178.5 45t-114.5 136q-6 16 -6 28z" />
<glyph unicode="&#x16d;" horiz-adv-x="1132" d="M147 322q0 35 3 53l45 575q2 33 21.5 48.5t45.5 15.5q27 0 43.5 -15.5t13.5 -48.5l-45 -565q-2 -16 -2 -49q0 -240 232 -240q145 0 233 88t101 246l41 520q2 33 21.5 48.5t45.5 15.5q27 0 43.5 -15.5t14.5 -48.5l-72 -903q-2 -29 -21.5 -43t-46.5 -14t-42 14t-13 43 l10 127q-51 -90 -138 -139t-196 -49q-164 0 -251 85t-87 251zM323 1421q0 25 16.5 40.5t36.5 15.5q35 0 54 -41q27 -70 79 -106t119 -36q139 0 219 142q23 41 58 41q18 0 31.5 -13.5t13.5 -33.5q0 -18 -8 -35q-47 -98 -132 -149.5t-190 -51.5q-102 0 -178 51t-113 150 q-6 16 -6 26z" />
<glyph unicode="&#x16e;" horiz-adv-x="1474" d="M178 479q0 25 4 78l66 838q2 27 20.5 43t42.5 16q27 0 45.5 -18.5t16.5 -46.5l-66 -826q-2 -25 -2 -69q0 -397 402 -398q219 0 334.5 109.5t134.5 335.5l67 854q2 27 19.5 43t44.5 16t45 -17.5t16 -47.5l-68 -834q-23 -287 -172 -429t-421 -142q-261 0 -395 128t-134 367 zM632 1755q0 82 59.5 140.5t143.5 58.5t143.5 -58.5t59.5 -140.5q0 -84 -59.5 -141.5t-143.5 -57.5t-143.5 57.5t-59.5 141.5zM735 1755q0 -45 28.5 -75.5t71.5 -30.5q45 0 74 30.5t29 75.5t-29 75t-74 30t-72.5 -30t-27.5 -75z" />
<glyph unicode="&#x16f;" horiz-adv-x="1132" d="M147 322q0 35 3 53l45 575q2 33 21.5 48.5t45.5 15.5q27 0 43.5 -15.5t13.5 -48.5l-45 -565q-2 -16 -2 -49q0 -240 232 -240q145 0 233 88t101 246l41 520q2 33 21.5 48.5t45.5 15.5q27 0 43.5 -15.5t14.5 -48.5l-72 -903q-2 -29 -21.5 -43t-46.5 -14t-42 14t-13 43 l10 127q-51 -90 -138 -139t-196 -49q-164 0 -251 85t-87 251zM428 1333q0 82 59 139.5t143 57.5t143.5 -57.5t59.5 -139.5q0 -84 -59.5 -141t-143.5 -57t-143 57t-59 141zM530 1333q0 -45 28.5 -75.5t71.5 -30.5q45 0 74 30.5t29 75.5q0 43 -30 74t-73 31t-71.5 -31 t-28.5 -74z" />
<glyph unicode="&#x170;" horiz-adv-x="1474" d="M178 479q0 25 4 78l66 838q2 27 20.5 43t42.5 16q27 0 45.5 -18.5t16.5 -46.5l-66 -826q-2 -25 -2 -69q0 -397 402 -398q219 0 334.5 109.5t134.5 335.5l67 854q2 27 19.5 43t44.5 16t45 -17.5t16 -47.5l-68 -834q-23 -287 -172 -429t-421 -142q-261 0 -395 128t-134 367 zM684 1583q0 12 6 21l123 235q23 47 63 47q20 0 34.5 -14t14.5 -35q0 -20 -18 -45l-166 -219q-11 -17 -29 -17q-12 0 -20 7.5t-8 19.5zM919 1583q0 12 6 21l123 235q23 47 64 47q20 0 33.5 -14t13.5 -35q0 -23 -17 -45l-166 -219q-10 -17 -28 -17q-12 0 -20.5 7.5t-8.5 19.5 z" />
<glyph unicode="&#x171;" horiz-adv-x="1132" d="M147 322q0 35 3 53l45 575q2 33 21.5 48.5t45.5 15.5q27 0 43.5 -15.5t13.5 -48.5l-45 -565q-2 -16 -2 -49q0 -240 232 -240q145 0 233 88t101 246l41 520q2 33 21.5 48.5t45.5 15.5q27 0 43.5 -15.5t14.5 -48.5l-72 -903q-2 -29 -21.5 -43t-46.5 -14t-42 14t-13 43 l10 127q-51 -90 -138 -139t-196 -49q-164 0 -251 85t-87 251zM471 1157l106 336q8 29 26.5 44t39.5 15q23 0 39 -16t16 -41q0 -18 -12 -43l-154 -317q-8 -21 -31 -21q-16 0 -26.5 12.5t-3.5 30.5zM708 1157l105 336q8 29 27.5 44t39.5 15q23 0 38 -16t15 -41q0 -23 -10 -43 l-155 -317q-8 -21 -31 -21q-14 0 -24.5 12.5t-4.5 30.5z" />
<glyph unicode="&#x172;" horiz-adv-x="1474" d="M178 479q0 25 4 78l66 838q2 27 20.5 43t42.5 16q27 0 45.5 -18.5t16.5 -46.5l-66 -826q-2 -25 -2 -69q0 -397 402 -398q219 0 334.5 109.5t134.5 335.5l67 854q2 27 19.5 43t44.5 16q26 0 44.5 -17.5t16.5 -47.5l-68 -834q-37 -449 -382 -545q-94 -29 -140.5 -71.5 t-46.5 -112.5q0 -61 33 -93t92 -32q47 0 100 27q20 8 27 8q16 0 24.5 -10.5t8.5 -26.5q0 -37 -33 -55q-63 -35 -141 -35q-102 0 -161.5 54t-59.5 142q0 115 88 179h-13q-254 0 -386 128t-132 367z" />
<glyph unicode="&#x173;" horiz-adv-x="1132" d="M147 322q0 35 3 53l45 575q2 33 21.5 48.5t45.5 15.5q27 0 43.5 -15.5t13.5 -48.5l-45 -565q-2 -16 -2 -49q0 -240 232 -240q145 0 233 88t101 246l41 520q2 33 21.5 48.5t45.5 15.5q27 0 43.5 -15.5t14.5 -48.5l-70 -901q-2 -41 -43 -49q-72 -10 -121 -54t-49 -120 q0 -61 32.5 -93t92.5 -32q47 0 100 27q17 6 27 6q16 0 24.5 -10.5t8.5 -26.5q0 -14 -8.5 -29.5t-24.5 -23.5q-68 -35 -142 -35q-102 0 -162.5 54t-60.5 142t53.5 154t147.5 96l10 119q-51 -90 -138 -139t-196 -49q-164 0 -251 85t-87 251z" />
<glyph unicode="&#x174;" horiz-adv-x="2244" d="M166 1397q0 27 18.5 42t42.5 15q20 0 36 -11t22 -34l325 -1231l520 1225q10 25 28 38t38 13t37.5 -13.5t23.5 -37.5l324 -1223l526 1239q15 35 56 35q23 0 39 -14.5t16 -36.5q0 -14 -6 -31l-572 -1337q-8 -23 -27.5 -34t-39.5 -11q-23 0 -41.5 13t-24.5 40l-325 1202 l-518 -1210q-8 -23 -28 -34t-40 -11q-23 0 -41 13t-27 40l-360 1333q-2 6 -2 21zM961 1606q0 20 14 34l189 213q31 35 71 35q39 0 64 -35l147 -206q14 -20 15 -39q0 -20 -15.5 -36t-38.5 -16q-33 0 -53 35l-125 197l-168 -211q-18 -25 -45 -25q-23 0 -39 16.5t-16 37.5z" />
<glyph unicode="&#x175;" horiz-adv-x="1712" d="M119 946q0 27 19.5 43.5t43.5 16.5q20 0 35.5 -11.5t22.5 -33.5l223 -814l348 797q12 31 34.5 46.5t47.5 15.5t46.5 -16.5t29.5 -45.5l221 -792l354 817q18 35 53 35q27 0 46.5 -16.5t19.5 -41.5q0 -12 -6 -24l-391 -877q-12 -25 -34 -38t-48 -13q-27 0 -50.5 16.5 t-31.5 44.5l-221 774l-344 -784q-10 -25 -32 -38t-48 -13q-29 0 -52.5 16.5t-31.5 44.5l-252 871q-2 6 -2 20zM661 1169q0 18 13 37l194 297q31 45 72 45q43 0 63 -45l148 -299q6 -14 6 -28q0 -25 -18.5 -42.5t-41.5 -17.5q-31 0 -45 33l-120 287l-168 -287 q-9 -16 -23 -24.5t-27 -8.5q-23 0 -38 15.5t-15 37.5z" />
<glyph unicode="&#x176;" horiz-adv-x="1210" d="M92 1399q0 25 18.5 39t43.5 14q33 0 51 -27l420 -626l514 620q28 35 63 35q23 0 37 -14.5t14 -36.5q0 -25 -16 -43l-555 -670l-49 -641q-2 -27 -20.5 -43t-43.5 -16q-27 0 -46 18.5t-17 46.5l51 635l-451 670q-14 20 -14 39zM442 1606q0 20 14 34l189 213q31 35 71 35 q39 0 64 -35l147 -206q14 -20 15 -39q0 -20 -15.5 -36t-38.5 -16q-33 0 -53 35l-125 197l-168 -211q-18 -25 -45 -25q-23 0 -39 16.5t-16 37.5z" />
<glyph unicode="&#x177;" horiz-adv-x="1042" d="M76 944q0 25 18.5 41t42.5 16q41 0 56 -40l296 -836l437 844q18 35 51 35q25 0 42 -15.5t17 -40.5q0 -16 -8 -30l-663 -1260q-20 -37 -60 -37q-23 0 -39 13.5t-16 33.5q0 12 8 27l162 307l-340 918q-4 8 -4 24zM327 1169q0 18 13 37l194 297q31 45 72 45q43 0 63 -45 l148 -299q6 -14 6 -28q0 -25 -18.5 -42.5t-41.5 -17.5q-31 0 -45 33l-120 287l-168 -287q-9 -16 -23 -24.5t-27 -8.5q-23 0 -38 15.5t-15 37.5z" />
<glyph unicode="&#x178;" horiz-adv-x="1210" d="M92 1399q0 25 18.5 39t43.5 14q33 0 51 -27l420 -626l514 620q28 35 63 35q23 0 37 -14.5t14 -36.5q0 -25 -16 -43l-555 -670l-49 -641q-2 -27 -20.5 -43t-43.5 -16q-27 0 -46 18.5t-17 46.5l51 635l-451 670q-14 20 -14 39zM446 1722q0 37 24.5 60.5t61.5 23.5 t62.5 -23.5t25.5 -60.5t-25.5 -60.5t-62.5 -23.5t-61.5 24t-24.5 60zM784 1722q0 37 25.5 60.5t62.5 23.5t61.5 -23.5t24.5 -60.5t-24.5 -60.5t-61.5 -23.5t-62.5 24t-25.5 60z" />
<glyph unicode="&#x179;" horiz-adv-x="1196" d="M47 55q0 23 14 43l951 1237h-807q-25 0 -40 15.5t-15 38.5q0 25 15 40t42 15h921q23 0 36.5 -15.5t13.5 -35.5q0 -29 -17 -47l-948 -1237h829q27 0 41.5 -14.5t14.5 -39.5t-15.5 -40t-42.5 -15h-940q-25 0 -39 15.5t-14 39.5zM661 1589q0 12 11 29l168 233q31 39 63 39 q23 0 39 -15t16 -38q0 -29 -26 -55l-199 -207q-19 -19 -39 -19q-14 0 -23.5 9.5t-9.5 23.5z" />
<glyph unicode="&#x17a;" horiz-adv-x="1021" d="M53 47q0 25 21 45l710 801h-583q-25 0 -38 14.5t-13 36.5q0 23 14 36t39 13h706q23 0 36 -14t13 -35q0 -25 -20 -49l-702 -793h620q25 0 39 -14t14 -37t-15 -37t-40 -14h-752q-23 0 -36 13.5t-13 33.5zM542 1153q0 16 11 29l282 338q25 31 58 30q27 0 47 -18.5t20 -44.5 q0 -27 -26 -51l-326 -306q-15 -14 -31 -14q-14 0 -24.5 10.5t-10.5 26.5z" />
<glyph unicode="&#x17b;" horiz-adv-x="1196" d="M47 55q0 23 14 43l951 1237h-807q-25 0 -40 15.5t-15 38.5q0 25 15 40t42 15h921q23 0 36.5 -15.5t13.5 -35.5q0 -29 -17 -47l-948 -1237h829q27 0 41.5 -14.5t14.5 -39.5t-15.5 -40t-42.5 -15h-940q-25 0 -39 15.5t-14 39.5zM602 1722q0 41 25.5 65.5t66.5 24.5 t66.5 -24.5t25.5 -65.5q0 -39 -25.5 -63.5t-66.5 -24.5t-66.5 24.5t-25.5 63.5z" />
<glyph unicode="&#x17c;" horiz-adv-x="1021" d="M53 47q0 25 21 45l710 801h-583q-25 0 -38 14.5t-13 36.5q0 23 14 36t39 13h706q23 0 36 -14t13 -35q0 -25 -20 -49l-702 -793h620q25 0 39 -14t14 -37t-15 -37t-40 -14h-752q-23 0 -36 13.5t-13 33.5zM493 1333q0 41 25.5 65.5t66.5 24.5t67 -24.5t26 -65.5 q0 -39 -26 -63.5t-67 -24.5t-66.5 24.5t-25.5 63.5z" />
<glyph unicode="&#x17d;" horiz-adv-x="1196" d="M47 55q0 23 14 43l951 1237h-807q-25 0 -40 15.5t-15 38.5q0 25 15 40t42 15h921q23 0 36.5 -15.5t13.5 -35.5q0 -29 -17 -47l-948 -1237h829q27 0 41.5 -14.5t14.5 -39.5t-15.5 -40t-42.5 -15h-940q-25 0 -39 15.5t-14 39.5zM452 1835q0 20 15.5 34.5t38.5 14.5 q35 0 53 -33l125 -198l168 211q18 24 45 24q23 0 39 -16.5t16 -36.5t-14 -35l-189 -213q-31 -35 -71 -35q-39 0 -64 35l-147 209q-14 20 -15 39z" />
<glyph unicode="&#x17e;" horiz-adv-x="1021" d="M53 47q0 25 21 45l710 801h-583q-25 0 -38 14.5t-13 36.5q0 23 14 36t39 13h706q23 0 36 -14t13 -35q0 -25 -20 -49l-702 -793h620q25 0 39 -14t14 -37t-15 -37t-40 -14h-752q-23 0 -36 13.5t-13 33.5zM350 1489q0 25 18.5 43t40.5 18q31 0 45 -34l121 -287l168 287 q8 16 22.5 24t26.5 8q23 0 38 -15t15 -38q0 -18 -12 -37l-194 -297q-31 -45 -72 -45q-43 0 -64 45l-147 299q-6 16 -6 29z" />
<glyph unicode="&#x192;" d="M14 -330q0 20 17.5 38t44.5 18h47q98 0 160.5 51t97.5 170l278 948h-219q-20 0 -32.5 13.5t-12.5 35.5q0 23 15.5 37t38.5 14h239l41 140q94 317 389 317h41q29 0 45.5 -14.5t16.5 -34.5t-17.5 -37.5t-46.5 -17.5h-45q-100 0 -162.5 -51.5t-95.5 -170.5l-39 -131h223 q23 0 35 -14t12 -37q0 -20 -15 -34.5t-38 -14.5h-246l-282 -956q-90 -317 -389 -318h-39q-31 0 -46.5 14.5t-15.5 34.5z" />
<glyph unicode="&#x2c6;" horiz-adv-x="614" d="M112 1169q0 18 13 37l194 297q31 45 72 45q43 0 63 -45l148 -299q6 -14 6 -28q0 -25 -18.5 -42.5t-41.5 -17.5q-31 0 -45 33l-120 287l-168 -287q-9 -16 -23 -24.5t-27 -8.5q-23 0 -38 15.5t-15 37.5z" />
<glyph unicode="&#x2da;" horiz-adv-x="614" d="M170 1333q0 82 59 139.5t143 57.5t143.5 -57.5t59.5 -139.5q0 -84 -59.5 -141t-143.5 -57t-143 57t-59 141zM272 1333q0 -45 28.5 -75.5t71.5 -30.5q45 0 74 30.5t29 75.5q0 43 -30 74t-73 31t-71.5 -31t-28.5 -74z" />
<glyph unicode="&#x2dc;" horiz-adv-x="614" d="M53 1272q0 35 25.5 79t68.5 74.5t94 30.5q37 0 75 -19.5t81 -54.5q47 -33 70.5 -45t46.5 -12q35 0 56 19.5t46 54.5q14 23 23.5 33t21.5 10q14 0 23.5 -12.5t9.5 -30.5q0 -35 -25.5 -79t-68.5 -75t-95 -31q-36 0 -74 19.5t-81 54.5q-47 33 -70.5 45.5t-46.5 12.5 q-35 0 -57.5 -19.5t-42.5 -54.5q-14 -23 -23.5 -33t-21.5 -10q-14 0 -24.5 12t-10.5 31z" />
<glyph unicode="&#x3a9;" horiz-adv-x="1574" d="M84 55q0 25 16.5 40.5t40.5 15.5h348q-137 219 -208.5 354t-101 232.5t-29.5 193.5q0 170 81.5 299t239.5 199.5t377 70.5q195 0 340 -61.5t224 -177t79 -275.5q0 -109 -40 -214t-138.5 -246.5t-286.5 -374.5h340q25 0 40 -15.5t15 -40.5t-15 -40t-42 -15h-403 q-33 0 -51.5 16.5t-18.5 44.5q0 29 20 58q178 233 275.5 382.5t135.5 250t38 188.5q0 193 -138.5 300.5t-373.5 107.5q-276 0 -421.5 -121t-145.5 -328q0 -139 71.5 -308t253.5 -468q14 -27 15 -51q0 -33 -21.5 -52.5t-56.5 -19.5h-402q-27 0 -42 15.5t-15 39.5z" />
<glyph unicode="&#x3c0;" horiz-adv-x="1167" d="M33 944q0 23 14 36t41 13h985q25 0 39 -13t14 -36t-14 -37t-41 -14h-211l-41 -533q-2 -14 -2 -41q0 -106 55.5 -160.5t171.5 -62.5q25 -2 38.5 -16t13.5 -35q0 -23 -16.5 -39t-47.5 -14q-174 8 -257 89t-83 238q0 35 2 54l41 520h-364q-47 -504 -195 -864 q-8 -18 -22.5 -28.5t-32.5 -10.5q-27 0 -47.5 17.5t-20.5 43.5q0 6 4 23q147 367 189 819h-160q-25 0 -39 14.5t-14 36.5z" />
<glyph unicode="&#x2000;" horiz-adv-x="977" />
<glyph unicode="&#x2001;" horiz-adv-x="1954" />
<glyph unicode="&#x2002;" horiz-adv-x="977" />
<glyph unicode="&#x2003;" horiz-adv-x="1954" />
<glyph unicode="&#x2004;" horiz-adv-x="651" />
<glyph unicode="&#x2005;" horiz-adv-x="488" />
<glyph unicode="&#x2006;" horiz-adv-x="325" />
<glyph unicode="&#x2007;" horiz-adv-x="325" />
<glyph unicode="&#x2008;" horiz-adv-x="244" />
<glyph unicode="&#x2009;" horiz-adv-x="390" />
<glyph unicode="&#x200a;" horiz-adv-x="108" />
<glyph unicode="&#x2010;" horiz-adv-x="862" d="M145 543q0 25 16.5 40t43.5 15h463q29 0 43 -15.5t14 -39.5q0 -23 -16.5 -37t-44.5 -14h-461q-29 0 -43.5 14t-14.5 37z" />
<glyph unicode="&#x2011;" horiz-adv-x="862" d="M145 543q0 25 16.5 40t43.5 15h463q29 0 43 -15.5t14 -39.5q0 -23 -16.5 -37t-44.5 -14h-461q-29 0 -43.5 14t-14.5 37z" />
<glyph unicode="&#x2012;" horiz-adv-x="862" d="M145 543q0 25 16.5 40t43.5 15h463q29 0 43 -15.5t14 -39.5q0 -23 -16.5 -37t-44.5 -14h-461q-29 0 -43.5 14t-14.5 37z" />
<glyph unicode="&#x2013;" horiz-adv-x="1024" d="M4 543q0 18 15.5 31.5t39.5 13.5h922q23 0 35 -13.5t12 -31.5t-14.5 -30.5t-38.5 -12.5h-922q-22 0 -35.5 12t-13.5 31z" />
<glyph unicode="&#x2014;" horiz-adv-x="2048" d="M4 543q0 18 15.5 31.5t39.5 13.5h1946q23 0 35 -13.5t12 -31.5t-14.5 -30.5t-38.5 -12.5h-1946q-22 0 -35.5 12t-13.5 31z" />
<glyph unicode="&#x2018;" horiz-adv-x="450" d="M184 1171q0 76 30 144.5t81 120.5q20 20 43 20q18 0 30.5 -12t12.5 -29q0 -20 -19 -39q-55 -55 -69 -131q35 -4 57.5 -30.5t22.5 -65.5q0 -43 -27 -70.5t-65 -27.5q-41 0 -69 31.5t-28 88.5z" />
<glyph unicode="&#x2019;" horiz-adv-x="450" d="M190 1090q0 20 19 38q55 55 70 132q-35 4 -57.5 30.5t-22.5 65.5q0 43 26.5 70.5t65.5 27.5q43 0 69.5 -30.5t26.5 -88.5q0 -78 -29.5 -145.5t-81.5 -118.5q-20 -20 -43 -20q-18 0 -30.5 11t-12.5 28z" />
<glyph unicode="&#x201a;" horiz-adv-x="450" d="M90 -178q0 20 19 39q55 59 69 131q-35 4 -57.5 30.5t-22.5 65.5q0 45 26 71.5t66 26.5q43 0 70 -30.5t27 -87.5q0 -78 -30 -145.5t-81 -119.5q-20 -20 -43 -20q-18 0 -30.5 11t-12.5 28z" />
<glyph unicode="&#x201c;" horiz-adv-x="765" d="M184 1171q0 76 30 144.5t81 120.5q20 20 43 20q18 0 30.5 -12t12.5 -29q0 -20 -19 -39q-55 -55 -69 -131q35 -4 57.5 -30.5t22.5 -65.5q0 -43 -27 -70.5t-65 -27.5q-41 0 -69 31.5t-28 88.5zM499 1171q0 76 30 144.5t81 120.5q20 20 43 20q18 0 30.5 -12t12.5 -29 q0 -20 -19 -39q-55 -55 -69 -131q35 -4 57.5 -30.5t22.5 -65.5q0 -43 -27 -70.5t-65 -27.5q-41 0 -69 31.5t-28 88.5z" />
<glyph unicode="&#x201d;" horiz-adv-x="765" d="M190 1090q0 20 19 38q55 55 70 132q-35 4 -57.5 30.5t-22.5 65.5q0 43 26.5 70.5t65.5 27.5q43 0 69.5 -30.5t26.5 -88.5q0 -78 -29.5 -145.5t-81.5 -118.5q-20 -20 -43 -20q-18 0 -30.5 11t-12.5 28zM505 1090q0 20 19 38q55 55 70 132q-35 4 -57.5 30.5t-22.5 65.5 q0 43 26.5 70.5t65.5 27.5q43 0 69.5 -30.5t26.5 -88.5q0 -78 -29.5 -145.5t-81.5 -118.5q-20 -20 -43 -20q-18 0 -30.5 11t-12.5 28z" />
<glyph unicode="&#x201e;" horiz-adv-x="765" d="M90 -178q0 20 19 39q55 59 69 131q-35 4 -57.5 30.5t-22.5 65.5q0 45 26 71.5t66 26.5q43 0 70 -30.5t27 -87.5q0 -78 -30 -145.5t-81 -119.5q-20 -20 -43 -20q-18 0 -30.5 11t-12.5 28zM405 -178q0 20 19 39q55 59 69 131q-35 4 -57.5 30.5t-22.5 65.5q0 45 26 71.5 t66 26.5q43 0 70 -30.5t27 -87.5q0 -78 -30 -145.5t-81 -119.5q-20 -20 -43 -20q-18 0 -30.5 11t-12.5 28z" />
<glyph unicode="&#x2026;" horiz-adv-x="1351" d="M98 88q0 43 28 70.5t69 27.5t67.5 -27.5t26.5 -70.5t-26.5 -70.5t-67.5 -27.5t-69 27.5t-28 70.5zM549 88q0 43 27.5 70.5t68.5 27.5t67.5 -27.5t26.5 -70.5t-26.5 -70.5t-67.5 -27.5t-68.5 27.5t-27.5 70.5zM999 88q0 43 28 70.5t69 27.5t67.5 -27.5t26.5 -70.5 t-26.5 -70.5t-67.5 -27.5t-69 27.5t-28 70.5z" />
<glyph unicode="&#x202f;" horiz-adv-x="390" />
<glyph unicode="&#x2030;" horiz-adv-x="2701" d="M164 967q0 231 94 362t260 131q162 0 247 -99t85 -292q0 -231 -94 -361t-260 -130q-160 0 -246 100t-86 289zM285 952q0 -141 51 -208.5t160 -67.5q112 0 172.5 104.5t60.5 302.5q0 143 -52 212t-159 69q-115 0 -174 -105.5t-59 -306.5zM449 16q0 20 12 41l911 1387 q23 35 58 35q20 0 35.5 -14.5t15.5 -34.5q0 -23 -15 -44l-911 -1386q-22 -35 -57 -35q-20 0 -34.5 14.5t-14.5 36.5zM1079 373q0 233 93.5 364t261.5 131q162 0 245.5 -99t83.5 -292q0 -231 -93 -361t-261 -130q-160 0 -245 99t-85 288zM1200 360q0 -143 51.5 -209.5 t159.5 -66.5q113 0 172 104.5t59 303.5q0 143 -51 210.5t-157 67.5q-115 0 -174.5 -104.5t-59.5 -305.5zM1888 373q0 233 93.5 364t261.5 131q162 0 246.5 -99t84.5 -292q0 -231 -94 -361t-262 -130q-158 0 -244 100t-86 287zM2009 360q0 -143 51 -209.5t160 -66.5 q113 0 173.5 104.5t60.5 303.5q0 143 -51.5 210.5t-159.5 67.5q-115 0 -174.5 -104.5t-59.5 -305.5z" />
<glyph unicode="&#x2039;" horiz-adv-x="505" d="M119 539q0 20 16 43l189 286q20 31 55 31q20 0 34.5 -11t14.5 -30q0 -14 -8 -29l-170 -286l121 -287q4 -8 4 -23q0 -18 -15.5 -31.5t-35.5 -13.5q-35 0 -52 31l-143 285q-10 20 -10 35z" />
<glyph unicode="&#x203a;" horiz-adv-x="505" d="M84 227q0 14 8 29l174 287l-123 286q-4 8 -4 23q0 20 15.5 33.5t35.5 13.5q35 0 50 -31l145 -286q10 -20 10 -37q0 -20 -14 -41l-193 -285q-20 -33 -57 -33q-20 0 -33.5 11.5t-13.5 29.5z" />
<glyph unicode="&#x2044;" horiz-adv-x="339" d="M-330 12q0 18 15 39l913 1397q20 33 55 33q23 0 38.5 -14.5t15.5 -34.5q0 -18 -15 -39l-915 -1397q-20 -33 -53 -33q-23 0 -38.5 14.5t-15.5 34.5z" />
<glyph unicode="&#x205f;" horiz-adv-x="488" />
<glyph unicode="&#x20ac;" d="M27 569q0 23 15 37.5t38 14.5h176v6q0 106 12 198h-172q-20 0 -32.5 14.5t-12.5 37.5t15.5 37t37.5 14h179q53 256 192 394t344 138q270 0 422 -168q25 -26 25 -59q0 -23 -12.5 -38t-32.5 -15q-29 0 -58 30q-59 63 -146 101.5t-198 38.5q-156 0 -259 -108.5t-148 -313.5 h338q23 0 35 -14.5t12 -36.5q0 -23 -15.5 -37.5t-38.5 -14.5h-348q-12 -94 -12 -204h342q23 0 35 -14.5t12 -37.5t-15.5 -37t-37.5 -14h-332q14 -211 108.5 -317.5t262.5 -106.5q86 0 181 44t165 112q18 18 41 18q18 0 30.5 -14t12.5 -37q0 -31 -27 -57q-72 -74 -187.5 -125 t-213.5 -51q-219 0 -348 138t-152 396h-188q-20 0 -32.5 14.5t-12.5 36.5z" />
<glyph unicode="&#x2122;" horiz-adv-x="1857" d="M72 1393q0 25 15 38t44 13h623q53 0 53 -51q0 -25 -16.5 -38.5t-42.5 -13.5h-254l-56 -710q-2 -27 -20.5 -43.5t-44.5 -16.5q-25 0 -41.5 16.5t-14.5 43.5l56 710h-250q-51 0 -51 52zM868 631l62 760q2 29 17.5 44t41.5 15q33 0 53 -43l256 -571l342 571q25 43 60 43 q24 0 40.5 -16.5t14.5 -42.5l-59 -760q-2 -29 -18.5 -44.5t-41.5 -15.5t-38 15.5t-11 44.5l47 590l-284 -478q-25 -41 -62 -41q-35 0 -51 41l-211 461l-47 -573q-2 -29 -18.5 -44.5t-42.5 -15.5q-25 0 -38.5 15.5t-11.5 44.5z" />
<glyph unicode="&#x2202;" d="M125 465q0 186 67.5 326.5t187.5 216t273 75.5q238 0 340 -186q-20 303 -153 431t-324 128h-43q-27 0 -41 13.5t-14 33.5q0 18 13 33.5t36 17.5q29 6 84 7q272 0 420.5 -203t148.5 -574q0 -393 -139 -604t-397 -211q-211 0 -335 134.5t-124 361.5zM250 465 q0 -178 91 -283.5t247 -105.5q114 0 205.5 65.5t142.5 187.5t51 283q0 166 -90 265.5t-242 99.5q-119 0 -211 -61.5t-143 -177t-51 -273.5z" />
<glyph unicode="&#x2206;" horiz-adv-x="1574" d="M84 55q0 25 16.5 40.5t40.5 15.5h348q-137 219 -208.5 354t-101 232.5t-29.5 193.5q0 170 81.5 299t239.5 199.5t377 70.5q195 0 340 -61.5t224 -177t79 -275.5q0 -109 -40 -214t-138.5 -246.5t-286.5 -374.5h340q25 0 40 -15.5t15 -40.5t-15 -40t-42 -15h-403 q-33 0 -51.5 16.5t-18.5 44.5q0 29 20 58q178 233 275.5 382.5t135.5 250t38 188.5q0 193 -138.5 300.5t-373.5 107.5q-276 0 -421.5 -121t-145.5 -328q0 -139 71.5 -308t253.5 -468q14 -27 15 -51q0 -33 -21.5 -52.5t-56.5 -19.5h-402q-27 0 -42 15.5t-15 39.5z" />
<glyph unicode="&#x220f;" d="M49 -322l137 1708q2 25 19.5 41.5t42.5 16.5h885q25 0 40 -16.5t13 -41.5l-137 -1708q-2 -25 -20.5 -41t-45.5 -16q-25 0 -40 16.5t-13 40.5l131 1653h-760l-131 -1653q-4 -25 -22.5 -41t-45.5 -16q-24 0 -39.5 16.5t-13.5 40.5z" />
<glyph unicode="&#x2211;" horiz-adv-x="1177" d="M8 -317q0 23 19 47l622 809l-495 802q-10 16 -11 37q0 27 20.5 46.5t47.5 19.5h911q25 0 40.5 -15.5t15.5 -37.5q0 -25 -15.5 -41.5t-42.5 -16.5h-817l438 -712q27 -47 27 -74q0 -37 -37 -86l-557 -719h815q27 0 42.5 -15.5t15.5 -39.5q0 -25 -15.5 -40.5t-42.5 -15.5 h-917q-31 0 -47.5 14.5t-16.5 37.5z" />
<glyph unicode="&#x221a;" d="M20 584q0 20 16.5 34.5t39.5 14.5h180q16 0 28.5 -9.5t16.5 -25.5l213 -809l604 1643q8 18 23.5 29.5t34.5 11.5q20 0 34.5 -11.5t14.5 -34.5q0 -12 -6 -28l-644 -1723q-12 -39 -29.5 -53t-43.5 -14q-48 -1 -64 65l-231 854h-135q-23 0 -37.5 16.5t-14.5 39.5z" />
<glyph unicode="&#x221e;" d="M102 561q0 125 73 207t200 82q72 0 143.5 -42t110.5 -122q53 82 123.5 123t140.5 41q113 0 180.5 -69.5t67.5 -174.5q0 -129 -74 -211t-201 -82q-72 0 -142.5 42t-109.5 122q-53 -82 -123.5 -123t-142.5 -41q-113 0 -179.5 70t-66.5 178zM203 567q0 -70 43 -117t112 -47 q60 0 114 38t106 143q-63 176 -209 176q-78 0 -122 -55.5t-44 -137.5zM664 584q66 -180 210 -181q78 0 121 56.5t43 142.5q0 68 -42 113t-111 45q-59 0 -113.5 -37t-107.5 -139z" />
<glyph unicode="&#x222b;" d="M199 -324q0 23 17 38.5t42 15.5h35q100 0 152.5 49t62.5 168l92 1188q14 156 103.5 237.5t244.5 81.5q47 0 66.5 -10t19.5 -45q0 -25 -17.5 -40.5t-41.5 -15.5h-35q-102 0 -153.5 -49t-59.5 -168l-94 -1187q-10 -154 -101.5 -236t-246.5 -82q-43 0 -64.5 12.5t-21.5 42.5 z" />
<glyph unicode="&#x2248;" d="M106 332q0 20 11 35q94 145 248 145q66 0 124 -23.5t146 -72.5q66 -37 107.5 -55.5t80.5 -18.5q98 0 164 90q20 31 51 31q18 0 30.5 -11.5t12.5 -29.5q0 -16 -12 -35q-94 -145 -246 -145q-67 0 -125.5 23.5t-146.5 72.5q-61 37 -103 55.5t-83 18.5q-98 0 -164 -90 q-20 -31 -51 -31q-18 0 -31 11t-13 30zM139 741q0 20 11 35q94 145 247 146q66 0 124.5 -24t146.5 -73q66 -37 107.5 -55t80.5 -18q98 0 164 90q20 31 49 30q18 0 31.5 -11t13.5 -30q0 -16 -12 -34q-94 -145 -248 -146q-66 0 -124 23.5t-146 73.5q-66 37 -108 55t-81 18 q-96 0 -162 -90q-20 -31 -51 -31q-18 0 -30.5 11.5t-12.5 29.5z" />
<glyph unicode="&#x2260;" d="M104 379q0 20 16.5 34.5t39.5 14.5h315l152 305h-441q-23 0 -37 16.5t-14 38.5q0 20 16.5 35t38.5 15h488l113 227q18 35 57 35q20 0 31.5 -12.5t11.5 -32.5q0 -12 -6 -29l-92 -188h288q23 0 37.5 -16.5t14.5 -39.5q0 -20 -16.5 -34.5t-39.5 -14.5h-338l-149 -305h461 q23 0 37 -16.5t14 -38.5q0 -20 -16.5 -34.5t-38.5 -14.5h-510l-111 -226q-16 -35 -53 -35q-16 0 -25 5q-23 12 -22 41q0 14 6 28l92 187h-268q-23 0 -37.5 16t-14.5 39z" />
<glyph unicode="&#x2264;" d="M80 55q0 20 16.5 34.5t38.5 14.5h891q23 0 37 -16t14 -39q0 -20 -16.5 -34.5t-38.5 -14.5h-891q-23 0 -37 16.5t-14 38.5zM129 664q2 23 16.5 43t34.5 28l887 320q15 6 33 6q25 0 41 -13.5t14 -33.5q0 -31 -33 -45l-850 -307l799 -304q29 -10 29 -41q0 -25 -16.5 -38 t-43.5 -13q-18 0 -36 6l-832 316q-25 8 -36 28.5t-7 47.5z" />
<glyph unicode="&#x2265;" d="M80 55q0 20 16.5 34.5t38.5 14.5h891q23 0 37 -16t14 -39q0 -20 -16.5 -34.5t-38.5 -14.5h-891q-23 0 -37 16.5t-14 38.5zM100 313q4 37 33 45l852 304l-801 307q-14 4 -21 16t-7 29q2 23 19.5 35t41.5 12q16 0 35 -6l833 -320q21 -8 33 -27.5t10 -43.5q-6 -57 -53 -76 l-887 -314q-25 -8 -36 -8q-23 0 -38.5 13.5t-13.5 33.5z" />
<glyph unicode="&#x25fc;" horiz-adv-x="1003" d="M0 0v1004h1004v-1004h-1004z" />
</font>
</defs>
</svg>
