<?xml version="1.0" standalone="no"?>
<!DOCTYPE svg PUBLIC "-//W3C//DTD SVG 1.1//EN" "http://www.w3.org/Graphics/SVG/1.1/DTD/svg11.dtd" >
<svg xmlns="http://www.w3.org/2000/svg" xmlns:xlink="http://www.w3.org/1999/xlink" version="1.1">
<metadata></metadata>
<defs>
<font id="nunitoblack" horiz-adv-x="1228" >
<font-face units-per-em="2048" ascent="1638" descent="-410" />
<missing-glyph horiz-adv-x="585" />
<glyph horiz-adv-x="0" />
<glyph unicode="&#xd;" horiz-adv-x="585" />
<glyph horiz-adv-x="0" />
<glyph horiz-adv-x="0" />
<glyph unicode=" "  horiz-adv-x="585" />
<glyph unicode="&#x09;" horiz-adv-x="585" />
<glyph unicode="&#xa0;" horiz-adv-x="585" />
<glyph unicode="!" horiz-adv-x="557" d="M59 1257q0 92 62.5 144.5t157.5 52.5q96 0 157.5 -53t61.5 -146q0 -20 -2 -32l-109 -635q-6 -53 -35.5 -82t-72.5 -29t-73 29t-38 82l-107 637q-2 12 -2 32zM80 186q0 84 56.5 141.5t142.5 57.5q84 0 140 -57.5t56 -141.5t-56.5 -141t-139.5 -57q-86 0 -142.5 57 t-56.5 141z" />
<glyph unicode="&#x22;" horiz-adv-x="997" d="M84 1272q0 86 51 134t139 48t139.5 -48t51.5 -134q0 -29 -6 -60l-62 -297q-12 -57 -41.5 -83.5t-81.5 -26.5q-49 0 -79.5 28.5t-40.5 81.5l-64 297q-6 31 -6 60zM533 1272q0 86 51 134t139 48t139.5 -48t51.5 -134q0 -29 -6 -60l-62 -297q-12 -57 -41.5 -83.5 t-81.5 -26.5q-49 0 -79.5 28.5t-40.5 81.5l-64 297q-6 31 -6 60z" />
<glyph unicode="#" d="M80 436q0 47 31.5 78t78.5 31h72l72 370h-103q-47 0 -78.5 33t-31.5 80q0 45 31.5 76t78.5 31h146l47 241q8 37 35.5 60.5t68.5 23.5q51 0 85 -32.5t34 -81.5q0 -18 -2 -29l-37 -182h178l48 241q6 37 34.5 60.5t71.5 23.5q51 0 85 -31.5t34 -78.5q0 -18 -2 -29l-37 -186 h18q47 0 79 -32t32 -79t-32 -78t-79 -31h-61l-72 -370h92q47 0 79 -33t32 -80q0 -45 -32 -75.5t-79 -30.5h-135l-49 -252q-8 -37 -35.5 -60.5t-70.5 -23.5q-51 0 -85 31.5t-34 78.5q0 18 2 29l39 197h-183l-51 -252q-6 -37 -34.5 -60.5t-65.5 -23.5q-51 0 -84 31.5t-33 78.5 q0 18 2 29l39 197h-29q-47 0 -78.5 31.5t-31.5 78.5zM489 545h183l71 370h-178z" />
<glyph unicode="$" d="M35 248q0 61 35.5 106t85.5 45q25 0 49 -8t63 -31q90 -49 168 -69.5t166 -20.5q109 0 165 36t56 108q0 43 -33.5 70.5t-84 44t-146.5 40.5q-154 39 -252 79t-169.5 125t-71.5 228q0 164 114.5 285t302.5 160v102q0 61 41 101.5t103 40.5q63 0 103 -39t40 -103v-96 q170 -27 332 -129q37 -25 52 -54.5t15 -72.5q0 -61 -36.5 -106.5t-85.5 -45.5q-25 0 -47.5 8.5t-65.5 30.5q-14 8 -63.5 34t-105.5 41.5t-120 15.5q-92 0 -149.5 -40t-57.5 -108q0 -66 65.5 -98.5t207.5 -65.5q152 -35 249 -73.5t167.5 -124.5t70.5 -232 q0 -166 -113.5 -282.5t-306.5 -153.5v-100q0 -63 -40 -102.5t-103 -39.5t-103 39t-40 103v92q-227 29 -390 133q-37 23 -52 51.5t-15 75.5z" />
<glyph unicode="%" horiz-adv-x="1974" d="M59 1030q0 211 102.5 324.5t282.5 113.5t282.5 -113.5t102.5 -326.5q0 -215 -102 -328.5t-283 -113.5q-180 0 -282.5 114.5t-102.5 329.5zM354 1028q0 -121 21.5 -171t68.5 -50q48 0 69.5 50t21.5 171q0 117 -23 167t-68 50q-47 0 -68.5 -50t-21.5 -167zM492 86 q0 47 28 96l703 1213q27 45 62.5 67.5t72.5 22.5q51 0 87 -36t36 -91q0 -47 -29 -96l-702 -1213q-27 -45 -63 -67.5t-73 -22.5q-49 0 -85.5 37t-36.5 90zM1143 430q0 211 102.5 324.5t282.5 113.5t282.5 -113.5t102.5 -326.5q0 -215 -102.5 -328.5t-282.5 -113.5 t-282.5 114.5t-102.5 329.5zM1438 428q0 -121 21.5 -171t68.5 -50t68.5 50t21.5 171q0 117 -22.5 168t-67.5 51q-47 0 -68.5 -50t-21.5 -169z" />
<glyph unicode="&#x26;" horiz-adv-x="1437" d="M49 397q0 127 63.5 225.5t200.5 178.5q-129 137 -129 289q0 109 55.5 191.5t157 129.5t232.5 47q184 0 292.5 -93t108.5 -249q0 -219 -237 -356l211 -187q49 102 63 209q8 68 52 105t102 37q57 0 99 -37t42 -101l-2 -22q-20 -201 -135 -387l166 -146q51 -49 51 -104 q0 -57 -46 -100t-108 -43q-57 0 -104 41l-150 133q-100 -84 -218 -129t-241 -45q-154 0 -273.5 52t-186 146t-66.5 215zM399 422q0 -76 52.5 -121t140.5 -45q120 0 233 86l-315 281q-111 -76 -111 -201zM506 1092q0 -35 20.5 -70t73.5 -88q80 39 114 80t34 92q0 53 -32 85 t-81 32q-60 0 -94.5 -36t-34.5 -95z" />
<glyph unicode="'" horiz-adv-x="548" d="M84 1272q0 86 51 134t139 48t139.5 -48t51.5 -134q0 -29 -6 -60l-62 -297q-12 -57 -41.5 -83.5t-81.5 -26.5q-49 0 -79.5 28.5t-40.5 81.5l-64 297q-6 31 -6 60z" />
<glyph unicode="(" horiz-adv-x="815" d="M201 539q0 457 229 796q35 55 83 85t93 30q49 0 81 -29.5t32 -83.5q0 -35 -14 -71q-70 -176 -101 -351.5t-31 -375.5q0 -201 31 -372t101 -351q14 -37 14 -72q0 -51 -32 -81t-81 -30q-45 0 -93 29t-83 84q-229 344 -229 793z" />
<glyph unicode=")" horiz-adv-x="815" d="M96 -256q0 35 15 72q70 180 100.5 351t30.5 372t-31 376t-100 351q-14 37 -15 71q0 51 32 81t81 30q45 0 93 -28.5t83 -84.5q229 -340 229 -796q0 -449 -229 -793q-35 -55 -83 -84t-95 -29t-79 30t-32 81z" />
<glyph unicode="*" horiz-adv-x="931" d="M35 1063q0 49 28.5 85t77.5 34l140 -11l-78 113q-18 29 -19 55q0 45 42 80t91 35q59 0 86 -53l64 -127l61 127q27 55 86 55q49 0 91.5 -35t42.5 -82q0 -27 -19 -55l-78 -113l140 11q51 2 78.5 -33t27.5 -84q0 -51 -27.5 -86t-78.5 -31l-142 10l80 -116q18 -27 19 -54 q0 -47 -43 -81.5t-93 -34.5q-27 0 -49 13t-35 40l-61 127l-64 -127q-27 -53 -84 -53q-49 0 -91 35.5t-42 83.5q0 29 17 51l80 116l-142 -10q-51 -2 -78.5 32t-27.5 83z" />
<glyph unicode="+" d="M115 590q0 51 34.5 86t86.5 35h258v258q0 51 34.5 86t85.5 35t86 -35t35 -86v-258h258q51 0 86 -35t35 -86t-35 -87t-86 -36h-258v-256q0 -51 -33.5 -86t-87.5 -35q-51 0 -85.5 35t-34.5 86v256h-258q-51 0 -86 36t-35 87z" />
<glyph unicode="," horiz-adv-x="557" d="M80 186q0 84 55 141.5t137 57.5q90 0 146.5 -65.5t56.5 -186.5q0 -238 -170 -414q-31 -31 -72 -30q-41 0 -71.5 27.5t-30.5 62.5q0 33 27 59q72 76 98 164q-78 6 -127 56.5t-49 127.5z" />
<glyph unicode="-" horiz-adv-x="913" d="M94 551q0 141 170 141h385q86 0 128 -37t42 -104q0 -68 -42 -105.5t-128 -37.5h-385q-170 0 -170 143z" />
<glyph unicode="." horiz-adv-x="557" d="M80 186q0 84 56.5 141.5t142.5 57.5q84 0 140 -57.5t56 -141.5t-56.5 -141t-139.5 -57q-86 0 -142.5 57t-56.5 141z" />
<glyph unicode="/" horiz-adv-x="714" d="M-18 -33q0 25 8 47l465 1461q16 49 52 73.5t79 24.5q57 0 101 -37t44 -96q0 -12 -8 -45l-465 -1461q-16 -49 -52 -73.5t-81 -24.5q-57 0 -100 37t-43 94z" />
<glyph unicode="0" d="M63 723q0 358 141.5 548.5t409.5 190.5q266 0 408.5 -190.5t142.5 -548.5q0 -360 -141 -550.5t-410 -190.5q-268 0 -409.5 190t-141.5 551zM430 723q0 -244 43 -350.5t141 -106.5q99 0 142 106.5t43 350.5q0 242 -43 348.5t-142 106.5q-98 0 -141 -105.5t-43 -349.5z" />
<glyph unicode="1" d="M129 1083q0 84 72 127l327 191q90 51 170 51q82 0 132.5 -49t50.5 -133v-971h168q92 0 135 -37t43 -110q0 -152 -178 -152h-711q-178 0 -178 152q0 74 43 110.5t135 36.5h166v739l-164 -96q-35 -20 -72 -20q-57 0 -98 50t-41 111z" />
<glyph unicode="2" horiz-adv-x="1230" d="M74 1196q0 45 13 73.5t50 53.5q96 66 216 102.5t237 36.5q152 0 266.5 -50t177 -143t62.5 -214q0 -125 -50.5 -228.5t-171.5 -230.5l-290 -297h411q90 0 134.5 -36t44.5 -111q0 -78 -44.5 -115t-134.5 -37h-747q-74 0 -117 44t-43 112q0 88 70 159l434 453 q135 141 135 260q0 70 -40 106.5t-114 36.5q-59 0 -109 -17t-116 -50l-41 -21q-8 -4 -31.5 -17t-42 -19.5t-38.5 -6.5q-51 0 -86 46.5t-35 109.5z" />
<glyph unicode="3" d="M51 250q0 63 35 107t86 44q29 0 51.5 -9t61.5 -30q8 -4 19 -9t26 -11q66 -33 118 -50.5t117 -17.5q115 0 165 37t50 123q0 80 -51 115t-168 35h-127q-61 0 -96 43t-35 102t35 102t96 43h90q113 0 164 33t51 105q0 76 -45 117.5t-125 41.5q-57 0 -107 -18t-112 -49 l-43 -21q-39 -20 -61.5 -29.5t-50.5 -9.5q-51 0 -86 44.5t-35 107.5q0 43 14 71.5t49 55.5q88 66 208 102.5t243 36.5q152 0 267.5 -49t178 -139t62.5 -209q0 -113 -58.5 -198t-163.5 -124q121 -34 190 -126.5t69 -223.5q0 -125 -68 -217t-191.5 -142t-289.5 -50 q-133 0 -256 35.5t-213 103.5q-35 27 -49.5 56.5t-14.5 70.5z" />
<glyph unicode="4" d="M27 401q0 72 45 136l585 835q29 41 73 62.5t91 21.5q78 0 133.5 -49t55.5 -137v-740h45q178 0 178 -141q0 -145 -178 -145h-45v-70q0 -92 -51.5 -139t-133.5 -47t-132 47t-50 139v70h-457q-74 0 -116.5 45t-42.5 112zM397 530h246v355z" />
<glyph unicode="5" d="M90 250q0 63 35 107t86 44q31 0 51.5 -8t61.5 -31l41 -20q63 -31 115 -49.5t114 -18.5q115 0 170 46.5t55 144.5q0 92 -57 143t-160 51q-61 0 -111.5 -10t-117.5 -37q-43 -23 -92 -22q-57 0 -96.5 33.5t-39.5 89.5v555q0 86 45.5 131t128.5 45h635q178 0 179 -141 q0 -143 -179 -144h-442v-252q86 37 203 37q133 0 236.5 -58.5t161.5 -164t58 -242.5q0 -147 -69.5 -260t-196.5 -174t-293 -61q-127 0 -248.5 36.5t-209.5 102.5q-33 27 -48.5 56.5t-15.5 70.5z" />
<glyph unicode="6" d="M61 707q0 229 75 400t211 263t319 92q115 0 234.5 -36.5t205.5 -102.5q35 -27 50 -55.5t15 -71.5q0 -63 -35.5 -107.5t-86.5 -44.5q-29 0 -51.5 9.5t-61.5 29.5l-45 23q-68 33 -113 49t-94 16q-104 0 -168.5 -95t-77.5 -267q47 66 126 103.5t173 37.5q123 0 221.5 -60.5 t154.5 -168t56 -242.5q0 -143 -64.5 -256.5t-179 -177t-259.5 -63.5q-289 0 -447 188t-158 537zM467 465q0 -86 49 -140.5t127 -54.5q80 0 127 53.5t47 141.5q0 90 -46 142t-128 52q-80 0 -128 -53t-48 -141z" />
<glyph unicode="7" d="M47 1292q0 76 43 114t135 38h803q74 0 114 -44t40 -112q0 -70 -39 -135l-621 -1075q-29 -49 -70.5 -72.5t-86.5 -23.5q-72 0 -127.5 48t-55.5 117q0 49 29 99l526 899h-512q-94 0 -136 37t-42 110z" />
<glyph unicode="8" d="M45 397q0 135 67.5 224.5t192.5 121.5q-106 41 -163.5 126t-57.5 200q0 182 143.5 287.5t386.5 105.5q246 0 388.5 -105.5t142.5 -287.5q0 -119 -58.5 -205t-160.5 -121q125 -36 191.5 -125.5t66.5 -220.5q0 -195 -152.5 -304t-417.5 -109q-264 0 -416.5 109.5 t-152.5 303.5zM391 428q0 -160 223 -160q224 0 224 160t-224 160q-223 0 -223 -160zM432 1026q0 -80 45 -117t137 -37t137.5 37t45.5 117t-45 116t-138 36q-92 0 -137 -36t-45 -116z" />
<glyph unicode="9" d="M57 248q0 63 36 107t87 44q29 0 51.5 -9t61.5 -30l45 -22q68 -33 113 -49.5t94 -16.5q104 0 168.5 95.5t77.5 267.5q-47 -66 -126 -103.5t-173 -37.5q-123 0 -221.5 60t-155 167.5t-56.5 243.5q0 143 64.5 256.5t179.5 177t260 63.5q289 0 446.5 -188.5t157.5 -536.5 q0 -229 -74.5 -400t-211 -263t-318.5 -92q-115 0 -234.5 36.5t-205.5 102.5q-35 27 -50.5 55.5t-15.5 71.5zM412 979q0 -90 46 -142.5t128 -52.5q80 0 128 53.5t48 141.5q0 86 -49 140.5t-127 54.5q-80 0 -127 -53.5t-47 -141.5z" />
<glyph unicode=":" horiz-adv-x="557" d="M80 186q0 84 56.5 141.5t142.5 57.5q84 0 140 -57.5t56 -141.5t-56.5 -141t-139.5 -57q-86 0 -142.5 57t-56.5 141zM80 829q0 84 56.5 141.5t142.5 57.5q84 0 140 -57.5t56 -141.5t-56.5 -141t-139.5 -57q-86 0 -142.5 57t-56.5 141z" />
<glyph unicode=";" horiz-adv-x="557" d="M80 186q0 84 55 141.5t137 57.5q90 0 146.5 -65.5t56.5 -186.5q0 -238 -170 -414q-31 -31 -72 -30q-41 0 -71.5 27.5t-30.5 62.5q0 33 27 59q72 76 98 164q-78 6 -127 56.5t-49 127.5zM80 829q0 84 56.5 141.5t142.5 57.5q84 0 140 -57.5t56 -141.5t-56.5 -141 t-139.5 -57q-86 0 -142.5 57t-56.5 141z" />
<glyph unicode="&#x3c;" d="M115 590q0 61 33.5 111.5t93.5 74.5l682 264q35 12 63 13q55 0 91 -36t36 -93q0 -35 -18.5 -61.5t-51.5 -39.5l-608 -233l608 -234q33 -14 51.5 -39.5t18.5 -60.5q0 -57 -36 -93t-91 -36q-29 0 -63 12l-682 264q-59 23 -93 72t-34 115z" />
<glyph unicode="=" d="M127 383q0 51 34.5 87t86.5 36h757q51 0 86 -35t35 -86t-35 -87t-86 -36h-757q-52 0 -86.5 35t-34.5 86zM127 793q0 51 34.5 87t86.5 36h757q51 0 86 -35t35 -86t-35 -87t-86 -36h-757q-52 0 -86.5 35t-34.5 86z" />
<glyph unicode="&#x3e;" d="M115 256q0 35 18.5 60.5t50.5 39.5l609 234l-609 233q-33 12 -51 39t-18 62q0 57 35.5 93t91.5 36q29 0 63 -13l682 -264q60 -24 93.5 -74.5t33.5 -111.5q0 -66 -33.5 -115t-93.5 -72l-682 -264q-33 -12 -63 -12q-55 0 -91 36t-36 93z" />
<glyph unicode="?" horiz-adv-x="978" d="M-4 1192q0 43 15.5 71.5t49.5 55.5q92 68 210 105.5t237 37.5q133 0 237.5 -46t164 -127t59.5 -183q0 -76 -32 -139.5t-77 -108.5t-117 -108q-68 -55 -103.5 -95.5t-45.5 -83.5q-8 -45 -40 -69.5t-75 -24.5q-53 0 -82.5 35t-29.5 98q0 96 36.5 161t102.5 132 q47 51 70.5 88t23.5 82t-32.5 71.5t-90.5 26.5q-47 0 -93 -17t-103 -50l-50 -25q-70 -39 -112 -39q-51 0 -87 44t-36 108zM287 186q0 84 56 141.5t140 57.5q86 0 142.5 -57.5t56.5 -141.5t-56.5 -141t-142.5 -57q-84 0 -140 57t-56 141z" />
<glyph unicode="@" horiz-adv-x="1933" d="M76 535q0 291 117.5 498.5t325.5 316t474 108.5q270 0 465 -97t297.5 -269t102.5 -398q0 -170 -52.5 -298t-149.5 -197.5t-229 -69.5q-106 0 -176.5 46t-91.5 122h-4q-57 -80 -121.5 -124t-169.5 -44q-160 0 -244.5 103.5t-84.5 271.5q0 147 55 266t152.5 186.5 t220.5 67.5q80 0 139 -29.5t90 -91.5h6v4q8 45 41 69.5t88 24.5t87 -31.5t32 -84.5q0 -10 -4 -35l-53 -297q-10 -68 -11 -109q0 -57 21.5 -85.5t73.5 -28.5q33 0 66.5 36.5t57 118.5t23.5 209q0 266 -161 409.5t-466 143.5q-193 0 -343 -83t-234 -243.5t-84 -385.5 q0 -197 77.5 -343.5t226 -227.5t351.5 -81q123 0 212 21.5t183 70.5q35 18 64 19q45 0 77.5 -33t32.5 -76q0 -57 -57 -98q-80 -47 -215 -82t-297 -35q-276 0 -483 109.5t-317.5 306.5t-110.5 449zM795 502q0 -76 32.5 -124t94.5 -48q108 0 168.5 97t60.5 226q0 84 -37 127 t-102 43q-102 0 -159.5 -98t-57.5 -223z" />
<glyph unicode="A" horiz-adv-x="1558" d="M25 156q0 37 18 75l541 1110q27 55 79 85t115 30q61 0 114.5 -29.5t80.5 -85.5l540 -1110q19 -38 19 -75q0 -68 -54.5 -115t-123.5 -47q-47 0 -86 24.5t-62 73.5l-92 207h-663l-95 -207q-23 -49 -62.5 -73.5t-86.5 -24.5q-70 0 -126 47t-56 115zM578 582h409l-205 456z " />
<glyph unicode="B" horiz-adv-x="1423" d="M131 174v1096q0 84 45 129t129 45h524q227 0 361.5 -101.5t134.5 -273.5q0 -111 -59.5 -196t-165.5 -123q127 -39 194.5 -130.5t67.5 -224.5q0 -119 -62.5 -208t-178 -138t-271.5 -49h-545q-84 0 -129 45t-45 129zM498 285h305q112 0 160.5 35.5t48.5 117.5t-48.5 118 t-160.5 36h-305v-307zM498 877h268q106 0 155.5 32.5t49.5 104.5q0 76 -49.5 110.5t-155.5 34.5h-268v-282z" />
<glyph unicode="C" horiz-adv-x="1388" d="M94 723q0 223 89 391t252 258t380 90q260 0 457 -137q35 -25 50 -53.5t15 -73.5q0 -63 -35.5 -107t-87.5 -44q-31 0 -55 9t-57 29q-72 43 -135.5 61.5t-130.5 18.5q-182 0 -271.5 -109.5t-89.5 -332.5q0 -225 89 -334.5t272 -109.5q61 0 118.5 19t147.5 60q43 23 63.5 31 t48.5 8q51 0 87 -44t36 -107q0 -43 -15 -73t-50 -54q-197 -137 -457 -137q-217 0 -380 90t-252 258t-89 393z" />
<glyph unicode="D" horiz-adv-x="1583" d="M131 174v1096q0 84 45 129t129 45h414q240 0 413 -87t265 -249t92 -385q0 -225 -91 -388t-264 -249t-415 -86h-414q-84 0 -129 45t-45 129zM508 303h184q211 0 316.5 103.5t105.5 316.5t-105.5 315.5t-316.5 102.5h-184v-838z" />
<glyph unicode="E" horiz-adv-x="1222" d="M131 174v1096q0 84 45 129t129 45h709q88 0 133 -37t45 -107q0 -147 -178 -147h-516v-274h475q178 0 178 -146q0 -70 -45 -106.5t-133 -36.5h-475v-299h516q178 0 178 -148q0 -70 -45 -106.5t-133 -36.5h-709q-84 0 -129 45t-45 129z" />
<glyph unicode="F" horiz-adv-x="1183" d="M131 174v1096q0 84 45 129t129 45h688q92 0 135 -36t43 -114q0 -76 -44 -110.5t-134 -34.5h-491v-266h450q90 0 134 -37t44 -113t-44 -110.5t-134 -34.5h-450v-414q0 -86 -50.5 -136t-134.5 -50t-135 51t-51 135z" />
<glyph unicode="G" horiz-adv-x="1523" d="M94 723q0 225 92.5 392t262 257t397.5 90q143 0 257 -33.5t212 -103.5q35 -25 50 -53.5t15 -73.5q0 -63 -34.5 -107t-83.5 -44q-33 0 -56.5 9t-60.5 31q-76 41 -142.5 59.5t-144.5 18.5q-195 0 -290 -108.5t-95 -333.5q0 -231 99.5 -343t304.5 -112q98 0 194 21v268h-147 q-68 0 -105 34t-37 95t37 95t105 34h338q67 0 107 -38t40 -101v-357q0 -102 -15.5 -156t-55.5 -85t-119 -53q-80 -20 -177.5 -31.5t-181.5 -11.5q-236 0 -408.5 89t-265 256t-92.5 396z" />
<glyph unicode="H" horiz-adv-x="1589" d="M131 174v1096q0 84 50 134t134 50t134.5 -50t50.5 -134v-387h590v387q0 84 50 134t134 50t134 -50t50 -134v-1096q0 -84 -50 -135t-134 -51t-134 50t-50 136v410h-590v-410q0 -84 -50.5 -135t-134.5 -51t-134 50t-50 136z" />
<glyph unicode="I" horiz-adv-x="638" d="M131 174v1096q0 84 50 134t136 50q88 0 139.5 -50t51.5 -134v-1096q0 -86 -51 -136t-140 -50q-86 0 -136 50t-50 136z" />
<glyph unicode="J" horiz-adv-x="813" d="M-37 139q0 72 35 107t111 39l69 4q61 2 93 40t32 103v838q0 84 51.5 134t139.5 50q84 0 136 -50t52 -134v-832q0 -205 -107.5 -318.5t-320.5 -127.5l-66 -4q-14 -1 -28 -1q-197 0 -197 152z" />
<glyph unicode="K" horiz-adv-x="1429" d="M131 174v1096q0 84 50 134t136 50q88 0 139.5 -50t51.5 -134v-451l575 580q53 55 121 55t119 -50t51 -118t-59 -125l-420 -411l455 -467q53 -51 53 -119t-51.5 -119t-120.5 -51q-76 0 -139 65l-584 598v-483q0 -86 -51 -136t-140 -50q-86 0 -136 50t-50 136z" />
<glyph unicode="L" horiz-adv-x="1171" d="M131 176v1094q0 84 50 134t136 50q88 0 139.5 -50t51.5 -134v-965h471q178 0 178 -153q0 -78 -44 -115t-134 -37h-674q-84 0 -129 45t-45 131z" />
<glyph unicode="M" horiz-adv-x="1724" d="M135 156v1114q0 82 50.5 133t127.5 51q55 0 100.5 -31.5t75.5 -91.5l377 -708l375 708q63 123 172 123q78 0 127 -51t49 -133v-1114q0 -78 -45 -123t-119 -45q-72 0 -117.5 45t-45.5 123v602l-234 -430q-35 -66 -74 -93.5t-92 -27.5t-92 27.5t-74 93.5l-231 417v-589 q0 -76 -46 -122t-120 -46q-72 0 -118 45t-46 123z" />
<glyph unicode="N" horiz-adv-x="1550" d="M131 174v1096q0 82 49 133t127 51q88 0 137 -61l623 -775v652q0 84 48 134t126 50t128 -51t50 -133v-1096q0 -84 -49 -135t-127 -51q-92 0 -139 61l-623 776v-651q0 -84 -47 -135t-127 -51q-78 0 -127 51t-49 135z" />
<glyph unicode="O" horiz-adv-x="1630" d="M94 723q0 225 88 392t251 257t384 90t384 -90t250 -257t87 -392t-88 -392t-251 -258t-382 -91q-221 0 -384 91t-251 258t-88 392zM469 723q0 -223 92 -338t256 -115t256 116t92 337t-93 336t-255 115q-164 0 -256 -114t-92 -337z" />
<glyph unicode="P" horiz-adv-x="1386" d="M131 174v1096q0 84 45 129t129 45h524q240 0 373 -122t133 -339q0 -215 -134 -338t-372 -123h-321v-348q0 -86 -51 -136t-140 -50q-86 0 -136 50t-50 136zM508 805h270q104 0 154.5 43t50.5 133q0 178 -205 178h-270v-354z" />
<glyph unicode="Q" horiz-adv-x="1630" d="M94 723q0 225 88 392t251 257t384 90t384 -90t250 -257t87 -392q0 -223 -87 -391t-251 -258q109 -33 164 -125l43 -72q35 -55 35 -104q0 -68 -55.5 -112t-126.5 -44q-49 0 -92.5 23.5t-71.5 68.5l-123 207q-20 35 -55 50.5t-101 15.5q-221 0 -384 91t-251 258t-88 392z M469 723q0 -223 92 -338t256 -115t256 116t92 337t-93 336t-255 115q-164 0 -256 -114t-92 -337z" />
<glyph unicode="R" horiz-adv-x="1447" d="M131 174v1096q0 84 45 129t129 45h514q262 0 394.5 -113.5t132.5 -329.5q0 -164 -90.5 -277.5t-254.5 -152.5q68 -10 118 -44.5t100 -104.5l127 -182q36 -56 36 -105q0 -66 -54 -109.5t-126 -43.5q-49 0 -92 22.5t-74 67.5l-266 389q-29 41 -60.5 60.5t-74.5 19.5h-133 v-367q0 -86 -49.5 -136t-135.5 -50t-136 50t-50 136zM498 823h262q125 0 179 39t54 127q0 90 -54 130t-179 40h-262v-336z" />
<glyph unicode="S" horiz-adv-x="1359" d="M74 246q0 61 36.5 106t86.5 45q27 0 51 -8t61 -31q84 -47 167 -67.5t188 -20.5q121 0 183 36t62 106q0 47 -58 80.5t-222 66.5q-203 43 -317.5 102.5t-161 140.5t-46.5 195q0 131 78 237.5t214 167t306 60.5q150 0 266.5 -32.5t213.5 -102.5q37 -27 52 -56.5t15 -72.5 q0 -61 -35.5 -106t-85.5 -45q-27 0 -49 7t-63 31q-10 6 -58.5 32t-113 41.5t-139.5 15.5q-104 0 -168 -40t-64 -106q0 -39 22.5 -63.5t84 -48t182.5 -48.5q197 -43 309.5 -103t159.5 -140t47 -189q0 -135 -76 -238.5t-212 -159.5t-316 -56q-164 0 -304.5 35.5t-230.5 99.5 q-35 27 -50 55.5t-15 73.5z" />
<glyph unicode="T" horiz-adv-x="1294" d="M-10 1292q0 78 44 115t134 37h958q90 0 134.5 -37t44.5 -115t-44 -115.5t-135 -37.5h-288v-965q0 -84 -52.5 -134t-138.5 -50t-138 50t-52 134v965h-289q-90 0 -134 37.5t-44 115.5z" />
<glyph unicode="U" horiz-adv-x="1525" d="M123 608v662q0 84 50 134t134 50t134.5 -50t50.5 -134v-676q0 -156 69.5 -240t200.5 -84t200.5 84t69.5 240v676q0 84 50.5 134t134.5 50t135 -50t51 -134v-662q0 -305 -165 -465.5t-476 -160.5q-313 0 -476 159.5t-163 466.5z" />
<glyph unicode="V" horiz-adv-x="1521" d="M8 1288q0 70 61.5 118t137.5 48q49 0 91 -24.5t64 -73.5l404 -873l401 873q23 49 64 73.5t90 24.5q74 0 133 -47t59 -119q0 -35 -18 -71l-541 -1117q-27 -55 -80 -84.5t-114 -29.5t-114.5 29.5t-80.5 84.5l-540 1117q-16 33 -17 71z" />
<glyph unicode="W" horiz-adv-x="2295" d="M61 1294q0 76 54.5 120t126.5 44q57 0 105 -29.5t69 -89.5l280 -807l297 807q20 57 66.5 88t101.5 31t100.5 -30.5t65.5 -90.5l279 -823l292 825q21 58 67 88.5t101 30.5q68 0 118 -43t50 -117q0 -33 -16 -81l-412 -1115q-20 -57 -74.5 -88.5t-119.5 -31.5 q-66 0 -119 31.5t-74 88.5l-266 760l-279 -760q-23 -57 -76 -88.5t-116 -31.5q-66 0 -119 31.5t-74 88.5l-413 1115q-14 41 -15 77z" />
<glyph unicode="X" horiz-adv-x="1404" d="M47 162q0 59 43 110l393 455l-383 444q-45 53 -45 111q0 70 54.5 122t123.5 52q72 0 125 -61l347 -410l344 410q49 61 120 61q70 0 124.5 -52t54.5 -122q0 -59 -43 -111l-383 -444l391 -455q45 -51 45 -112q0 -70 -54.5 -122t-121.5 -52q-72 0 -125 61l-352 422 l-359 -422q-53 -61 -123 -61q-68 0 -122 53t-54 123z" />
<glyph unicode="Y" horiz-adv-x="1331" d="M4 1286q0 68 53.5 119t120.5 51q72 0 125 -61l363 -430l362 430q53 61 125 61q68 0 122 -52t54 -120q0 -59 -45 -113l-430 -497v-500q0 -90 -52 -138t-134 -48q-84 0 -137.5 48t-53.5 138v500l-426 497q-47 53 -47 115z" />
<glyph unicode="Z" horiz-adv-x="1263" d="M70 158q0 68 47 133l631 858h-496q-92 0 -136 36t-44 109q0 78 44 114t136 36h786q74 0 118 -44t44 -112q0 -70 -47 -135l-631 -858h531q90 0 134 -35t44 -110q0 -78 -43 -114t-135 -36h-820q-76 0 -119.5 45t-43.5 113z" />
<glyph unicode="[" horiz-adv-x="811" d="M209 -72v1219q0 139 80 218t219 79h170q53 0 93 -34t40 -101q0 -68 -40 -100.5t-93 -32.5h-31q-41 0 -61.5 -19.5t-20.5 -69.5v-1099q0 -49 20.5 -68.5t61.5 -19.5h31q53 0 93 -33t40 -100q0 -68 -40 -102t-93 -34h-170q-139 0 -219 79t-80 218z" />
<glyph unicode="\" horiz-adv-x="712" d="M-18 1442q0 57 44 94t101 37q45 0 80 -24.5t51 -73.5l465 -1461q8 -23 8 -47q0 -57 -44 -94t-101 -37q-45 0 -80 24.5t-51 73.5l-465 1461q-8 23 -8 47z" />
<glyph unicode="]" horiz-adv-x="811" d="M0 -233q0 68 39 100.5t94 32.5h31q41 0 61.5 19.5t20.5 68.5v1099q0 49 -20.5 69t-61.5 20h-31q-55 0 -94 32.5t-39 100.5t39 101.5t94 33.5h170q139 0 218 -79t79 -218v-1219q0 -139 -79 -218t-218 -79h-170q-55 0 -94 34t-39 102z" />
<glyph unicode="^" d="M150 420q0 29 12 59l266 688q25 59 74 93t112 34t113.5 -33.5t73.5 -93.5l266 -688q12 -32 12 -59q0 -55 -40 -90t-89 -35q-35 0 -61.5 16.5t-38.5 50.5l-236 613l-235 -613q-12 -35 -39 -51t-59 -16q-51 0 -91 35t-40 90z" />
<glyph unicode="_" horiz-adv-x="1024" d="M0 -102q0 47 37 74.5t100 27.5h750q63 0 100 -27.5t37 -74.5t-37 -76t-100 -29h-750q-63 0 -100 28.5t-37 76.5z" />
<glyph unicode="`" horiz-adv-x="614" d="M-70 1425q0 57 45 99.5t104 42.5q80 0 138 -80l151 -209q23 -29 23 -61q0 -37 -26.5 -63t-65.5 -26q-33 0 -62 21l-231 151q-76 53 -76 125z" />
<glyph unicode="a" horiz-adv-x="1130" d="M63 311q0 109 56.5 173.5t179.5 93t332 28.5h55v25q0 72 -32.5 103.5t-110.5 31.5q-84 0 -246 -57q-47 -16 -80 -17q-51 0 -82 37t-31 96q0 45 18.5 74t59.5 51q72 37 180.5 59.5t212.5 22.5q234 0 345.5 -111.5t111.5 -338.5v-428q0 -78 -46 -122t-128 -44 q-72 0 -118 41t-50 110q-29 -74 -96.5 -114.5t-161.5 -40.5q-104 0 -188 42t-132.5 116.5t-48.5 168.5zM412 336q0 -47 29.5 -78t76.5 -31q74 0 121 52.5t47 134.5v24h-33q-131 0 -186 -23.5t-55 -78.5z" />
<glyph unicode="b" horiz-adv-x="1280" d="M106 156v1134q0 72 51.5 118t135.5 46q80 0 129 -43t49 -115v-407q45 66 126 104.5t177 38.5q131 0 231.5 -63.5t157 -181t56.5 -273.5t-56.5 -276.5t-158 -187t-230.5 -66.5q-100 0 -183 41t-126 112q-6 -70 -54.5 -109.5t-125.5 -39.5q-82 0 -130.5 46t-48.5 122z M465 510q0 -123 51 -188.5t146 -65.5q94 0 145 66.5t51 191.5q0 119 -50 182.5t-144 63.5q-96 0 -147.5 -64.5t-51.5 -185.5z" />
<glyph unicode="c" horiz-adv-x="1024" d="M59 502q0 158 70 278.5t196 186t287 65.5q86 0 172 -22.5t152 -63.5q63 -39 63 -119q0 -63 -29.5 -103t-76.5 -40q-31 0 -59.5 9t-63.5 28q-41 18 -69.5 27.5t-63.5 9.5q-203 0 -203 -248q0 -123 52.5 -187.5t150.5 -64.5q35 0 64.5 9t66.5 28q41 18 66.5 27.5t56.5 9.5 q47 0 76.5 -40t29.5 -104q0 -39 -16 -70.5t-45 -47.5q-141 -86 -344 -86q-246 0 -389.5 139t-143.5 379z" />
<glyph unicode="d" horiz-adv-x="1280" d="M59 514q0 156 56.5 273.5t158 181t232.5 63.5q96 0 177 -39t126 -104v407q0 72 48 115t130 43t134.5 -46t52.5 -118v-1134q0 -78 -49.5 -123t-131.5 -45q-76 0 -124 40t-54 109q-43 -72 -126 -112.5t-183 -40.5q-129 0 -230.5 66.5t-159 187t-57.5 276.5zM420 514 q0 -123 52 -190.5t144 -67.5q97 0 148 65.5t51 188.5q0 121 -51 185.5t-148 64.5q-94 0 -145 -63.5t-51 -182.5z" />
<glyph unicode="e" horiz-adv-x="1095" d="M59 508q0 152 64.5 271.5t180.5 186t261 66.5q141 0 248 -61.5t165 -174t58 -264.5q0 -47 -21.5 -72.5t-62.5 -25.5h-540q14 -98 63 -141t146 -43q51 0 94 11t96 32q31 12 60.5 21.5t54.5 9.5q47 0 76.5 -37t29.5 -97q0 -82 -80 -124q-70 -35 -165 -58.5t-175 -23.5 q-168 0 -292.5 63.5t-192.5 182t-68 278.5zM410 606h321q-12 180 -156 180q-71 0 -114 -46t-51 -134z" />
<glyph unicode="f" horiz-adv-x="806" d="M-29 874q0 133 164 134h60q4 197 117.5 308t308.5 126l53 4q16 2 43 2q88 0 127 -33t39 -94t-37 -95t-101 -38l-53 -4q-74 -6 -103.5 -46t-29.5 -106v-24h113q164 0 164 -134q0 -135 -164 -135h-113v-579q0 -84 -52 -127t-130 -43t-130 43t-52 127v579h-60 q-164 0 -164 135z" />
<glyph unicode="g" horiz-adv-x="1288" d="M59 528q0 150 57.5 264.5t160 177t233.5 62.5q100 0 184 -41t129 -112q4 70 52.5 109.5t125.5 39.5q82 0 131.5 -46t49.5 -122v-737q0 -250 -150.5 -379t-441.5 -129q-113 0 -213.5 20.5t-169.5 59.5q-37 20 -58.5 53t-21.5 74q0 59 29.5 96t76.5 37q37 0 134 -31 q63 -20 112 -31.5t101 -11.5q125 0 183 52.5t58 164.5v78q-45 -68 -129 -107.5t-182 -39.5q-131 0 -233.5 61.5t-160 175t-57.5 262.5zM420 528q0 -106 54 -166.5t147 -60.5q96 0 149 59.5t53 167.5q0 109 -53 170.5t-149 61.5q-94 0 -147.5 -60.5t-53.5 -171.5z" />
<glyph unicode="h" horiz-adv-x="1239" d="M106 156v1134q0 72 51.5 118t135.5 46q80 0 129 -43t49 -115v-409q55 72 137 108.5t185 36.5q176 0 262 -107.5t86 -326.5v-442q0 -78 -49.5 -123t-133.5 -45t-133 45t-49 123v450q0 147 -127 148q-82 0 -130 -52.5t-48 -140.5v-405q0 -78 -49 -123t-133 -45t-133.5 45 t-49.5 123z" />
<glyph unicode="i" horiz-adv-x="575" d="M88 1348q0 80 54.5 127t146.5 47q90 0 145.5 -47.5t55.5 -126.5q0 -80 -54.5 -128.5t-146.5 -48.5t-146.5 48.5t-54.5 128.5zM106 156v704q0 84 52.5 126t130.5 42t130 -42t52 -126v-704q0 -84 -52 -126t-130 -42t-130.5 42t-52.5 126z" />
<glyph unicode="j" horiz-adv-x="575" d="M-174 -238q0 59 34 89t103 34l57 4q39 2 62.5 29t23.5 68v874q0 84 52.5 126t130.5 42t130 -42t52 -126v-846q0 -172 -93 -270t-282 -113l-57 -4q-15 -1 -28 -1q-79 0 -127 29q-58 34 -58 107zM84 1348q0 80 54.5 127t146.5 47q90 0 145.5 -47.5t55.5 -126.5 q0 -80 -54.5 -128.5t-146.5 -48.5t-146.5 48.5t-54.5 128.5z" />
<glyph unicode="k" horiz-adv-x="1187" d="M106 160v1124q0 84 52.5 127t130.5 43t130 -43t52 -127v-694l379 385q51 53 119 53q66 0 116 -50t50 -114q0 -63 -54 -116l-223 -222l254 -243q53 -51 53 -119t-48 -121t-116 -53q-57 0 -114 51l-416 395v-276q0 -84 -52 -127t-130 -43t-130.5 43t-52.5 127z" />
<glyph unicode="l" horiz-adv-x="575" d="M106 156v1128q0 84 52.5 127t130.5 43t130 -43t52 -127v-1128q0 -84 -52 -126t-130 -42t-130.5 42t-52.5 126z" />
<glyph unicode="m" horiz-adv-x="1837" d="M106 156v708q0 80 54.5 122t130.5 42q72 0 120 -38t50 -109q99 151 304 151h3q219 0 293 -178q51 82 137 130t195 48q166 0 256 -99t90 -335v-442q0 -84 -52.5 -126t-130.5 -42t-130 42t-52 126v450q0 82 -28.5 115t-83.5 33q-72 0 -115 -51.5t-43 -141.5v-405 q0 -84 -51.5 -126t-130.5 -42q-78 0 -130.5 42t-52.5 126v450q0 82 -28.5 115t-83.5 33q-72 0 -114 -51.5t-42 -141.5v-405q0 -84 -52 -126t-130 -42t-130.5 42t-52.5 126z" />
<glyph unicode="n" horiz-adv-x="1239" d="M106 156v708q0 72 51.5 118t133.5 46q78 0 124 -43t46 -113q53 78 137 119t186 41q181 0 269 -107.5t88 -326.5v-442q0 -78 -49.5 -123t-133.5 -45t-133 45t-49 123v426q0 90 -31.5 131t-95.5 41q-82 0 -130 -52.5t-48 -140.5v-405q0 -78 -49 -123t-133 -45t-133.5 45 t-49.5 123z" />
<glyph unicode="o" d="M59 510q0 160 69 277.5t193.5 181t292.5 63.5t293 -63.5t193.5 -181t68.5 -277.5t-68.5 -278.5t-193.5 -183t-293 -64.5q-165 0 -291 64.5t-195 183t-69 278.5zM614 256q195 0 195 254t-195 254q-194 0 -194 -251q0 -257 194 -257z" />
<glyph unicode="p" horiz-adv-x="1280" d="M106 -215v1075q0 76 48.5 122t130.5 46q78 0 126 -41t54 -108q43 72 126 112.5t183 40.5q129 0 230.5 -66.5t158 -187.5t56.5 -276q0 -156 -56.5 -273.5t-157 -181t-231.5 -63.5q-96 0 -177 38.5t-126 104.5v-348q0 -72 -49 -115t-129 -43q-84 0 -135.5 46t-51.5 118z M465 506q0 -121 51 -185.5t148 -64.5q94 0 144 63.5t50 182.5q0 125 -51 191.5t-145 66.5t-145.5 -65.5t-51.5 -188.5z" />
<glyph unicode="q" horiz-adv-x="1280" d="M59 502q0 156 57.5 276.5t159 187t230.5 66.5q100 0 183 -41t126 -112q6 68 54.5 108.5t123.5 40.5q82 0 131.5 -46t49.5 -122v-1075q0 -72 -52.5 -118t-134.5 -46t-130 43t-48 115v348q-45 -66 -126 -104.5t-177 -38.5q-131 0 -232.5 63.5t-158 181t-56.5 273.5z M420 502q0 -119 51 -182.5t145 -63.5q97 0 148 64.5t51 185.5q0 123 -51 188.5t-148 65.5q-92 0 -144 -67.5t-52 -190.5z" />
<glyph unicode="r" horiz-adv-x="858" d="M106 156v708q0 78 52.5 121t126.5 43q76 0 122 -41t46 -115v-38q33 90 107.5 139t156.5 53l28 2q10 1 19 1q57 0 92 -33q41 -38 41 -111q0 -82 -38 -119t-136 -47l-61 -6q-102 -12 -146.5 -64.5t-44.5 -142.5v-350q0 -84 -52 -126t-130 -42t-130.5 42t-52.5 126z" />
<glyph unicode="s" horiz-adv-x="1003" d="M45 197q0 55 29.5 91t75.5 36q31 0 57 -7.5t65 -23.5q66 -23 116 -35t128 -12q55 0 87 15t32 44q0 23 -15.5 35t-58.5 23.5t-145 31.5q-182 35 -263 105.5t-81 199.5q0 94 58 170t160.5 119t229.5 43q92 0 179 -22.5t155 -63.5q63 -37 64 -119q0 -57 -31 -96t-76 -39 q-53 0 -127 35q-49 23 -87 34t-89 11t-80 -15.5t-29 -43.5q0 -33 40 -51.5t159 -40.5q199 -35 281 -106t82 -204q0 -150 -124 -238.5t-333 -88.5q-137 0 -231.5 20.5t-166.5 65.5q-29 14 -45 49t-16 78z" />
<glyph unicode="t" horiz-adv-x="829" d="M-29 874q0 133 164 134h60v133q0 78 49 124t133 46t133 -46t49 -124v-133h113q164 0 164 -134q0 -135 -164 -135h-113v-393q0 -39 23.5 -65.5t60.5 -28.5l59 -4q138 -8 138 -123q0 -73 -56 -107q-47 -29 -128 -29q-14 0 -29 1l-58 4q-184 14 -279 111.5t-95 271.5v362 h-60q-164 0 -164 135z" />
<glyph unicode="u" d="M98 418v442q0 78 49.5 123t133.5 45t133 -45t49 -123v-450q0 -147 127 -148q74 0 121 53.5t47 139.5v405q0 78 49 123t133 45t133 -45t49 -123v-708q0 -72 -51 -118t-133 -46q-74 0 -121 40t-49 107q-47 -74 -120 -112.5t-167 -38.5q-195 0 -289 107.5t-94 326.5z" />
<glyph unicode="v" horiz-adv-x="1107" d="M6 870q0 66 56.5 112t130.5 46q49 0 91 -25.5t64 -76.5l217 -469l215 469q23 51 63 75.5t87 24.5q68 0 120 -45t52 -109q0 -35 -17 -67l-358 -713q-25 -51 -71 -78.5t-101 -27.5t-102 27.5t-72 78.5l-358 713q-16 37 -17 65z" />
<glyph unicode="w" horiz-adv-x="1785" d="M20 868q0 68 56.5 114t126.5 46q49 0 89 -25.5t60 -78.5l195 -473l198 471q20 51 63.5 77.5t92.5 26.5t92 -26.5t64 -77.5l205 -473l190 477q21 51 58.5 76.5t82.5 25.5q68 0 121 -46t53 -112q0 -31 -16 -67l-332 -711q-23 -51 -68.5 -78.5t-101.5 -27.5q-55 0 -100 27.5 t-68 78.5l-194 432l-182 -432q-20 -51 -66.5 -78.5t-101.5 -27.5t-101.5 27.5t-70.5 78.5l-330 711q-14 31 -15 65z" />
<glyph unicode="x" horiz-adv-x="1124" d="M39 147q0 66 51 117l254 254l-233 230q-51 51 -52 116q0 66 48.5 115t113.5 49q70 0 121 -57l219 -223l221 223q53 55 121 55q66 0 114 -48t48 -112q0 -66 -51 -118l-234 -230l254 -254q51 -51 51 -117q0 -63 -49 -112t-114 -49q-68 0 -121 55l-240 250l-237 -250 q-53 -55 -121 -55q-66 0 -115 49t-49 112z" />
<glyph unicode="y" horiz-adv-x="1107" d="M6 870q0 66 57.5 112t129.5 46q49 0 91 -25.5t64 -76.5l217 -471l215 471q23 51 62 75.5t86 24.5q68 0 121 -45t53 -109q0 -35 -17 -67l-542 -1088q-25 -51 -65 -75.5t-87 -24.5q-68 0 -120 44t-52 108q0 35 19 71l133 269l-348 696q-16 37 -17 65z" />
<glyph unicode="z" horiz-adv-x="1062" d="M51 874q0 133 164 134h621q72 0 116.5 -45t44.5 -109q0 -66 -51 -123l-432 -463h356q164 0 164 -133q0 -135 -164 -135h-645q-72 0 -117 45t-45 109q0 68 52 125l430 460h-330q-164 0 -164 135z" />
<glyph unicode="{" horiz-adv-x="886" d="M39 539q0 59 32.5 95t98.5 42q63 6 89 41t26 114v316q0 139 79.5 218t219.5 79h170q53 0 93 -34t40 -101q0 -68 -40 -100.5t-93 -32.5h-31q-41 0 -61.5 -19.5t-20.5 -69.5v-301q0 -94 -54.5 -163.5t-123.5 -85.5q70 -16 124 -86t54 -164v-299q0 -49 20.5 -68.5 t61.5 -19.5h31q53 0 93 -33t40 -100q0 -68 -40 -102t-93 -34h-170q-139 0 -219 79t-80 218v314q0 80 -26 114.5t-89 40.5q-66 4 -98.5 41t-32.5 101z" />
<glyph unicode="|" horiz-adv-x="616" d="M141 -213v1501q0 72 47.5 119t120.5 47q72 0 119 -47t47 -119v-1501q0 -72 -47 -119t-119 -47q-71 0 -119.5 47t-48.5 119z" />
<glyph unicode="}" horiz-adv-x="886" d="M0 -233q0 68 39 100.5t94 32.5h31q41 0 61.5 19.5t20.5 68.5v299q0 94 53 163.5t123 86.5q-70 16 -123 85.5t-53 163.5v301q0 49 -20.5 69t-61.5 20h-31q-55 0 -94 32.5t-39 100.5t39 101.5t94 33.5h170q139 0 218 -79t79 -218v-316q0 -80 25.5 -114.5t91.5 -40.5 q63 -6 97 -42t34 -95q0 -61 -34 -99.5t-97 -42.5q-66 -6 -91.5 -40.5t-25.5 -114.5v-314q0 -139 -79 -218t-218 -79h-170q-55 0 -94 34t-39 102z" />
<glyph unicode="~" d="M141 573q0 31 17 56q43 68 108.5 104.5t136.5 36.5q57 0 111.5 -19.5t134.5 -56.5q57 -27 91 -40t63 -13q41 0 76 21q59 55 102 55q29 0 57 -21q23 -16 37.5 -41.5t14.5 -52.5t-19 -55q-43 -66 -108.5 -101.5t-137.5 -35.5q-59 0 -115.5 20.5t-129.5 56.5 q-57 27 -91 40.5t-63 13.5q-41 0 -76 -23q-57 -53 -104 -53q-31 0 -58 18q-47 33 -47 90z" />
<glyph unicode="&#xa2;" d="M145 502q0 184 96.5 317t260.5 185v116q0 63 40 102.5t103 39.5t103 -39t40 -103v-94q131 -18 234 -80q63 -39 63 -119q0 -63 -29.5 -103t-76.5 -40q-31 0 -59.5 9t-63.5 28q-41 18 -69.5 27.5t-63.5 9.5q-98 0 -150.5 -62.5t-52.5 -185.5t52.5 -187.5t150.5 -64.5 q35 0 64.5 9t66.5 28q41 18 66.5 27.5t56.5 9.5q47 0 76.5 -40t29.5 -104q0 -39 -16 -70.5t-45 -47.5q-102 -61 -234 -78v-96q0 -63 -39.5 -102.5t-103.5 -39.5q-63 0 -103 39t-40 103v110q-168 45 -262.5 174t-94.5 322z" />
<glyph unicode="&#xa3;" d="M45 152q0 72 40 107.5t124 39.5v317h-51q-49 0 -81 30t-32 77t32 76.5t81 29.5h51v220q0 123 61.5 217t172 145t255.5 51q119 0 241 -36.5t206 -100.5q35 -29 49 -56.5t14 -70.5q0 -63 -34.5 -107t-86.5 -44q-31 0 -51 8t-61 30q-25 10 -55 25q-63 31 -108.5 46t-94.5 15 q-68 0 -101.5 -39.5t-33.5 -107.5v-195h237q47 0 80 -30.5t33 -75.5t-33 -76t-80 -31h-237v-317h448q90 0 134 -36t44 -111q0 -78 -44 -115t-134 -37h-807q-90 0 -134 37t-44 115z" />
<glyph unicode="&#xa5;" d="M12 1288q0 70 52.5 121t119.5 51q74 0 125 -63l303 -369l303 367q51 63 125 63q68 0 122.5 -52t54.5 -122q0 -59 -46 -113l-286 -331h139q45 0 78 -30t33 -79q0 -47 -33 -76.5t-78 -29.5h-223v-103h223q45 0 78 -29.5t33 -76.5q0 -49 -33 -79t-78 -30h-223v-133 q0 -90 -52.5 -138t-134.5 -48q-84 0 -137 48t-53 138v133h-219q-45 0 -78 30t-33 79q0 47 33 76.5t78 29.5h219v103h-219q-45 0 -78 29.5t-33 76.5q0 49 33 79t78 30h137l-285 334q-45 53 -45 114z" />
<glyph unicode="&#xa8;" horiz-adv-x="614" d="M-68 1348q0 74 47 117.5t125 43.5t126 -44t48 -117q0 -74 -48 -119t-126 -45t-125 45t-47 119zM338 1348q0 74 47 117.5t125 43.5q76 0 124 -44t48 -117q0 -74 -47.5 -119t-124.5 -45q-78 0 -125 45t-47 119z" />
<glyph unicode="&#xa9;" horiz-adv-x="1669" d="M102 723q0 205 96.5 372t264.5 263t373 96t371.5 -96t263 -263t96.5 -372t-96.5 -372t-264.5 -264t-370 -97q-205 0 -373 97t-264.5 264t-96.5 372zM252 723q0 -168 74.5 -303t208 -213t301.5 -78q165 0 298.5 78t208 213t74.5 303t-74.5 303t-208 212t-298.5 77 q-168 0 -301.5 -77t-208 -212t-74.5 -303zM412 723q0 131 56 230.5t157.5 154.5t234.5 55q90 0 153.5 -15t108.5 -50q31 -25 41.5 -47.5t10.5 -57.5q0 -45 -29 -86t-78 -41q-23 0 -45.5 7.5t-46.5 19.5q-6 2 -36 11t-56 9q-74 0 -109 -41t-35 -149q0 -109 35 -151t109 -42 q27 0 56.5 9.5t35.5 11.5q25 12 47 19.5t45 7.5q49 0 78 -41t29 -86q0 -39 -10.5 -62.5t-41.5 -42.5q-66 -33 -124 -49t-138 -16q-133 0 -234.5 55t-157.5 155.5t-56 231.5z" />
<glyph unicode="&#xaa;" horiz-adv-x="702" d="M23 1018q0 86 73.5 130t245.5 44h51v20q0 18 -12 24.5t-53 6.5q-20 0 -58.5 -7t-68.5 -17q-14 -4 -31.5 -4.5t-22.5 -0.5q-45 0 -69.5 32t-24.5 69q0 35 13.5 55.5t39.5 32.5q45 18 115 34.5t139 16.5q160 0 237 -72.5t77 -224.5v-196q0 -74 -39 -109t-105 -35 q-49 0 -86.5 28.5t-44.5 90.5q-20 -59 -65 -89t-105 -30q-90 0 -148 61.5t-58 139.5zM283 1028q0 -12 10 -19.5t31 -7.5q30 0 49.5 14.5t19.5 43.5v8h-18q-92 0 -92 -39zM397 958v3v-3z" />
<glyph unicode="&#xab;" horiz-adv-x="1142" d="M104 545q0 49 35 106l152 236q23 37 57.5 55.5t69.5 18.5q53 0 93 -35t40 -90q0 -39 -16 -72l-97 -219l97 -219q16 -33 16 -70q0 -55 -39 -90t-92 -35q-80 0 -127 74l-154 233q-35 57 -35 107zM591 545q0 49 35 106l152 236q23 37 57.5 55.5t69.5 18.5q53 0 93 -35 t40 -90q0 -39 -16 -72l-97 -219l97 -219q16 -33 16 -70q0 -55 -39 -90t-92 -35q-80 0 -127 74l-154 233q-35 57 -35 107z" />
<glyph unicode="&#xac;" d="M115 791q0 51 34.5 86.5t86.5 35.5h757q51 0 86 -34.5t35 -85.5v-406q0 -51 -35 -87t-88 -36q-59 0 -94 36t-35 87v283h-626q-51 0 -86 34.5t-35 86.5z" />
<glyph unicode="&#xad;" horiz-adv-x="913" d="M94 551q0 141 170 141h385q86 0 128 -37t42 -104q0 -68 -42 -105.5t-128 -37.5h-385q-170 0 -170 143z" />
<glyph unicode="&#xae;" horiz-adv-x="1669" d="M102 723q0 205 96.5 372t264.5 263t373 96q204 0 371 -96t263.5 -263t96.5 -372t-96.5 -372t-264.5 -264t-370 -97q-205 0 -373 97t-264.5 264t-96.5 372zM252 723q0 -168 74.5 -303t208 -213t301.5 -78q165 0 298.5 78t208 213t74.5 303t-74.5 303t-208 212t-298.5 77 q-168 0 -301.5 -77t-208 -212t-74.5 -303zM459 440v570q0 147 145 147h289q166 0 253 -76.5t87 -206.5q0 -94 -51.5 -165.5t-147.5 -100.5q47 -4 82 -23.5t76 -64.5l25 -18q36 -43 36 -86q0 -55 -51 -94t-117 -39q-84 0 -131 63l-161 223q-6 12 -17 17v-146 q0 -78 -44 -118.5t-109 -40.5q-72 0 -118 40.5t-46 118.5zM772 811h80q49 0 64.5 11.5t15.5 41.5q0 33 -15.5 44.5t-64.5 11.5h-80v-109z" />
<glyph unicode="&#xb1;" d="M115 696q0 53 34.5 89t86.5 36h258v148q0 51 34.5 86t85.5 35t86 -35t35 -86v-148h258q51 0 86 -34.5t35 -86.5q0 -53 -35 -89t-86 -36h-258v-147q0 -51 -33.5 -86t-87.5 -35q-51 0 -85.5 35t-34.5 86v147h-258q-52 0 -86.5 35t-34.5 86zM127 121q0 51 35 87t86 36h758 q51 0 85.5 -35t34.5 -86t-34.5 -87t-85.5 -36h-758q-51 0 -86 35t-35 86z" />
<glyph unicode="&#xb4;" horiz-adv-x="614" d="M223 1217q0 33 22 61l152 209q29 39 64.5 58.5t72.5 19.5q59 0 104.5 -42t45.5 -100q0 -72 -76 -123l-232 -151q-28 -21 -61 -21q-39 0 -65.5 27t-26.5 62z" />
<glyph unicode="&#xb5;" d="M98 -221v1081q0 78 49.5 123t133.5 45t133 -45t49 -123v-450q0 -147 127 -148q76 0 122 54.5t46 138.5v405q0 78 49 123t133 45t133 -45t49 -123v-708q0 -72 -51 -118t-133 -46q-74 0 -121 40t-49 107q-47 -74 -120 -112.5t-167 -38.5h-18v-199q0 -72 -51.5 -118 t-135.5 -46q-82 0 -130 43t-48 115z" />
<glyph unicode="&#xb8;" horiz-adv-x="614" d="M76 -322q0 31 19.5 54.5t45.5 15.5q82 -16 115 -16q86 0 86 45q0 35 -45 35q-16 0 -43 -5.5t-41 -5.5q-20 0 -32.5 11.5t-8.5 31.5l25 197h186l-21 -125q16 2 44 2q63 0 107 -39t44 -102q0 -82 -74.5 -132.5t-214.5 -50.5q-92 0 -147 19q-45 14 -45 65z" />
<glyph unicode="&#xba;" horiz-adv-x="790" d="M27 1137q0 133 93 225t275 92q184 0 276.5 -92t92.5 -225q0 -135 -92 -227.5t-277 -92.5q-182 0 -275 92t-93 228zM317 1137q0 -41 21.5 -65.5t56.5 -24.5q37 0 60.5 24.5t23.5 65.5q0 90 -84 90q-78 0 -78 -90z" />
<glyph unicode="&#xbb;" horiz-adv-x="1126" d="M102 836q0 55 40 91t96 36q37 0 70.5 -19.5t56.5 -56.5l137 -236q35 -57 35 -106t-35 -107l-137 -233q-23 -39 -56 -57.5t-69 -18.5q-53 0 -94.5 36t-41.5 91q0 37 17 70l100 219l-100 219q-18 41 -19 72zM589 836q0 55 40 91t96 36q37 0 70.5 -19.5t56.5 -56.5l137 -236 q35 -57 35 -106t-35 -107l-137 -233q-23 -39 -56 -57.5t-69 -18.5q-53 0 -94.5 36t-41.5 91q0 37 17 70l100 219l-100 219q-18 41 -19 72z" />
<glyph unicode="&#xc0;" horiz-adv-x="1558" d="M25 156q0 37 18 75l541 1110q27 55 79 85t115 30q61 0 114.5 -29.5t80.5 -85.5l540 -1110q19 -38 19 -75q0 -68 -54.5 -115t-123.5 -47q-47 0 -86 24.5t-62 73.5l-92 207h-663l-95 -207q-23 -49 -62.5 -73.5t-86.5 -24.5q-70 0 -126 47t-56 115zM426 1772q0 49 37.5 87.5 t91.5 38.5q57 0 112 -49l166 -155q29 -29 29 -62q0 -31 -24.5 -53.5t-57.5 -22.5q-23 0 -41 9l-219 86q-94 43 -94 121zM578 582h409l-205 456z" />
<glyph unicode="&#xc1;" horiz-adv-x="1558" d="M25 156q0 37 18 75l541 1110q27 55 79 85t115 30q61 0 114.5 -29.5t80.5 -85.5l540 -1110q19 -38 19 -75q0 -68 -54.5 -115t-123.5 -47q-47 0 -86 24.5t-62 73.5l-92 207h-663l-95 -207q-23 -49 -62.5 -73.5t-86.5 -24.5q-70 0 -126 47t-56 115zM578 582h409l-205 456z M692 1632q0 31 31 62l165 155q53 51 111 52q53 0 91 -39t38 -90q0 -78 -92 -121l-219 -86q-18 -9 -41 -9q-35 0 -59.5 23t-24.5 53z" />
<glyph unicode="&#xc2;" horiz-adv-x="1558" d="M25 156q0 37 18 75l541 1110q27 55 79 85t115 30q61 0 114.5 -29.5t80.5 -85.5l540 -1110q19 -38 19 -75q0 -68 -54.5 -115t-123.5 -47q-47 0 -86 24.5t-62 73.5l-92 207h-663l-95 -207q-23 -49 -62.5 -73.5t-86.5 -24.5q-70 0 -126 47t-56 115zM462 1655q0 45 43 80 l156 118q51 43 117 43t117 -43l155 -118q41 -35 41 -80q0 -39 -29.5 -67.5t-72.5 -28.5q-45 0 -82 34l-129 115l-129 -115q-37 -34 -82 -34q-43 0 -74 28.5t-31 67.5zM578 582h409l-205 456z" />
<glyph unicode="&#xc3;" horiz-adv-x="1558" d="M25 156q0 37 18 75l541 1110q27 55 79 85t115 30q61 0 114.5 -29.5t80.5 -85.5l540 -1110q19 -38 19 -75q0 -68 -54.5 -115t-123.5 -47q-47 0 -86 24.5t-62 73.5l-92 207h-663l-95 -207q-23 -49 -62.5 -73.5t-86.5 -24.5q-70 0 -126 47t-56 115zM417 1663q0 45 27 93 t74 80t104 32q61 0 156 -27q102 -25 153 -24q31 0 62 26q35 31 74 31q35 0 53 -20.5t18 -57.5q0 -45 -27.5 -93t-74.5 -80t-103 -32q-61 0 -155 27q-102 25 -154 24q-18 0 -30.5 -6t-30.5 -20q-33 -33 -74 -33q-33 0 -52.5 21.5t-19.5 58.5zM578 582h409l-205 456z" />
<glyph unicode="&#xc4;" horiz-adv-x="1558" d="M25 156q0 37 18 75l541 1110q27 55 79 85t115 30q61 0 114.5 -29.5t80.5 -85.5l540 -1110q19 -38 19 -75q0 -68 -54.5 -115t-123.5 -47q-47 0 -86 24.5t-62 73.5l-92 207h-663l-95 -207q-23 -49 -62.5 -73.5t-86.5 -24.5q-70 0 -126 47t-56 115zM403 1731q0 74 47 117.5 t125 43.5t126 -44t48 -117q0 -76 -48 -121t-126 -45t-125 45t-47 121zM578 582h409l-205 456zM809 1731q0 74 47 117.5t125 43.5q76 0 124 -44t48 -117q0 -76 -47.5 -121t-124.5 -45q-78 0 -125 45t-47 121z" />
<glyph unicode="&#xc5;" horiz-adv-x="1558" d="M25 156q0 37 18 75l582 1196q-76 66 -76 170q0 94 67.5 160t163.5 66t163 -65.5t67 -160.5q0 -104 -76 -170l579 -1196q19 -38 19 -77q0 -68 -54.5 -115t-123.5 -47q-45 0 -85 25.5t-63 74.5l-92 207h-663l-95 -207q-25 -51 -63.5 -75.5t-87.5 -24.5q-70 0 -125 47 t-55 117zM578 582h409l-205 456zM694 1597q0 -39 24.5 -64.5t61.5 -25.5t60.5 26t23.5 64q0 37 -23.5 63t-60.5 26t-61.5 -26t-24.5 -63z" />
<glyph unicode="&#xc6;" horiz-adv-x="2056" d="M2 129q0 51 35 102l729 1110q33 47 89 75t122 28h870q88 0 133 -37t45 -107q0 -72 -46 -108.5t-132 -36.5h-618l63 -276h514q178 0 179 -146q0 -143 -179 -143h-448l67 -301h422q178 -1 178 -146q0 -70 -45 -106.5t-133 -36.5h-559q-63 0 -107 26.5t-57 71.5l-45 201 h-608l-129 -207q-33 -51 -79 -76.5t-97 -25.5q-66 0 -115 40t-49 99zM649 582h367l-96 434z" />
<glyph unicode="&#xc7;" horiz-adv-x="1388" d="M94 723q0 223 89 391t252 258t380 90q260 0 457 -137q35 -25 50 -53.5t15 -73.5q0 -63 -35.5 -107t-87.5 -44q-31 0 -55 9t-57 29q-72 43 -135.5 61.5t-130.5 18.5q-182 0 -271.5 -109.5t-89.5 -332.5q0 -225 89 -334.5t272 -109.5q61 0 118.5 19t147.5 60q43 23 63.5 31 t48.5 8q52 0 87.5 -44t35.5 -107q0 -43 -15 -73t-50 -54q-174 -121 -387 -135l-13 -68q16 2 43 2q63 0 107.5 -39t44.5 -102q0 -82 -74.5 -132.5t-214.5 -50.5q-92 0 -147 19q-45 14 -45 65q0 31 19.5 54.5t45.5 15.5q82 -16 115 -16q86 0 86 45q0 35 -45 35q-16 0 -43 -5.5 t-41 -5.5q-20 0 -32.5 11.5t-8.5 31.5l18 144q-186 23 -322 119t-210 253.5t-74 362.5z" />
<glyph unicode="&#xc8;" horiz-adv-x="1222" d="M131 174v1096q0 84 45 129t129 45h709q88 0 133 -37t45 -107q0 -147 -178 -147h-516v-274h475q178 0 178 -146q0 -70 -45 -106.5t-133 -36.5h-475v-299h516q178 0 178 -148q0 -70 -45 -106.5t-133 -36.5h-709q-84 0 -129 45t-45 129zM330 1772q0 49 37.5 87.5t91.5 38.5 q57 0 112 -49l166 -155q29 -29 29 -62q0 -31 -24.5 -53.5t-57.5 -22.5q-23 0 -41 9l-219 86q-94 43 -94 121z" />
<glyph unicode="&#xc9;" horiz-adv-x="1222" d="M131 174v1096q0 84 45 129t129 45h709q88 0 133 -37t45 -107q0 -147 -178 -147h-516v-274h475q178 0 178 -146q0 -70 -45 -106.5t-133 -36.5h-475v-299h516q178 0 178 -148q0 -70 -45 -106.5t-133 -36.5h-709q-84 0 -129 45t-45 129zM596 1632q0 31 31 62l165 155 q53 51 111 52q53 0 91 -39t38 -90q0 -78 -92 -121l-219 -86q-18 -9 -41 -9q-35 0 -59.5 23t-24.5 53z" />
<glyph unicode="&#xca;" horiz-adv-x="1222" d="M131 174v1096q0 84 45 129t129 45h709q88 0 133 -37t45 -107q0 -147 -178 -147h-516v-274h475q178 0 178 -146q0 -70 -45 -106.5t-133 -36.5h-475v-299h516q178 0 178 -148q0 -70 -45 -106.5t-133 -36.5h-709q-84 0 -129 45t-45 129zM366 1655q0 45 43 80l156 118 q51 43 117 43t117 -43l155 -118q41 -35 41 -80q0 -39 -29.5 -67.5t-72.5 -28.5q-45 0 -82 34l-129 115l-129 -115q-37 -34 -82 -34q-43 0 -74 28.5t-31 67.5z" />
<glyph unicode="&#xcb;" horiz-adv-x="1222" d="M131 174v1096q0 84 45 129t129 45h709q88 0 133 -37t45 -107q0 -147 -178 -147h-516v-274h475q178 0 178 -146q0 -70 -45 -106.5t-133 -36.5h-475v-299h516q178 0 178 -148q0 -70 -45 -106.5t-133 -36.5h-709q-84 0 -129 45t-45 129zM307 1731q0 74 47 117.5t125 43.5 t126 -44t48 -117q0 -76 -48 -121t-126 -45t-125 45t-47 121zM713 1731q0 74 47 117.5t125 43.5q76 0 124 -44t48 -117q0 -76 -47.5 -121t-124.5 -45q-78 0 -125 45t-47 121z" />
<glyph unicode="&#xcc;" horiz-adv-x="638" d="M-34 1772q0 49 37.5 87.5t91.5 38.5q57 0 112 -49l166 -155q29 -29 29 -62q0 -31 -24.5 -53.5t-57.5 -22.5q-23 0 -41 9l-219 86q-94 43 -94 121zM131 174v1096q0 84 50 134t136 50q88 0 139.5 -50t51.5 -134v-1096q0 -86 -51 -136t-140 -50q-86 0 -136 50t-50 136z" />
<glyph unicode="&#xcd;" horiz-adv-x="638" d="M131 174v1096q0 84 50 134t136 50q88 0 139.5 -50t51.5 -134v-1096q0 -86 -51 -136t-140 -50q-86 0 -136 50t-50 136zM232 1632q0 31 31 62l165 155q53 51 111 52q53 0 91 -39t38 -90q0 -78 -92 -121l-219 -86q-18 -9 -41 -9q-35 0 -59.5 23t-24.5 53z" />
<glyph unicode="&#xce;" horiz-adv-x="638" d="M2 1655q0 45 43 80l156 118q51 43 117 43t117 -43l155 -118q41 -35 41 -80q0 -39 -29.5 -67.5t-72.5 -28.5q-45 0 -82 34l-129 115l-129 -115q-37 -34 -82 -34q-43 0 -74 28.5t-31 67.5zM131 174v1096q0 84 50 134t136 50q88 0 139.5 -50t51.5 -134v-1096q0 -86 -51 -136 t-140 -50q-86 0 -136 50t-50 136z" />
<glyph unicode="&#xcf;" horiz-adv-x="638" d="M-57 1731q0 74 47 117.5t125 43.5t126 -44t48 -117q0 -76 -48 -121t-126 -45t-125 45t-47 121zM131 174v1096q0 84 50 134t136 50q88 0 139.5 -50t51.5 -134v-1096q0 -86 -51 -136t-140 -50q-86 0 -136 50t-50 136zM349 1731q0 74 47 117.5t125 43.5q76 0 124 -44 t48 -117q0 -76 -47.5 -121t-124.5 -45q-78 0 -125 45t-47 121z" />
<glyph unicode="&#xd0;" horiz-adv-x="1656" d="M0 729q0 68 43 104.5t125 36.5h37v400q0 84 45 129t129 45h414q239 0 412 -87t265.5 -249t92.5 -385q0 -225 -91.5 -388t-264.5 -249t-414 -86h-414q-84 0 -129 45t-45 129v412h-37q-82 0 -125 36.5t-43 106.5zM582 303h184q211 0 316.5 103.5t105.5 316.5t-105.5 315.5 t-316.5 102.5h-184v-271h241q80 0 124 -36.5t44 -104.5q0 -70 -44 -106.5t-124 -36.5h-241v-283z" />
<glyph unicode="&#xd1;" horiz-adv-x="1550" d="M131 174v1096q0 82 49 133t127 51q88 0 137 -61l623 -775v652q0 84 48 134t126 50t128 -51t50 -133v-1096q0 -84 -49 -135t-127 -51q-92 0 -139 61l-623 776v-651q0 -84 -47 -135t-127 -51q-78 0 -127 51t-49 135zM413 1663q0 45 27 93t74 80t104 32q61 0 156 -27 q102 -25 153 -24q31 0 62 26q35 31 74 31q35 0 53 -20.5t18 -57.5q0 -45 -27.5 -93t-74.5 -80t-103 -32q-61 0 -155 27q-102 25 -154 24q-18 0 -30.5 -6t-30.5 -20q-33 -33 -74 -33q-33 0 -52.5 21.5t-19.5 58.5z" />
<glyph unicode="&#xd2;" horiz-adv-x="1630" d="M94 723q0 225 88 392t251 257t384 90t384 -90t250 -257t87 -392t-88 -392t-251 -258t-382 -91q-221 0 -384 91t-251 258t-88 392zM463 1772q0 49 37.5 87.5t91.5 38.5q57 0 112 -49l166 -155q29 -29 29 -62q0 -31 -24.5 -53.5t-57.5 -22.5q-23 0 -41 9l-219 86 q-94 43 -94 121zM469 723q0 -223 92 -338t256 -115t256 116t92 337t-93 336t-255 115q-164 0 -256 -114t-92 -337z" />
<glyph unicode="&#xd3;" horiz-adv-x="1630" d="M94 723q0 225 88 392t251 257t384 90t384 -90t250 -257t87 -392t-88 -392t-251 -258t-382 -91q-221 0 -384 91t-251 258t-88 392zM469 723q0 -223 92 -338t256 -115t256 116t92 337t-93 336t-255 115q-164 0 -256 -114t-92 -337zM729 1632q0 31 31 62l165 155 q53 51 111 52q53 0 91 -39t38 -90q0 -78 -92 -121l-219 -86q-18 -9 -41 -9q-35 0 -59.5 23t-24.5 53z" />
<glyph unicode="&#xd4;" horiz-adv-x="1630" d="M94 723q0 225 88 392t251 257t384 90t384 -90t250 -257t87 -392t-88 -392t-251 -258t-382 -91q-221 0 -384 91t-251 258t-88 392zM469 723q0 -223 92 -338t256 -115t256 116t92 337t-93 336t-255 115q-164 0 -256 -114t-92 -337zM499 1655q0 45 43 80l156 118 q51 43 117 43t117 -43l155 -118q41 -35 41 -80q0 -39 -29.5 -67.5t-72.5 -28.5q-45 0 -82 34l-129 115l-129 -115q-37 -34 -82 -34q-43 0 -74 28.5t-31 67.5z" />
<glyph unicode="&#xd5;" horiz-adv-x="1630" d="M94 723q0 225 88 392t251 257t384 90t384 -90t250 -257t87 -392t-88 -392t-251 -258t-382 -91q-221 0 -384 91t-251 258t-88 392zM454 1663q0 45 27 93t74 80t104 32q61 0 156 -27q102 -25 153 -24q31 0 62 26q35 31 74 31q35 0 53 -20.5t18 -57.5q0 -45 -27.5 -93 t-74.5 -80t-103 -32q-61 0 -155 27q-102 25 -154 24q-18 0 -30.5 -6t-30.5 -20q-33 -33 -74 -33q-33 0 -52.5 21.5t-19.5 58.5zM469 723q0 -223 92 -338t256 -115t256 116t92 337t-93 336t-255 115q-164 0 -256 -114t-92 -337z" />
<glyph unicode="&#xd6;" horiz-adv-x="1630" d="M94 723q0 225 88 392t251 257t384 90t384 -90t250 -257t87 -392t-88 -392t-251 -258t-382 -91q-221 0 -384 91t-251 258t-88 392zM440 1731q0 74 47 117.5t125 43.5t126 -44t48 -117q0 -76 -48 -121t-126 -45t-125 45t-47 121zM469 723q0 -223 92 -338t256 -115t256 116 t92 337t-93 336t-255 115q-164 0 -256 -114t-92 -337zM846 1731q0 74 47 117.5t125 43.5q76 0 124 -44t48 -117q0 -76 -47.5 -121t-124.5 -45q-78 0 -125 45t-47 121z" />
<glyph unicode="&#xd8;" horiz-adv-x="1630" d="M94 723q0 225 88 392t251 257t384 90q133 0 250 -35l27 48q29 49 65.5 72.5t75.5 23.5q51 0 89 -37t38 -94q0 -47 -31 -103l-22 -41q110 -96 169.5 -242.5t59.5 -330.5q0 -225 -88 -392t-251 -258t-382 -91q-135 0 -252 34l-28 -47q-29 -49 -66 -72.5t-76 -23.5 q-51 0 -89 37t-38 94q0 47 31 102l25 44q-111 98 -170.5 243.5t-59.5 329.5zM469 723q0 -152 43 -250l399 688q-43 12 -94 13q-164 0 -256 -114t-92 -337zM719 283q47 -12 98 -13q164 0 256 116t92 337q0 150 -45 252z" />
<glyph unicode="&#xd9;" horiz-adv-x="1525" d="M123 608v662q0 84 50 134t134 50t134.5 -50t50.5 -134v-676q0 -156 69.5 -240t200.5 -84t200.5 84t69.5 240v676q0 84 50.5 134t134.5 50t135 -50t51 -134v-662q0 -305 -165 -465.5t-476 -160.5q-313 0 -476 159.5t-163 466.5zM410 1772q0 49 37.5 87.5t91.5 38.5 q57 0 112 -49l166 -155q29 -29 29 -62q0 -31 -24.5 -53.5t-57.5 -22.5q-23 0 -41 9l-219 86q-94 43 -94 121z" />
<glyph unicode="&#xda;" horiz-adv-x="1525" d="M123 608v662q0 84 50 134t134 50t134.5 -50t50.5 -134v-676q0 -156 69.5 -240t200.5 -84t200.5 84t69.5 240v676q0 84 50.5 134t134.5 50t135 -50t51 -134v-662q0 -305 -165 -465.5t-476 -160.5q-313 0 -476 159.5t-163 466.5zM676 1632q0 31 31 62l165 155q53 51 111 52 q53 0 91 -39t38 -90q0 -78 -92 -121l-219 -86q-18 -9 -41 -9q-35 0 -59.5 23t-24.5 53z" />
<glyph unicode="&#xdb;" horiz-adv-x="1525" d="M123 608v662q0 84 50 134t134 50t134.5 -50t50.5 -134v-676q0 -156 69.5 -240t200.5 -84t200.5 84t69.5 240v676q0 84 50.5 134t134.5 50t135 -50t51 -134v-662q0 -305 -165 -465.5t-476 -160.5q-313 0 -476 159.5t-163 466.5zM446 1655q0 45 43 80l156 118q51 43 117 43 t117 -43l155 -118q41 -35 41 -80q0 -39 -29.5 -67.5t-72.5 -28.5q-45 0 -82 34l-129 115l-129 -115q-37 -34 -82 -34q-43 0 -74 28.5t-31 67.5z" />
<glyph unicode="&#xdc;" horiz-adv-x="1525" d="M123 608v662q0 84 50 134t134 50t134.5 -50t50.5 -134v-676q0 -156 69.5 -240t200.5 -84t200.5 84t69.5 240v676q0 84 50.5 134t134.5 50t135 -50t51 -134v-662q0 -305 -165 -465.5t-476 -160.5q-313 0 -476 159.5t-163 466.5zM387 1731q0 74 47 117.5t125 43.5t126 -44 t48 -117q0 -76 -48 -121t-126 -45t-125 45t-47 121zM793 1731q0 74 47 117.5t125 43.5q76 0 124 -44t48 -117q0 -76 -47.5 -121t-124.5 -45q-78 0 -125 45t-47 121z" />
<glyph unicode="&#xdd;" horiz-adv-x="1331" d="M4 1286q0 68 53.5 119t120.5 51q72 0 125 -61l363 -430l362 430q53 61 125 61q68 0 122 -52t54 -120q0 -59 -45 -113l-430 -497v-500q0 -90 -52 -138t-134 -48q-84 0 -137.5 48t-53.5 138v500l-426 497q-47 53 -47 115zM580 1632q0 31 31 62l165 155q53 51 111 52 q53 0 91 -39t38 -90q0 -78 -92 -121l-219 -86q-18 -9 -41 -9q-35 0 -59.5 23t-24.5 53z" />
<glyph unicode="&#xde;" horiz-adv-x="1390" d="M131 174v1096q0 84 50 134t134 50t134.5 -50t50.5 -134v-107h327q238 0 373 -114.5t135 -315.5q0 -199 -136 -314.5t-372 -115.5h-327v-129q0 -84 -50.5 -135t-134.5 -51t-134 50t-50 136zM500 588h262q117 0 169 33.5t52 111.5q0 76 -53 111t-168 35h-262v-291z" />
<glyph unicode="&#xdf;" horiz-adv-x="1439" d="M106 156v729q0 281 156 429t447 148q217 0 337.5 -84t120.5 -233q0 -76 -34.5 -135.5t-98.5 -128.5q-41 -45 -62.5 -77t-21.5 -63q0 -33 35 -51t109 -39q94 -29 156.5 -58.5t108.5 -92t46 -164.5q0 -162 -119 -257t-319 -95q-212 0 -351 86q-29 14 -46 49t-17 78 q0 55 29.5 91t76.5 36q31 0 57.5 -8.5t69.5 -24.5q49 -23 92.5 -34t100.5 -11q98 0 98 59q0 35 -36.5 55.5t-114.5 42.5q-94 31 -154.5 60t-104.5 87t-44 152q0 78 33.5 137.5t95.5 135.5q41 49 59 77.5t18 57.5q0 96 -139 96q-104 0 -161.5 -68.5t-57.5 -195.5v-786 q0 -78 -49 -123t-133 -45t-133.5 45t-49.5 123z" />
<glyph unicode="&#xe0;" horiz-adv-x="1130" d="M63 311q0 109 56.5 173.5t179.5 93t332 28.5h55v25q0 72 -32.5 103.5t-110.5 31.5q-84 0 -246 -57q-47 -16 -80 -17q-51 0 -82 37t-31 96q0 45 18.5 74t59.5 51q72 37 180.5 59.5t212.5 22.5q234 0 345.5 -111.5t111.5 -338.5v-428q0 -78 -46 -122t-128 -44 q-72 0 -118 41t-50 110q-29 -74 -96.5 -114.5t-161.5 -40.5q-104 0 -188 42t-132.5 116.5t-48.5 168.5zM199 1425q0 57 45 99.5t104 42.5q80 0 138 -80l151 -209q23 -29 23 -61q0 -37 -26.5 -63t-65.5 -26q-33 0 -62 21l-231 151q-76 53 -76 125zM412 336q0 -47 29.5 -78 t76.5 -31q74 0 121 52.5t47 134.5v24h-33q-131 0 -186 -23.5t-55 -78.5z" />
<glyph unicode="&#xe1;" horiz-adv-x="1130" d="M63 311q0 109 56.5 173.5t179.5 93t332 28.5h55v25q0 72 -32.5 103.5t-110.5 31.5q-84 0 -246 -57q-47 -16 -80 -17q-51 0 -82 37t-31 96q0 45 18.5 74t59.5 51q72 37 180.5 59.5t212.5 22.5q234 0 345.5 -111.5t111.5 -338.5v-428q0 -78 -46 -122t-128 -44 q-72 0 -118 41t-50 110q-29 -74 -96.5 -114.5t-161.5 -40.5q-104 0 -188 42t-132.5 116.5t-48.5 168.5zM412 336q0 -47 29.5 -78t76.5 -31q74 0 121 52.5t47 134.5v24h-33q-131 0 -186 -23.5t-55 -78.5zM492 1217q0 33 22 61l152 209q29 39 64.5 58.5t72.5 19.5 q59 0 104.5 -42t45.5 -100q0 -72 -76 -123l-232 -151q-28 -21 -61 -21q-39 0 -65.5 27t-26.5 62z" />
<glyph unicode="&#xe2;" horiz-adv-x="1130" d="M63 311q0 109 56.5 173.5t179.5 93t332 28.5h55v25q0 72 -32.5 103.5t-110.5 31.5q-84 0 -246 -57q-47 -16 -80 -17q-51 0 -82 37t-31 96q0 45 18.5 74t59.5 51q72 37 180.5 59.5t212.5 22.5q234 0 345.5 -111.5t111.5 -338.5v-428q0 -78 -46 -122t-128 -44 q-72 0 -118 41t-50 110q-29 -74 -96.5 -114.5t-161.5 -40.5q-104 0 -188 42t-132.5 116.5t-48.5 168.5zM248 1233q0 35 27 67l168 199q31 39 60.5 55.5t72.5 16.5q45 0 72.5 -17.5t60.5 -58.5l168 -195q25 -31 24 -67q0 -43 -32.5 -74t-75.5 -31q-53 0 -92 54l-125 174 l-125 -174q-39 -54 -92 -54q-43 0 -77 31t-34 74zM412 336q0 -47 29.5 -78t76.5 -31q74 0 121 52.5t47 134.5v24h-33q-131 0 -186 -23.5t-55 -78.5z" />
<glyph unicode="&#xe3;" horiz-adv-x="1130" d="M63 311q0 109 56.5 173.5t179.5 93t332 28.5h55v25q0 72 -32.5 103.5t-110.5 31.5q-84 0 -246 -57q-47 -16 -80 -17q-51 0 -82 37t-31 96q0 45 18.5 74t59.5 51q72 37 180.5 59.5t212.5 22.5q234 0 345.5 -111.5t111.5 -338.5v-428q0 -78 -46 -122t-128 -44 q-72 0 -118 41t-50 110q-29 -74 -96.5 -114.5t-161.5 -40.5q-104 0 -188 42t-132.5 116.5t-48.5 168.5zM215 1272q0 45 28 101.5t75 96t102 39.5q37 0 72 -14t92 -43q33 -16 65.5 -30.5t55.5 -14.5q31 0 50 14.5t40 40.5q20 25 35.5 36t40.5 11q31 0 48 -24.5t17 -65.5 q0 -45 -27.5 -101t-74.5 -96t-103 -40q-36 0 -71 14t-92 43q-33 16 -66 30.5t-55 14.5q-31 0 -50.5 -14.5t-39.5 -40.5q-20 -25 -36 -36t-40 -11q-29 0 -47.5 24.5t-18.5 65.5zM412 336q0 -47 29.5 -78t76.5 -31q74 0 121 52.5t47 134.5v24h-33q-131 0 -186 -23.5t-55 -78.5 z" />
<glyph unicode="&#xe4;" horiz-adv-x="1130" d="M63 311q0 109 56.5 173.5t179.5 93t332 28.5h55v25q0 72 -32.5 103.5t-110.5 31.5q-84 0 -246 -57q-47 -16 -80 -17q-51 0 -82 37t-31 96q0 45 18.5 74t59.5 51q72 37 180.5 59.5t212.5 22.5q234 0 345.5 -111.5t111.5 -338.5v-428q0 -78 -46 -122t-128 -44 q-72 0 -118 41t-50 110q-29 -74 -96.5 -114.5t-161.5 -40.5q-104 0 -188 42t-132.5 116.5t-48.5 168.5zM201 1348q0 74 47 117.5t125 43.5t126 -44t48 -117q0 -74 -48 -119t-126 -45t-125 45t-47 119zM412 336q0 -47 29.5 -78t76.5 -31q74 0 121 52.5t47 134.5v24h-33 q-131 0 -186 -23.5t-55 -78.5zM607 1348q0 74 47 117.5t125 43.5q76 0 124 -44t48 -117q0 -74 -47.5 -119t-124.5 -45q-78 0 -125 45t-47 119z" />
<glyph unicode="&#xe5;" horiz-adv-x="1130" d="M63 311q0 109 56.5 173.5t179.5 93t332 28.5h55v25q0 72 -32.5 103.5t-110.5 31.5q-84 0 -246 -57q-47 -16 -80 -17q-51 0 -82 37t-31 96q0 45 18.5 74t59.5 51q72 37 180.5 59.5t212.5 22.5q234 0 345.5 -111.5t111.5 -338.5v-428q0 -78 -46 -122t-128 -44 q-72 0 -118 41t-50 110q-29 -74 -96.5 -114.5t-161.5 -40.5q-104 0 -188 42t-132.5 116.5t-48.5 168.5zM344 1352q0 94 68 159.5t164 65.5t163.5 -65.5t67.5 -159.5q0 -96 -67.5 -162t-163.5 -66t-164 65.5t-68 162.5zM412 336q0 -47 29.5 -78t76.5 -31q74 0 121 52.5 t47 134.5v24h-33q-131 0 -186 -23.5t-55 -78.5zM492 1352q0 -39 23.5 -64.5t60.5 -25.5t60.5 25.5t23.5 64.5q0 37 -23.5 62.5t-60.5 25.5t-60.5 -25.5t-23.5 -62.5z" />
<glyph unicode="&#xe6;" horiz-adv-x="1701" d="M63 311q0 109 55.5 173.5t177.5 93t329 28.5h55v27q0 70 -34 101.5t-107 31.5q-66 0 -113 -11.5t-107 -33.5q-68 -29 -110 -29q-47 0 -76 37t-29 96q0 82 78 125q72 39 173.5 60.5t207.5 21.5q223 0 326 -114q125 115 313 114q129 0 229.5 -62.5t155.5 -176t55 -261.5 q0 -98 -83 -98h-527q14 -96 62.5 -140t138.5 -44q47 0 89 11t95 32q31 12 60.5 21.5t54.5 9.5q47 0 76.5 -37t29.5 -97q0 -39 -21.5 -71.5t-57.5 -52.5q-68 -35 -163.5 -58.5t-170.5 -23.5q-279 0 -408 182q-49 -88 -137 -135t-203 -47q-119 0 -213 42t-147.5 116.5 t-53.5 168.5zM412 336q0 -49 31.5 -79t84.5 -30q64 0 108 54.5t44 130.5v26h-35q-125 0 -179 -23.5t-54 -78.5zM1028 606h309q-6 88 -41.5 134t-99.5 46q-150 0 -168 -180z" />
<glyph unicode="&#xe7;" horiz-adv-x="1024" d="M59 502q0 158 70 278.5t196 186t287 65.5q86 0 172 -22.5t152 -63.5q63 -39 63 -119q0 -63 -29.5 -103t-76.5 -40q-31 0 -59.5 9t-63.5 28q-41 18 -69.5 27.5t-63.5 9.5q-203 0 -203 -248q0 -123 52.5 -187.5t150.5 -64.5q35 0 64.5 9t66.5 28q41 18 66.5 27.5t56.5 9.5 q47 0 76.5 -40t29.5 -104q0 -39 -16 -70.5t-45 -47.5q-113 -68 -274 -84l-13 -70q16 2 43 2q63 0 107.5 -39t44.5 -102q0 -82 -75 -132.5t-214 -50.5q-92 0 -147 19q-45 14 -46 65q0 31 19.5 54.5t46.5 15.5q82 -16 115 -16q86 0 86 45q0 35 -45 35q-16 0 -43 -5.5t-41 -5.5 q-20 0 -32.5 11.5t-8.5 31.5l18 148q-197 33 -307.5 167t-110.5 343z" />
<glyph unicode="&#xe8;" horiz-adv-x="1095" d="M59 508q0 152 64.5 271.5t180.5 186t261 66.5q141 0 248 -61.5t165 -174t58 -264.5q0 -47 -21.5 -72.5t-62.5 -25.5h-540q14 -98 63 -141t146 -43q51 0 94 11t96 32q31 12 60.5 21.5t54.5 9.5q47 0 76.5 -37t29.5 -97q0 -82 -80 -124q-70 -35 -165 -58.5t-175 -23.5 q-168 0 -292.5 63.5t-192.5 182t-68 278.5zM188 1425q0 57 45 99.5t104 42.5q80 0 138 -80l151 -209q23 -29 23 -61q0 -37 -26.5 -63t-65.5 -26q-33 0 -62 21l-231 151q-76 53 -76 125zM410 606h321q-12 180 -156 180q-71 0 -114 -46t-51 -134z" />
<glyph unicode="&#xe9;" horiz-adv-x="1095" d="M59 508q0 152 64.5 271.5t180.5 186t261 66.5q141 0 248 -61.5t165 -174t58 -264.5q0 -47 -21.5 -72.5t-62.5 -25.5h-540q14 -98 63 -141t146 -43q51 0 94 11t96 32q31 12 60.5 21.5t54.5 9.5q47 0 76.5 -37t29.5 -97q0 -82 -80 -124q-70 -35 -165 -58.5t-175 -23.5 q-168 0 -292.5 63.5t-192.5 182t-68 278.5zM410 606h321q-12 180 -156 180q-71 0 -114 -46t-51 -134zM481 1217q0 33 22 61l152 209q29 39 64.5 58.5t72.5 19.5q59 0 104.5 -42t45.5 -100q0 -72 -76 -123l-232 -151q-28 -21 -61 -21q-39 0 -65.5 27t-26.5 62z" />
<glyph unicode="&#xea;" horiz-adv-x="1095" d="M59 508q0 152 64.5 271.5t180.5 186t261 66.5q141 0 248 -61.5t165 -174t58 -264.5q0 -47 -21.5 -72.5t-62.5 -25.5h-540q14 -98 63 -141t146 -43q51 0 94 11t96 32q31 12 60.5 21.5t54.5 9.5q47 0 76.5 -37t29.5 -97q0 -82 -80 -124q-70 -35 -165 -58.5t-175 -23.5 q-168 0 -292.5 63.5t-192.5 182t-68 278.5zM237 1233q0 35 27 67l168 199q31 39 60.5 55.5t72.5 16.5q45 0 72.5 -17.5t60.5 -58.5l168 -195q25 -31 24 -67q0 -43 -32.5 -74t-75.5 -31q-53 0 -92 54l-125 174l-125 -174q-39 -54 -92 -54q-43 0 -77 31t-34 74zM410 606h321 q-12 180 -156 180q-71 0 -114 -46t-51 -134z" />
<glyph unicode="&#xeb;" horiz-adv-x="1095" d="M59 508q0 152 64.5 271.5t180.5 186t261 66.5q141 0 248 -61.5t165 -174t58 -264.5q0 -47 -21.5 -72.5t-62.5 -25.5h-540q14 -98 63 -141t146 -43q51 0 94 11t96 32q31 12 60.5 21.5t54.5 9.5q47 0 76.5 -37t29.5 -97q0 -82 -80 -124q-70 -35 -165 -58.5t-175 -23.5 q-168 0 -292.5 63.5t-192.5 182t-68 278.5zM190 1348q0 74 47 117.5t125 43.5t126 -44t48 -117q0 -74 -48 -119t-126 -45t-125 45t-47 119zM410 606h321q-12 180 -156 180q-71 0 -114 -46t-51 -134zM596 1348q0 74 47 117.5t125 43.5q76 0 124 -44t48 -117q0 -74 -47.5 -119 t-124.5 -45q-78 0 -125 45t-47 119z" />
<glyph unicode="&#xec;" horiz-adv-x="575" d="M-88 1425q0 57 45 99.5t104 42.5q80 0 138 -80l151 -209q23 -29 23 -61q0 -37 -26.5 -63t-65.5 -26q-33 0 -62 21l-231 151q-76 53 -76 125zM106 156v704q0 84 52.5 126t130.5 42t130 -42t52 -126v-704q0 -84 -52 -126t-130 -42t-130.5 42t-52.5 126z" />
<glyph unicode="&#xed;" horiz-adv-x="575" d="M106 156v704q0 84 52.5 126t130.5 42t130 -42t52 -126v-704q0 -84 -52 -126t-130 -42t-130.5 42t-52.5 126zM205 1217q0 33 22 61l152 209q29 39 64.5 58.5t72.5 19.5q59 0 104.5 -42t45.5 -100q0 -72 -76 -123l-232 -151q-28 -21 -61 -21q-39 0 -65.5 27t-26.5 62z" />
<glyph unicode="&#xee;" horiz-adv-x="575" d="M-39 1233q0 35 27 67l168 199q31 39 60.5 55.5t72.5 16.5q45 0 72.5 -17.5t60.5 -58.5l168 -195q25 -31 24 -67q0 -43 -32.5 -74t-75.5 -31q-53 0 -92 54l-125 174l-125 -174q-39 -54 -92 -54q-43 0 -77 31t-34 74zM106 156v704q0 84 52.5 126t130.5 42t130 -42t52 -126 v-704q0 -84 -52 -126t-130 -42t-130.5 42t-52.5 126z" />
<glyph unicode="&#xef;" horiz-adv-x="575" d="M-86 1348q0 74 47 117.5t125 43.5t126 -44t48 -117q0 -74 -48 -119t-126 -45t-125 45t-47 119zM106 156v704q0 84 52.5 126t130.5 42t130 -42t52 -126v-704q0 -84 -52 -126t-130 -42t-130.5 42t-52.5 126zM320 1348q0 74 47 117.5t125 43.5q76 0 124 -44t48 -117 q0 -74 -47.5 -119t-124.5 -45q-78 0 -125 45t-47 119z" />
<glyph unicode="&#xf0;" horiz-adv-x="1245" d="M59 461q0 135 64.5 242.5t179.5 168t260 60.5q137 0 230 -55q-39 68 -119 143l-256 -62q-12 -4 -33 -4q-41 0 -66.5 27t-25.5 61q0 31 21.5 57.5t60.5 37.5l98 24q-45 25 -92 47q-43 18 -64.5 51t-21.5 68q0 53 42 93t105 40q37 0 74 -14q170 -59 328 -195l205 49 q25 4 32 5q41 0 67 -27t26 -61q0 -31 -22 -59t-62 -38l-99 -24q92 -115 143.5 -244t51.5 -256q0 -289 -154.5 -450.5t-431.5 -161.5q-158 0 -280.5 60t-191.5 167.5t-69 249.5zM420 461q0 -205 194 -205q95 0 145 52t50 153q0 207 -195 207t-194 -207z" />
<glyph unicode="&#xf1;" horiz-adv-x="1239" d="M106 156v708q0 72 51.5 118t133.5 46q78 0 124 -43t46 -113q53 78 137 119t186 41q181 0 269 -107.5t88 -326.5v-442q0 -78 -49.5 -123t-133.5 -45t-133 45t-49 123v426q0 90 -31.5 131t-95.5 41q-82 0 -130 -52.5t-48 -140.5v-405q0 -78 -49 -123t-133 -45t-133.5 45 t-49.5 123zM264 1272q0 45 28 101.5t75 96t102 39.5q37 0 72 -14t92 -43q33 -16 65.5 -30.5t55.5 -14.5q31 0 50 14.5t40 40.5q20 25 35.5 36t40.5 11q31 0 48 -24.5t17 -65.5q0 -45 -27.5 -101t-74.5 -96t-103 -40q-36 0 -71 14t-92 43q-33 16 -66 30.5t-55 14.5 q-31 0 -50.5 -14.5t-39.5 -40.5q-20 -25 -36 -36t-40 -11q-29 0 -47.5 24.5t-18.5 65.5z" />
<glyph unicode="&#xf2;" d="M59 510q0 160 69 277.5t193.5 181t292.5 63.5t293 -63.5t193.5 -181t68.5 -277.5t-68.5 -278.5t-193.5 -183t-293 -64.5q-165 0 -291 64.5t-195 183t-69 278.5zM238 1425q0 57 45 99.5t104 42.5q80 0 138 -80l151 -209q23 -29 23 -61q0 -37 -26.5 -63t-65.5 -26 q-33 0 -62 21l-231 151q-76 53 -76 125zM420 510q0 -254 194 -254q195 0 195 254t-195 254t-194 -254z" />
<glyph unicode="&#xf3;" d="M59 510q0 160 69 277.5t193.5 181t292.5 63.5t293 -63.5t193.5 -181t68.5 -277.5t-68.5 -278.5t-193.5 -183t-293 -64.5q-165 0 -291 64.5t-195 183t-69 278.5zM420 510q0 -254 194 -254q195 0 195 254t-195 254t-194 -254zM531 1217q0 33 22 61l152 209q29 39 64.5 58.5 t72.5 19.5q59 0 104.5 -42t45.5 -100q0 -72 -76 -123l-232 -151q-28 -21 -61 -21q-39 0 -65.5 27t-26.5 62z" />
<glyph unicode="&#xf4;" d="M59 510q0 160 69 277.5t193.5 181t292.5 63.5t293 -63.5t193.5 -181t68.5 -277.5t-68.5 -278.5t-193.5 -183t-293 -64.5q-165 0 -291 64.5t-195 183t-69 278.5zM287 1233q0 35 27 67l168 199q31 39 60.5 55.5t72.5 16.5q45 0 72.5 -17.5t60.5 -58.5l168 -195 q25 -31 24 -67q0 -43 -32.5 -74t-75.5 -31q-53 0 -92 54l-125 174l-125 -174q-39 -54 -92 -54q-43 0 -77 31t-34 74zM420 510q0 -254 194 -254q195 0 195 254t-195 254t-194 -254z" />
<glyph unicode="&#xf5;" d="M59 510q0 160 69 277.5t193.5 181t292.5 63.5t293 -63.5t193.5 -181t68.5 -277.5t-68.5 -278.5t-193.5 -183t-293 -64.5q-165 0 -291 64.5t-195 183t-69 278.5zM254 1272q0 45 28 101.5t75 96t102 39.5q37 0 72 -14t92 -43q33 -16 65.5 -30.5t55.5 -14.5q31 0 50 14.5 t40 40.5q20 25 35.5 36t40.5 11q31 0 48 -24.5t17 -65.5q0 -45 -27.5 -101t-74.5 -96t-103 -40q-36 0 -71 14t-92 43q-33 16 -66 30.5t-55 14.5q-31 0 -50.5 -14.5t-39.5 -40.5q-20 -25 -36 -36t-40 -11q-29 0 -47.5 24.5t-18.5 65.5zM420 510q0 -254 194 -254 q195 0 195 254t-195 254t-194 -254z" />
<glyph unicode="&#xf6;" d="M59 510q0 160 69 277.5t193.5 181t292.5 63.5t293 -63.5t193.5 -181t68.5 -277.5t-68.5 -278.5t-193.5 -183t-293 -64.5q-165 0 -291 64.5t-195 183t-69 278.5zM240 1348q0 74 47 117.5t125 43.5t126 -44t48 -117q0 -74 -48 -119t-126 -45t-125 45t-47 119zM420 510 q0 -254 194 -254q195 0 195 254t-195 254t-194 -254zM646 1348q0 74 47 117.5t125 43.5q76 0 124 -44t48 -117q0 -74 -47.5 -119t-124.5 -45q-78 0 -125 45t-47 119z" />
<glyph unicode="&#xf7;" d="M127 588q0 51 35 87t86 36h758q51 0 85.5 -35t34.5 -86t-34.5 -87t-85.5 -36h-758q-51 0 -86 35t-35 86zM487 193q0 55 37 94t92 39t93.5 -39t38.5 -94q0 -53 -38 -92.5t-94 -39.5q-55 0 -92 38t-37 94zM487 985q0 55 37 93t92 38t93.5 -39t38.5 -92q0 -55 -38 -94 t-94 -39q-55 0 -92 39t-37 94z" />
<glyph unicode="&#xf8;" d="M59 510q0 160 69 277.5t193.5 181t292.5 63.5q96 0 183 -22l37 63q33 53 90 53q39 0 67.5 -24.5t28.5 -61.5q0 -23 -16 -51l-33 -57q96 -68 147 -175.5t51 -246.5q0 -160 -68.5 -278.5t-193.5 -183t-293 -64.5q-96 0 -182 22l-37 -63q-33 -53 -90 -54q-39 0 -67.5 25 t-28.5 61q0 23 16 52l35 59q-96 68 -148.5 176.5t-52.5 247.5zM414 510q0 -72 16 -131l223 385q-12 2 -39 2q-102 0 -151 -61.5t-49 -194.5zM575 254q12 -2 39 -2q103 0 153 62.5t50 195.5q0 74 -16 129z" />
<glyph unicode="&#xf9;" d="M98 418v442q0 78 49.5 123t133.5 45t133 -45t49 -123v-450q0 -147 127 -148q74 0 121 53.5t47 139.5v405q0 78 49 123t133 45t133 -45t49 -123v-708q0 -72 -51 -118t-133 -46q-74 0 -121 40t-49 107q-47 -74 -120 -112.5t-167 -38.5q-195 0 -289 107.5t-94 326.5z M236 1425q0 57 45 99.5t104 42.5q80 0 138 -80l151 -209q23 -29 23 -61q0 -37 -26.5 -63t-65.5 -26q-33 0 -62 21l-231 151q-76 53 -76 125z" />
<glyph unicode="&#xfa;" d="M98 418v442q0 78 49.5 123t133.5 45t133 -45t49 -123v-450q0 -147 127 -148q74 0 121 53.5t47 139.5v405q0 78 49 123t133 45t133 -45t49 -123v-708q0 -72 -51 -118t-133 -46q-74 0 -121 40t-49 107q-47 -74 -120 -112.5t-167 -38.5q-195 0 -289 107.5t-94 326.5z M529 1217q0 33 22 61l152 209q29 39 64.5 58.5t72.5 19.5q59 0 104.5 -42t45.5 -100q0 -72 -76 -123l-232 -151q-28 -21 -61 -21q-39 0 -65.5 27t-26.5 62z" />
<glyph unicode="&#xfb;" d="M98 418v442q0 78 49.5 123t133.5 45t133 -45t49 -123v-450q0 -147 127 -148q74 0 121 53.5t47 139.5v405q0 78 49 123t133 45t133 -45t49 -123v-708q0 -72 -51 -118t-133 -46q-74 0 -121 40t-49 107q-47 -74 -120 -112.5t-167 -38.5q-195 0 -289 107.5t-94 326.5z M285 1233q0 35 27 67l168 199q31 39 60.5 55.5t72.5 16.5q45 0 72.5 -17.5t60.5 -58.5l168 -195q25 -31 24 -67q0 -43 -32.5 -74t-75.5 -31q-53 0 -92 54l-125 174l-125 -174q-39 -54 -92 -54q-43 0 -77 31t-34 74z" />
<glyph unicode="&#xfc;" d="M98 418v442q0 78 49.5 123t133.5 45t133 -45t49 -123v-450q0 -147 127 -148q74 0 121 53.5t47 139.5v405q0 78 49 123t133 45t133 -45t49 -123v-708q0 -72 -51 -118t-133 -46q-74 0 -121 40t-49 107q-47 -74 -120 -112.5t-167 -38.5q-195 0 -289 107.5t-94 326.5z M238 1348q0 74 47 117.5t125 43.5t126 -44t48 -117q0 -74 -48 -119t-126 -45t-125 45t-47 119zM644 1348q0 74 47 117.5t125 43.5q76 0 124 -44t48 -117q0 -74 -47.5 -119t-124.5 -45q-78 0 -125 45t-47 119z" />
<glyph unicode="&#xfd;" horiz-adv-x="1107" d="M6 870q0 66 57.5 112t129.5 46q49 0 91 -25.5t64 -76.5l217 -471l215 471q23 51 62 75.5t86 24.5q68 0 121 -45t53 -109q0 -35 -17 -67l-542 -1088q-25 -51 -65 -75.5t-87 -24.5q-68 0 -120 44t-52 108q0 35 19 71l133 269l-348 696q-16 37 -17 65zM471 1217q0 33 22 61 l152 209q29 39 64.5 58.5t72.5 19.5q59 0 104.5 -42t45.5 -100q0 -72 -76 -123l-232 -151q-28 -21 -61 -21q-39 0 -65.5 27t-26.5 62z" />
<glyph unicode="&#xfe;" horiz-adv-x="1280" d="M106 -215v1505q0 72 51.5 118t135.5 46q82 0 130 -43t48 -115v-407q45 66 126 104.5t177 38.5q131 0 231.5 -68.5t157 -189.5t56.5 -272q0 -152 -56.5 -269.5t-157 -183t-231.5 -65.5q-96 0 -177 38.5t-126 104.5v-348q0 -72 -48 -115t-130 -43q-84 0 -135.5 46 t-51.5 118zM465 506q0 -121 51 -185.5t148 -64.5q92 0 143 63.5t51 182.5q0 125 -52 191.5t-144 66.5q-94 0 -145.5 -65.5t-51.5 -188.5z" />
<glyph unicode="&#xff;" horiz-adv-x="1107" d="M6 870q0 66 57.5 112t129.5 46q49 0 91 -25.5t64 -76.5l217 -471l215 471q23 51 62 75.5t86 24.5q68 0 121 -45t53 -109q0 -35 -17 -67l-542 -1088q-25 -51 -65 -75.5t-87 -24.5q-68 0 -120 44t-52 108q0 35 19 71l133 269l-348 696q-16 37 -17 65zM180 1348 q0 74 47 117.5t125 43.5t126 -44t48 -117q0 -74 -48 -119t-126 -45t-125 45t-47 119zM586 1348q0 74 47 117.5t125 43.5q76 0 124 -44t48 -117q0 -74 -47.5 -119t-124.5 -45q-78 0 -125 45t-47 119z" />
<glyph unicode="&#x100;" horiz-adv-x="1558" d="M25 156q0 37 18 75l541 1110q27 55 79 85t115 30q61 0 114.5 -29.5t80.5 -85.5l540 -1110q19 -38 19 -75q0 -68 -54.5 -115t-123.5 -47q-47 0 -86 24.5t-62 73.5l-92 207h-663l-95 -207q-23 -49 -62.5 -73.5t-86.5 -24.5q-70 0 -126 47t-56 115zM417 1726q0 51 32 81 t81 30h496q49 0 80.5 -29.5t31.5 -81.5q0 -51 -31.5 -79.5t-80.5 -28.5h-496q-49 0 -81 28.5t-32 79.5zM578 582h409l-205 456z" />
<glyph unicode="&#x101;" horiz-adv-x="1130" d="M63 311q0 109 56.5 173.5t179.5 93t332 28.5h55v25q0 72 -32.5 103.5t-110.5 31.5q-84 0 -246 -57q-47 -16 -80 -17q-51 0 -82 37t-31 96q0 45 18.5 74t59.5 51q72 37 180.5 59.5t212.5 22.5q234 0 345.5 -111.5t111.5 -338.5v-428q0 -78 -46 -122t-128 -44 q-72 0 -118 41t-50 110q-29 -74 -96.5 -114.5t-161.5 -40.5q-104 0 -188 42t-132.5 116.5t-48.5 168.5zM215 1346q0 51 32 79.5t81 28.5h496q49 0 80.5 -28.5t31.5 -79.5t-31.5 -80t-80.5 -29h-496q-49 0 -81 28.5t-32 80.5zM412 336q0 -47 29.5 -78t76.5 -31q74 0 121 52.5 t47 134.5v24h-33q-131 0 -186 -23.5t-55 -78.5z" />
<glyph unicode="&#x102;" horiz-adv-x="1558" d="M25 156q0 37 18 75l541 1110q27 55 79 85t115 30q61 0 114.5 -29.5t80.5 -85.5l540 -1110q19 -38 19 -75q0 -68 -54.5 -115t-123.5 -47q-47 0 -86 24.5t-62 73.5l-92 207h-663l-95 -207q-23 -49 -62.5 -73.5t-86.5 -24.5q-70 0 -126 47t-56 115zM411 1790q0 37 25.5 60.5 t62.5 23.5q43 0 82 -33q33 -23 88.5 -37t108.5 -14t108.5 14.5t87.5 36.5q37 35 84 35q37 0 62.5 -23.5t25.5 -60.5q0 -27 -18 -61q-39 -63 -133 -106.5t-217 -43.5t-217 42t-133 108q-16 31 -17 59zM578 582h409l-205 456z" />
<glyph unicode="&#x103;" horiz-adv-x="1130" d="M63 311q0 109 56.5 173.5t179.5 93t332 28.5h55v25q0 72 -32.5 103.5t-110.5 31.5q-84 0 -246 -57q-47 -16 -80 -17q-51 0 -82 37t-31 96q0 45 18.5 74t59.5 51q72 37 180.5 59.5t212.5 22.5q234 0 345.5 -111.5t111.5 -338.5v-428q0 -78 -46 -122t-128 -44 q-72 0 -118 41t-50 110q-29 -74 -96.5 -114.5t-161.5 -40.5q-104 0 -188 42t-132.5 116.5t-48.5 168.5zM201 1444q0 41 28.5 67.5t67.5 26.5q51 0 84 -47q70 -96 195 -96t194 96q33 47 84 47q39 0 68 -26.5t29 -67.5q0 -16 -7 -39q-37 -102 -140 -170t-228 -68t-228.5 68 t-140.5 170q-6 23 -6 39zM412 336q0 -47 29.5 -78t76.5 -31q74 0 121 52.5t47 134.5v24h-33q-131 0 -186 -23.5t-55 -78.5z" />
<glyph unicode="&#x104;" horiz-adv-x="1558" d="M25 156q0 37 18 75l541 1110q27 55 79 85t115 30q61 0 114.5 -29.5t80.5 -85.5l540 -1110q18 -43 19 -77q0 -47 -26.5 -84t-67.5 -58q-8 -6 -40 -26.5t-49.5 -47t-17.5 -61.5q0 -49 29 -75.5t70 -26.5q23 0 44 2t54 12q6 2 16 2q27 0 43.5 -22.5t16.5 -53.5 q0 -49 -37 -71q-84 -49 -193 -50q-115 0 -191.5 66t-76.5 168q0 63 32.5 120.5t96.5 98.5q-18 23 -29 45l-92 207h-663l-95 -207q-23 -49 -62.5 -73.5t-86.5 -24.5q-70 0 -126 47t-56 115zM578 582h409l-205 456z" />
<glyph unicode="&#x105;" horiz-adv-x="1130" d="M63 311q0 109 56.5 172.5t179.5 93t332 29.5h55v25q0 72 -32.5 103.5t-110.5 31.5q-84 0 -246 -57q-47 -16 -80 -17q-51 0 -82 37t-31 96q0 45 18.5 74t59.5 51q72 37 180.5 59.5t212.5 22.5q233 0 345 -111.5t112 -338.5v-428q0 -109 -82 -148q-57 -33 -82.5 -62.5 t-25.5 -66.5q0 -45 27.5 -73.5t72.5 -28.5q35 0 98 14q7 2 17 2q27 0 43 -22.5t16 -51.5q0 -49 -39 -73q-82 -49 -190 -50q-119 0 -194 66t-75 170q0 125 113 209q-37 41 -41 100q-29 -72 -95.5 -113.5t-158.5 -41.5q-106 0 -191 42t-133.5 116.5t-48.5 168.5zM412 336 q0 -47 29.5 -78t76.5 -31q74 0 121 52.5t47 134.5v24h-33q-129 0 -185 -24.5t-56 -77.5z" />
<glyph unicode="&#x106;" horiz-adv-x="1388" d="M94 723q0 223 89 391t252 258t380 90q260 0 457 -137q35 -25 50 -53.5t15 -73.5q0 -63 -35.5 -107t-87.5 -44q-31 0 -55 9t-57 29q-72 43 -135.5 61.5t-130.5 18.5q-182 0 -271.5 -109.5t-89.5 -332.5q0 -225 89 -334.5t272 -109.5q61 0 118.5 19t147.5 60q43 23 63.5 31 t48.5 8q51 0 87 -44t36 -107q0 -43 -15 -73t-50 -54q-197 -137 -457 -137q-217 0 -380 90t-252 258t-89 393zM729 1632q0 31 31 62l165 155q53 51 111 52q53 0 91 -39t38 -90q0 -78 -92 -121l-219 -86q-18 -9 -41 -9q-35 0 -59.5 23t-24.5 53z" />
<glyph unicode="&#x107;" horiz-adv-x="1024" d="M59 502q0 158 70 278.5t196 186t287 65.5q86 0 172 -22.5t152 -63.5q63 -39 63 -119q0 -63 -29.5 -103t-76.5 -40q-31 0 -59.5 9t-63.5 28q-41 18 -69.5 27.5t-63.5 9.5q-203 0 -203 -248q0 -123 52.5 -187.5t150.5 -64.5q35 0 64.5 9t66.5 28q41 18 66.5 27.5t56.5 9.5 q47 0 76.5 -40t29.5 -104q0 -39 -16 -70.5t-45 -47.5q-141 -86 -344 -86q-246 0 -389.5 139t-143.5 379zM529 1217q0 33 22 61l152 209q29 39 64.5 58.5t72.5 19.5q59 0 104.5 -42t45.5 -100q0 -72 -76 -123l-232 -151q-28 -21 -61 -21q-39 0 -65.5 27t-26.5 62z" />
<glyph unicode="&#x108;" horiz-adv-x="1388" d="M94 723q0 223 89 391t252 258t380 90q260 0 457 -137q35 -25 50 -53.5t15 -73.5q0 -63 -35.5 -107t-87.5 -44q-31 0 -55 9t-57 29q-72 43 -135.5 61.5t-130.5 18.5q-182 0 -271.5 -109.5t-89.5 -332.5q0 -225 89 -334.5t272 -109.5q61 0 118.5 19t147.5 60q43 23 63.5 31 t48.5 8q51 0 87 -44t36 -107q0 -43 -15 -73t-50 -54q-197 -137 -457 -137q-217 0 -380 90t-252 258t-89 393zM499 1655q0 45 43 80l156 118q51 43 117 43t117 -43l155 -118q41 -35 41 -80q0 -39 -29.5 -67.5t-72.5 -28.5q-45 0 -82 34l-129 115l-129 -115q-37 -34 -82 -34 q-43 0 -74 28.5t-31 67.5z" />
<glyph unicode="&#x109;" horiz-adv-x="1024" d="M59 502q0 158 70 278.5t196 186t287 65.5q86 0 172 -22.5t152 -63.5q63 -39 63 -119q0 -63 -29.5 -103t-76.5 -40q-31 0 -59.5 9t-63.5 28q-41 18 -69.5 27.5t-63.5 9.5q-203 0 -203 -248q0 -123 52.5 -187.5t150.5 -64.5q35 0 64.5 9t66.5 28q41 18 66.5 27.5t56.5 9.5 q47 0 76.5 -40t29.5 -104q0 -39 -16 -70.5t-45 -47.5q-141 -86 -344 -86q-246 0 -389.5 139t-143.5 379zM285 1233q0 35 27 67l168 199q31 39 60.5 55.5t72.5 16.5q45 0 72.5 -17.5t60.5 -58.5l168 -195q25 -31 24 -67q0 -43 -32.5 -74t-75.5 -31q-53 0 -92 54l-125 174 l-125 -174q-39 -54 -92 -54q-43 0 -77 31t-34 74z" />
<glyph unicode="&#x10a;" horiz-adv-x="1388" d="M94 723q0 223 89 391t252 258t380 90q260 0 457 -137q35 -25 50 -53.5t15 -73.5q0 -63 -35.5 -107t-87.5 -44q-31 0 -55 9t-57 29q-72 43 -135.5 61.5t-130.5 18.5q-182 0 -271.5 -109.5t-89.5 -332.5q0 -225 89 -334.5t272 -109.5q61 0 118.5 19t147.5 60q43 23 63.5 31 t48.5 8q51 0 87 -44t36 -107q0 -43 -15 -73t-50 -54q-197 -137 -457 -137q-217 0 -380 90t-252 258t-89 393zM614 1731q0 78 54.5 125t146.5 47q90 0 145.5 -47.5t55.5 -124.5q0 -80 -54.5 -128.5t-146.5 -48.5t-146.5 48.5t-54.5 128.5z" />
<glyph unicode="&#x10b;" horiz-adv-x="1024" d="M59 502q0 158 70 278.5t196 186t287 65.5q86 0 172 -22.5t152 -63.5q63 -39 63 -119q0 -63 -29.5 -103t-76.5 -40q-31 0 -59.5 9t-63.5 28q-41 18 -69.5 27.5t-63.5 9.5q-203 0 -203 -248q0 -123 52.5 -187.5t150.5 -64.5q35 0 64.5 9t66.5 28q41 18 66.5 27.5t56.5 9.5 q47 0 76.5 -40t29.5 -104q0 -39 -16 -70.5t-45 -47.5q-141 -86 -344 -86q-246 0 -389.5 139t-143.5 379zM412 1348q0 80 54.5 127t146.5 47q90 0 145.5 -47.5t55.5 -126.5q0 -80 -54.5 -128.5t-146.5 -48.5t-146.5 48.5t-54.5 128.5z" />
<glyph unicode="&#x10c;" horiz-adv-x="1388" d="M94 723q0 223 89 391t252 258t380 90q260 0 457 -137q35 -25 50 -53.5t15 -73.5q0 -63 -35.5 -107t-87.5 -44q-31 0 -55 9t-57 29q-72 43 -135.5 61.5t-130.5 18.5q-182 0 -271.5 -109.5t-89.5 -332.5q0 -225 89 -334.5t272 -109.5q61 0 118.5 19t147.5 60q43 23 63.5 31 t48.5 8q51 0 87 -44t36 -107q0 -43 -15 -73t-50 -54q-197 -137 -457 -137q-217 0 -380 90t-252 258t-89 393zM501 1798q0 39 31 68.5t72 29.5q45 0 82 -34l129 -117l129 117q37 35 82 34q41 0 71.5 -29.5t30.5 -68.5q0 -45 -41 -78l-155 -121q-51 -43 -117 -43t-117 43 l-156 121q-41 35 -41 78z" />
<glyph unicode="&#x10d;" horiz-adv-x="1024" d="M59 502q0 158 70 278.5t196 186t287 65.5q86 0 172 -22.5t152 -63.5q63 -39 63 -119q0 -63 -29.5 -103t-76.5 -40q-31 0 -59.5 9t-63.5 28q-41 18 -69.5 27.5t-63.5 9.5q-203 0 -203 -248q0 -123 52.5 -187.5t150.5 -64.5q35 0 64.5 9t66.5 28q41 18 66.5 27.5t56.5 9.5 q47 0 76.5 -40t29.5 -104q0 -39 -16 -70.5t-45 -47.5q-141 -86 -344 -86q-246 0 -389.5 139t-143.5 379zM287 1468q0 41 33 72t76 31q55 0 92 -53l125 -175l125 175q37 53 92 53q43 0 76.5 -31t33.5 -72q0 -35 -26 -67l-168 -199q-33 -39 -61.5 -56.5t-71.5 -17.5t-72 17.5 t-61 58.5l-168 197q-25 31 -25 67z" />
<glyph unicode="&#x10e;" horiz-adv-x="1583" d="M131 174v1096q0 84 45 129t129 45h414q240 0 413 -87t265 -249t92 -385q0 -225 -91 -388t-264 -249t-415 -86h-414q-84 0 -129 45t-45 129zM477 1798q0 39 31 68.5t72 29.5q45 0 82 -34l129 -117l129 117q37 35 82 34q41 0 71.5 -29.5t30.5 -68.5q0 -45 -41 -78 l-155 -121q-51 -43 -117 -43t-117 43l-156 121q-41 35 -41 78zM508 303h184q211 0 316.5 103.5t105.5 316.5t-105.5 315.5t-316.5 102.5h-184v-838z" />
<glyph unicode="&#x10f;" horiz-adv-x="1280" d="M59 514q0 156 56.5 273.5t158 181t232.5 63.5q96 0 177 -39t126 -104v407q0 72 48 115t130 43t134.5 -46t52.5 -118v-1134q0 -78 -49.5 -123t-131.5 -45q-76 0 -124 40t-54 109q-43 -72 -126 -112.5t-183 -40.5q-129 0 -230.5 66.5t-159 187t-57.5 276.5zM420 514 q0 -123 52 -190.5t144 -67.5q97 0 148 65.5t51 188.5q0 121 -51 185.5t-148 64.5q-94 0 -145 -63.5t-51 -182.5zM1221 1075v287q0 45 25.5 69.5t60.5 24.5q33 0 57.5 -21.5t24.5 -58.5l-3 -18l-47 -293q-4 -31 -21.5 -47.5t-37.5 -16.5q-25 0 -42 19.5t-17 54.5z" />
<glyph unicode="&#x110;" horiz-adv-x="1656" d="M0 729q0 68 43 104.5t125 36.5h37v400q0 84 45 129t129 45h414q239 0 412 -87t265.5 -249t92.5 -385q0 -225 -91.5 -388t-264.5 -249t-414 -86h-414q-84 0 -129 45t-45 129v412h-37q-82 0 -125 36.5t-43 106.5zM582 303h184q211 0 316.5 103.5t105.5 316.5t-105.5 315.5 t-316.5 102.5h-184v-271h241q80 0 124 -36.5t44 -104.5q0 -70 -44 -106.5t-124 -36.5h-241v-283z" />
<glyph unicode="&#x111;" horiz-adv-x="1280" d="M59 514q0 156 56.5 273.5t158 181t232.5 63.5q96 0 177 -39t126 -104v184h-258q-74 0 -113 34t-39 91t39 91t113 34h260q10 59 56 95t120 36t123 -36t59 -95h58q73 0 112 -34t39 -91t-39 -91t-112 -34h-53v-917q0 -78 -49.5 -123t-131.5 -45q-76 0 -124 40t-54 109 q-43 -72 -126 -112.5t-183 -40.5q-129 0 -230.5 66.5t-159 187t-57.5 276.5zM420 514q0 -123 52 -190.5t144 -67.5q97 0 148 65.5t51 188.5q0 121 -51 185.5t-148 64.5q-94 0 -145 -63.5t-51 -182.5z" />
<glyph unicode="&#x112;" horiz-adv-x="1222" d="M131 174v1096q0 84 45 129t129 45h709q88 0 133 -37t45 -107q0 -147 -178 -147h-516v-274h475q178 0 178 -146q0 -70 -45 -106.5t-133 -36.5h-475v-299h516q178 0 178 -148q0 -70 -45 -106.5t-133 -36.5h-709q-84 0 -129 45t-45 129zM321 1726q0 51 32 81t81 30h496 q49 0 80.5 -29.5t31.5 -81.5q0 -51 -31.5 -79.5t-80.5 -28.5h-496q-49 0 -81 28.5t-32 79.5z" />
<glyph unicode="&#x113;" horiz-adv-x="1095" d="M59 508q0 152 64.5 271.5t180.5 186t261 66.5q141 0 248 -61.5t165 -174t58 -264.5q0 -47 -21.5 -72.5t-62.5 -25.5h-540q14 -98 63 -141t146 -43q51 0 94 11t96 32q31 12 60.5 21.5t54.5 9.5q47 0 76.5 -37t29.5 -97q0 -82 -80 -124q-70 -35 -165 -58.5t-175 -23.5 q-168 0 -292.5 63.5t-192.5 182t-68 278.5zM204 1346q0 51 32 79.5t81 28.5h496q49 0 80.5 -28.5t31.5 -79.5t-31.5 -80t-80.5 -29h-496q-49 0 -81 28.5t-32 80.5zM410 606h321q-12 180 -156 180q-71 0 -114 -46t-51 -134z" />
<glyph unicode="&#x114;" horiz-adv-x="1222" d="M131 174v1096q0 84 45 129t129 45h709q88 0 133 -37t45 -107q0 -147 -178 -147h-516v-274h475q178 0 178 -146q0 -70 -45 -106.5t-133 -36.5h-475v-299h516q178 0 178 -148q0 -70 -45 -106.5t-133 -36.5h-709q-84 0 -129 45t-45 129zM315 1790q0 37 25.5 60.5t62.5 23.5 q43 0 82 -33q33 -23 88.5 -37t108.5 -14t108.5 14.5t87.5 36.5q37 35 84 35q37 0 62.5 -23.5t25.5 -60.5q0 -27 -18 -61q-39 -63 -133 -106.5t-217 -43.5t-217 42t-133 108q-16 31 -17 59z" />
<glyph unicode="&#x115;" horiz-adv-x="1095" d="M59 508q0 152 64.5 271.5t180.5 186t261 66.5q141 0 248 -61.5t165 -174t58 -264.5q0 -47 -21.5 -72.5t-62.5 -25.5h-540q14 -98 63 -141t146 -43q51 0 94 11t96 32q31 12 60.5 21.5t54.5 9.5q47 0 76.5 -37t29.5 -97q0 -82 -80 -124q-70 -35 -165 -58.5t-175 -23.5 q-168 0 -292.5 63.5t-192.5 182t-68 278.5zM190 1444q0 41 28.5 67.5t67.5 26.5q51 0 84 -47q70 -96 195 -96t194 96q33 47 84 47q39 0 68 -26.5t29 -67.5q0 -16 -7 -39q-37 -102 -140 -170t-228 -68t-228.5 68t-140.5 170q-6 23 -6 39zM410 606h321q-12 180 -156 180 q-71 0 -114 -46t-51 -134z" />
<glyph unicode="&#x116;" horiz-adv-x="1222" d="M131 174v1096q0 84 45 129t129 45h709q88 0 133 -37t45 -107q0 -147 -178 -147h-516v-274h475q178 0 178 -146q0 -70 -45 -106.5t-133 -36.5h-475v-299h516q178 0 178 -148q0 -70 -45 -106.5t-133 -36.5h-709q-84 0 -129 45t-45 129zM481 1731q0 78 54.5 125t146.5 47 q90 0 145.5 -47.5t55.5 -124.5q0 -80 -54.5 -128.5t-146.5 -48.5t-146.5 48.5t-54.5 128.5z" />
<glyph unicode="&#x117;" horiz-adv-x="1095" d="M59 508q0 152 64.5 271.5t180.5 186t261 66.5q141 0 248 -61.5t165 -174t58 -264.5q0 -47 -21.5 -72.5t-62.5 -25.5h-540q14 -98 63 -141t146 -43q51 0 94 11t96 32q31 12 60.5 21.5t54.5 9.5q47 0 76.5 -37t29.5 -97q0 -82 -80 -124q-70 -35 -165 -58.5t-175 -23.5 q-168 0 -292.5 63.5t-192.5 182t-68 278.5zM364 1348q0 80 54.5 127t146.5 47q90 0 145.5 -47.5t55.5 -126.5q0 -80 -54.5 -128.5t-146.5 -48.5t-146.5 48.5t-54.5 128.5zM410 606h321q-12 180 -156 180q-71 0 -114 -46t-51 -134z" />
<glyph unicode="&#x118;" horiz-adv-x="1222" d="M131 174v1096q0 84 45 129t129 45h709q88 0 133 -37t45 -107q0 -147 -178 -147h-516v-274h475q178 0 178 -146q0 -70 -45 -106.5t-133 -36.5h-475v-299h516q178 0 178 -148q0 -59 -29.5 -93t-95.5 -50q-41 -14 -63.5 -46t-22.5 -77q0 -47 26.5 -74.5t71.5 -27.5 q37 0 99 14q6 2 16 2q27 0 44 -22.5t17 -53.5q0 -47 -38 -71q-84 -49 -193 -50q-117 0 -192.5 63.5t-75.5 164.5q0 106 78 178h-529q-84 0 -129 45t-45 129z" />
<glyph unicode="&#x119;" horiz-adv-x="1095" d="M59 508q0 152 64.5 271.5t180.5 186t261 66.5q141 0 248 -61.5t165 -174t58 -264.5q0 -47 -21.5 -72.5t-62.5 -25.5h-540q14 -98 63 -141t146 -43q51 0 94 11t96 32q31 12 60.5 21.5t54.5 9.5q47 0 76.5 -37t29.5 -97q0 -82 -100 -135q-96 -49 -135 -89t-39 -89 q0 -47 26.5 -74.5t71.5 -27.5q31 0 49.5 3t48.5 11q7 2 17 2q27 0 44 -22.5t17 -53.5q0 -47 -39 -71q-84 -49 -192 -50q-117 0 -193 63.5t-76 164.5q0 96 68 162q-252 6 -396.5 145t-144.5 379zM410 606h321q-12 180 -156 180q-71 0 -114 -46t-51 -134z" />
<glyph unicode="&#x11a;" horiz-adv-x="1222" d="M131 174v1096q0 84 45 129t129 45h709q88 0 133 -37t45 -107q0 -147 -178 -147h-516v-274h475q178 0 178 -146q0 -70 -45 -106.5t-133 -36.5h-475v-299h516q178 0 178 -148q0 -70 -45 -106.5t-133 -36.5h-709q-84 0 -129 45t-45 129zM368 1798q0 39 31 68.5t72 29.5 q45 0 82 -34l129 -117l129 117q37 35 82 34q41 0 71.5 -29.5t30.5 -68.5q0 -45 -41 -78l-155 -121q-51 -43 -117 -43t-117 43l-156 121q-41 35 -41 78z" />
<glyph unicode="&#x11b;" horiz-adv-x="1095" d="M59 508q0 152 64.5 271.5t180.5 186t261 66.5q141 0 248 -61.5t165 -174t58 -264.5q0 -47 -21.5 -72.5t-62.5 -25.5h-540q14 -98 63 -141t146 -43q51 0 94 11t96 32q31 12 60.5 21.5t54.5 9.5q47 0 76.5 -37t29.5 -97q0 -82 -80 -124q-70 -35 -165 -58.5t-175 -23.5 q-168 0 -292.5 63.5t-192.5 182t-68 278.5zM239 1468q0 41 33 72t76 31q55 0 92 -53l125 -175l125 175q37 53 92 53q43 0 76.5 -31t33.5 -72q0 -35 -26 -67l-168 -199q-33 -39 -61.5 -56.5t-71.5 -17.5t-72 17.5t-61 58.5l-168 197q-25 31 -25 67zM410 606h321 q-12 180 -156 180q-71 0 -114 -46t-51 -134z" />
<glyph unicode="&#x11c;" horiz-adv-x="1523" d="M94 723q0 225 92.5 392t262 257t397.5 90q143 0 257 -33.5t212 -103.5q35 -25 50 -53.5t15 -73.5q0 -63 -34.5 -107t-83.5 -44q-33 0 -56.5 9t-60.5 31q-76 41 -142.5 59.5t-144.5 18.5q-195 0 -290 -108.5t-95 -333.5q0 -231 99.5 -343t304.5 -112q98 0 194 21v268h-147 q-68 0 -105 34t-37 95t37 95t105 34h338q67 0 107 -38t40 -101v-357q0 -102 -15.5 -156t-55.5 -85t-119 -53q-80 -20 -177.5 -31.5t-181.5 -11.5q-236 0 -408.5 89t-265 256t-92.5 396zM530 1655q0 45 43 80l156 118q51 43 117 43t117 -43l155 -118q41 -35 41 -80 q0 -39 -29.5 -67.5t-72.5 -28.5q-45 0 -82 34l-129 115l-129 -115q-37 -34 -82 -34q-43 0 -74 28.5t-31 67.5z" />
<glyph unicode="&#x11d;" horiz-adv-x="1288" d="M59 528q0 150 57.5 264.5t160 177t233.5 62.5q100 0 184 -41t129 -112q4 70 52.5 109.5t125.5 39.5q82 0 131.5 -46t49.5 -122v-737q0 -250 -150.5 -379t-441.5 -129q-113 0 -213.5 20.5t-169.5 59.5q-37 20 -58.5 53t-21.5 74q0 59 29.5 96t76.5 37q37 0 134 -31 q63 -20 112 -31.5t101 -11.5q125 0 183 52.5t58 164.5v78q-45 -68 -129 -107.5t-182 -39.5q-131 0 -233.5 61.5t-160 175t-57.5 262.5zM317 1233q0 35 27 67l168 199q31 39 60.5 55.5t72.5 16.5q45 0 72.5 -17.5t60.5 -58.5l168 -195q25 -31 24 -67q0 -43 -32.5 -74 t-75.5 -31q-53 0 -92 54l-125 174l-125 -174q-39 -54 -92 -54q-43 0 -77 31t-34 74zM420 528q0 -106 54 -166.5t147 -60.5q96 0 149 59.5t53 167.5q0 109 -53 170.5t-149 61.5q-94 0 -147.5 -60.5t-53.5 -171.5z" />
<glyph unicode="&#x11e;" horiz-adv-x="1523" d="M94 723q0 225 92.5 392t262 257t397.5 90q143 0 257 -33.5t212 -103.5q35 -25 50 -53.5t15 -73.5q0 -63 -34.5 -107t-83.5 -44q-33 0 -56.5 9t-60.5 31q-76 41 -142.5 59.5t-144.5 18.5q-195 0 -290 -108.5t-95 -333.5q0 -231 99.5 -343t304.5 -112q98 0 194 21v268h-147 q-68 0 -105 34t-37 95t37 95t105 34h338q67 0 107 -38t40 -101v-357q0 -102 -15.5 -156t-55.5 -85t-119 -53q-80 -20 -177.5 -31.5t-181.5 -11.5q-236 0 -408.5 89t-265 256t-92.5 396zM479 1790q0 37 25.5 60.5t62.5 23.5q43 0 82 -33q33 -23 88.5 -37t108.5 -14 t108.5 14.5t87.5 36.5q37 35 84 35q37 0 62.5 -23.5t25.5 -60.5q0 -27 -18 -61q-39 -63 -133 -106.5t-217 -43.5t-217 42t-133 108q-16 31 -17 59z" />
<glyph unicode="&#x11f;" horiz-adv-x="1288" d="M59 528q0 150 57.5 264.5t160 177t233.5 62.5q100 0 184 -41t129 -112q4 70 52.5 109.5t125.5 39.5q82 0 131.5 -46t49.5 -122v-737q0 -250 -150.5 -379t-441.5 -129q-113 0 -213.5 20.5t-169.5 59.5q-37 20 -58.5 53t-21.5 74q0 59 29.5 96t76.5 37q37 0 134 -31 q63 -20 112 -31.5t101 -11.5q125 0 183 52.5t58 164.5v78q-45 -68 -129 -107.5t-182 -39.5q-131 0 -233.5 61.5t-160 175t-57.5 262.5zM270 1444q0 41 28.5 67.5t67.5 26.5q51 0 84 -47q70 -96 195 -96t194 96q33 47 84 47q39 0 68 -26.5t29 -67.5q0 -16 -7 -39 q-37 -102 -140 -170t-228 -68t-228.5 68t-140.5 170q-6 23 -6 39zM420 528q0 -106 54 -166.5t147 -60.5q96 0 149 59.5t53 167.5q0 109 -53 170.5t-149 61.5q-94 0 -147.5 -60.5t-53.5 -171.5z" />
<glyph unicode="&#x120;" horiz-adv-x="1523" d="M94 723q0 225 92.5 392t262 257t397.5 90q143 0 257 -33.5t212 -103.5q35 -25 50 -53.5t15 -73.5q0 -63 -34.5 -107t-83.5 -44q-33 0 -56.5 9t-60.5 31q-76 41 -142.5 59.5t-144.5 18.5q-195 0 -290 -108.5t-95 -333.5q0 -231 99.5 -343t304.5 -112q98 0 194 21v268h-147 q-68 0 -105 34t-37 95t37 95t105 34h338q67 0 107 -38t40 -101v-357q0 -102 -15.5 -156t-55.5 -85t-119 -53q-80 -20 -177.5 -31.5t-181.5 -11.5q-236 0 -408.5 89t-265 256t-92.5 396zM645 1731q0 78 54.5 125t146.5 47q90 0 145.5 -47.5t55.5 -124.5q0 -80 -54.5 -128.5 t-146.5 -48.5t-146.5 48.5t-54.5 128.5z" />
<glyph unicode="&#x121;" horiz-adv-x="1288" d="M59 528q0 150 57.5 264.5t160 177t233.5 62.5q100 0 184 -41t129 -112q4 70 52.5 109.5t125.5 39.5q82 0 131.5 -46t49.5 -122v-737q0 -250 -150.5 -379t-441.5 -129q-113 0 -213.5 20.5t-169.5 59.5q-37 20 -58.5 53t-21.5 74q0 59 29.5 96t76.5 37q37 0 134 -31 q63 -20 112 -31.5t101 -11.5q125 0 183 52.5t58 164.5v78q-45 -68 -129 -107.5t-182 -39.5q-131 0 -233.5 61.5t-160 175t-57.5 262.5zM420 528q0 -106 54 -166.5t147 -60.5q96 0 149 59.5t53 167.5q0 109 -53 170.5t-149 61.5q-94 0 -147.5 -60.5t-53.5 -171.5zM444 1348 q0 80 54.5 127t146.5 47q90 0 145.5 -47.5t55.5 -126.5q0 -80 -54.5 -128.5t-146.5 -48.5t-146.5 48.5t-54.5 128.5z" />
<glyph unicode="&#x122;" horiz-adv-x="1523" d="M94 723q0 225 92.5 392t262 257t397.5 90q143 0 257 -33.5t212 -103.5q35 -25 50 -53.5t15 -73.5q0 -63 -34.5 -107t-83.5 -44q-33 0 -56.5 9t-60.5 31q-76 41 -142.5 59.5t-144.5 18.5q-195 0 -290 -108.5t-95 -333.5q0 -231 99.5 -343t304.5 -112q98 0 194 21v268h-147 q-68 0 -105 34t-37 95t37 95t105 34h338q67 0 107 -38t40 -101v-357q0 -102 -15.5 -156t-55.5 -85t-119 -53q-80 -20 -177.5 -31.5t-181.5 -11.5q-236 0 -408.5 89t-265 256t-92.5 396zM688 -270q0 70 47 110.5t121 40.5q86 0 138 -51t52 -149q0 -66 -21.5 -121.5 t-50.5 -87.5q-18 -20 -41.5 -31.5t-48.5 -11.5q-33 0 -56 16t-23 43q0 20 16 43q20 31 35 70h-13q-63 0 -109 33.5t-46 95.5z" />
<glyph unicode="&#x123;" horiz-adv-x="1288" d="M59 528q0 150 57.5 264.5t160 177t233.5 62.5q100 0 184 -41t129 -112q4 70 52.5 109.5t125.5 39.5q82 0 131.5 -46t49.5 -122v-737q0 -250 -150.5 -379t-441.5 -129q-113 0 -213.5 20.5t-169.5 59.5q-37 20 -58.5 53t-21.5 74q0 59 29.5 96t76.5 37q37 0 134 -31 q63 -20 112 -31.5t101 -11.5q125 0 183 52.5t58 164.5v78q-45 -68 -129 -107.5t-182 -39.5q-131 0 -233.5 61.5t-160 175t-57.5 262.5zM420 528q0 -106 54 -166.5t147 -60.5q96 0 149 59.5t53 167.5q0 109 -53 170.5t-149 61.5q-94 0 -147.5 -60.5t-53.5 -171.5zM458 1389 q0 68 20.5 122t51.5 86q35 43 92 43q33 0 55.5 -16t22.5 -41q0 -23 -16 -45q-23 -35 -35 -70h12q64 0 110 -33.5t46 -95.5q0 -70 -47 -110.5t-121 -40.5q-86 0 -138.5 51t-52.5 150z" />
<glyph unicode="&#x124;" horiz-adv-x="1589" d="M131 174v1096q0 84 50 134t134 50t134.5 -50t50.5 -134v-387h590v387q0 84 50 134t134 50t134 -50t50 -134v-1096q0 -84 -50 -135t-134 -51t-134 50t-50 136v410h-590v-410q0 -84 -50.5 -135t-134.5 -51t-134 50t-50 136zM479 1655q0 45 43 80l156 118q51 43 117 43 t117 -43l155 -118q41 -35 41 -80q0 -39 -29.5 -67.5t-72.5 -28.5q-45 0 -82 34l-129 115l-129 -115q-37 -34 -82 -34q-43 0 -74 28.5t-31 67.5z" />
<glyph unicode="&#x125;" horiz-adv-x="1239" d="M-23 1655q0 45 43 80l156 118q51 43 117 43t117 -43l155 -118q41 -35 41 -80q0 -39 -29.5 -67.5t-72.5 -28.5q-45 0 -82 34l-129 115l-129 -115q-37 -34 -82 -34q-43 0 -74 28.5t-31 67.5zM106 156v1134q0 72 51.5 118t135.5 46q80 0 129 -43t49 -115v-409 q55 72 137 108.5t185 36.5q176 0 262 -107.5t86 -326.5v-442q0 -78 -49.5 -123t-133.5 -45t-133 45t-49 123v450q0 147 -127 148q-82 0 -130 -52.5t-48 -140.5v-405q0 -78 -49 -123t-133 -45t-133.5 45t-49.5 123z" />
<glyph unicode="&#x126;" horiz-adv-x="1736" d="M0 1161q0 63 43 100t125 37h39q8 76 59 116t123 40t123 -40t59 -116h594q8 76 59.5 116t123.5 40t123 -40t59 -116h39q82 0 125 -36.5t43 -100.5q0 -61 -43 -98t-125 -37h-37v-852q0 -90 -52.5 -138t-131.5 -48q-80 0 -132.5 48t-52.5 138v410h-590v-410q0 -90 -52 -138 t-132 -48t-132 48t-52 138v852h-37q-82 0 -125 37t-43 98zM573 883h590v143h-590v-143z" />
<glyph unicode="&#x127;" horiz-adv-x="1239" d="M-98 1198q0 59 37.5 92t113.5 33h56q12 59 61 95t123 36q72 0 119 -36t57 -95h260q74 0 113 -34t39 -91t-39 -91t-113 -34h-258v-186q55 72 137 108.5t185 36.5q176 0 262 -107.5t86 -326.5v-442q0 -78 -49.5 -123t-133.5 -45t-133 45t-49 123v450q0 147 -127 148 q-82 0 -130 -52.5t-48 -140.5v-405q0 -78 -49 -123t-133 -45t-133.5 45t-49.5 123v917h-53q-76 0 -113.5 33t-37.5 92z" />
<glyph unicode="&#x128;" horiz-adv-x="638" d="M-43 1663q0 45 27 93t74 80t104 32q61 0 156 -27q102 -25 153 -24q31 0 62 26q35 31 74 31q35 0 53 -20.5t18 -57.5q0 -45 -27.5 -93t-74.5 -80t-103 -32q-61 0 -155 27q-102 25 -154 24q-18 0 -30.5 -6t-30.5 -20q-33 -33 -74 -33q-33 0 -52.5 21.5t-19.5 58.5zM131 174 v1096q0 84 50 134t136 50q88 0 139.5 -50t51.5 -134v-1096q0 -86 -51 -136t-140 -50q-86 0 -136 50t-50 136z" />
<glyph unicode="&#x129;" horiz-adv-x="575" d="M-72 1272q0 45 28 101.5t75 96t102 39.5q37 0 72 -14t92 -43q33 -16 65.5 -30.5t55.5 -14.5q31 0 50 14.5t40 40.5q20 25 35.5 36t40.5 11q31 0 48 -24.5t17 -65.5q0 -45 -27.5 -101t-74.5 -96t-103 -40q-36 0 -71 14t-92 43q-33 16 -66 30.5t-55 14.5q-31 0 -50.5 -14.5 t-39.5 -40.5q-20 -25 -36 -36t-40 -11q-29 0 -47.5 24.5t-18.5 65.5zM106 156v704q0 84 52.5 126t130.5 42t130 -42t52 -126v-704q0 -84 -52 -126t-130 -42t-130.5 42t-52.5 126z" />
<glyph unicode="&#x12a;" horiz-adv-x="638" d="M-43 1726q0 51 32 81t81 30h496q49 0 80.5 -29.5t31.5 -81.5q0 -51 -31.5 -79.5t-80.5 -28.5h-496q-49 0 -81 28.5t-32 79.5zM131 174v1096q0 84 50 134t136 50q88 0 139.5 -50t51.5 -134v-1096q0 -86 -51 -136t-140 -50q-86 0 -136 50t-50 136z" />
<glyph unicode="&#x12b;" horiz-adv-x="575" d="M-72 1346q0 51 32 79.5t81 28.5h496q49 0 80.5 -28.5t31.5 -79.5t-31.5 -80t-80.5 -29h-496q-49 0 -81 28.5t-32 80.5zM106 156v704q0 84 52.5 126t130.5 42t130 -42t52 -126v-704q0 -84 -52 -126t-130 -42t-130.5 42t-52.5 126z" />
<glyph unicode="&#x12c;" horiz-adv-x="638" d="M-49 1790q0 37 25.5 60.5t62.5 23.5q43 0 82 -33q33 -23 88.5 -37t108.5 -14t108.5 14.5t87.5 36.5q37 35 84 35q37 0 62.5 -23.5t25.5 -60.5q0 -27 -18 -61q-39 -63 -133 -106.5t-217 -43.5t-217 42t-133 108q-16 31 -17 59zM131 174v1096q0 84 50 134t136 50 q88 0 139.5 -50t51.5 -134v-1096q0 -86 -51 -136t-140 -50q-86 0 -136 50t-50 136z" />
<glyph unicode="&#x12d;" horiz-adv-x="575" d="M-86 1444q0 41 28.5 67.5t67.5 26.5q51 0 84 -47q70 -96 195 -96t194 96q33 47 84 47q39 0 68 -26.5t29 -67.5q0 -16 -7 -39q-37 -102 -140 -170t-228 -68t-228.5 68t-140.5 170q-6 23 -6 39zM106 156v704q0 84 52.5 126t130.5 42t130 -42t52 -126v-704q0 -84 -52 -126 t-130 -42t-130.5 42t-52.5 126z" />
<glyph unicode="&#x12e;" horiz-adv-x="638" d="M94 -170q0 115 101 199q-63 49 -64 145v1096q0 84 50 134t136 50q88 0 139.5 -50t51.5 -134v-1096q0 -55 -21.5 -98t-60.5 -60q-106 -61 -107 -139q0 -47 27 -74.5t72 -27.5q31 0 49 3t49 11q6 2 16 2q27 0 43.5 -22.5t16.5 -53.5q0 -49 -37 -71q-84 -49 -193 -50 q-121 0 -194.5 65t-73.5 171z" />
<glyph unicode="&#x12f;" horiz-adv-x="575" d="M57 -170q0 119 101 199q-51 51 -52 127v704q0 84 52.5 126t130.5 42t130 -42t52 -126v-704q0 -104 -82 -146q-6 -4 -39 -24.5t-51 -47t-18 -61.5q0 -49 28.5 -75.5t71.5 -26.5q23 0 44 2t54 12q7 2 17 2q27 0 43 -22.5t16 -53.5q0 -20 -10 -39.5t-29 -31.5 q-82 -49 -190 -50q-115 0 -192 63.5t-77 172.5zM88 1348q0 80 53.5 127t147.5 47q90 0 145 -47.5t55 -126.5q0 -80 -54 -128.5t-146 -48.5t-146.5 48.5t-54.5 128.5z" />
<glyph unicode="&#x130;" horiz-adv-x="638" d="M117 1731q0 78 54.5 125t146.5 47q90 0 145.5 -47.5t55.5 -124.5q0 -80 -54.5 -128.5t-146.5 -48.5t-146.5 48.5t-54.5 128.5zM131 174v1096q0 84 50 134t136 50q88 0 139.5 -50t51.5 -134v-1096q0 -86 -51 -136t-140 -50q-86 0 -136 50t-50 136z" />
<glyph unicode="&#x131;" horiz-adv-x="575" d="M106 156v704q0 84 52.5 126t130.5 42t130 -42t52 -126v-704q0 -84 -52 -126t-130 -42t-130.5 42t-52.5 126z" />
<glyph unicode="&#x134;" horiz-adv-x="813" d="M-37 139q0 72 35 107t111 39l69 4q61 2 93 40t32 103v838q0 84 51.5 134t139.5 50q84 0 136 -50t52 -134v-832q0 -205 -107.5 -318.5t-320.5 -127.5l-66 -4q-225 -11 -225 151zM178 1655q0 45 43 80l156 118q51 43 117 43t117 -43l155 -118q41 -35 41 -80 q0 -39 -29.5 -67.5t-72.5 -28.5q-45 0 -82 34l-129 115l-129 -115q-37 -34 -82 -34q-43 0 -74 28.5t-31 67.5z" />
<glyph unicode="&#x135;" horiz-adv-x="575" d="M-174 -238q0 59 34 89t103 34l57 4q39 2 62.5 29t23.5 68v874q0 84 52.5 126t130.5 42t130 -42t52 -126v-846q0 -172 -93 -270t-282 -113l-57 -4q-98 -6 -155.5 28t-57.5 107zM-43 1233q0 35 27 67l168 199q31 39 60.5 55.5t72.5 16.5q45 0 72.5 -17.5t60.5 -58.5 l168 -195q25 -31 24 -67q0 -43 -32.5 -74t-75.5 -31q-53 0 -92 54l-125 174l-125 -174q-39 -54 -92 -54q-43 0 -77 31t-34 74z" />
<glyph unicode="&#x136;" horiz-adv-x="1429" d="M131 174v1096q0 84 50 134t136 50q88 0 139.5 -50t51.5 -134v-451l575 580q53 55 121 55t119 -50t51 -118t-59 -125l-420 -411l455 -467q53 -51 53 -119t-51.5 -119t-120.5 -51q-76 0 -139 65l-584 598v-483q0 -86 -51 -136t-140 -50q-86 0 -136 50t-50 136zM547 -270 q0 70 47 110.5t121 40.5q86 0 138 -51t52 -149q0 -66 -21.5 -121.5t-50.5 -87.5q-18 -20 -41.5 -31.5t-48.5 -11.5q-33 0 -56 16t-23 43q0 20 16 43q20 31 35 70h-13q-63 0 -109 33.5t-46 95.5z" />
<glyph unicode="&#x137;" horiz-adv-x="1187" d="M106 160v1124q0 84 52.5 127t130.5 43t130 -43t52 -127v-694l379 385q51 53 119 53q66 0 116 -50t50 -114q0 -63 -54 -116l-223 -222l254 -243q53 -51 53 -119t-48 -121t-116 -53q-57 0 -114 51l-416 395v-276q0 -84 -52 -127t-130 -43t-130.5 43t-52.5 127zM422 -270 q0 70 47 110.5t121 40.5q86 0 138 -51t52 -149q0 -66 -21.5 -121.5t-50.5 -87.5q-18 -20 -41.5 -31.5t-48.5 -11.5q-33 0 -56 16t-23 43q0 20 16 43q20 31 35 70h-13q-63 0 -109 33.5t-46 95.5z" />
<glyph unicode="&#x138;" horiz-adv-x="1187" d="M106 160v700q0 84 52.5 126t130.5 42t130 -42t52 -126v-270l379 385q51 53 119 53q66 0 116 -50t50 -114q0 -63 -54 -116l-223 -222l254 -243q53 -51 53 -119t-48 -121t-116 -53q-57 0 -114 51l-416 395v-276q0 -84 -52 -127t-130 -43t-130.5 43t-52.5 127z" />
<glyph unicode="&#x139;" horiz-adv-x="1171" d="M131 176v1094q0 84 50 134t136 50q88 0 139.5 -50t51.5 -134v-965h471q178 0 178 -153q0 -78 -44 -115t-134 -37h-674q-84 0 -129 45t-45 131zM232 1632q0 31 31 62l165 155q53 51 111 52q53 0 91 -39t38 -90q0 -78 -92 -121l-219 -86q-18 -9 -41 -9q-35 0 -59.5 23 t-24.5 53z" />
<glyph unicode="&#x13a;" horiz-adv-x="575" d="M106 156v1128q0 84 52.5 127t130.5 43t130 -43t52 -127v-1128q0 -84 -52 -126t-130 -42t-130.5 42t-52.5 126zM203 1632q0 31 31 62l165 155q53 51 111 52q53 0 91 -39t38 -90q0 -78 -92 -121l-219 -86q-18 -9 -41 -9q-35 0 -59.5 23t-24.5 53z" />
<glyph unicode="&#x13b;" horiz-adv-x="1171" d="M131 176v1094q0 84 50 134t136 50q88 0 139.5 -50t51.5 -134v-965h471q178 0 178 -153q0 -78 -44 -115t-134 -37h-674q-84 0 -129 45t-45 131zM471 -270q0 70 47 110.5t121 40.5q86 0 138 -51t52 -149q0 -66 -21.5 -121.5t-50.5 -87.5q-18 -20 -41.5 -31.5t-48.5 -11.5 q-33 0 -56 16t-23 43q0 20 16 43q20 31 35 70h-13q-63 0 -109 33.5t-46 95.5z" />
<glyph unicode="&#x13c;" horiz-adv-x="575" d="M106 156v1128q0 84 52.5 127t130.5 43t130 -43t52 -127v-1128q0 -84 -52 -126t-130 -42t-130.5 42t-52.5 126zM117 -270q0 70 47 110.5t121 40.5q86 0 138 -51t52 -149q0 -66 -21.5 -121.5t-50.5 -87.5q-18 -20 -41.5 -31.5t-48.5 -11.5q-33 0 -56 16t-23 43q0 20 16 43 q20 31 35 70h-13q-63 0 -109 33.5t-46 95.5z" />
<glyph unicode="&#x13d;" horiz-adv-x="1171" d="M131 176v1094q0 84 50 134t136 50q88 0 139.5 -50t51.5 -134v-965h471q178 0 178 -153q0 -78 -44 -115t-134 -37h-674q-84 0 -129 45t-45 131zM688 1081v258q0 57 37 88t88 31q49 0 86 -27.5t37 -76.5q0 -14 -7 -37l-77 -252q-9 -29 -31.5 -44t-50.5 -15 q-33 0 -57.5 21.5t-24.5 53.5z" />
<glyph unicode="&#x13e;" horiz-adv-x="575" d="M106 156v1128q0 84 52.5 127t130.5 43t130 -43t52 -127v-1128q0 -84 -52 -126t-130 -42t-130.5 42t-52.5 126zM516 1075v287q0 45 25.5 69.5t60.5 24.5q33 0 57.5 -21.5t24.5 -58.5l-2 -18l-47 -293q-4 -31 -21.5 -47.5t-38.5 -16.5q-25 0 -42 19.5t-17 54.5z" />
<glyph unicode="&#x13f;" horiz-adv-x="1171" d="M131 176v1094q0 84 50 134t136 50q88 0 139.5 -50t51.5 -134v-965h471q178 0 178 -153q0 -78 -44 -115t-134 -37h-674q-84 0 -129 45t-45 131zM632 725q0 80 54.5 127t146.5 47q90 0 145.5 -47t55.5 -127t-54.5 -128t-146.5 -48t-146.5 48t-54.5 128z" />
<glyph unicode="&#x140;" horiz-adv-x="854" d="M106 156v1128q0 84 52.5 127t130.5 43t130 -43t52 -127v-1128q0 -84 -52 -126t-130 -42t-130.5 42t-52.5 126zM516 723q0 80 54.5 127t146.5 47q90 0 145.5 -47t55.5 -127t-54.5 -128t-146.5 -48t-146.5 48t-54.5 128z" />
<glyph unicode="&#x141;" horiz-adv-x="1247" d="M2 580q0 37 20.5 71.5t61.5 57.5l121 69v492q0 84 51 134t135 50q88 0 139.5 -50t51.5 -134v-275l174 101q43 25 84 24q57 0 96 -40t39 -93q0 -80 -84 -129l-309 -180v-373h471q178 1 178 -153q0 -78 -44 -115t-134 -37h-674q-84 0 -129 45t-45 131v285q-33 -16 -72 -17 q-57 0 -94 41t-37 95z" />
<glyph unicode="&#x142;" horiz-adv-x="774" d="M0 580q0 37 20.5 70.5t63.5 58.5l121 69v506q0 84 52 127t130 43t130 -43t52 -127v-297q33 17 72 17q55 0 93 -40t38 -94q0 -37 -20.5 -71.5t-61.5 -57.5l-121 -69v-516q0 -84 -52 -126t-130 -42t-130 42t-52 126v305q-33 -16 -72 -17q-57 0 -95 40t-38 96z" />
<glyph unicode="&#x143;" horiz-adv-x="1550" d="M131 174v1096q0 82 49 133t127 51q88 0 137 -61l623 -775v652q0 84 48 134t126 50t128 -51t50 -133v-1096q0 -84 -49 -135t-127 -51q-92 0 -139 61l-623 776v-651q0 -84 -47 -135t-127 -51q-78 0 -127 51t-49 135zM688 1632q0 31 31 62l165 155q53 51 111 52q53 0 91 -39 t38 -90q0 -78 -92 -121l-219 -86q-18 -9 -41 -9q-35 0 -59.5 23t-24.5 53z" />
<glyph unicode="&#x144;" horiz-adv-x="1239" d="M106 156v708q0 72 51.5 118t133.5 46q78 0 124 -43t46 -113q53 78 137 119t186 41q181 0 269 -107.5t88 -326.5v-442q0 -78 -49.5 -123t-133.5 -45t-133 45t-49 123v426q0 90 -31.5 131t-95.5 41q-82 0 -130 -52.5t-48 -140.5v-405q0 -78 -49 -123t-133 -45t-133.5 45 t-49.5 123zM541 1217q0 33 22 61l152 209q29 39 64.5 58.5t72.5 19.5q59 0 104.5 -42t45.5 -100q0 -72 -76 -123l-232 -151q-28 -21 -61 -21q-39 0 -65.5 27t-26.5 62z" />
<glyph unicode="&#x145;" horiz-adv-x="1550" d="M131 174v1096q0 82 49 133t127 51q88 0 137 -61l623 -775v652q0 84 48 134t126 50t128 -51t50 -133v-1096q0 -84 -49 -135t-127 -51q-92 0 -139 61l-623 776v-651q0 -84 -47 -135t-127 -51q-78 0 -127 51t-49 135zM604 -270q0 70 47 110.5t121 40.5q86 0 138 -51t52 -149 q0 -66 -21.5 -121.5t-50.5 -87.5q-18 -20 -41.5 -31.5t-48.5 -11.5q-33 0 -56 16t-23 43q0 20 16 43q20 31 35 70h-13q-63 0 -109 33.5t-46 95.5z" />
<glyph unicode="&#x146;" horiz-adv-x="1239" d="M106 156v708q0 72 51.5 118t133.5 46q78 0 124 -43t46 -113q53 78 137 119t186 41q181 0 269 -107.5t88 -326.5v-442q0 -78 -49.5 -123t-133.5 -45t-133 45t-49 123v426q0 90 -31.5 131t-95.5 41q-82 0 -130 -52.5t-48 -140.5v-405q0 -78 -49 -123t-133 -45t-133.5 45 t-49.5 123zM453 -270q0 70 47 110.5t121 40.5q86 0 138 -51t52 -149q0 -66 -21.5 -121.5t-50.5 -87.5q-18 -20 -41.5 -31.5t-48.5 -11.5q-33 0 -56 16t-23 43q0 20 16 43q20 31 35 70h-13q-63 0 -109 33.5t-46 95.5z" />
<glyph unicode="&#x147;" horiz-adv-x="1550" d="M131 174v1096q0 82 49 133t127 51q88 0 137 -61l623 -775v652q0 84 48 134t126 50t128 -51t50 -133v-1096q0 -84 -49 -135t-127 -51q-92 0 -139 61l-623 776v-651q0 -84 -47 -135t-127 -51q-78 0 -127 51t-49 135zM460 1798q0 39 31 68.5t72 29.5q45 0 82 -34l129 -117 l129 117q37 35 82 34q41 0 71.5 -29.5t30.5 -68.5q0 -45 -41 -78l-155 -121q-51 -43 -117 -43t-117 43l-156 121q-41 35 -41 78z" />
<glyph unicode="&#x148;" horiz-adv-x="1239" d="M106 156v708q0 72 51.5 118t133.5 46q78 0 124 -43t46 -113q53 78 137 119t186 41q181 0 269 -107.5t88 -326.5v-442q0 -78 -49.5 -123t-133.5 -45t-133 45t-49 123v426q0 90 -31.5 131t-95.5 41q-82 0 -130 -52.5t-48 -140.5v-405q0 -78 -49 -123t-133 -45t-133.5 45 t-49.5 123zM299 1468q0 41 33 72t76 31q55 0 92 -53l125 -175l125 175q37 53 92 53q43 0 76.5 -31t33.5 -72q0 -35 -26 -67l-168 -199q-33 -39 -61.5 -56.5t-71.5 -17.5t-72 17.5t-61 58.5l-168 197q-25 31 -25 67z" />
<glyph unicode="&#x149;" horiz-adv-x="1239" d="M106 156v708q0 72 51.5 118t133.5 46q78 0 124 -43t46 -113q53 78 137 119t186 41q181 0 269 -107.5t88 -326.5v-442q0 -78 -49.5 -123t-133.5 -45t-133 45t-49 123v426q0 90 -31.5 131t-95.5 41q-82 0 -130 -52.5t-48 -140.5v-405q0 -78 -49 -123t-133 -45t-133.5 45 t-49.5 123zM121 1411q0 70 48 111t120 41q88 0 139 -51.5t51 -149.5q0 -66 -20.5 -120t-48.5 -89q-41 -43 -93 -43q-33 0 -56 16.5t-23 42.5q0 20 16 43q27 41 35 70h-13q-63 0 -109 34t-46 95z" />
<glyph unicode="&#x14a;" horiz-adv-x="1550" d="M131 174v1096q0 82 49 133t127 51q88 0 137 -61l623 -775v652q0 84 48 134t126 50t128 -51t50 -133v-1196q0 -205 -107.5 -318.5t-320.5 -128.5l-65 -4q-106 -6 -166 31t-60 110q0 66 36 100t110 38l69 4q68 4 108 45t40 98v51l-582 725v-651q0 -84 -48 -135t-126 -51 t-127 51t-49 135z" />
<glyph unicode="&#x14b;" horiz-adv-x="1239" d="M106 156v708q0 72 51.5 118t133.5 46q78 0 124 -43t46 -113v-2q57 78 140 120t183 42q181 0 269 -107.5t88 -326.5v-584q0 -174 -94.5 -271t-278.5 -112l-57 -4q-102 -6 -158.5 29t-56.5 106q0 57 33.5 88t105.5 35l57 4q37 4 60.5 30t23.5 67v620q0 147 -127 148 q-82 0 -130 -52.5t-48 -140.5v-405q0 -78 -49 -123t-133 -45t-133.5 45t-49.5 123z" />
<glyph unicode="&#x14c;" horiz-adv-x="1630" d="M94 723q0 225 88 392t251 257t384 90t384 -90t250 -257t87 -392t-88 -392t-251 -258t-382 -91q-221 0 -384 91t-251 258t-88 392zM454 1726q0 51 32 81t81 30h496q49 0 80.5 -29.5t31.5 -81.5q0 -51 -31.5 -79.5t-80.5 -28.5h-496q-49 0 -81 28.5t-32 79.5zM469 723 q0 -223 92 -338t256 -115t256 116t92 337t-93 336t-255 115q-164 0 -256 -114t-92 -337z" />
<glyph unicode="&#x14d;" d="M59 510q0 160 69 277.5t193.5 181t292.5 63.5t293 -63.5t193.5 -181t68.5 -277.5t-68.5 -278.5t-193.5 -183t-293 -64.5q-165 0 -291 64.5t-195 183t-69 278.5zM254 1346q0 51 32 79.5t81 28.5h496q49 0 80.5 -28.5t31.5 -79.5t-31.5 -80t-80.5 -29h-496q-49 0 -81 28.5 t-32 80.5zM420 510q0 -254 194 -254q195 0 195 254t-195 254t-194 -254z" />
<glyph unicode="&#x14e;" horiz-adv-x="1630" d="M94 723q0 225 88 392t251 257t384 90t384 -90t250 -257t87 -392t-88 -392t-251 -258t-382 -91q-221 0 -384 91t-251 258t-88 392zM448 1790q0 37 25.5 60.5t62.5 23.5q43 0 82 -33q33 -23 88.5 -37t108.5 -14t108.5 14.5t87.5 36.5q37 35 84 35q37 0 62.5 -23.5 t25.5 -60.5q0 -27 -18 -61q-39 -63 -133 -106.5t-217 -43.5t-217 42t-133 108q-16 31 -17 59zM469 723q0 -223 92 -338t256 -115t256 116t92 337t-93 336t-255 115q-164 0 -256 -114t-92 -337z" />
<glyph unicode="&#x14f;" d="M59 510q0 160 69 277.5t193.5 181t292.5 63.5t293 -63.5t193.5 -181t68.5 -277.5t-68.5 -278.5t-193.5 -183t-293 -64.5q-165 0 -291 64.5t-195 183t-69 278.5zM240 1444q0 41 28.5 67.5t67.5 26.5q51 0 84 -47q70 -96 195 -96t194 96q33 47 84 47q39 0 68 -26.5 t29 -67.5q0 -16 -7 -39q-37 -102 -140 -170t-228 -68t-228.5 68t-140.5 170q-6 23 -6 39zM420 510q0 -254 194 -254q195 0 195 254t-195 254t-194 -254z" />
<glyph unicode="&#x150;" horiz-adv-x="1630" d="M94 723q0 225 88 392t251 257t384 90t384 -90t250 -257t87 -392t-88 -392t-251 -258t-382 -91q-221 0 -384 91t-251 258t-88 392zM469 723q0 -223 92 -338t256 -115t256 116t92 337t-93 336t-255 115q-164 0 -256 -114t-92 -337zM587 1632q0 23 9 41l63 154q33 70 98 69 q49 0 91.5 -35.5t42.5 -82.5q0 -43 -37 -78l-125 -115q-29 -29 -66 -29q-31 0 -53.5 21.5t-22.5 54.5zM886 1632q0 23 9 41l63 154q33 70 98 69q49 0 91.5 -35.5t42.5 -82.5q0 -43 -37 -78l-125 -115q-29 -29 -66 -29q-31 0 -53.5 21.5t-22.5 54.5z" />
<glyph unicode="&#x151;" d="M59 510q0 160 69 277.5t193.5 181t292.5 63.5t293 -63.5t193.5 -181t68.5 -277.5t-68.5 -278.5t-193.5 -183t-293 -64.5q-165 0 -291 64.5t-195 183t-69 278.5zM387 1204q0 14 3 21l36 223q12 61 48 93t83 32q49 0 87 -33t38 -84q0 -39 -22 -78l-121 -207 q-27 -45 -74 -45q-31 0 -54.5 21.5t-23.5 56.5zM420 510q0 -254 194 -254q195 0 195 254t-195 254t-194 -254zM684 1208q0 10 2 17l37 223q12 61 49 93t84 32q49 0 87 -32t38 -83q0 -37 -24 -80l-119 -207q-27 -45 -74 -45q-33 0 -56.5 22.5t-23.5 59.5z" />
<glyph unicode="&#x152;" horiz-adv-x="2138" d="M94 723q0 223 92.5 385t265.5 249t412 87h1069q86 0 130 -37t44 -107q0 -72 -46 -109.5t-134 -37.5h-518v-274h477q180 0 180 -146q0 -70 -46 -106.5t-134 -36.5h-477v-299h518q88 0 134 -38t46 -110q0 -70 -45 -106.5t-131 -36.5h-1067q-241 0 -414.5 86t-264.5 249 t-91 388zM469 723q0 -432 420 -432h153v862h-153q-205 0 -312.5 -106.5t-107.5 -323.5z" />
<glyph unicode="&#x153;" horiz-adv-x="1835" d="M59 510q0 158 67 276.5t190.5 182t287.5 63.5q123 0 219.5 -39t161.5 -112q63 74 153.5 112.5t198.5 38.5q129 0 229.5 -62.5t156 -176t55.5 -261.5q0 -47 -22.5 -72.5t-63.5 -25.5h-527q14 -98 62.5 -141t140.5 -43q47 0 88 11t92 32q31 12 61.5 21.5t55.5 9.5 q47 0 77 -37t30 -97q0 -39 -21.5 -71.5t-58.5 -52.5q-66 -35 -160 -58.5t-172 -23.5q-248 0 -379 149q-66 -74 -161 -111.5t-216 -37.5q-164 0 -287.5 64.5t-190.5 183t-67 278.5zM420 510q0 -254 190 -254q189 0 189 254t-189 254q-190 0 -190 -254zM1163 606h307 q-4 88 -40.5 134t-100.5 46q-72 0 -115 -46t-51 -134z" />
<glyph unicode="&#x154;" horiz-adv-x="1447" d="M131 174v1096q0 84 45 129t129 45h514q262 0 394.5 -113.5t132.5 -329.5q0 -164 -90.5 -277.5t-254.5 -152.5q68 -10 118 -44.5t100 -104.5l127 -182q36 -56 36 -105q0 -66 -54 -109.5t-126 -43.5q-49 0 -92 22.5t-74 67.5l-266 389q-29 41 -60.5 60.5t-74.5 19.5h-133 v-367q0 -86 -49.5 -136t-135.5 -50t-136 50t-50 136zM498 823h262q125 0 179 39t54 127q0 90 -54 130t-179 40h-262v-336zM645 1632q0 31 31 62l165 155q53 51 111 52q53 0 91 -39t38 -90q0 -78 -92 -121l-219 -86q-18 -9 -41 -9q-35 0 -59.5 23t-24.5 53z" />
<glyph unicode="&#x155;" horiz-adv-x="858" d="M106 156v708q0 78 52.5 121t126.5 43q76 0 122 -41t46 -115v-38q33 90 107.5 139t156.5 53l28 2q70 6 111 -32t41 -111q0 -82 -38 -119t-136 -47l-61 -6q-102 -12 -146.5 -64.5t-44.5 -142.5v-350q0 -84 -52 -126t-130 -42t-130.5 42t-52.5 126zM410 1217q0 33 22 61 l152 209q29 39 64.5 58.5t72.5 19.5q59 0 104.5 -42t45.5 -100q0 -72 -76 -123l-232 -151q-28 -21 -61 -21q-39 0 -65.5 27t-26.5 62z" />
<glyph unicode="&#x156;" horiz-adv-x="1447" d="M131 174v1096q0 84 45 129t129 45h514q262 0 394.5 -113.5t132.5 -329.5q0 -164 -90.5 -277.5t-254.5 -152.5q68 -10 118 -44.5t100 -104.5l127 -182q36 -56 36 -105q0 -66 -54 -109.5t-126 -43.5q-49 0 -92 22.5t-74 67.5l-266 389q-29 41 -60.5 60.5t-74.5 19.5h-133 v-367q0 -86 -49.5 -136t-135.5 -50t-136 50t-50 136zM498 823h262q125 0 179 39t54 127q0 90 -54 130t-179 40h-262v-336zM561 -270q0 70 47 110.5t121 40.5q86 0 138 -51t52 -149q0 -66 -21.5 -121.5t-50.5 -87.5q-18 -20 -41.5 -31.5t-48.5 -11.5q-33 0 -56 16t-23 43 q0 20 16 43q20 31 35 70h-13q-63 0 -109 33.5t-46 95.5z" />
<glyph unicode="&#x157;" horiz-adv-x="858" d="M106 156v708q0 78 52.5 121t126.5 43q76 0 122 -41t46 -115v-38q33 90 107.5 139t156.5 53l28 2q70 6 111 -32t41 -111q0 -82 -38 -119t-136 -47l-61 -6q-102 -12 -146.5 -64.5t-44.5 -142.5v-350q0 -84 -52 -126t-130 -42t-130.5 42t-52.5 126zM117 -270q0 70 47 110.5 t121 40.5q86 0 138 -51t52 -149q0 -66 -21.5 -121.5t-50.5 -87.5q-18 -20 -41.5 -31.5t-48.5 -11.5q-33 0 -56 16t-23 43q0 20 16 43q20 31 35 70h-13q-63 0 -109 33.5t-46 95.5z" />
<glyph unicode="&#x158;" horiz-adv-x="1447" d="M131 174v1096q0 84 45 129t129 45h514q262 0 394.5 -113.5t132.5 -329.5q0 -164 -90.5 -277.5t-254.5 -152.5q68 -10 118 -44.5t100 -104.5l127 -182q36 -56 36 -105q0 -66 -54 -109.5t-126 -43.5q-49 0 -92 22.5t-74 67.5l-266 389q-29 41 -60.5 60.5t-74.5 19.5h-133 v-367q0 -86 -49.5 -136t-135.5 -50t-136 50t-50 136zM417 1798q0 39 31 68.5t72 29.5q45 0 82 -34l129 -117l129 117q37 35 82 34q41 0 71.5 -29.5t30.5 -68.5q0 -45 -41 -78l-155 -121q-51 -43 -117 -43t-117 43l-156 121q-41 35 -41 78zM498 823h262q125 0 179 39t54 127 q0 90 -54 130t-179 40h-262v-336z" />
<glyph unicode="&#x159;" horiz-adv-x="858" d="M106 156v708q0 78 52.5 121t126.5 43q76 0 122 -41t46 -115v-38q33 90 107.5 139t156.5 53l28 2q70 6 111 -32t41 -111q0 -82 -38 -119t-136 -47l-61 -6q-102 -12 -146.5 -64.5t-44.5 -142.5v-350q0 -84 -52 -126t-130 -42t-130.5 42t-52.5 126zM168 1468q0 41 33 72 t76 31q55 0 92 -53l125 -175l125 175q37 53 92 53q43 0 76.5 -31t33.5 -72q0 -35 -26 -67l-168 -199q-33 -39 -61.5 -56.5t-71.5 -17.5t-72 17.5t-61 58.5l-168 197q-25 31 -25 67z" />
<glyph unicode="&#x15a;" horiz-adv-x="1359" d="M74 246q0 61 36.5 106t86.5 45q27 0 51 -8t61 -31q84 -47 167 -67.5t188 -20.5q121 0 183 36t62 106q0 47 -58 80.5t-222 66.5q-203 43 -317.5 102.5t-161 140.5t-46.5 195q0 131 78 237.5t214 167t306 60.5q150 0 266.5 -32.5t213.5 -102.5q37 -27 52 -56.5t15 -72.5 q0 -61 -35.5 -106t-85.5 -45q-27 0 -49 7t-63 31q-10 6 -58.5 32t-113 41.5t-139.5 15.5q-104 0 -168 -40t-64 -106q0 -39 22.5 -63.5t84 -48t182.5 -48.5q197 -43 309.5 -103t159.5 -140t47 -189q0 -135 -76 -238.5t-212 -159.5t-316 -56q-164 0 -304.5 35.5t-230.5 99.5 q-35 27 -50 55.5t-15 73.5zM602 1632q0 31 31 62l165 155q53 51 111 52q53 0 91 -39t38 -90q0 -78 -92 -121l-219 -86q-18 -9 -41 -9q-35 0 -59.5 23t-24.5 53z" />
<glyph unicode="&#x15b;" horiz-adv-x="1003" d="M45 197q0 55 29.5 91t75.5 36q31 0 57 -7.5t65 -23.5q66 -23 116 -35t128 -12q55 0 87 15t32 44q0 23 -15.5 35t-58.5 23.5t-145 31.5q-182 35 -263 105.5t-81 199.5q0 94 58 170t160.5 119t229.5 43q92 0 179 -22.5t155 -63.5q63 -37 64 -119q0 -57 -31 -96t-76 -39 q-53 0 -127 35q-49 23 -87 34t-89 11t-80 -15.5t-29 -43.5q0 -33 40 -51.5t159 -40.5q199 -35 281 -106t82 -204q0 -150 -124 -238.5t-333 -88.5q-137 0 -231.5 20.5t-166.5 65.5q-29 14 -45 49t-16 78zM436 1217q0 33 22 61l152 209q29 39 64.5 58.5t72.5 19.5 q59 0 104.5 -42t45.5 -100q0 -72 -76 -123l-232 -151q-28 -21 -61 -21q-39 0 -65.5 27t-26.5 62z" />
<glyph unicode="&#x15c;" horiz-adv-x="1359" d="M74 246q0 61 36.5 106t86.5 45q27 0 51 -8t61 -31q84 -47 167 -67.5t188 -20.5q121 0 183 36t62 106q0 47 -58 80.5t-222 66.5q-203 43 -317.5 102.5t-161 140.5t-46.5 195q0 131 78 237.5t214 167t306 60.5q150 0 266.5 -32.5t213.5 -102.5q37 -27 52 -56.5t15 -72.5 q0 -61 -35.5 -106t-85.5 -45q-27 0 -49 7t-63 31q-10 6 -58.5 32t-113 41.5t-139.5 15.5q-104 0 -168 -40t-64 -106q0 -39 22.5 -63.5t84 -48t182.5 -48.5q197 -43 309.5 -103t159.5 -140t47 -189q0 -135 -76 -238.5t-212 -159.5t-316 -56q-164 0 -304.5 35.5t-230.5 99.5 q-35 27 -50 55.5t-15 73.5zM372 1655q0 45 43 80l156 118q51 43 117 43t117 -43l155 -118q41 -35 41 -80q0 -39 -29.5 -67.5t-72.5 -28.5q-45 0 -82 34l-129 115l-129 -115q-37 -34 -82 -34q-43 0 -74 28.5t-31 67.5z" />
<glyph unicode="&#x15d;" horiz-adv-x="1003" d="M45 197q0 55 29.5 91t75.5 36q31 0 57 -7.5t65 -23.5q66 -23 116 -35t128 -12q55 0 87 15t32 44q0 23 -15.5 35t-58.5 23.5t-145 31.5q-182 35 -263 105.5t-81 199.5q0 94 58 170t160.5 119t229.5 43q92 0 179 -22.5t155 -63.5q63 -37 64 -119q0 -57 -31 -96t-76 -39 q-53 0 -127 35q-49 23 -87 34t-89 11t-80 -15.5t-29 -43.5q0 -33 40 -51.5t159 -40.5q199 -35 281 -106t82 -204q0 -150 -124 -238.5t-333 -88.5q-137 0 -231.5 20.5t-166.5 65.5q-29 14 -45 49t-16 78zM192 1233q0 35 27 67l168 199q31 39 60.5 55.5t72.5 16.5 q45 0 72.5 -17.5t60.5 -58.5l168 -195q25 -31 24 -67q0 -43 -32.5 -74t-75.5 -31q-53 0 -92 54l-125 174l-125 -174q-39 -54 -92 -54q-43 0 -77 31t-34 74z" />
<glyph unicode="&#x15e;" horiz-adv-x="1359" d="M74 246q0 61 36.5 106t86.5 45q27 0 51 -8t61 -31q84 -47 167 -67.5t188 -20.5q121 0 183 36t62 106q0 47 -58 80.5t-222 66.5q-203 43 -317.5 102.5t-161 140.5t-46.5 195q0 131 78 237.5t214 167t306 60.5q150 0 266.5 -32.5t213.5 -102.5q37 -27 52 -56.5t15 -72.5 q0 -61 -35.5 -106t-85.5 -45q-27 0 -49 7t-63 31q-10 6 -58.5 32t-113 41.5t-139.5 15.5q-104 0 -168 -40t-64 -106q0 -39 22.5 -63.5t84 -48t182.5 -48.5q197 -43 309.5 -103t159.5 -140t47 -189q0 -125 -65.5 -224t-187.5 -158.5t-282 -69.5l-12 -68q16 2 43 2 q63 0 107.5 -39t44.5 -102q0 -82 -75 -132.5t-214 -50.5q-92 0 -148 19q-45 14 -45 65q0 31 19.5 54.5t46.5 15.5q82 -16 115 -16q86 0 86 45q0 35 -45 35q-16 0 -43 -5.5t-41 -5.5q-20 0 -32.5 11.5t-8.5 31.5l18 142q-129 10 -237.5 43.5t-182.5 87.5q-35 27 -50 55.5 t-15 73.5z" />
<glyph unicode="&#x15f;" horiz-adv-x="1003" d="M45 197q0 55 29.5 91t75.5 36q31 0 57 -7.5t65 -23.5q66 -23 116 -35t128 -12q55 0 87 15t32 44q0 23 -15.5 35t-58.5 23.5t-145 31.5q-182 35 -263 105.5t-81 199.5q0 94 58 170t160.5 119t229.5 43q92 0 179 -22.5t155 -63.5q63 -37 64 -119q0 -57 -31 -96t-76 -39 q-53 0 -127 35q-49 23 -87 34t-89 11t-80 -15.5t-29 -43.5q0 -33 40 -51.5t159 -40.5q199 -35 281 -106t82 -204q0 -137 -103.5 -223t-284.5 -102l-12 -70q16 2 43 2q63 0 107.5 -39t44.5 -102q0 -82 -75 -132.5t-214 -50.5q-92 0 -148 19q-45 14 -45 65q0 31 19.5 54.5 t46.5 15.5q82 -16 115 -16q86 0 86 45q0 35 -45 35q-16 0 -43 -5.5t-41 -5.5q-20 0 -32.5 11.5t-8.5 31.5l18 144q-174 12 -283 82q-29 14 -45 49t-16 78z" />
<glyph unicode="&#x160;" horiz-adv-x="1359" d="M74 246q0 61 36.5 106t86.5 45q27 0 51 -8t61 -31q84 -47 167 -67.5t188 -20.5q121 0 183 36t62 106q0 47 -58 80.5t-222 66.5q-203 43 -317.5 102.5t-161 140.5t-46.5 195q0 131 78 237.5t214 167t306 60.5q150 0 266.5 -32.5t213.5 -102.5q37 -27 52 -56.5t15 -72.5 q0 -61 -35.5 -106t-85.5 -45q-27 0 -49 7t-63 31q-10 6 -58.5 32t-113 41.5t-139.5 15.5q-104 0 -168 -40t-64 -106q0 -39 22.5 -63.5t84 -48t182.5 -48.5q197 -43 309.5 -103t159.5 -140t47 -189q0 -135 -76 -238.5t-212 -159.5t-316 -56q-164 0 -304.5 35.5t-230.5 99.5 q-35 27 -50 55.5t-15 73.5zM374 1798q0 39 31 68.5t72 29.5q45 0 82 -34l129 -117l129 117q37 35 82 34q41 0 71.5 -29.5t30.5 -68.5q0 -45 -41 -78l-155 -121q-51 -43 -117 -43t-117 43l-156 121q-41 35 -41 78z" />
<glyph unicode="&#x161;" horiz-adv-x="1003" d="M45 197q0 55 29.5 91t75.5 36q31 0 57 -7.5t65 -23.5q66 -23 116 -35t128 -12q55 0 87 15t32 44q0 23 -15.5 35t-58.5 23.5t-145 31.5q-182 35 -263 105.5t-81 199.5q0 94 58 170t160.5 119t229.5 43q92 0 179 -22.5t155 -63.5q63 -37 64 -119q0 -57 -31 -96t-76 -39 q-53 0 -127 35q-49 23 -87 34t-89 11t-80 -15.5t-29 -43.5q0 -33 40 -51.5t159 -40.5q199 -35 281 -106t82 -204q0 -150 -124 -238.5t-333 -88.5q-137 0 -231.5 20.5t-166.5 65.5q-29 14 -45 49t-16 78zM194 1468q0 41 33 72t76 31q55 0 92 -53l125 -175l125 175 q37 53 92 53q43 0 76.5 -31t33.5 -72q0 -35 -26 -67l-168 -199q-33 -39 -61.5 -56.5t-71.5 -17.5t-72 17.5t-61 58.5l-168 197q-25 31 -25 67z" />
<glyph unicode="&#x162;" horiz-adv-x="1294" d="M-10 1292q0 78 44 115t134 37h958q91 0 135 -37t44 -115t-44 -115.5t-135 -37.5h-288v-965q0 -66 -32 -111t-87 -63l-14 -84q16 2 43 2q63 0 107 -39t44 -102q0 -82 -74.5 -132.5t-214.5 -50.5q-92 0 -147 19q-45 14 -45 65q0 31 19.5 54.5t45.5 15.5q82 -16 115 -16 q86 0 86 45q0 35 -45 35q-16 0 -43 -5.5t-41 -5.5q-20 0 -32.5 11.5t-8.5 31.5l23 174q-39 23 -59.5 64t-20.5 92v965h-289q-90 0 -134 37.5t-44 115.5z" />
<glyph unicode="&#x163;" horiz-adv-x="829" d="M-29 874q0 133 164 134h60v133q0 78 49 124t133 46t133 -46t49 -124v-133h113q164 0 164 -134q0 -135 -164 -135h-113v-393q0 -39 23.5 -65.5t60.5 -28.5l59 -4q137 -8 138 -123q0 -72 -55.5 -106.5t-157.5 -28.5l-39 2l-13 -76q16 2 43 2q63 0 107.5 -39t44.5 -102 q0 -82 -74.5 -132.5t-214.5 -50.5q-92 0 -147 19q-45 14 -45 65q0 31 19.5 54.5t45.5 15.5q82 -16 115 -16q86 0 86 45q0 35 -45 35q-16 0 -43 -5.5t-41 -5.5q-20 0 -32.5 11.5t-8.5 31.5l23 185q-213 84 -213 348v362h-60q-164 0 -164 135z" />
<glyph unicode="&#x164;" horiz-adv-x="1294" d="M-10 1292q0 78 44 115t134 37h958q90 0 134.5 -37t44.5 -115t-44 -115.5t-135 -37.5h-288v-965q0 -84 -52.5 -134t-138.5 -50t-138 50t-52 134v965h-289q-90 0 -134 37.5t-44 115.5zM333 1798q0 39 31 68.5t72 29.5q45 0 82 -34l129 -117l129 117q37 35 82 34 q41 0 71.5 -29.5t30.5 -68.5q0 -45 -41 -78l-155 -121q-51 -43 -117 -43t-117 43l-156 121q-41 35 -41 78z" />
<glyph unicode="&#x165;" horiz-adv-x="829" d="M-29 874q0 133 164 134h60v133q0 78 49 124t133 46t133 -46t49 -124v-133h113q164 0 164 -134q0 -135 -164 -135h-113v-393q0 -39 23.5 -65.5t60.5 -28.5l59 -4q138 -8 138 -123q0 -72 -55.5 -106.5t-157.5 -28.5l-58 4q-184 14 -279 111.5t-95 271.5v362h-60 q-164 0 -164 135zM633 1118v234q0 51 46 78.5t109 27.5q61 0 106.5 -25.5t45.5 -68.5q0 -14 -6 -33l-96 -227q-10 -27 -39 -40t-64 -13q-41 0 -71.5 18t-30.5 49z" />
<glyph unicode="&#x166;" horiz-adv-x="1294" d="M-10 1292q0 78 44 115t134 37h958q90 0 134.5 -37t44.5 -115t-44 -115.5t-135 -37.5h-288v-269h137q82 0 126 -36.5t44 -104.5q0 -70 -44 -106.5t-126 -36.5h-137v-412q0 -84 -52.5 -134t-138.5 -50t-138 50t-52 134v412h-140q-82 0 -124.5 36.5t-42.5 106.5 q0 68 43 104.5t124 36.5h140v269h-289q-90 0 -134 37.5t-44 115.5z" />
<glyph unicode="&#x167;" horiz-adv-x="849" d="M-18 874q0 133 163 134h60v133q0 78 49 124t133 46t133 -46t49 -124v-133h113q164 0 164 -134q0 -135 -164 -135h-113v-41h84q72 0 112 -32.5t40 -92.5q0 -59 -40 -91.5t-112 -32.5h-84v-103q0 -39 23.5 -65.5t60.5 -28.5l60 -4q137 -8 137 -123q0 -72 -55.5 -106.5 t-157.5 -28.5l-57 4q-184 14 -279.5 111.5t-95.5 271.5v72h-31q-72 0 -111.5 32.5t-39.5 91.5t39.5 92t111.5 33h31v41h-60q-164 0 -163 135z" />
<glyph unicode="&#x168;" horiz-adv-x="1525" d="M123 608v662q0 84 50 134t134 50t134.5 -50t50.5 -134v-676q0 -156 69.5 -240t200.5 -84t200.5 84t69.5 240v676q0 84 50.5 134t134.5 50t135 -50t51 -134v-662q0 -305 -165 -465.5t-476 -160.5q-313 0 -476 159.5t-163 466.5zM401 1663q0 45 27 93t74 80t104 32 q61 0 156 -27q102 -25 153 -24q31 0 62 26q35 31 74 31q35 0 53 -20.5t18 -57.5q0 -45 -27.5 -93t-74.5 -80t-103 -32q-61 0 -155 27q-102 25 -154 24q-18 0 -30.5 -6t-30.5 -20q-33 -33 -74 -33q-33 0 -52.5 21.5t-19.5 58.5z" />
<glyph unicode="&#x169;" d="M98 418v442q0 78 49.5 123t133.5 45t133 -45t49 -123v-450q0 -147 127 -148q74 0 121 53.5t47 139.5v405q0 78 49 123t133 45t133 -45t49 -123v-708q0 -72 -51 -118t-133 -46q-74 0 -121 40t-49 107q-47 -74 -120 -112.5t-167 -38.5q-195 0 -289 107.5t-94 326.5z M252 1272q0 45 28 101.5t75 96t102 39.5q37 0 72 -14t92 -43q33 -16 65.5 -30.5t55.5 -14.5q31 0 50 14.5t40 40.5q20 25 35.5 36t40.5 11q31 0 48 -24.5t17 -65.5q0 -45 -27.5 -101t-74.5 -96t-103 -40q-36 0 -71 14t-92 43q-33 16 -66 30.5t-55 14.5q-31 0 -50.5 -14.5 t-39.5 -40.5q-20 -25 -36 -36t-40 -11q-29 0 -47.5 24.5t-18.5 65.5z" />
<glyph unicode="&#x16a;" horiz-adv-x="1525" d="M123 608v662q0 84 50 134t134 50t134.5 -50t50.5 -134v-676q0 -156 69.5 -240t200.5 -84t200.5 84t69.5 240v676q0 84 50.5 134t134.5 50t135 -50t51 -134v-662q0 -305 -165 -465.5t-476 -160.5q-313 0 -476 159.5t-163 466.5zM401 1726q0 51 32 81t81 30h496 q49 0 80.5 -29.5t31.5 -81.5q0 -51 -31.5 -79.5t-80.5 -28.5h-496q-49 0 -81 28.5t-32 79.5z" />
<glyph unicode="&#x16b;" d="M98 418v442q0 78 49.5 123t133.5 45t133 -45t49 -123v-450q0 -147 127 -148q74 0 121 53.5t47 139.5v405q0 78 49 123t133 45t133 -45t49 -123v-708q0 -72 -51 -118t-133 -46q-74 0 -121 40t-49 107q-47 -74 -120 -112.5t-167 -38.5q-195 0 -289 107.5t-94 326.5z M252 1346q0 51 32 79.5t81 28.5h496q49 0 80.5 -28.5t31.5 -79.5t-31.5 -80t-80.5 -29h-496q-49 0 -81 28.5t-32 80.5z" />
<glyph unicode="&#x16c;" horiz-adv-x="1525" d="M123 608v662q0 84 50 134t134 50t134.5 -50t50.5 -134v-676q0 -156 69.5 -240t200.5 -84t200.5 84t69.5 240v676q0 84 50.5 134t134.5 50t135 -50t51 -134v-662q0 -305 -165 -465.5t-476 -160.5q-313 0 -476 159.5t-163 466.5zM395 1790q0 37 25.5 60.5t62.5 23.5 q43 0 82 -33q33 -23 88.5 -37t108.5 -14t108.5 14.5t87.5 36.5q37 35 84 35q37 0 62.5 -23.5t25.5 -60.5q0 -27 -18 -61q-39 -63 -133 -106.5t-217 -43.5t-217 42t-133 108q-16 31 -17 59z" />
<glyph unicode="&#x16d;" d="M98 418v442q0 78 49.5 123t133.5 45t133 -45t49 -123v-450q0 -147 127 -148q74 0 121 53.5t47 139.5v405q0 78 49 123t133 45t133 -45t49 -123v-708q0 -72 -51 -118t-133 -46q-74 0 -121 40t-49 107q-47 -74 -120 -112.5t-167 -38.5q-195 0 -289 107.5t-94 326.5z M238 1444q0 41 28.5 67.5t67.5 26.5q51 0 84 -47q70 -96 195 -96t194 96q33 47 84 47q39 0 68 -26.5t29 -67.5q0 -16 -7 -39q-37 -102 -140 -170t-228 -68t-228.5 68t-140.5 170q-6 23 -6 39z" />
<glyph unicode="&#x16e;" horiz-adv-x="1525" d="M123 608v662q0 84 50 134t134 50t134.5 -50t50.5 -134v-676q0 -156 69.5 -240t200.5 -84t200.5 84t69.5 240v676q0 84 50.5 134t134.5 50t135 -50t51 -134v-662q0 -305 -165 -465.5t-476 -160.5q-313 0 -476 159.5t-163 466.5zM530 1784q0 94 68 159.5t164 65.5 t163.5 -65.5t67.5 -159.5q0 -96 -67.5 -162t-163.5 -66t-164 66t-68 162zM678 1784q0 -39 23.5 -64.5t60.5 -25.5t60.5 25.5t23.5 64.5q0 37 -23.5 62.5t-60.5 25.5t-60.5 -25.5t-23.5 -62.5z" />
<glyph unicode="&#x16f;" d="M98 418v442q0 78 49.5 123t133.5 45t133 -45t49 -123v-450q0 -147 127 -148q74 0 121 53.5t47 139.5v405q0 78 49 123t133 45t133 -45t49 -123v-708q0 -72 -51 -118t-133 -46q-74 0 -121 40t-49 107q-47 -74 -120 -112.5t-167 -38.5q-195 0 -289 107.5t-94 326.5z M381 1352q0 94 68 159.5t164 65.5t163.5 -65.5t67.5 -159.5q0 -96 -67.5 -162t-163.5 -66t-164 65.5t-68 162.5zM529 1352q0 -39 23.5 -64.5t60.5 -25.5t60.5 25.5t23.5 64.5q0 37 -23.5 62.5t-60.5 25.5t-60.5 -25.5t-23.5 -62.5z" />
<glyph unicode="&#x170;" horiz-adv-x="1525" d="M123 608v662q0 84 50 134t134 50t134.5 -50t50.5 -134v-676q0 -156 69.5 -240t200.5 -84t200.5 84t69.5 240v676q0 84 50.5 134t134.5 50t135 -50t51 -134v-662q0 -305 -165 -465.5t-476 -160.5q-313 0 -476 159.5t-163 466.5zM534 1632q0 23 9 41l63 154q33 70 98 69 q49 0 91.5 -35.5t42.5 -82.5q0 -43 -37 -78l-125 -115q-29 -29 -66 -29q-31 0 -53.5 21.5t-22.5 54.5zM833 1632q0 23 9 41l63 154q33 70 98 69q49 0 91.5 -35.5t42.5 -82.5q0 -43 -37 -78l-125 -115q-29 -29 -66 -29q-31 0 -53.5 21.5t-22.5 54.5z" />
<glyph unicode="&#x171;" d="M98 418v442q0 78 49.5 123t133.5 45t133 -45t49 -123v-450q0 -147 127 -148q74 0 121 53.5t47 139.5v405q0 78 49 123t133 45t133 -45t49 -123v-708q0 -72 -51 -118t-133 -46q-74 0 -121 40t-49 107q-47 -74 -120 -112.5t-167 -38.5q-195 0 -289 107.5t-94 326.5z M385 1204q0 14 3 21l36 223q12 61 48 93t83 32q49 0 87 -33t38 -84q0 -39 -22 -78l-121 -207q-27 -45 -74 -45q-31 0 -54.5 21.5t-23.5 56.5zM682 1208q0 10 2 17l37 223q12 61 49 93t84 32q49 0 87 -32t38 -83q0 -37 -24 -80l-119 -207q-27 -45 -74 -45q-33 0 -56.5 22.5 t-23.5 59.5z" />
<glyph unicode="&#x172;" horiz-adv-x="1525" d="M123 608v662q0 84 50 134t134 50t134.5 -50t50.5 -134v-676q0 -156 69.5 -240t200.5 -84t200.5 84t69.5 240v676q0 84 50.5 134t134.5 50q83 0 134.5 -50t51.5 -134v-662q0 -238 -103.5 -391.5t-298.5 -204.5q-55 -14 -85.5 -50t-30.5 -85q0 -45 27.5 -73.5t72.5 -28.5 q51 0 98 14q6 2 17 2q27 0 44 -22.5t17 -51.5q0 -51 -41 -73q-82 -49 -190 -50q-117 0 -192.5 65t-75.5 163q0 43 16 85t47 75q-297 10 -449.5 169.5t-152.5 456.5z" />
<glyph unicode="&#x173;" d="M98 418v442q0 78 49.5 123t133.5 45t133 -45t49 -123v-450q0 -147 121 -148q78 0 126 53.5t48 139.5v405q0 78 49 123t133 45t133 -45t49 -123v-708q0 -100 -88 -146q-100 -55 -100 -129q0 -45 27.5 -73.5t70.5 -28.5q31 0 49.5 3t48.5 11q7 2 17 2q29 0 45 -22.5 t16 -53.5q0 -20 -10 -39.5t-29 -31.5q-82 -49 -190 -50q-121 0 -195.5 66t-74.5 170q0 59 26.5 110.5t77.5 90.5q-43 43 -45 104q-47 -74 -120 -112.5t-167 -38.5q-195 0 -289 107.5t-94 326.5z" />
<glyph unicode="&#x174;" horiz-adv-x="2295" d="M61 1294q0 76 54.5 120t126.5 44q57 0 105 -29.5t69 -89.5l280 -807l297 807q20 57 66.5 88t101.5 31t100.5 -30.5t65.5 -90.5l279 -823l292 825q21 58 67 88.5t101 30.5q68 0 118 -43t50 -117q0 -33 -16 -81l-412 -1115q-20 -57 -74.5 -88.5t-119.5 -31.5 q-66 0 -119 31.5t-74 88.5l-266 760l-279 -760q-23 -57 -76 -88.5t-116 -31.5q-66 0 -119 31.5t-74 88.5l-413 1115q-14 41 -15 77zM831 1655q0 45 43 80l156 118q51 43 117 43t117 -43l155 -118q41 -35 41 -80q0 -39 -29.5 -67.5t-72.5 -28.5q-45 0 -82 34l-129 115 l-129 -115q-37 -34 -82 -34q-43 0 -74 28.5t-31 67.5z" />
<glyph unicode="&#x175;" horiz-adv-x="1785" d="M20 868q0 68 56.5 114t126.5 46q49 0 89 -25.5t60 -78.5l195 -473l198 471q20 51 63.5 77.5t92.5 26.5t92 -26.5t64 -77.5l205 -473l190 477q21 51 58.5 76.5t82.5 25.5q68 0 121 -46t53 -112q0 -31 -16 -67l-332 -711q-23 -51 -68.5 -78.5t-101.5 -27.5q-55 0 -100 27.5 t-68 78.5l-194 432l-182 -432q-20 -51 -66.5 -78.5t-101.5 -27.5t-101.5 27.5t-70.5 78.5l-330 711q-14 31 -15 65zM565 1233q0 35 27 67l168 199q31 39 60.5 55.5t72.5 16.5q45 0 72.5 -17.5t60.5 -58.5l168 -195q25 -31 24 -67q0 -43 -32.5 -74t-75.5 -31q-53 0 -92 54 l-125 174l-125 -174q-39 -54 -92 -54q-43 0 -77 31t-34 74z" />
<glyph unicode="&#x176;" horiz-adv-x="1331" d="M4 1286q0 68 53.5 119t120.5 51q72 0 125 -61l363 -430l362 430q53 61 125 61q68 0 122 -52t54 -120q0 -59 -45 -113l-430 -497v-500q0 -90 -52 -138t-134 -48q-84 0 -137.5 48t-53.5 138v500l-426 497q-47 53 -47 115zM350 1655q0 45 43 80l156 118q51 43 117 43 t117 -43l155 -118q41 -35 41 -80q0 -39 -29.5 -67.5t-72.5 -28.5q-45 0 -82 34l-129 115l-129 -115q-37 -34 -82 -34q-43 0 -74 28.5t-31 67.5z" />
<glyph unicode="&#x177;" horiz-adv-x="1107" d="M6 870q0 66 57.5 112t129.5 46q49 0 91 -25.5t64 -76.5l217 -471l215 471q23 51 62 75.5t86 24.5q68 0 121 -45t53 -109q0 -35 -17 -67l-542 -1088q-25 -51 -65 -75.5t-87 -24.5q-68 0 -120 44t-52 108q0 35 19 71l133 269l-348 696q-16 37 -17 65zM227 1233q0 35 27 67 l168 199q31 39 60.5 55.5t72.5 16.5q45 0 72.5 -17.5t60.5 -58.5l168 -195q25 -31 24 -67q0 -43 -32.5 -74t-75.5 -31q-53 0 -92 54l-125 174l-125 -174q-39 -54 -92 -54q-43 0 -77 31t-34 74z" />
<glyph unicode="&#x178;" horiz-adv-x="1331" d="M4 1286q0 68 53.5 119t120.5 51q72 0 125 -61l363 -430l362 430q53 61 125 61q68 0 122 -52t54 -120q0 -59 -45 -113l-430 -497v-500q0 -90 -52 -138t-134 -48q-84 0 -137.5 48t-53.5 138v500l-426 497q-47 53 -47 115zM291 1731q0 74 47 117.5t125 43.5t126 -44t48 -117 q0 -76 -48 -121t-126 -45t-125 45t-47 121zM697 1731q0 74 47 117.5t125 43.5q76 0 124 -44t48 -117q0 -76 -47.5 -121t-124.5 -45q-78 0 -125 45t-47 121z" />
<glyph unicode="&#x179;" horiz-adv-x="1263" d="M70 158q0 68 47 133l631 858h-496q-92 0 -136 36t-44 109q0 78 44 114t136 36h786q74 0 118 -44t44 -112q0 -70 -47 -135l-631 -858h531q90 0 134 -35t44 -110q0 -78 -43 -114t-135 -36h-820q-76 0 -119.5 45t-43.5 113zM551 1632q0 31 31 62l165 155q53 51 111 52 q53 0 91 -39t38 -90q0 -78 -92 -121l-219 -86q-18 -9 -41 -9q-35 0 -59.5 23t-24.5 53z" />
<glyph unicode="&#x17a;" horiz-adv-x="1062" d="M51 874q0 133 164 134h621q72 0 116.5 -45t44.5 -109q0 -66 -51 -123l-432 -463h356q164 0 164 -133q0 -135 -164 -135h-645q-72 0 -117 45t-45 109q0 68 52 125l430 460h-330q-164 0 -164 135zM467 1217q0 33 22 61l152 209q29 39 64.5 58.5t72.5 19.5q59 0 104.5 -42 t45.5 -100q0 -72 -76 -123l-232 -151q-28 -21 -61 -21q-39 0 -65.5 27t-26.5 62z" />
<glyph unicode="&#x17b;" horiz-adv-x="1263" d="M70 158q0 68 47 133l631 858h-496q-92 0 -136 36t-44 109q0 78 44 114t136 36h786q74 0 118 -44t44 -112q0 -70 -47 -135l-631 -858h531q90 0 134 -35t44 -110q0 -78 -43 -114t-135 -36h-820q-76 0 -119.5 45t-43.5 113zM436 1731q0 78 54.5 125t146.5 47 q90 0 145.5 -47.5t55.5 -124.5q0 -80 -54.5 -128.5t-146.5 -48.5t-146.5 48.5t-54.5 128.5z" />
<glyph unicode="&#x17c;" horiz-adv-x="1062" d="M51 874q0 133 164 134h621q72 0 116.5 -45t44.5 -109q0 -66 -51 -123l-432 -463h356q164 0 164 -133q0 -135 -164 -135h-645q-72 0 -117 45t-45 109q0 68 52 125l430 460h-330q-164 0 -164 135zM350 1348q0 80 54.5 127t146.5 47q90 0 145.5 -47.5t55.5 -126.5 q0 -80 -54.5 -128.5t-146.5 -48.5t-146.5 48.5t-54.5 128.5z" />
<glyph unicode="&#x17d;" horiz-adv-x="1263" d="M70 158q0 68 47 133l631 858h-496q-92 0 -136 36t-44 109q0 78 44 114t136 36h786q74 0 118 -44t44 -112q0 -70 -47 -135l-631 -858h531q90 0 134 -35t44 -110q0 -78 -43 -114t-135 -36h-820q-76 0 -119.5 45t-43.5 113zM323 1798q0 39 31 68.5t72 29.5q45 0 82 -34 l129 -117l129 117q37 35 82 34q41 0 71.5 -29.5t30.5 -68.5q0 -45 -41 -78l-155 -121q-51 -43 -117 -43t-117 43l-156 121q-41 35 -41 78z" />
<glyph unicode="&#x17e;" horiz-adv-x="1062" d="M51 874q0 133 164 134h621q72 0 116.5 -45t44.5 -109q0 -66 -51 -123l-432 -463h356q164 0 164 -133q0 -135 -164 -135h-645q-72 0 -117 45t-45 109q0 68 52 125l430 460h-330q-164 0 -164 135zM225 1468q0 41 33 72t76 31q55 0 92 -53l125 -175l125 175q37 53 92 53 q43 0 76.5 -31t33.5 -72q0 -35 -26 -67l-168 -199q-33 -39 -61.5 -56.5t-71.5 -17.5t-72 17.5t-61 58.5l-168 197q-25 31 -25 67z" />
<glyph unicode="&#x192;" d="M10 -244q0 59 45 103.5t125 44.5h25q47 0 80.5 38t44.5 103l164 772h-132q-45 0 -78.5 28.5t-33.5 74.5q0 45 32.5 72.5t79.5 27.5h175l4 16q45 223 179 320.5t298 97.5h43q76 0 117 -40t41 -95q0 -59 -45.5 -104.5t-124.5 -45.5h-25q-47 0 -81 -37.5t-44 -103.5l-2 -8 h133q47 0 80 -27.5t33 -72.5t-34 -74t-79 -29h-176l-166 -780q-45 -223 -179 -319.5t-296 -96.5h-45q-76 0 -117 40t-41 95z" />
<glyph unicode="&#x2c6;" horiz-adv-x="614" d="M-21 1233q0 35 27 67l168 199q31 39 60.5 55.5t72.5 16.5q45 0 72.5 -17.5t60.5 -58.5l168 -195q25 -31 24 -67q0 -43 -32.5 -74t-75.5 -31q-53 0 -92 54l-125 174l-125 -174q-39 -54 -92 -54q-43 0 -77 31t-34 74z" />
<glyph unicode="&#x2da;" horiz-adv-x="614" d="M75 1352q0 94 68 159.5t164 65.5t163.5 -65.5t67.5 -159.5q0 -96 -67.5 -162t-163.5 -66t-164 65.5t-68 162.5zM223 1352q0 -39 23.5 -64.5t60.5 -25.5t60.5 25.5t23.5 64.5q0 37 -23.5 62.5t-60.5 25.5t-60.5 -25.5t-23.5 -62.5z" />
<glyph unicode="&#x2dc;" horiz-adv-x="614" d="M-54 1272q0 45 28 101.5t75 96t102 39.5q37 0 72 -14t92 -43q33 -16 65.5 -30.5t55.5 -14.5q31 0 50 14.5t40 40.5q20 25 35.5 36t40.5 11q31 0 48 -24.5t17 -65.5q0 -45 -27.5 -101t-74.5 -96t-103 -40q-36 0 -71 14t-92 43q-33 16 -66 30.5t-55 14.5q-31 0 -50.5 -14.5 t-39.5 -40.5q-20 -25 -36 -36t-40 -11q-29 0 -47.5 24.5t-18.5 65.5z" />
<glyph unicode="&#x3a9;" horiz-adv-x="1687" d="M88 152q0 76 43 111.5t135 35.5h142q-131 170 -199 277.5t-94.5 186.5t-26.5 161q0 168 91 289.5t261 186t404 64.5q229 0 399 -65.5t263 -188.5t93 -286q0 -82 -26.5 -159t-94 -183.5t-200.5 -282.5h143q92 0 135 -36t43 -111q0 -78 -44 -115t-134 -37h-358 q-72 0 -114 43t-42 113q0 68 41 135q164 283 220.5 408.5t56.5 211.5q0 129 -97.5 196t-283.5 67t-282.5 -67t-96.5 -196q0 -86 56.5 -212t219.5 -408q41 -72 41 -135q0 -68 -43 -112t-114 -44h-359q-90 0 -134 37t-44 115z" />
<glyph unicode="&#x3c0;" horiz-adv-x="1290" d="M-29 874q0 133 164 134h959q164 0 163 -134q0 -135 -163 -135h-72v-393q0 -39 23.5 -65.5t60.5 -28.5l57 -4q140 -8 140 -123q0 -74 -57.5 -107.5t-155.5 -27.5l-60 4q-186 14 -279.5 112.5t-93.5 270.5v362h-86q-4 -182 -26.5 -335.5t-71.5 -297.5q-20 -59 -69.5 -89.5 t-108.5 -30.5q-74 0 -130 44t-56 115q0 23 6 48q43 176 64.5 288.5t29.5 257.5h-74q-164 0 -164 135z" />
<glyph unicode="&#x2000;" horiz-adv-x="1004" />
<glyph unicode="&#x2001;" horiz-adv-x="2009" />
<glyph unicode="&#x2002;" horiz-adv-x="1004" />
<glyph unicode="&#x2003;" horiz-adv-x="2009" />
<glyph unicode="&#x2004;" horiz-adv-x="669" />
<glyph unicode="&#x2005;" horiz-adv-x="502" />
<glyph unicode="&#x2006;" horiz-adv-x="334" />
<glyph unicode="&#x2007;" horiz-adv-x="334" />
<glyph unicode="&#x2008;" horiz-adv-x="251" />
<glyph unicode="&#x2009;" horiz-adv-x="401" />
<glyph unicode="&#x200a;" horiz-adv-x="111" />
<glyph unicode="&#x2010;" horiz-adv-x="913" d="M94 551q0 141 170 141h385q86 0 128 -37t42 -104q0 -68 -42 -105.5t-128 -37.5h-385q-170 0 -170 143z" />
<glyph unicode="&#x2011;" horiz-adv-x="913" d="M94 551q0 141 170 141h385q86 0 128 -37t42 -104q0 -68 -42 -105.5t-128 -37.5h-385q-170 0 -170 143z" />
<glyph unicode="&#x2012;" horiz-adv-x="913" d="M94 551q0 141 170 141h385q86 0 128 -37t42 -104q0 -68 -42 -105.5t-128 -37.5h-385q-170 0 -170 143z" />
<glyph unicode="&#x2013;" horiz-adv-x="1024" d="M0 551q0 47 37 74.5t100 27.5h750q63 0 100 -27.5t37 -74.5t-37 -76t-100 -29h-750q-63 0 -100 29t-37 76z" />
<glyph unicode="&#x2014;" horiz-adv-x="2048" d="M0 551q0 47 37 74.5t100 27.5h1774q63 0 100 -27.5t37 -74.5t-37 -76t-100 -29h-1774q-63 0 -100 29t-37 76z" />
<glyph unicode="&#x2018;" horiz-adv-x="557" d="M80 1010q0 123 43 224t129 189q29 31 70 31t71.5 -27.5t30.5 -62.5q0 -33 -25 -57q-74 -78 -98 -164q78 -6 126 -57.5t48 -129.5q0 -84 -54 -141t-136 -57q-90 0 -147.5 65.5t-57.5 186.5z" />
<glyph unicode="&#x2019;" horiz-adv-x="557" d="M80 1255q0 84 55 141.5t137 57.5q90 0 146.5 -65.5t56.5 -186.5q0 -123 -43 -224t-127 -190q-31 -31 -72 -30q-41 0 -71.5 27.5t-30.5 62.5q0 33 27 59q72 76 96 162q-78 6 -126 57.5t-48 128.5z" />
<glyph unicode="&#x201a;" horiz-adv-x="557" d="M80 186q0 84 55 141.5t137 57.5q90 0 146.5 -65.5t56.5 -186.5q0 -238 -170 -414q-31 -31 -72 -30q-41 0 -71.5 27.5t-30.5 62.5q0 33 27 59q72 76 98 164q-78 6 -127 56.5t-49 127.5z" />
<glyph unicode="&#x201c;" horiz-adv-x="1013" d="M80 1010q0 123 43 224t129 189q29 31 70 31t71.5 -27.5t30.5 -62.5q0 -33 -25 -57q-74 -78 -98 -164q78 -6 126 -57.5t48 -129.5q0 -84 -54 -141t-136 -57q-90 0 -147.5 65.5t-57.5 186.5zM537 1010q0 123 43 224t129 189q29 31 70 31t71.5 -27.5t30.5 -62.5 q0 -33 -25 -57q-74 -78 -98 -164q78 -6 126 -57.5t48 -129.5q0 -84 -54 -141t-136 -57q-90 0 -147.5 65.5t-57.5 186.5z" />
<glyph unicode="&#x201d;" horiz-adv-x="1013" d="M80 1255q0 84 55 141.5t137 57.5q90 0 146.5 -65.5t56.5 -186.5q0 -123 -43 -224t-127 -190q-31 -31 -72 -30q-41 0 -71.5 27.5t-30.5 62.5q0 33 27 59q72 76 96 162q-78 6 -126 57.5t-48 128.5zM537 1255q0 84 55 141.5t137 57.5q90 0 146.5 -65.5t56.5 -186.5 q0 -123 -43 -224t-127 -190q-31 -31 -72 -30q-41 0 -71.5 27.5t-30.5 62.5q0 33 27 59q72 76 96 162q-78 6 -126 57.5t-48 128.5z" />
<glyph unicode="&#x201e;" horiz-adv-x="1013" d="M80 186q0 84 55 141.5t137 57.5q90 0 146.5 -65.5t56.5 -186.5q0 -238 -170 -414q-31 -31 -72 -30q-41 0 -71.5 27.5t-30.5 62.5q0 33 27 59q72 76 98 164q-78 6 -127 56.5t-49 127.5zM537 186q0 84 55 141.5t137 57.5q90 0 146.5 -65.5t56.5 -186.5q0 -238 -170 -414 q-31 -31 -72 -30q-41 0 -71.5 27.5t-30.5 62.5q0 33 27 59q72 76 98 164q-78 6 -127 56.5t-49 127.5z" />
<glyph unicode="&#x2026;" horiz-adv-x="1669" d="M80 186q0 84 56.5 141.5t142.5 57.5q84 0 140 -57.5t56 -141.5t-56.5 -141t-139.5 -57q-86 0 -142.5 57t-56.5 141zM637 186q0 84 56.5 141.5t140.5 57.5q86 0 142 -57.5t56 -141.5t-56 -141t-142 -57q-84 0 -140.5 57t-56.5 141zM1194 186q0 84 56.5 141.5t140.5 57.5 q86 0 142 -57.5t56 -141.5t-56 -141t-142 -57q-84 0 -140.5 57t-56.5 141z" />
<glyph unicode="&#x202f;" horiz-adv-x="401" />
<glyph unicode="&#x2030;" horiz-adv-x="2795" d="M59 1030q0 211 102.5 324.5t282.5 113.5t282.5 -113.5t102.5 -326.5q0 -215 -102 -328.5t-283 -113.5q-180 0 -282.5 114.5t-102.5 329.5zM354 1028q0 -121 21.5 -171t68.5 -50q48 0 69.5 50t21.5 171q0 117 -23 167t-68 50q-47 0 -68.5 -50t-21.5 -167zM492 86 q0 47 28 96l703 1213q27 45 62.5 67.5t72.5 22.5q51 0 87 -36t36 -91q0 -47 -29 -96l-702 -1213q-27 -45 -63 -67.5t-73 -22.5q-49 0 -85.5 37t-36.5 90zM1143 430q0 211 102.5 324.5t282.5 113.5t282.5 -113.5t102.5 -326.5q0 -215 -102.5 -328.5t-282.5 -113.5 t-282.5 114.5t-102.5 329.5zM1438 428q0 -121 21.5 -171t68.5 -50t68.5 50t21.5 171q0 117 -22.5 168t-67.5 51q-47 0 -68.5 -50t-21.5 -169zM1964 430q0 211 102.5 324.5t282.5 113.5t282.5 -113.5t102.5 -326.5q0 -215 -102.5 -328.5t-282.5 -113.5t-282.5 114.5 t-102.5 329.5zM2259 428q0 -121 21.5 -171t68.5 -50t68.5 50t21.5 171q0 117 -22.5 168t-67.5 51q-47 0 -68.5 -50t-21.5 -169z" />
<glyph unicode="&#x2039;" horiz-adv-x="655" d="M104 545q0 49 35 106l152 236q23 37 57.5 55.5t69.5 18.5q53 0 93 -35t40 -90q0 -39 -16 -72l-97 -219l97 -219q16 -33 16 -70q0 -55 -39 -90t-92 -35q-80 0 -127 74l-154 233q-35 57 -35 107z" />
<glyph unicode="&#x203a;" horiz-adv-x="638" d="M102 836q0 55 40 91t96 36q37 0 70.5 -19.5t56.5 -56.5l137 -236q35 -57 35 -106t-35 -107l-137 -233q-23 -39 -56 -57.5t-69 -18.5q-53 0 -94.5 36t-41.5 91q0 37 17 70l100 219l-100 219q-18 41 -19 72z" />
<glyph unicode="&#x2044;" horiz-adv-x="430" d="M-279 86q0 47 29 96l703 1213q27 45 62.5 67.5t72.5 22.5q51 0 87 -36t36 -91q0 -47 -29 -96l-702 -1213q-27 -45 -63 -67.5t-73 -22.5q-51 0 -87 37t-36 90z" />
<glyph unicode="&#x205f;" horiz-adv-x="502" />
<glyph unicode="&#x20ac;" d="M10 565q0 45 33 76t80 31h63v51v51h-63q-47 0 -80 31t-33 76t33 76.5t80 31.5h92q51 225 190.5 349t344.5 124q203 0 403 -139q35 -25 50.5 -53.5t15.5 -73.5q0 -63 -36 -107.5t-87 -44.5q-29 0 -51.5 8.5t-61.5 32.5q-72 41 -122 60.5t-91 19.5q-76 0 -122 -42t-68 -134 h204q47 0 80 -31.5t33 -76.5t-33 -76t-80 -31h-227v-51v-51h227q47 0 80 -31t33 -76t-33 -76.5t-80 -31.5h-204q23 -92 68.5 -135t121.5 -43q88 0 213 79q39 25 61.5 33t51.5 8q51 0 87 -44t36 -107q0 -41 -15.5 -71t-50.5 -56q-178 -139 -403 -139q-205 0 -344.5 123.5 t-190.5 351.5h-92q-47 0 -80 31.5t-33 76.5z" />
<glyph unicode="&#x2122;" horiz-adv-x="1957" d="M0 1313q0 68 36 99.5t118 31.5h528q84 0 120 -32t36 -99q0 -63 -37 -97t-119 -34h-100v-455q0 -74 -48.5 -115t-115.5 -41q-68 0 -116 41t-48 115v455h-100q-154 0 -154 131zM920 731v569q0 74 45 114t106 40q94 0 150 -102l155 -299l162 299q55 102 143 102 q62 0 107 -40t45 -114v-569q0 -76 -43 -118t-98 -42q-53 0 -98.5 42t-45.5 118v143l-35 -65q-31 -57 -61.5 -79.5t-77.5 -22.5q-43 0 -73.5 23.5t-61.5 78.5l-39 70v-148q0 -76 -43 -118t-96 -42t-97 42t-44 118z" />
<glyph unicode="&#x2202;" d="M31 483q0 158 63.5 278t169 183.5t225.5 63.5q178 0 273 -107q-4 180 -117 291t-323 111h-29q-53 0 -93 38.5t-40 96.5q0 61 38 95t119 46q10 2 38 6t55 4q204 0 368 -92t261.5 -282.5t97.5 -469.5q0 -369 -137.5 -574.5t-436.5 -205.5q-154 0 -274.5 61.5t-189 178.5 t-68.5 278zM399 489q0 -109 45 -172t121 -63t124 60.5t48 160.5q0 109 -47 174.5t-125 65.5q-74 0 -120 -61.5t-46 -164.5z" />
<glyph unicode="&#x2206;" horiz-adv-x="1687" d="M88 152q0 76 43 111.5t135 35.5h142q-131 170 -199 277.5t-94.5 186.5t-26.5 161q0 168 91 289.5t261 186t404 64.5q229 0 399 -65.5t263 -188.5t93 -286q0 -82 -26.5 -159t-94 -183.5t-200.5 -282.5h143q92 0 135 -36t43 -111q0 -78 -44 -115t-134 -37h-358 q-72 0 -114 43t-42 113q0 68 41 135q164 283 220.5 408.5t56.5 211.5q0 129 -97.5 196t-283.5 67t-282.5 -67t-96.5 -196q0 -86 56.5 -212t219.5 -408q41 -72 41 -135q0 -68 -43 -112t-114 -44h-359q-90 0 -134 37t-44 115z" />
<glyph unicode="&#x220f;" d="M115 -211v1487q0 74 47 121t121 47h663q74 0 121 -47t47 -121v-1487q0 -74 -47 -121t-121 -47q-72 0 -120 47t-48 121v1364h-327v-1364q0 -74 -47.5 -121t-120.5 -47q-72 0 -120 47t-48 121z" />
<glyph unicode="&#x2211;" horiz-adv-x="1257" d="M61 -211q0 72 48 133l448 617l-448 614q-47 61 -48 133q0 68 44.5 113t117.5 45h789q178 0 178 -152q0 -147 -178 -147h-490l336 -455q59 -84 60 -151q0 -66 -62 -152l-336 -457h492q178 0 178 -147q0 -152 -178 -152h-789q-74 0 -118 45t-44 113z" />
<glyph unicode="&#x221a;" d="M12 588q0 51 35 87t86 36h199q41 0 70.5 -22.5t39.5 -61.5l150 -631l295 1384q8 41 38.5 65.5t71.5 24.5q133 0 133 -112q0 -25 -6 -49l-342 -1526q-25 -106 -66.5 -151.5t-115.5 -45.5t-117 44t-71 145l-181 692h-98q-51 0 -86 35t-35 86z" />
<glyph unicode="&#x221e;" d="M53 582q0 176 85 276t235 100q156 0 241 -149q86 150 242 149q150 0 235 -100t85 -276q0 -178 -86 -277.5t-234 -99.5q-156 0 -242 149q-86 -150 -241 -149q-147 0 -233.5 99t-86.5 278zM266 582q0 -76 33 -123t90 -47q49 0 89 43t61 129q-20 84 -60.5 126t-89.5 42 q-57 0 -90 -47.5t-33 -122.5zM690 584q20 -86 60.5 -129t89.5 -43q57 0 90 47t33 123t-33 123t-90 47q-49 0 -89 -42t-61 -126z" />
<glyph unicode="&#x222b;" d="M162 -238q0 61 35.5 101.5t91.5 40.5h24q57 0 89 36.5t32 104.5v991q0 227 126 322.5t333 95.5h43q59 0 96 -41t37 -100q0 -63 -37 -103.5t-92 -40.5h-25q-57 0 -88.5 -37.5t-31.5 -103.5v-991q0 -227 -126 -321.5t-333 -94.5h-43q-60 0 -95.5 41t-35.5 100z" />
<glyph unicode="&#x2248;" d="M153 368q0 31 17 56q43 68 108.5 104.5t136.5 36.5q57 0 111.5 -19.5t134.5 -56.5q57 -27 91 -40t63 -13q41 0 76 21q59 55 102 55q29 0 57 -21q23 -16 37.5 -41.5t14.5 -52.5t-19 -55q-43 -66 -108.5 -101.5t-137.5 -35.5q-59 0 -115.5 20.5t-129.5 56.5 q-57 27 -91 40.5t-63 13.5q-41 0 -76 -23q-57 -53 -104 -53q-31 0 -58 18q-47 33 -47 90zM153 778q0 31 17 56q43 68 108.5 104.5t136.5 36.5q57 0 111.5 -19.5t134.5 -56.5q57 -27 91 -40t63 -13q41 0 76 21q59 55 102 55q29 0 57 -21q23 -16 37.5 -41.5t14.5 -52.5 t-19 -55q-43 -66 -108.5 -101.5t-137.5 -35.5q-59 0 -115.5 20.5t-129.5 56.5q-57 27 -91 40.5t-63 13.5q-41 0 -76 -23q-57 -53 -104 -53q-31 0 -58 18q-47 33 -47 90z" />
<glyph unicode="&#x2260;" d="M127 383q0 51 35 87t86 36h203l67 166h-270q-51 0 -86 34.5t-35 86.5q0 51 35 86.5t86 35.5h370l64 152q14 37 42 56.5t62 19.5q25 0 54 -13q37 -14 56 -42.5t19 -65.5q0 -23 -10 -49l-24 -58h125q51 0 85.5 -34.5t34.5 -85.5t-34.5 -87t-85.5 -36h-226l-69 -166h295 q51 0 85.5 -35t34.5 -86t-34.5 -87t-85.5 -36h-396l-63 -151q-14 -35 -43 -54.5t-64 -19.5q-23 0 -49 10q-37 14 -56.5 43t-19.5 66q0 29 11 49l24 57h-102q-51 0 -86 35t-35 86z" />
<glyph unicode="&#x2264;" d="M115 696q0 63 33.5 110.5t93.5 65.5l682 191q27 8 61 8q57 0 93 -33.5t36 -91.5q0 -37 -18.5 -64.5t-51.5 -35.5l-546 -146l546 -147q35 -10 52.5 -38t17.5 -62q0 -59 -35 -93t-92 -34q-27 0 -63 10l-682 188q-127 37 -127 172zM127 121q0 51 35 87t86 36h758 q51 0 85.5 -35t34.5 -86t-34.5 -87t-85.5 -36h-758q-51 0 -86 35t-35 86z" />
<glyph unicode="&#x2265;" d="M115 453q0 34 17.5 62t51.5 38l547 147l-547 146q-33 8 -51 35.5t-18 64.5q0 57 35.5 91t93.5 34q35 0 61 -8l682 -191q59 -18 93 -65t34 -111q0 -135 -127 -172l-682 -188q-37 -10 -63 -10q-57 0 -92 33.5t-35 93.5zM127 121q0 51 35 87t86 36h758q51 0 85.5 -35 t34.5 -86t-34.5 -87t-85.5 -36h-758q-51 0 -86 35t-35 86z" />
<glyph unicode="&#x25fc;" horiz-adv-x="1024" d="M0 0v1024h1024v-1024h-1024z" />
</font>
</defs>
</svg>
