<?xml version="1.0" standalone="no"?>
<!DOCTYPE svg PUBLIC "-//W3C//DTD SVG 1.1//EN" "http://www.w3.org/Graphics/SVG/1.1/DTD/svg11.dtd" >
<svg xmlns="http://www.w3.org/2000/svg" xmlns:xlink="http://www.w3.org/1999/xlink" version="1.1">
<metadata></metadata>
<defs>
<font id="nunitomedium" horiz-adv-x="1174" >
<font-face units-per-em="2048" ascent="1638" descent="-410" />
<missing-glyph horiz-adv-x="578" />
<glyph horiz-adv-x="0" />
<glyph unicode="&#xd;" horiz-adv-x="682" />
<glyph unicode=" "  horiz-adv-x="578" />
<glyph unicode="&#x09;" horiz-adv-x="578" />
<glyph unicode="&#xa0;" horiz-adv-x="578" />
<glyph unicode="!" horiz-adv-x="788" d="M289 112q0 -48 35 -82t90 -34t89.5 34t34.5 82t-35 82t-89 34q-56 0 -90.5 -35t-34.5 -81zM291 1383l60 -906q1 -20 10 -34.5t21.5 -21.5t27.5 -7q22 0 39 16.5t20 46.5l61 906v11q0 48 -35.5 75t-84 27t-84 -27t-35.5 -75v-5.5v-5.5z" />
<glyph unicode="&#x22;" horiz-adv-x="705" d="M109 1401q0 -19 29 -352q3 -36 21 -54.5t42 -18.5t42 18.5t22 54.5l29 355q1 35 -26.5 55t-65.5 20q-39 0 -66.5 -20.5t-26.5 -57.5zM404 1404q0 -22 29 -355q4 -36 21.5 -54.5t41.5 -18.5t42 18t22 55l28 355q1 35 -26.5 55t-64.5 20t-65.5 -20t-27.5 -55z" />
<glyph unicode="#" horiz-adv-x="1203" d="M89 523q0 -29 19 -50.5t53 -21.5h131q-60 -416 -60 -420v-7q0 -17 6.5 -30.5t17 -21.5t23.5 -12.5t27 -4.5q28 0 49.5 17t25.5 49l64 430h249q-12 -88 -28 -200.5t-23.5 -165.5t-7.5 -55v-5q0 -18 6.5 -31.5t17 -21.5t23 -12.5t26.5 -4.5q28 0 49.5 17t26.5 49l63 430 h138q34 0 53 21t19 50q0 30 -19.5 51.5t-52.5 21.5h-117l38 265h136q34 0 52.5 21.5t18.5 50.5t-19 51t-52 22h-115q56 377 56 385v5q0 31 -22 49t-52 18q-29 0 -51 -17t-27 -50l-57 -390h-249q56 377 56 385v2.5v2.5q0 31 -22.5 49t-51.5 18t-51.5 -17t-27.5 -50l-56 -390 h-155q-34 0 -53 -21.5t-19 -50.5t19.5 -51t52.5 -22h134l-38 -265h-152q-34 0 -53 -21t-19 -51zM466 595l38 265h249l-38 -265h-249z" />
<glyph unicode="$" horiz-adv-x="1217" d="M203 959q0 -39 7.5 -71t19.5 -56t34 -44t44.5 -34t58.5 -27.5t67.5 -23t78.5 -21.5l170 -43q82 -21 119 -55t37 -89q0 -80 -65.5 -120t-168.5 -40q-147 0 -286 85q-24 14 -47 14q-15 0 -27.5 -5.5t-21 -14.5t-13.5 -21t-5 -25q0 -35 31 -57q55 -39 138.5 -69.5 t179.5 -39.5v-202q0 -16 5.5 -28.5t14 -20t19.5 -11.5t23 -4q27 0 46.5 17t19.5 47v203q98 10 170.5 45.5t115.5 102.5t43 159q0 73 -29 127t-93 94t-167 66l-168 41q-101 25 -132.5 49t-31.5 81q0 67 61.5 99t159.5 32q28 0 57.5 -3.5t50.5 -7.5t48.5 -12.5t39.5 -13 l36 -13.5t27 -10q9 -3 17 -4.5t16 -1.5q28 0 45 18t17 44q0 43 -43 64q-113 58 -248 72v207q0 30 -19.5 47t-46.5 17q-25 0 -43.5 -16.5t-18.5 -47.5v-205q-73 -5 -134 -23.5t-108.5 -51t-74 -83.5t-26.5 -116z" />
<glyph unicode="%" horiz-adv-x="2074" d="M200 1021q0 -177 92.5 -287t253.5 -110q157 0 252 113t95 284q0 59 -12 115t-39 107.5t-66.5 90t-98.5 61.5t-131 23q-159 0 -252.5 -113t-93.5 -284zM363 1021q0 121 44.5 198t138.5 77t138.5 -76.5t44.5 -198.5q0 -79 -17 -138.5t-59.5 -98t-106.5 -38.5 q-95 0 -139 76.5t-44 198.5zM552 -9q0 -24 19.5 -41.5t46.5 -17.5q33 0 60 46l766 1359q16 34 16 51q0 25 -17.5 43.5t-41.5 18.5q-38 0 -59 -41l-773 -1375q-17 -30 -17 -43zM1181 366q0 -177 92.5 -287.5t253.5 -110.5q159 0 253 114t94 284q0 74 -20 142.5t-60 126.5 t-109 92.5t-158 34.5q-158 0 -252 -113t-94 -283zM1345 366q0 122 43.5 198t138.5 76t138.5 -76.5t43.5 -197.5q0 -124 -44 -200t-138 -76q-65 0 -107 39t-58.5 98.5t-16.5 138.5z" />
<glyph unicode="&#x26;" horiz-adv-x="1532" d="M93 403q0 -203 152 -317t402 -114q144 0 252.5 52t199.5 152l148 -159q28 -29 60 -29q39 0 74 33.5t35 72.5q0 24 -24 53l-152 162q41 67 73.5 148.5t50 155.5t26.5 135.5t9 106.5q0 36 -27 58.5t-63 22.5q-33 0 -58 -16t-30 -50q-8 -218 -111 -430l-375 398 q124 90 193.5 183t69.5 210q0 136 -91.5 205t-252.5 70q-105 0 -192 -30.5t-144 -96t-57 -156.5q0 -98 50.5 -181t142.5 -180q-64 -34 -112 -65.5t-97 -74.5t-80.5 -88t-51.5 -104.5t-20 -126.5zM307 429q0 160 269 301l408 -439q-139 -154 -336 -154q-139 0 -240 78.5 t-101 213.5zM461 1225q0 69 50.5 103.5t124.5 34.5q68 0 119 -36.5t51 -101.5q0 -27 -9.5 -54t-21 -47t-35.5 -46.5t-39 -40.5t-45.5 -41.5t-41.5 -37.5q-153 153 -153 267z" />
<glyph unicode="'" horiz-adv-x="601" d="M207 1404q0 -18 30 -362q4 -34 21 -50t41 -16t42.5 16.5t21.5 49.5l29 362q0 35 -27 55t-64 20q-38 0 -66 -20t-28 -55z" />
<glyph unicode="(" horiz-adv-x="619" d="M153 624q0 -187 53 -380t149 -417q24 -58 80 -58q32 0 55 22t23 56q0 18 -9 45q-141 390 -141 734q0 346 143 743q9 27 9 44q0 35 -23 57t-56 22q-28 0 -52 -21.5t-38 -58.5q-92 -226 -142.5 -415.5t-50.5 -372.5z" />
<glyph unicode=")" horiz-adv-x="619" d="M107 1414q0 -20 10 -45q143 -399 143 -743t-141 -735q-10 -27 -10 -45q0 -34 22.5 -55.5t54.5 -21.5q56 0 82 58q96 225 149 417.5t53 379.5q0 183 -51 372.5t-143 415.5q-33 79 -89 79q-32 0 -56 -22.5t-24 -54.5z" />
<glyph unicode="*" horiz-adv-x="1064" d="M134 1095q0 -26 17.5 -45t48.5 -19l225 7l-114 -183q-4 -6 -6.5 -12.5t-3.5 -12t-1 -11.5q0 -28 20.5 -47.5t46.5 -19.5q17 0 32 9t26 29l105 191l107 -191q7 -13 16.5 -21.5t19.5 -12.5t20 -4q26 0 46 20t20 48q0 10 -3 20.5t-9 20.5l-110 177l227 -7q32 0 49.5 19 t17.5 45t-17.5 45t-49.5 19l-225 -8l113 184q5 9 7.5 18t2.5 18q0 18 -9 34t-23.5 25t-31.5 9q-16 0 -32 -10t-28 -30l-108 -195l-108 198q-2 4 -5 8t-5.5 7t-5.5 5.5l-6 5t-6.5 4l-7 3t-6.5 2t-6.5 1t-7.5 0.5q-26 0 -46.5 -19.5t-20.5 -47.5q0 -20 12 -39l111 -181l-222 8 q-21 0 -36.5 -9.5t-22.5 -23.5t-7 -31z" />
<glyph unicode="+" horiz-adv-x="1325" d="M149 499q0 -35 26 -56t62 -21h346v-333q0 -38 21.5 -62t57.5 -24t57.5 25.5t21.5 60.5v333h348q36 0 61.5 21.5t25.5 55.5q0 36 -26 56.5t-61 20.5h-348v336q0 36 -22 61t-57 25q-37 0 -58 -25.5t-21 -60.5v-336h-346q-38 0 -63 -21t-25 -56z" />
<glyph unicode="," horiz-adv-x="602" d="M126 -294.5v-4.5q0 -30 25 -31h65h3q21 0 33 10t20 33l166 480q1 3 2 8t1 10q0 14 -8.5 25.5t-28.5 12.5h-120q-64 -2 -73 -56l-84 -480q0 -2 -0.5 -3.5t-0.5 -4z" />
<glyph unicode="-" horiz-adv-x="670" d="M38 529q0 -34 24.5 -56t62.5 -22h420q37 0 61.5 22t24.5 56q0 35 -24 57.5t-62 22.5h-420q-38 0 -62.5 -22.5t-24.5 -57.5z" />
<glyph unicode="." horiz-adv-x="602" d="M176 114q0 -48 35 -82t90 -34t89.5 34t34.5 82t-35 82t-89 34q-55 0 -90 -35t-35 -81z" />
<glyph unicode="/" horiz-adv-x="755" d="M58 -84q0 -33 23.5 -53.5t55.5 -20.5q54 0 73 55l481 1439q5 14 5 31q0 33 -23.5 53.5t-55.5 20.5q-59 0 -76 -56l-478 -1439q-5 -18 -5 -30z" />
<glyph unicode="0" horiz-adv-x="1203" d="M87 722q0 -100 10.5 -188t33.5 -173.5t63 -153.5t95.5 -120.5t134.5 -80.5t177 -28q117 0 207.5 41.5t147.5 110.5t93.5 166.5t51 201.5t14.5 224q0 123 -15 227t-51.5 201t-94 164.5t-147.5 107.5t-206 40t-206 -40t-147.5 -107.5t-94 -164t-51.5 -201t-15 -227.5z M318 722q0 61 2.5 113t10 111t20 105.5t34 91t51 73.5t71.5 47t94 18q53 0 95.5 -18t71.5 -47.5t51 -74t34.5 -91t20 -105.5t10 -110.5t2.5 -112.5q0 -71 -4 -129.5t-13.5 -126.5t-30 -120t-51 -96t-78 -67.5t-108.5 -23.5q-52 0 -94.5 18.5t-71.5 48.5t-51 76t-34 93 t-19.5 106.5t-10 110t-2.5 110.5z" />
<glyph unicode="1" horiz-adv-x="1190" d="M222 1136q0 -32 24 -57t57 -25q23 0 42 13l209 134l1 -1094q0 -51 32.5 -79t78.5 -28q45 0 78.5 28t33.5 79v1215q0 52 -31.5 81t-75.5 29q-38 -2 -61 -16l-349 -215q-39 -25 -39 -65z" />
<glyph unicode="2" horiz-adv-x="1199" d="M128 113q0 -48 37 -80.5t98 -32.5h695q39 0 60.5 25.5t21.5 59.5q0 35 -22 59.5t-60 24.5h-587l447 427q125 114 181 219.5t56 220.5q0 82 -33 156.5t-91 129.5t-141 87.5t-178 32.5q-130 0 -224.5 -31.5t-193.5 -91.5q-43 -25 -43 -68q0 -36 27.5 -65t61.5 -29 q16 0 30 7t45.5 26.5t52 29.5t55 23t76.5 19t93 6q106 0 179.5 -69t73.5 -179q0 -128 -148 -277l-519 -523q-13 -13 -22.5 -26.5t-15.5 -27t-9 -27t-3 -26.5z" />
<glyph unicode="3" horiz-adv-x="1190" d="M153 1312q0 -38 25.5 -70t58.5 -32q13 0 26 6q54 28 130.5 46.5t154.5 18.5q106 0 181 -56t75 -163q0 -115 -83 -175.5t-218 -60.5h-71q-36 0 -55 -24.5t-19 -57.5t19 -57t55 -24h79q140 0 233 -76t93 -201q0 -111 -78 -169t-207 -58t-272 67q-12 5 -25 5 q-22 0 -42.5 -14t-32.5 -36.5t-12 -46.5q0 -51 52 -77q147 -79 347 -79q101 0 188.5 24t157 72t109.5 127.5t40 181.5q0 142 -69 239t-197 131q234 91 234 320q0 125 -65 214.5t-170.5 132t-237.5 42.5q-106 0 -212 -28t-159 -61q-33 -21 -33 -61z" />
<glyph unicode="4" horiz-adv-x="1190" d="M67 419q0 -46 30 -81t78 -35h563v-205q0 -46 33 -73t76 -27q42 0 74.5 26.5t32.5 73.5v205h137q38 0 59 24t21 57t-21 57t-59 24h-136v813q0 77 -44.5 115.5t-111.5 38.5q-116 0 -184 -109l-532 -846q-4 -6 -7 -13t-5 -14.5t-3 -15t-1 -15.5zM285 465l453 739v-739h-453z " />
<glyph unicode="5" horiz-adv-x="1190" d="M159 182q0 -30 21 -48q89 -76 191.5 -116t238.5 -40q215 0 354.5 128.5t139.5 339.5q0 203 -122.5 331t-321.5 128q-59 0 -112 -10.5t-86.5 -25.5t-58.5 -30.5t-36 -26.5l-11 -10l1 455h585q38 0 59 25t21 59t-21 59.5t-59 25.5h-654q-110 0 -110 -101v-640 q0 -35 48.5 -59t94.5 -24q12 0 21 2t14 7q49 50 122 84.5t150 34.5q117 0 188.5 -75.5t71.5 -201.5q0 -139 -72.5 -216.5t-213.5 -77.5q-172 0 -314 113q-17 14 -38 14q-34 0 -62.5 -33.5t-28.5 -70.5z" />
<glyph unicode="6" horiz-adv-x="1190" d="M83 634q0 -108 16.5 -201.5t56.5 -178.5t100.5 -145t153.5 -95.5t212 -35.5q225 0 360 132.5t135 341.5q0 202 -127.5 328t-334.5 126h-3q-81 0 -153.5 -25.5t-118.5 -66.5t-63 -88q0 103 7.5 179.5t30.5 150.5t61.5 121t104 75.5t155.5 28.5q115 0 253 -59q4 -2 8.5 -3 t8.5 -2t9 -1q11 0 21.5 4.5t19 12t16 17.5t12.5 21.5t7.5 24t2.5 24.5q0 50 -40 69q-154 73 -312 73q-105 0 -191.5 -25t-148 -68t-108 -106.5t-75 -133.5t-46 -155.5t-24 -166.5t-6.5 -173zM331 443q0 70 19.5 126t57 95.5t94 61t128.5 21.5q68 0 120 -23t84 -64t48 -94.5 t16 -118.5q0 -137 -74 -214.5t-213 -77.5q-131 0 -205.5 81t-74.5 207z" />
<glyph unicode="7" horiz-adv-x="1190" d="M96 1337q0 -36 23 -62.5t65 -26.5h643l-478 -1095q-13 -30 -12 -49q0 -45 35 -74.5t80 -29.5q70 0 98 63l504 1163q21 48 21 97q0 47 -32 75.5t-92 28.5h-767q-42 0 -65 -27t-23 -63z" />
<glyph unicode="8" horiz-adv-x="1190" d="M86 388q0 -191 141.5 -300.5t367.5 -109.5t367.5 109.5t141.5 300.5q0 137 -70.5 229t-208.5 129q121 28 187.5 115t66.5 211q0 123 -64.5 213t-173 133.5t-246.5 43.5q-212 0 -347.5 -103t-135.5 -287q0 -125 65.5 -210t189.5 -116q-135 -29 -208 -126t-73 -232z M313 388q0 127 79.5 194t202.5 67t202.5 -67t79.5 -194q0 -84 -39.5 -139.5t-100.5 -78t-142 -22.5t-142 22.5t-100.5 78t-39.5 139.5zM327 1079q0 60 22 104t60.5 68.5t85 36t100.5 11.5q117 0 193 -52.5t76 -167.5q0 -114 -71 -173t-198 -59q-125 0 -196.5 59t-71.5 173z " />
<glyph unicode="9" horiz-adv-x="1190" d="M76 988q0 -202 127.5 -328t333.5 -126h3q122 0 216 53.5t120 126.5q0 -103 -7.5 -179.5t-30.5 -150.5t-61.5 -121t-104.5 -75.5t-156 -28.5q-117 0 -252 60q-12 5 -25 5q-33 0 -56.5 -32.5t-23.5 -71.5q0 -50 40 -69q154 -73 312 -73q105 0 191.5 25t148 68t108 106.5 t75 133.5t46 155.5t24 166.5t6.5 173q0 108 -16.5 201.5t-56.5 178.5t-100.5 145t-153.5 95.5t-212 35.5q-226 0 -360.5 -132.5t-134.5 -341.5zM295 993q0 137 74 214.5t212 77.5q131 0 206 -81t75 -207q0 -93 -34 -161t-102 -105.5t-163 -37.5q-69 0 -121 23t-83.5 64 t-47.5 94.5t-16 118.5z" />
<glyph unicode=":" horiz-adv-x="602" d="M176 114q0 -48 35 -82t90 -34t89.5 34t34.5 82t-35 82t-89 34q-55 0 -90 -35t-35 -81zM176 898q0 -49 35 -82t90 -33q56 0 90 33.5t34 81.5t-35 82.5t-89 34.5q-56 0 -90.5 -34.5t-34.5 -82.5z" />
<glyph unicode=";" horiz-adv-x="602" d="M136 -190q0 -30 25 -31h65h3q21 0 33 10t20 33l166 480q3 8 3 18q0 35 -37 38h-120q-64 -2 -73 -56l-84 -480q-1 -6 -1 -12zM205 918q0 -50 34.5 -84t89.5 -34q57 0 91 34.5t34 83.5q0 47 -35 80.5t-90 33.5q-56 0 -90 -34t-34 -80z" />
<glyph unicode="&#x3c;" horiz-adv-x="1325" d="M139 498q0 -28 15.5 -52t43.5 -36l865 -380q9 -4 18 -4q26 0 45.5 28.5t19.5 60.5q0 39 -29 51l-759 332l756 316q38 16 38 54q0 20 -10.5 40t-28 33t-36.5 13q-9 0 -18 -4l-853 -360q-17 -7 -30 -17.5t-21 -22.5t-12 -25t-4 -27z" />
<glyph unicode="=" horiz-adv-x="1325" d="M149 295q0 -32 23 -54t56 -22h858q38 0 63.5 20.5t25.5 55.5q0 36 -25 57t-59 21h-852q-38 0 -64 -21t-26 -57zM149 702q0 -31 23.5 -53.5t55.5 -22.5h858q37 0 63 21t26 55q0 37 -26 57.5t-63 20.5h-847q-38 0 -64 -21t-26 -57z" />
<glyph unicode="&#x3e;" horiz-adv-x="1325" d="M139 868q0 -38 38 -54l756 -316l-759 -332q-15 -6 -22 -19.5t-7 -31.5q0 -32 19.5 -60.5t45.5 -28.5q5 0 9.5 1t8.5 3l865 380q18 8 31.5 22t20.5 31t7 36q0 28 -17 52.5t-50 38.5l-854 360q-9 4 -18 4q-18 0 -35.5 -13t-28 -33t-10.5 -40z" />
<glyph unicode="?" horiz-adv-x="1041" d="M122 1323q0 -37 22 -63t57 -26q20 0 112.5 16t124.5 16q241 0 241 -196q0 -54 -26 -103.5t-65 -85t-85 -74.5t-85 -72.5t-65.5 -78t-27.5 -92.5v-109q0 -17 6 -31t15.5 -24t22 -17t26.5 -10.5t29 -3.5q38 0 66 21.5t28 60.5l-1 91q0 36 29 74t72.5 69.5t95 73.5t95 85 t73 107t29.5 136q0 95 -33.5 166.5t-92.5 114t-133 63t-163 20.5q-146 0 -294 -40q-36 -10 -54.5 -34.5t-18.5 -53.5zM301 93q0 -48 34.5 -82.5t89.5 -34.5q56 0 90.5 34.5t34.5 82.5t-35 81.5t-90 33.5q-56 0 -90 -34t-34 -81z" />
<glyph unicode="@" horiz-adv-x="1638" d="M54 735q0 -176 57.5 -320t158.5 -240t239 -148.5t299 -52.5q157 0 320 49q40 12 40 54q0 23 -16 40.5t-43 17.5q-15 0 -26 -4q-126 -39 -258 -39q-128 0 -240 40t-199 117t-137 199t-50 276q0 123 40.5 231.5t109.5 186.5t158 134.5t188.5 84.5t199.5 28q104 0 195.5 -32 t164.5 -94t115.5 -164t42.5 -233q0 -111 -40.5 -214.5t-107 -166.5t-137.5 -63q-53 0 -53 51q0 32 24 111l145 473q3 14 3 25q0 28 -19.5 43.5t-46.5 15.5q-59 0 -77 -55l-9 -29q-33 64 -95 97.5t-137 33.5q-105 0 -197.5 -51.5t-153.5 -133.5t-96 -183t-35 -202 q0 -135 80 -227t215 -92q161 0 259 127q8 -60 55.5 -92.5t106.5 -32.5q78 0 159.5 44.5t147.5 119.5t108.5 183.5t42.5 225.5q0 127 -36 233t-98.5 179.5t-147 125t-180.5 75.5t-201 24q-122 0 -241.5 -32t-227 -97.5t-190 -156.5t-131 -218t-48.5 -272zM553 634 q0 70 23 144t63 135t100 100.5t128 39.5q38 0 71 -13t53.5 -31.5t36 -37t22.5 -31.5l6 -13l-92 -317q-24 -78 -95.5 -129t-153.5 -51q-42 0 -73.5 15t-50.5 42.5t-28.5 64.5t-9.5 82z" />
<glyph unicode="A" horiz-adv-x="1441" d="M59 91q0 -54 53 -83q29 -15 60 -15q34 0 61.5 18t41.5 55l110 285h673l110 -285q36 -68 103 -73q29 0 54.5 12t42 34.5t16.5 50.5q0 19 -8 39l-469 1169q-35 88 -78.5 117t-106.5 29q-64 0 -107.5 -29t-78.5 -117l-469 -1169q-8 -19 -8 -38zM447 513l275 712l274 -712 h-549z" />
<glyph unicode="B" horiz-adv-x="1343" d="M175 109q0 -46 32.5 -77.5t78.5 -31.5h464q123 0 221.5 32.5t158.5 87t91.5 122.5t31.5 142q0 159 -90.5 250t-250.5 110v4q138 21 209 109.5t71 220.5q0 167 -121 261t-370 94h-415q-46 0 -78.5 -31.5t-32.5 -77.5v-1215zM401 176v473h235q79 0 135 -5.5t105 -20.5 t78.5 -41.5t46 -69t16.5 -101.5q0 -139 -72.5 -187t-236.5 -48h-307zM401 823v436h286q68 0 114 -7t88 -27t62.5 -61t20.5 -104q0 -128 -72 -182.5t-236 -54.5h-263z" />
<glyph unicode="C" horiz-adv-x="1354" d="M118 715q0 -211 80 -378t233 -263t354 -96q233 0 405 109q51 33 51 84q0 35 -24 61.5t-58 26.5q-20 0 -40 -11q-52 -28 -86.5 -44t-92 -30.5t-117.5 -14.5q-117 0 -207 41.5t-146 117t-84 176.5t-28 224t28 224.5t83 177.5t143 118.5t202 42.5q45 0 85 -5t73 -15.5 t52 -17.5t46 -20.5l31 -15.5q8 -4 16.5 -5.5t16.5 -1.5q23 0 43.5 13t32.5 34.5t12 44.5t-13 43.5t-40 34.5q-171 92 -363 92q-205 0 -362.5 -96.5t-241.5 -265.5t-84 -385z" />
<glyph unicode="D" horiz-adv-x="1519" d="M175 112q0 -46 33.5 -78t80.5 -32h356q362 0 560 183t198 528q0 351 -196 536t-575 185h-343q-47 0 -80.5 -32.5t-33.5 -78.5v-1211zM402 182v1072h224q281 0 411.5 -123.5t130.5 -413.5q0 -137 -26 -234t-85 -166t-157.5 -102t-241.5 -33h-256z" />
<glyph unicode="E" horiz-adv-x="1247" d="M175 110q0 -43 34.5 -76.5t77.5 -33.5h756q42 0 65 27t23 62q0 36 -23 63.5t-65 27.5h-641v467h581q42 0 65.5 26.5t23.5 61.5q0 36 -23 62t-66 26h-581v429h617q41 0 64 27.5t23 63.5t-23 63t-64 27h-736q-45 0 -76.5 -33t-31.5 -77v-1213z" />
<glyph unicode="F" horiz-adv-x="1160" d="M174 109q0 -52 33 -80.5t80 -28.5q46 0 80 28.5t34 80.5v543h552q42 0 65 26t23 62t-23 62t-65 26h-552v424h579q42 0 65 27.5t23 63.5t-23 63t-65 27h-696q-45 0 -77.5 -32t-32.5 -80v-1212z" />
<glyph unicode="G" horiz-adv-x="1473" d="M118 722q0 -179 51 -321t144 -234t220.5 -140.5t282.5 -48.5q209 0 452 73q89 25 89 122v489q0 46 -23.5 74t-67.5 28h-387q-36 0 -56.5 -27.5t-20.5 -60.5q0 -32 20.5 -59t56.5 -27h252v-392q-156 -39 -299 -39q-237 0 -355.5 149t-118.5 417q0 125 28.5 225t86.5 175 t153.5 115.5t222.5 40.5q59 0 127 -10.5t108.5 -20t117.5 -30.5q8 -4 22 -4q36 0 58.5 29.5t22.5 65.5q0 56 -52 78q-179 73 -412 73q-177 0 -317.5 -59t-227.5 -161.5t-132.5 -234.5t-45.5 -285z" />
<glyph unicode="H" horiz-adv-x="1498" d="M175 110q0 -51 33.5 -80t79.5 -29q47 0 80.5 28.5t33.5 80.5v542h693v-542q0 -51 33.5 -80t79.5 -29q47 0 80.5 28.5t33.5 80.5v1212q0 52 -33 81t-80 29t-80.5 -29.5t-33.5 -80.5v-489h-693v489q0 52 -33.5 81t-79.5 29q-47 0 -80.5 -29.5t-33.5 -80.5v-1212z" />
<glyph unicode="I" horiz-adv-x="617" d="M196 110q0 -51 33 -80t79 -29q47 0 81 28.5t34 80.5v1214q0 52 -33.5 81t-79.5 29q-47 0 -80.5 -29t-33.5 -81v-1214z" />
<glyph unicode="J" horiz-adv-x="1034" d="M73 142q0 -55 45 -82t77 -42t97 -30t141 -15q75 0 141 16t124.5 51.5t100 89t65.5 133.5t24 179v883q0 51 -33.5 79.5t-79.5 28.5q-47 0 -81 -28.5t-34 -79.5v-866q0 -159 -57.5 -228t-177.5 -69q-100 0 -216 64q-27 17 -52 17q-37 0 -60.5 -30.5t-23.5 -70.5z" />
<glyph unicode="K" horiz-adv-x="1299" d="M176 108q0 -52 33 -80t79 -28t80 28.5t34 79.5v602l606 -661q44 -48 89 -48t79 30t34 73q0 40 -24 65l-551 585l499 523q22 23 22 60q0 40 -31.5 67.5t-72.5 27.5q-43 0 -85 -45l-565 -614v552q0 50 -33.5 79t-78.5 29q-46 0 -80 -28.5t-34 -79.5v-1217z" />
<glyph unicode="L" horiz-adv-x="1114" d="M175 113q0 -47 34.5 -80t80.5 -33h723q42 0 65.5 27t23.5 63t-23.5 63t-65.5 27h-611v1142q0 52 -33 81t-79 29q-47 0 -81 -29t-34 -81v-1209z" />
<glyph unicode="M" horiz-adv-x="1913" d="M177 96q0 -37 31 -57.5t73.5 -20.5t73.5 20.5t31 57.5v1044l433 -999q20 -48 56.5 -74t76.5 -26t76 26t56 74l434 999v-1044q0 -37 31 -57.5t73.5 -20.5t73.5 20.5t31 57.5v1153q0 64 -51 106t-120 42q-57 0 -107 -32.5t-78 -97.5l-419 -953l-419 953q-28 65 -78 97.5 t-107 32.5q-69 0 -120 -42t-51 -106v-1153z" />
<glyph unicode="N" horiz-adv-x="1531" d="M172 98q0 -47 31 -72.5t73 -25.5t73.5 26t31.5 72v991l706 -1014q25 -35 65 -55t75 -20q55 0 93.5 38t38.5 103v1193q0 47 -31 73t-73 26t-73 -26.5t-31 -72.5v-1001l-708 1021q-27 38 -67 58t-78 20q-54 0 -90 -38t-36 -103v-1193z" />
<glyph unicode="O" horiz-adv-x="1601" d="M115 720q0 -224 81 -391t236.5 -259t368.5 -92q321 0 502.5 201t181.5 541t-181.5 541t-502.5 201q-213 0 -368.5 -92t-236.5 -259t-81 -391zM356 720q0 259 115 410t330 151q214 0 329 -151t115 -410q0 -260 -115 -410.5t-329 -150.5t-329.5 150.5t-115.5 410.5z" />
<glyph unicode="P" horiz-adv-x="1260" d="M175 109q0 -52 34 -81t80 -29t79.5 29t33.5 81v493h298q123 0 217 21.5t166 69t109.5 129.5t37.5 196q0 220 -131 317.5t-379 97.5h-430q-48 0 -81.5 -33t-33.5 -80v-1211zM402 775v478h302q158 0 230 -51t72 -184q0 -136 -75 -189.5t-236 -53.5h-293z" />
<glyph unicode="Q" horiz-adv-x="1601" d="M115 720q0 -224 81 -391t236.5 -259t368.5 -92q321 0 502.5 201t181.5 541t-181.5 541t-502.5 201q-213 0 -368.5 -92t-236.5 -259t-81 -391zM356 720q0 259 115 410t330 151q214 0 329 -151t115 -410q0 -260 -115 -410.5t-329 -150.5t-329.5 150.5t-115.5 410.5zM721 35 l520 -240q9 -4 18.5 -6t18.5 -2q16 0 31.5 6.5t27 18t18.5 28t7 34.5q0 51 -52 76l-296 140z" />
<glyph unicode="R" horiz-adv-x="1382" d="M175 109q0 -51 33.5 -79.5t79.5 -28.5t80 28.5t34 79.5v534h312h5q76 0 122.5 -12t76 -45.5t43 -81t22.5 -130.5l30 -273q5 -48 41 -74t81 -26q43 0 75 28t32 73q0 6 -1 13l-34 297q-31 275 -276 327v4q155 27 233 114.5t78 212.5q0 363 -513 363h-440q-47 0 -80.5 -32.5 t-33.5 -78.5v-1213zM402 818v435h299q39 0 62 -0.5t60.5 -5t60.5 -12t50.5 -22.5t43 -37t26.5 -55t11 -76q0 -60 -21 -102.5t-52 -66.5t-81 -37.5t-93.5 -17t-103.5 -3.5h-262z" />
<glyph unicode="S" horiz-adv-x="1298" d="M125 180q0 -10 3 -18.5t10 -14.5q190 -169 505 -169q166 0 289.5 48.5t191.5 143.5t68 226q0 83 -24.5 146.5t-75 109.5t-113 78t-153.5 62l-303 98q-88 28 -129 72t-41 117q0 102 87.5 152t232.5 50q181 0 351 -102q23 -14 46 -14q36 0 61 28.5t25 63.5q0 34 -25 55 q-70 61 -201 105.5t-274 44.5q-148 0 -265.5 -45.5t-187 -135.5t-69.5 -210q0 -145 77 -229.5t239 -138.5l304 -101q117 -39 166.5 -87t49.5 -141q0 -105 -89.5 -160t-231.5 -55q-219 0 -399 130q-6 4 -12 6t-13 2q-34 0 -67 -40t-33 -77z" />
<glyph unicode="T" horiz-adv-x="1181" d="M26 1342q0 -36 24 -63t66 -27h362v-1142q0 -52 34 -81.5t80 -29.5t80 29.5t34 81.5v1142h359q42 0 66 27t24 64q0 36 -24 63t-66 27h-949q-42 0 -66 -27t-24 -64z" />
<glyph unicode="U" horiz-adv-x="1503" d="M177 498q0 -103 30.5 -188.5t83.5 -146.5t125.5 -103t157 -62t177.5 -20q118 0 220.5 32.5t182.5 95t126.5 163.5t46.5 229v830q0 52 -33.5 80.5t-79.5 28.5q-47 0 -81 -29t-34 -80v-824q0 -70 -19.5 -128t-53 -97.5t-78 -67t-94.5 -40t-103 -12.5q-67 0 -127.5 20.5 t-110 61t-79 108.5t-29.5 155v824q0 52 -34 80.5t-80 28.5q-47 0 -80.5 -29t-33.5 -80v-830z" />
<glyph unicode="V" horiz-adv-x="1332" d="M60 1340q0 -17 6 -35l413 -1157q30 -87 76 -123t116 -36q69 0 115.5 36t77.5 123l413 1157q6 18 6 35q0 43 -35 71t-81 28q-34 0 -62 -18.5t-40 -54.5l-394 -1134l-394 1134q-12 36 -40 54.5t-62 18.5q-45 0 -80 -28t-35 -71z" />
<glyph unicode="W" horiz-adv-x="2095" d="M51 1334q0 -15 4 -32l319 -1179q16 -60 62 -92.5t102.5 -32.5t104.5 32t66 91l335 1054l335 -1054q19 -59 65.5 -91t103.5 -32t103.5 32.5t62.5 92.5l319 1179q2 6 3 11.5t1 10.5v10q0 45 -33.5 72t-77.5 27q-36 0 -65 -19.5t-38 -56.5l-288 -1135l-341 1090 q-22 71 -58 96t-92 25q-55 0 -91.5 -26t-58.5 -95l-341 -1090l-288 1135q-4 15 -11.5 28t-17.5 21.5t-22 14.5t-25 9t-27 3q-28 0 -53 -11t-41.5 -34.5t-16.5 -53.5z" />
<glyph unicode="X" horiz-adv-x="1301" d="M65 88q0 -50 46 -78q25 -14 53 -15q52 0 89 49l391 517l388 -522q32 -44 85 -44q44 0 79 29.5t35 70.5q0 31 -22 61l-419 567l429 570q21 28 21 58q0 10 -2.5 20t-7 18.5t-11 16t-14.5 13.5t-17 10.5t-19 6.5t-21 2q-25 0 -49 -13t-45 -40l-382 -502l-374 505 q-18 24 -40.5 36t-46.5 12q-44 0 -79 -33t-35 -75q0 -30 19 -55l411 -554l-438 -567q-5 -6 -9 -13t-7 -13.5t-4.5 -13t-2.5 -12.5t-1 -12z" />
<glyph unicode="Y" horiz-adv-x="1291" d="M72 1328q0 -6 1 -12t3 -12t5 -12.5t7 -12.5l443 -688v-481q0 -52 33.5 -80.5t79.5 -28.5q30 0 55 11.5t42 37t17 60.5v489l446 696q17 27 17 53q0 18 -8 34t-21.5 27.5t-31 18t-35.5 6.5q-56 0 -87 -51l-381 -615l-375 606q-35 56 -95 56q-12 0 -24.5 -2.5t-23.5 -7.5 t-21.5 -12t-18.5 -16t-14 -19t-9.5 -21.5t-3.5 -23.5z" />
<glyph unicode="Z" horiz-adv-x="1182" d="M89 101q0 -43 30 -72t89 -29h830q42 0 65 27.5t23 63.5q0 35 -23 62t-65 27h-682l752 1081q25 36 25 76q0 41 -28.5 68.5t-75.5 27.5h-842q-42 0 -64.5 -27t-22.5 -63t23 -63.5t64 -27.5h675l-750 -1080q-23 -34 -23 -71z" />
<glyph unicode="[" horiz-adv-x="657" d="M172 -115q0 -40 28.5 -68.5t70.5 -28.5h206q36 1 55.5 23.5t19.5 53.5q0 30 -20 52t-55 22h-109v1344h109q35 0 55 22.5t20 52.5q0 31 -19.5 53t-55.5 22h-206q-42 0 -70.5 -29t-28.5 -69v-1450z" />
<glyph unicode="\" horiz-adv-x="609" d="M-15 1428q0 -13 6 -31l480 -1439q18 -54 74 -54q32 0 55 20t23 52q0 15 -4 30l-478 1440q-19 55 -77 55q-31 0 -55 -20t-24 -53z" />
<glyph unicode="]" horiz-adv-x="657" d="M105 -135q0 -31 19.5 -53.5t54.5 -23.5h207q41 0 70 28.5t29 68.5v1450q0 40 -29 69t-70 29h-207q-36 0 -55 -22t-19 -53q0 -30 19.5 -52.5t54.5 -22.5h109v-1344h-109q-35 0 -54.5 -22t-19.5 -52z" />
<glyph unicode="^" horiz-adv-x="1325" d="M179 579q0 -33 23.5 -54t55.5 -21q51 0 78 61l330 665l329 -665q30 -60 77 -60q32 0 56 21t24 53q0 17 -13 45l-367 719q-40 77 -106 77t-105 -77l-369 -719q-13 -28 -13 -45z" />
<glyph unicode="_" horiz-adv-x="1024" d="M0 -193q0 -25 15.5 -43.5t42.5 -18.5h905q28 0 44 18.5t16 43.5q0 26 -16 44t-44 18h-905q-28 0 -43 -18t-15 -44z" />
<glyph unicode="`" horiz-adv-x="569" d="M67 1516q0 -30 26 -51l314 -249q27 -22 51 -22q19 0 32 14t13 34q0 15 -15 37l-248 295q-33 41 -68 41q-39 0 -72 -31t-33 -68z" />
<glyph unicode="a" horiz-adv-x="1056" d="M69 272q0 -138 98 -213t254 -75q210 0 299 183v-74q0 -30 14.5 -51.5t36 -32t47.5 -10.5q40 0 70 25.5t30 70.5v564q0 182 -106 268t-290 86q-213 0 -368 -84q-17 -9 -25 -22.5t-8 -30.5q0 -9 2.5 -18t7 -17.5t11 -16t14.5 -13t17 -8.5t19 -3q13 0 25 5q52 22 83.5 34 t93.5 25.5t121 13.5q202 0 202 -202v-98q-108 0 -182.5 -2.5t-148 -10t-120 -21.5t-87.5 -36.5t-63 -55t-34.5 -77t-12.5 -103.5zM260 280q0 40 8 68.5t30.5 49.5t53.5 33t85.5 19.5t118.5 10t160 2.5v-28q0 -139 -83 -229t-192 -90q-83 0 -132 40t-49 124z" />
<glyph unicode="b" horiz-adv-x="1199" d="M146 97q0 -45 30 -70.5t71 -25.5q48 0 74 24.5t26 71.5v71q99 -184 338 -184q104 0 187 42.5t135.5 115t80.5 165.5t28 198q0 224 -120 366t-326 142q-226 0 -323 -175v500q0 45 -30 69.5t-71 24.5t-70.5 -24.5t-29.5 -69.5v-1241zM348 502q0 58 9.5 111t32 101.5t55 84 t82 56.5t110.5 21q76 0 132 -33.5t86.5 -89.5t45 -119t14.5 -132q0 -52 -8 -102.5t-27.5 -101.5t-49 -89.5t-78 -62.5t-108.5 -25q-83 0 -141.5 27.5t-91.5 79.5t-48 119t-15 155z" />
<glyph unicode="c" horiz-adv-x="962" d="M83 499q0 -143 57 -259.5t168 -186t257 -69.5q199 0 305 88q18 15 26.5 32t8.5 33q0 12 -4.5 23.5t-13 19.5t-19.5 12.5t-24 4.5q-11 0 -22.5 -3.5t-22.5 -11.5q-87 -61 -219 -61q-95 0 -163.5 52t-100.5 136t-32 189q0 172 83.5 275.5t222.5 103.5q106 0 193 -53 q21 -12 43 -12q18 0 32.5 7.5t23 21t8.5 29.5q0 35 -38 63q-44 33 -115.5 56.5t-159.5 23.5q-147 0 -260.5 -69.5t-173.5 -186t-60 -258.5z" />
<glyph unicode="d" horiz-adv-x="1199" d="M83 505q0 -105 28 -198t80.5 -165.5t135.5 -115t187 -42.5q239 0 338 184v-71q0 -47 26 -71.5t74 -24.5q41 0 71 25.5t30 70.5v1241q0 45 -29.5 69.5t-70.5 24.5t-71 -24.5t-30 -69.5v-500q-97 175 -323 175q-206 0 -326 -142t-120 -366zM284 502q0 69 14.5 132t45 119 t86.5 89.5t132 33.5q61 0 110.5 -21t82 -56.5t55 -84t32 -101.5t9.5 -111q0 -88 -15 -155t-48 -119t-91.5 -79.5t-141.5 -27.5q-75 1 -130.5 36.5t-84.5 94t-42.5 121t-13.5 129.5z" />
<glyph unicode="e" horiz-adv-x="1106" d="M86 505q0 -240 139.5 -379.5t361.5 -141.5q219 0 374 137q16 13 23.5 29t7.5 33q0 18 -8.5 34t-23 25.5t-31.5 9.5q-10 0 -19.5 -3.5t-19.5 -10.5q-71 -52 -139 -82.5t-150 -30.5q-138 2 -223 83t-89 247h670q32 0 48 21t16 54q-2 100 -29.5 184.5t-80 152.5t-141 107 t-203.5 39q-113 0 -205.5 -41.5t-152.5 -112t-92.5 -161.5t-32.5 -193zM291 577q5 57 24.5 109t54 95.5t88.5 69t120 25.5q128 0 195 -84.5t76 -214.5h-558z" />
<glyph unicode="f" horiz-adv-x="711" d="M36 921q0 -28 18.5 -46.5t54.5 -18.5h121v-757q0 -47 30 -73t71 -26t71 26t30 73v757h159q36 0 53.5 18t17.5 47q0 27 -18 46.5t-53 19.5h-159v83q0 74 7 117.5t25 66.5t41 29.5t64 6.5h85q33 0 51 22.5t18 53.5t-18.5 55t-50.5 24h-123q-301 0 -301 -336v-122h-121 q-36 0 -54.5 -19.5t-18.5 -46.5z" />
<glyph unicode="g" horiz-adv-x="1189" d="M83 493q0 -219 124.5 -356t338.5 -137q109 0 189.5 47.5t123.5 133.5v-181q0 -140 -79.5 -216.5t-227.5 -76.5q-45 0 -91 8t-68 14t-70 23.5t-52 19.5q-13 5 -26 5q-14 0 -26 -5.5t-20.5 -15t-13.5 -22t-5 -25.5q0 -40 38 -62q55 -32 147 -54.5t201 -22.5q225 0 356 110 t131 331v891q0 45 -28 70t-67 25q-35 0 -62 -21t-31 -59v-82q-50 86 -125.5 132t-199.5 46q-212 0 -334.5 -146.5t-122.5 -373.5zM284 499q0 62 10.5 117t33.5 103t57 82.5t83.5 54.5t109.5 20q62 0 110.5 -20t80 -54t52 -82.5t29 -102.5t8.5 -117q0 -179 -78 -273t-202 -94 q-60 0 -112 22t-93 65.5t-65 115t-24 163.5z" />
<glyph unicode="h" horiz-adv-x="1169" d="M146 97q0 -46 29.5 -71.5t70.5 -25.5q42 0 72 25.5t30 71.5v470q0 141 81 222t197 81q95 0 151 -58t56 -174v-541q0 -46 29.5 -71.5t70.5 -25.5q42 0 72 25.5t30 71.5v535q0 98 -29.5 173t-80 119.5t-113.5 66.5t-136 22q-111 0 -198 -43.5t-130 -119.5v488q0 44 -30 69 t-71 25t-71 -25t-30 -69v-1241z" />
<glyph unicode="i" horiz-adv-x="493" d="M128 1334q0 -53 35 -85.5t91 -32.5t90.5 32.5t34.5 85.5t-34 86t-90 33q-57 0 -92 -33t-35 -86zM153 101q0 -49 29 -75t71 -26q41 0 71.5 27t30.5 74v795q0 47 -30 74t-70 27q-41 0 -71.5 -27t-30.5 -74v-795z" />
<glyph unicode="j" horiz-adv-x="509" d="M-53 -304q0 -19 7.5 -36t24 -28t39.5 -11q78 0 134 8t94.5 28.5t61.5 46t35 70t16 89.5t4 115v918q0 47 -30 74t-70 27q-42 0 -72 -27t-30 -74v-951q0 -42 -1.5 -67.5t-8 -47t-15 -31.5t-27 -17.5t-39.5 -9t-56 -1.5q-31 0 -49 -22t-18 -53zM130 1334q0 -53 34.5 -85.5 t90.5 -32.5q57 0 91.5 32.5t34.5 85.5t-34 86t-91 33q-56 0 -91 -33t-35 -86z" />
<glyph unicode="k" horiz-adv-x="1015" d="M147 101q0 -48 29 -74.5t70 -26.5t71.5 27t30.5 74v417l464 -490q10 -11 21 -18t22.5 -10t22.5 -3q24 0 46 12.5t35 33.5t13 44q0 32 -25 58l-382 402l344 317q25 23 25 55q0 35 -27 63t-62 28q-14 0 -28 -5.5t-26 -16.5l-443 -417v761q0 46 -29.5 73t-69.5 27 q-42 0 -72 -27t-30 -73v-1231z" />
<glyph unicode="l" horiz-adv-x="503" d="M155 101q0 -49 29 -75t70 -26t72 27t31 74v1231q0 46 -30 73t-71 27t-71 -27t-30 -73v-1231z" />
<glyph unicode="m" horiz-adv-x="1853" d="M146 96q0 -46 29 -71t70 -25q42 0 72.5 25t30.5 71v473q0 144 74.5 226t198.5 82q100 0 154.5 -63t54.5 -193v-524q0 -46 29.5 -71.5t70.5 -25.5q42 0 72 25.5t30 71.5v459q0 154 77 237.5t197 83.5q101 0 155 -60t54 -180v-541q0 -46 29.5 -71t70.5 -25q42 0 72 25 t30 71v536q0 98 -28.5 172.5t-79 119.5t-115.5 67t-142 22q-128 0 -219.5 -57t-134.5 -171q-31 105 -117.5 166.5t-211.5 61.5q-107 0 -190.5 -46t-130.5 -139v80q0 42 -30.5 65.5t-70.5 23.5q-41 0 -71 -25t-30 -69v-807z" />
<glyph unicode="n" horiz-adv-x="1170" d="M146 96q0 -45 29.5 -70.5t70.5 -25.5t71 25.5t30 70.5v475q4 140 82 222.5t189 82.5q99 0 157 -63t58 -183v-534q0 -45 29.5 -70.5t70.5 -25.5t71.5 25.5t30.5 70.5v532q0 98 -28 173.5t-78.5 121t-115 68t-141.5 22.5q-114 0 -199.5 -46t-125.5 -133v71q0 43 -29.5 67 t-70.5 24t-71 -24.5t-30 -69.5v-806z" />
<glyph unicode="o" horiz-adv-x="1173" d="M83 498q0 -105 33 -197t95 -163t160 -112.5t219 -41.5t219 41.5t160 112.5t95 163.5t33 196.5q0 144 -57.5 259.5t-174 185.5t-275.5 70q-121 0 -218.5 -41t-160 -112t-95.5 -163.5t-33 -198.5zM282 498q0 176 81.5 277t226.5 101q144 0 226 -101.5t82 -276.5 q0 -176 -81 -276t-227 -101q-144 0 -226 101t-82 276z" />
<glyph unicode="p" horiz-adv-x="1199" d="M146 -287q0 -44 30 -69t70 -25q41 0 71 25t30 69v447q97 -176 323 -176q206 0 326 142.5t120 366.5q0 105 -28 197.5t-80.5 165t-135.5 115t-187 42.5q-239 0 -338 -183v71q0 46 -26 70.5t-74 24.5q-41 0 -71 -25.5t-30 -70.5v-1187zM348 495q0 88 15 155t48 119 t91.5 79.5t141.5 27.5q75 0 130.5 -36t84.5 -94.5t42.5 -121t13.5 -129.5q0 -55 -8.5 -106t-29 -100.5t-51.5 -86t-79.5 -59t-109.5 -22.5t-110.5 21t-82 56.5t-55 84t-32 101.5t-9.5 111z" />
<glyph unicode="q" horiz-adv-x="1199" d="M83 493q0 -224 120 -366.5t326 -142.5q226 0 323 176v-447q0 -44 30 -69t71 -25q40 0 70 25t30 69v1187q0 45 -30 70.5t-71 25.5q-48 0 -74 -24.5t-26 -70.5v-71q-99 183 -338 183q-104 0 -187 -42.5t-135.5 -115t-80.5 -165t-28 -197.5zM284 495q0 67 13.5 129.5 t42.5 121t84.5 94.5t130.5 36q83 0 141.5 -27.5t91.5 -79.5t48 -119t15 -155q0 -58 -9.5 -111t-32 -101.5t-55 -84t-82 -56.5t-110.5 -21t-109.5 22.5t-79.5 59t-51.5 86t-29 100.5t-8.5 106z" />
<glyph unicode="r" horiz-adv-x="742" d="M148 95q0 -46 29 -70.5t70 -24.5t72 25t31 70v489q0 127 75.5 189t208.5 62q33 0 51 24t18 57q0 36 -20 62t-56 26q-101 0 -177.5 -63t-101.5 -156l2 123q0 17 -5.5 31.5t-15 24.5t-22 17.5t-27 11t-30.5 3.5q-41 0 -71.5 -24.5t-30.5 -68.5v-808z" />
<glyph unicode="s" horiz-adv-x="1004" d="M108 741q0 -39 7.5 -71t19.5 -56t34 -44t44.5 -34t58.5 -27.5t67.5 -23t78.5 -21.5l170 -43q82 -21 119 -55t37 -89q0 -80 -65.5 -120t-168.5 -40q-147 0 -286 85q-24 14 -47 14q-29 0 -48 -20t-19 -46q0 -35 31 -57q107 -76 264 -102q58 -9 114 -9q86 0 157.5 19 t125.5 56.5t84 97.5t30 137q0 110 -68 179t-221 108l-168 41q-101 25 -132.5 49t-31.5 81q0 45 30.5 75.5t79 43t111.5 12.5q21 0 43 -2t40 -5t38 -7.5t34.5 -9t32 -10t27.5 -9.5t24.5 -9.5t19.5 -7.5q18 -6 33 -6q14 0 26 5t20 13.5t12 20t4 23.5q0 43 -43 64 q-58 30 -143 52.5t-183 22.5q-218 0 -322 -100q-71 -69 -71 -175z" />
<glyph unicode="t" horiz-adv-x="754" d="M30 922q0 -29 19 -47.5t55 -18.5h116v-565q0 -149 71 -226t193 -77h9.5h10h9.5h10h9q22 0 38 0.5t35.5 2.5t32.5 5.5t26.5 9.5t21.5 14.5t13 21.5t5 29q0 31 -21.5 54.5t-58.5 23.5h-6l-71 -4h-10q-61 0 -88 46t-27 142v523h179q36 0 54 17.5t18 46.5t-18 48t-54 19h-179 v286q0 39 -21.5 59t-54.5 20q-39 0 -66.5 -25t-32.5 -63l-27 -277h-117q-36 0 -54.5 -18t-18.5 -47z" />
<glyph unicode="u" horiz-adv-x="1170" d="M136 370q0 -193 100.5 -289.5t260.5 -96.5q114 0 200 46.5t126 132.5v-72q0 -43 29.5 -67t70.5 -24q42 0 72 25t30 70v805q0 46 -29.5 71.5t-70.5 25.5q-42 0 -72 -25.5t-30 -71.5v-474q-4 -139 -82.5 -222t-190.5 -83q-99 0 -156 63t-57 184v532q0 46 -29.5 71.5 t-70.5 25.5t-71 -25.5t-30 -71.5v-530z" />
<glyph unicode="v" horiz-adv-x="1051" d="M53 905q0 -17 7 -33l298 -725q33 -81 70 -115t101 -34t101 34t70 115l299 725q2 4 3 8t2 8.5t1.5 8.5t0.5 8q0 18 -9 35.5t-23 30t-32 19.5t-36 7q-59 0 -84 -63l-293 -732l-293 732q-5 13 -12 23.5t-15 18t-17.5 12.5t-19 7t-19.5 2q-38 0 -69 -27.5t-31 -64.5z" />
<glyph unicode="w" horiz-adv-x="1701" d="M80 909q0 -17 6 -34l258 -763q36 -112 131 -112q102 0 144 123l239 682l238 -682q43 -123 145 -123q94 0 131 112l258 763q6 17 6 34q0 11 -3 21.5t-8 19t-11.5 15.5t-15 12.5t-18 9.5t-19.5 6t-20 2q-29 0 -52.5 -16t-33.5 -48l-231 -720l-235 678q-37 108 -131 108 q-95 0 -132 -108l-235 -678l-230 720q-10 32 -34 48t-53 16q-10 0 -20 -2t-19 -6t-17.5 -9.5t-15 -12.5t-11.5 -15.5t-8 -19t-3 -21.5z" />
<glyph unicode="x" horiz-adv-x="1051" d="M82 88q0 -34 28.5 -61t65.5 -27q38 0 68 37l272 340l274 -336q31 -41 78 -41q40 0 70.5 28t30.5 65q0 28 -20 53l-302 370l281 346q19 25 19 50q0 34 -27 59.5t-62 25.5q-39 0 -70 -38l-250 -309l-249 305q-33 42 -78 42q-40 0 -70 -28.5t-30 -66.5q0 -30 19 -54 l276 -338l-306 -375q-18 -21 -18 -47z" />
<glyph unicode="y" horiz-adv-x="1055" d="M73 898q0 -22 11 -44l366 -736l-189 -392q-10 -21 -10 -42q0 -37 30 -63.5t68 -26.5q57 0 85 57l588 1216q10 20 10 41q0 38 -29.5 64.5t-68.5 26.5q-26 0 -49.5 -15t-38.5 -46l-295 -611l-291 603q-10 20 -24.5 34t-30 20t-32.5 6q-39 0 -69.5 -27t-30.5 -65z" />
<glyph unicode="z" horiz-adv-x="951" d="M79 87q0 -37 26.5 -62t71.5 -25h610q37 0 58 23t21 54q0 32 -20.5 54.5t-58.5 22.5h-467l525 687q27 37 27 73t-27 59.5t-77 23.5h-595q-37 0 -57.5 -23t-20.5 -55t20.5 -54.5t57.5 -22.5h456l-525 -686q-25 -32 -25 -69z" />
<glyph unicode="{" horiz-adv-x="661" d="M12 628q0 -36 22 -58t59 -23q82 -8 110 -62.5t28 -167.5v-304q0 -102 64 -166.5t147 -64.5h127q35 0 52.5 20.5t19.5 52.5q0 36 -18.5 58t-52.5 22h-53q-49 0 -68 41t-19 125v260q0 64 -18.5 116.5t-47 82.5t-49.5 45.5t-39 22.5q19 8 31 14t38 27.5t42 48.5t29.5 76 t13.5 110v253q0 86 19 127t67 41h50q35 0 54.5 21.5t19.5 55.5q0 36 -20 56.5t-54 20.5h-124q-88 0 -149.5 -68t-61.5 -166v-303q0 -115 -28.5 -169.5t-109.5 -63.5q-39 -1 -60 -24t-21 -57z" />
<glyph unicode="|" horiz-adv-x="455" d="M150 -318q0 -37 22.5 -57.5t54.5 -20.5t55 20.5t23 57.5v1723q0 37 -22.5 57t-54.5 20t-55 -20t-23 -57v-1723z" />
<glyph unicode="}" horiz-adv-x="661" d="M18 -142q0 -34 19 -55t53 -21h128q86 0 147.5 67t61.5 167v301q0 114 29.5 168t113.5 62q36 0 56.5 24t20.5 57q0 36 -22.5 58t-58.5 23q-43 4 -71 21t-42.5 48.5t-20 69t-5.5 94.5v306q0 101 -63.5 166t-145.5 65h-128q-35 0 -53.5 -22t-18.5 -54q0 -35 20.5 -56.5 t54.5 -21.5h50q48 0 66.5 -41.5t18.5 -123.5v-262q0 -52 13 -95.5t34.5 -72.5t41 -48t41 -34.5t24.5 -19.5q-19 -8 -40.5 -24t-49.5 -46.5t-46 -82t-18 -114.5v-266q0 -81 -19 -120.5t-64 -39.5h-55q-35 0 -53.5 -22t-18.5 -55z" />
<glyph unicode="~" horiz-adv-x="1326" d="M341 1222q0 -11 4.5 -20t12 -15.5t17.5 -9.5t20 -3q33 0 51 27q30 45 76 45q32 0 118 -39t133 -39q136 0 175 139q2 7 2 15q0 23 -16 39t-37 16q-15 0 -28.5 -8.5t-24.5 -26.5q-25 -41 -63 -41q-28 0 -116 38.5t-144 38.5q-128 0 -176 -134q-2 -6 -3 -11.5t-1 -10.5z" />
<glyph unicode="&#xa2;" horiz-adv-x="1039" d="M83 499q0 -143 57 -259.5t168 -186t257 -69.5q199 0 305 88q35 30 35 65q0 25 -17.5 42.5t-43.5 17.5q-23 0 -45 -15q-87 -61 -219 -61q-95 0 -163.5 52t-100.5 136t-32 189q0 172 83.5 275.5t222.5 103.5q106 0 193 -53q21 -12 43 -12q27 0 45.5 17t18.5 41q0 35 -38 63 q-44 33 -115.5 56.5t-159.5 23.5q-147 0 -260.5 -69.5t-173.5 -186t-60 -258.5zM503 56v-263q0 -28 18 -44t42 -16t41.5 16t17.5 44v263h-119zM503 953h119v263q0 28 -17.5 44t-41.5 16t-42 -16t-18 -44v-263z" />
<glyph unicode="&#xa3;" horiz-adv-x="1372" d="M152 814q0 -31 11.5 -55t30.5 -24h123v-566h-90q-21 0 -32.5 -24.5t-11.5 -58.5q0 -35 12 -61t34 -26h859q23 0 35.5 25.5t12.5 60.5t-12.5 60.5t-35.5 25.5h-562v564h347q22 0 34 20.5t12 50.5q0 31 -12.5 55t-32.5 24h-348v108q0 72 4 115.5t16.5 82t37 58t64 30 t98.5 10.5q79 0 244 -30q3 -1 5 -1q23 0 38 34.5t15 70.5q0 35 -14 40q-161 47 -310 47q-194 0 -300.5 -92t-106.5 -283v-190h-123q-20 0 -31 -20.5t-11 -50.5z" />
<glyph unicode="&#xa5;" horiz-adv-x="1222" d="M72 1328q0 -25 16 -49l443 -688v-481q0 -52 33.5 -80.5t79.5 -28.5q22 0 42 7t36.5 20t26 34.5t9.5 47.5v489l446 696q17 27 17 53q0 24 -14 44t-36 31t-46 11q-56 0 -87 -51l-381 -615l-375 606q-35 56 -95 56q-29 0 -55.5 -13.5t-43 -37.5t-16.5 -51zM143 363 q0 -27 16.5 -47t45.5 -20h875q29 0 45.5 19.5t16.5 45.5q0 25 -16.5 45t-45.5 20h-875q-29 0 -45.5 -19t-16.5 -44zM143 607q0 -26 16 -46t46 -20h875q29 0 45.5 19t16.5 45q0 25 -16.5 45t-45.5 20h-875q-29 0 -45.5 -19t-16.5 -44z" />
<glyph unicode="&#xa8;" horiz-adv-x="569" d="M-31 1306q0 -45 32.5 -76.5t83.5 -31.5t83.5 32t32.5 76t-32.5 75.5t-83.5 31.5q-52 0 -84 -31.5t-32 -75.5zM369 1306q0 -45 32.5 -76.5t83.5 -31.5t83.5 32t32.5 76t-32.5 75.5t-83.5 31.5q-52 0 -84 -32t-32 -75z" />
<glyph unicode="&#xa9;" horiz-adv-x="1676" d="M143 784q0 -137 55.5 -261.5t150 -214.5t225 -143.5t273.5 -53.5q190 0 351 90t255 245.5t94 337.5t-94 337t-255 245.5t-351 90.5q-143 0 -273.5 -53.5t-225 -144t-150 -215t-55.5 -260.5zM274 784q0 238 162.5 395t410.5 157q161 0 291.5 -71.5t204 -198t73.5 -282.5 q0 -239 -162 -396t-407 -157q-248 0 -410.5 157t-162.5 396zM469 789q0 -95 32 -172t86.5 -125.5t123.5 -74t145 -25.5q46 0 103.5 11.5t107 38t49.5 61.5q0 20 -12.5 34t-30.5 14q-10 0 -20 -5q-92 -47 -176 -47q-116 0 -195 77t-79 215q0 140 74.5 210t190.5 70 q98 0 189 -47q13 -5 20 -5q21 0 34.5 17t13.5 39q0 32 -53 57.5t-113 36t-104 10.5q-78 0 -146.5 -25t-122.5 -72t-85.5 -123t-31.5 -170z" />
<glyph unicode="&#xaa;" horiz-adv-x="1064" d="M136 941q0 -107 73 -168.5t187 -61.5q81 0 150.5 39t99.5 108l1 -65q0 -29 20.5 -45.5t47.5 -16.5q28 0 48.5 17.5t20.5 48.5l1 446q0 138 -79 203t-219 65q-207 0 -289 -102q-13 -14 -13 -31q0 -20 13.5 -34t34.5 -14q14 0 25 7q39 21 64 32t68 20.5t91 9.5 q163 0 163 -145v-59q-38 3 -82 3q-426 0 -426 -257zM280 948q0 36 14 62.5t43 43t58.5 26.5t77.5 14.5t82.5 5.5t88.5 1v-66q-4 -107 -61.5 -165t-147.5 -60q-69 2 -112 37t-43 101z" />
<glyph unicode="&#xab;" horiz-adv-x="1180" d="M168 540l220 -391q36 -65 87 -65q32 0 53 19.5t21 50.5q-1 16 -8 31l-165 355l162 349q10 20 10 37q0 29 -20.5 48.5t-50.5 19.5q-52 0 -84 -56zM586 540l220 -391q36 -65 87 -65q32 0 53.5 19.5t21.5 50.5q-1 16 -8 31l-165 355l163 349q10 22 10 37q0 29 -21.5 48.5 t-51.5 19.5q-52 0 -84 -56z" />
<glyph unicode="&#xac;" horiz-adv-x="1326" d="M151 724q0 -32 18.5 -55t53.5 -23h797v-338q0 -36 23 -56t55 -20t55.5 20t23.5 56v415q0 30 -25 54.5t-55 24.5h-874q-35 0 -53.5 -23t-18.5 -55z" />
<glyph unicode="&#xad;" horiz-adv-x="670" d="M38 529q0 -34 24.5 -56t62.5 -22h420q37 0 61.5 22t24.5 56q0 35 -24 57.5t-62 22.5h-420q-38 0 -62.5 -22.5t-24.5 -57.5z" />
<glyph unicode="&#xae;" horiz-adv-x="1679" d="M131 759q0 -137 56.5 -262t152.5 -216.5t228 -145.5t276 -54t275.5 54t227 145.5t152 216.5t56.5 262q0 184 -95.5 341.5t-259.5 249.5t-356 92q-193 0 -357 -92t-260 -249.5t-96 -341.5zM266 759q0 158 74.5 286t207 200t296.5 72q163 0 295 -72t206.5 -200t74.5 -286 t-74.5 -286t-206.5 -200.5t-295 -72.5q-164 0 -296.5 72.5t-207 200.5t-74.5 286zM583 443q0 -28 18 -43t43 -15t44 15.5t19 42.5v280h138l196 -311q16 -26 46 -26q24 0 44 17t20 40q0 14 -9 28l-175 254q52 6 90.5 18.5t70.5 35.5t48.5 61t16.5 91q0 108 -65 158.5 t-218 50.5h-249q-38 0 -58 -23.5t-20 -58.5v-615zM707 825v212h187q80 0 124.5 -21.5t44.5 -78.5q0 -30 -9.5 -51.5t-23.5 -33t-38 -18t-45 -8t-53 -1.5h-23t-32.5 0.5t-38 0.5h-37.5q-41 0 -56 -1z" />
<glyph unicode="&#xb1;" horiz-adv-x="1326" d="M152 76q0 -31 20 -53.5t56 -22.5h870q36 0 56.5 22.5t20.5 53.5q0 32 -20 54t-57 22h-870q-36 0 -56 -22t-20 -54zM152 610q0 -31 20 -53.5t56 -22.5h356v-233q0 -35 22.5 -54.5t54.5 -19.5t56 19.5t24 54.5v233h357q36 0 56.5 22.5t20.5 53.5t-20.5 53.5t-56.5 22.5 h-357v235q0 35 -23 54.5t-55 19.5t-55.5 -19.5t-23.5 -54.5v-235h-356q-36 0 -56 -22t-20 -54z" />
<glyph unicode="&#xb4;" horiz-adv-x="569" d="M54 1248q0 -20 13.5 -33t33.5 -13q21 0 44 18l314 248q29 23 29 56q0 38 -32.5 68.5t-70.5 30.5q-35 0 -66 -39l-250 -298q-15 -20 -15 -38z" />
<glyph unicode="&#xb5;" horiz-adv-x="1179" d="M145 -170q0 -48 29 -74t70 -26t72 26.5t31 73.5v210q71 -45 170 -45q100 0 188 47t127 132v-80q0 -44 30 -69t70 -25q41 0 71.5 25.5t30.5 70.5v804q0 45 -29.5 70t-70.5 25t-71.5 -25t-30.5 -70v-517q-9 -131 -85 -200.5t-189 -69.5q-89 0 -150 61.5t-61 176.5v548 q0 45 -30 70.5t-71 25.5t-71 -25.5t-30 -70.5v-1069z" />
<glyph unicode="&#xb8;" horiz-adv-x="569" d="M57 -331q0 -35 72 -56t162 -21q84 0 144.5 40t61.5 114q0 147 -181 149q-5 0 -17.5 -0.5t-19.5 -0.5l38 112h-73l-48 -131q-5 -13 -5 -21q0 -33 42 -33q6 0 18 2q44 0 75.5 -17.5t31.5 -54.5q0 -40 -22.5 -60.5t-75.5 -20.5q-61 0 -159 34q-7 3 -12 3q-14 0 -23 -11.5 t-9 -26.5z" />
<glyph unicode="&#xba;" horiz-adv-x="1094" d="M138 1119q0 -78 24 -147t70.5 -124.5t123.5 -88t175 -32.5t175.5 32.5t124 88t70.5 124.5t24 147q0 77 -24 146t-70.5 125t-124 88.5t-175.5 32.5t-175 -32.5t-123.5 -88.5t-70.5 -125t-24 -146zM302 1118q0 72 22.5 134.5t76 106.5t130.5 44q59 0 104.5 -25t72 -67 t40 -90.5t13.5 -100.5q0 -53 -13.5 -102.5t-40 -91.5t-72 -67t-104.5 -25q-77 0 -130.5 44t-76 106.5t-22.5 133.5z" />
<glyph unicode="&#xbb;" horiz-adv-x="1180" d="M208 151q0 -30 22 -48.5t52 -18.5q50 0 87 65l221 391l-221 390q-36 64 -88 64q-31 0 -52 -19t-21 -49q0 -15 11 -37l162 -349l-162 -351q-11 -24 -11 -38zM627 152q0 -30 21.5 -49t52.5 -19q50 0 87 65l221 391l-221 390q-38 64 -88 64q-30 0 -51.5 -19t-21.5 -48 q0 -16 11 -38l162 -349l-162 -350q-11 -24 -11 -38z" />
<glyph unicode="&#xc0;" horiz-adv-x="1435" d="M59 91q0 -54 53 -83q29 -15 60 -15q34 0 61.5 18t41.5 55l110 285h673l110 -285q36 -68 103 -73q29 0 54.5 12t42 34.5t16.5 50.5q0 19 -8 39l-469 1169q-35 88 -78.5 117t-106.5 29q-64 0 -107.5 -29t-78.5 -117l-469 -1169q-8 -19 -8 -38zM337 1914q0 -30 26 -51 l314 -249q27 -22 51 -22q19 0 32 14t13 34q0 15 -15 37l-248 295q-33 41 -68 41q-39 0 -72 -31t-33 -68zM447 513l275 712l274 -712h-549z" />
<glyph unicode="&#xc1;" horiz-adv-x="1435" d="M59 91q0 -54 53 -83q29 -15 60 -15q34 0 61.5 18t41.5 55l110 285h673l110 -285q36 -68 103 -73q29 0 54.5 12t42 34.5t16.5 50.5q0 19 -8 39l-469 1169q-35 88 -78.5 117t-106.5 29q-64 0 -107.5 -29t-78.5 -117l-469 -1169q-8 -19 -8 -38zM447 513l275 712l274 -712 h-549zM654 1646q0 -20 13.5 -33t33.5 -13q21 0 44 18l314 248q29 23 29 56q0 38 -32.5 68.5t-70.5 30.5q-35 0 -66 -39l-250 -298q-15 -20 -15 -38z" />
<glyph unicode="&#xc2;" horiz-adv-x="1435" d="M59 91q0 -54 53 -83q29 -15 60 -15q34 0 61.5 18t41.5 55l110 285h673l110 -285q36 -68 103 -73q29 0 54.5 12t42 34.5t16.5 50.5q0 19 -8 39l-469 1169q-35 88 -78.5 117t-106.5 29q-64 0 -107.5 -29t-78.5 -117l-469 -1169q-8 -19 -8 -38zM403 1603q0 -28 17.5 -45.5 t45.5 -17.5q41 0 74 41l168 224l166 -224q30 -40 73 -40q26 0 44.5 17.5t18.5 42.5q0 22 -19 50l-189 261q-44 54 -95 54q-53 0 -95 -54l-190 -262l-6 -8t-5 -8t-3.5 -8t-2.5 -8t-1.5 -7.5t-0.5 -7.5zM447 513l275 712l274 -712h-549z" />
<glyph unicode="&#xc3;" horiz-adv-x="1435" d="M59 91q0 -54 53 -83q29 -15 60 -15q34 0 61.5 18t41.5 55l110 285h673l110 -285q36 -68 103 -73q29 0 54.5 12t42 34.5t16.5 50.5q0 19 -8 39l-469 1169q-35 88 -78.5 117t-106.5 29q-64 0 -107.5 -29t-78.5 -117l-469 -1169q-8 -19 -8 -38zM395 1631q0 -21 13.5 -32.5 t34.5 -11.5q38 0 61 33q33 47 74 47q33 0 119 -40t133 -40q44 0 84.5 20t67.5 57.5t27 83.5q0 23 -19 28q-3 27 -31 27q-25 -3 -60.5 -42t-59.5 -39q-29 0 -116.5 38.5t-142.5 38.5q-143 0 -182 -153q-3 -8 -3 -15zM447 513l275 712l274 -712h-549z" />
<glyph unicode="&#xc4;" horiz-adv-x="1435" d="M59 91q0 -54 53 -83q29 -15 60 -15q34 0 61.5 18t41.5 55l110 285h673l110 -285q36 -68 103 -73q29 0 54.5 12t42 34.5t16.5 50.5q0 19 -8 39l-469 1169q-35 88 -78.5 117t-106.5 29q-64 0 -107.5 -29t-78.5 -117l-469 -1169q-8 -19 -8 -38zM398 1704q0 -45 32.5 -76.5 t83.5 -31.5t83.5 32t32.5 76t-32.5 75.5t-83.5 31.5q-52 0 -84 -31.5t-32 -75.5zM447 513l275 712l274 -712h-549zM798 1704q0 -45 32.5 -76.5t83.5 -31.5t83.5 32t32.5 76t-32.5 75.5t-83.5 31.5q-52 0 -84 -32t-32 -75z" />
<glyph unicode="&#xc5;" horiz-adv-x="1435" d="M59 91q0 -54 53 -83q29 -15 60 -15q34 0 61.5 18t41.5 55l110 285h673l110 -285q36 -68 103 -73q29 0 54.5 12t42 34.5t16.5 50.5q0 19 -8 39l-469 1169q-35 88 -78.5 117t-106.5 29q-64 0 -107.5 -29t-78.5 -117l-469 -1169q-8 -19 -8 -38zM447 513l275 712l274 -712 h-549zM516 1776q0 -87 55.5 -140.5t144.5 -53.5t144 53.5t55 140.5q0 86 -55 139t-144 53t-144.5 -53t-55.5 -139zM609 1776q0 46 29.5 74.5t77.5 28.5t77.5 -28.5t29.5 -74.5q0 -47 -29.5 -75.5t-77.5 -28.5t-77.5 28.5t-29.5 75.5z" />
<glyph unicode="&#xc6;" horiz-adv-x="1970" d="M54 81q0 -36 28 -58.5t66 -22.5q74 0 109 71l183 291h657l49 -291q10 -71 112 -71h590q40 1 60.5 24t20.5 55q0 37 -26.5 66.5t-70.5 29.5h-482l-76 473h524q39 0 60 23t21 56q0 37 -26 66t-70 29h-533l-69 436h650q40 0 60.5 23t20.5 56q0 37 -26.5 66.5t-70.5 29.5 l-822 -1q-73 0 -126 -35.5t-111 -144.5l-686 -1117q-16 -28 -16 -54zM522 515l439 767h3l114 -767h-556z" />
<glyph unicode="&#xc7;" horiz-adv-x="1367" d="M118 715q0 -211 80 -378t233 -263t354 -96q233 0 405 109q51 33 51 84q0 35 -24 61.5t-58 26.5q-20 0 -40 -11q-52 -28 -86.5 -44t-92 -30.5t-117.5 -14.5q-117 0 -207 41.5t-146 117t-84 176.5t-28 224t28 224.5t83 177.5t143 118.5t202 42.5q45 0 85 -5t73 -15.5 t52 -17.5t46 -20.5l31 -15.5q8 -4 16.5 -5.5t16.5 -1.5q23 0 43.5 13t32.5 34.5t12 44.5t-13 43.5t-40 34.5q-171 92 -363 92q-205 0 -362.5 -96.5t-241.5 -265.5t-84 -385zM552 -325q0 -35 72 -56t162 -21q84 0 144.5 40t61.5 114q0 147 -181 149q-5 0 -17.5 -0.5 t-19.5 -0.5l38 112h-73l-48 -131q-5 -13 -5 -21q0 -33 42 -33q6 0 18 2q44 0 75.5 -17.5t31.5 -54.5q0 -40 -22.5 -60.5t-75.5 -20.5q-61 0 -159 34q-7 3 -12 3q-14 0 -23 -11.5t-9 -26.5z" />
<glyph unicode="&#xc8;" horiz-adv-x="1238" d="M175 110q0 -43 34.5 -76.5t77.5 -33.5h756q42 0 65 27t23 62q0 36 -23 63.5t-65 27.5h-641v467h581q42 0 65.5 26.5t23.5 61.5q0 36 -23 62t-66 26h-581v429h617q41 0 64 27.5t23 63.5t-23 63t-64 27h-736q-45 0 -76.5 -33t-31.5 -77v-1213zM272 1914q0 -30 26 -51 l314 -249q27 -22 51 -22q19 0 32 14t13 34q0 15 -15 37l-248 295q-33 41 -68 41q-39 0 -72 -31t-33 -68z" />
<glyph unicode="&#xc9;" horiz-adv-x="1238" d="M175 110q0 -43 34.5 -76.5t77.5 -33.5h756q42 0 65 27t23 62q0 36 -23 63.5t-65 27.5h-641v467h581q42 0 65.5 26.5t23.5 61.5q0 36 -23 62t-66 26h-581v429h617q41 0 64 27.5t23 63.5t-23 63t-64 27h-736q-45 0 -76.5 -33t-31.5 -77v-1213zM589 1646q0 -20 13.5 -33 t33.5 -13q21 0 44 18l314 248q29 23 29 56q0 38 -32.5 68.5t-70.5 30.5q-35 0 -66 -39l-250 -298q-15 -20 -15 -38z" />
<glyph unicode="&#xca;" horiz-adv-x="1238" d="M175 110q0 -43 34.5 -76.5t77.5 -33.5h756q42 0 65 27t23 62q0 36 -23 63.5t-65 27.5h-641v467h581q42 0 65.5 26.5t23.5 61.5q0 36 -23 62t-66 26h-581v429h617q41 0 64 27.5t23 63.5t-23 63t-64 27h-736q-45 0 -76.5 -33t-31.5 -77v-1213zM338 1603q0 -28 17.5 -45.5 t45.5 -17.5q41 0 74 41l168 224l166 -224q30 -40 73 -40q26 0 44.5 17.5t18.5 42.5q0 22 -19 50l-189 261q-44 54 -95 54q-53 0 -95 -54l-190 -262l-6 -8t-5 -8t-3.5 -8t-2.5 -8t-1.5 -7.5t-0.5 -7.5z" />
<glyph unicode="&#xcb;" horiz-adv-x="1238" d="M175 110q0 -43 34.5 -76.5t77.5 -33.5h756q42 0 65 27t23 62q0 36 -23 63.5t-65 27.5h-641v467h581q42 0 65.5 26.5t23.5 61.5q0 36 -23 62t-66 26h-581v429h617q41 0 64 27.5t23 63.5t-23 63t-64 27h-736q-45 0 -76.5 -33t-31.5 -77v-1213zM333 1704q0 -45 32.5 -76.5 t83.5 -31.5t83.5 32t32.5 76t-32.5 75.5t-83.5 31.5q-52 0 -84 -31.5t-32 -75.5zM733 1704q0 -45 32.5 -76.5t83.5 -31.5t83.5 32t32.5 76t-32.5 75.5t-83.5 31.5q-52 0 -84 -32t-32 -75z" />
<glyph unicode="&#xcc;" horiz-adv-x="619" d="M-63 1914q0 -30 26 -51l314 -249q27 -22 51 -22q19 0 32 14t13 34q0 15 -15 37l-248 295q-33 41 -68 41q-39 0 -72 -31t-33 -68zM196 110q0 -51 33 -80t79 -29q47 0 81 28.5t34 80.5v1214q0 52 -33.5 81t-79.5 29q-47 0 -80.5 -29t-33.5 -81v-1214z" />
<glyph unicode="&#xcd;" horiz-adv-x="619" d="M196 110q0 -51 33 -80t79 -29q47 0 81 28.5t34 80.5v1214q0 52 -33.5 81t-79.5 29q-47 0 -80.5 -29t-33.5 -81v-1214zM254 1646q0 -20 13.5 -33t33.5 -13q21 0 44 18l314 248q29 23 29 56q0 38 -32.5 68.5t-70.5 30.5q-35 0 -66 -39l-250 -298q-15 -20 -15 -38z" />
<glyph unicode="&#xce;" horiz-adv-x="619" d="M3 1603q0 -28 17.5 -45.5t45.5 -17.5q41 0 74 41l168 224l166 -224q30 -40 73 -40q26 0 44.5 17.5t18.5 42.5q0 22 -19 50l-189 261q-44 54 -95 54q-53 0 -95 -54l-190 -262l-6 -8t-5 -8t-3.5 -8t-2.5 -8t-1.5 -7.5t-0.5 -7.5zM196 110q0 -51 33 -80t79 -29q47 0 81 28.5 t34 80.5v1214q0 52 -33.5 81t-79.5 29q-47 0 -80.5 -29t-33.5 -81v-1214z" />
<glyph unicode="&#xcf;" horiz-adv-x="619" d="M-2 1704q0 -45 32.5 -76.5t83.5 -31.5t83.5 32t32.5 76t-32.5 75.5t-83.5 31.5q-52 0 -84 -31.5t-32 -75.5zM196 110q0 -51 33 -80t79 -29q47 0 81 28.5t34 80.5v1214q0 52 -33.5 81t-79.5 29q-47 0 -80.5 -29t-33.5 -81v-1214zM398 1704q0 -45 32.5 -76.5t83.5 -31.5 t83.5 32t32.5 76t-32.5 75.5t-83.5 31.5q-52 0 -84 -32t-32 -75z" />
<glyph unicode="&#xd0;" horiz-adv-x="1511" d="M-8 726q0 -34 24.5 -56t62.5 -22h420q37 0 61.5 22t24.5 56q0 35 -24 57.5t-62 22.5h-420q-38 0 -62.5 -22.5t-24.5 -57.5zM175 112q0 -46 33.5 -78t80.5 -32h356q362 0 560 183t198 528q0 351 -196 536t-575 185h-343q-47 0 -80.5 -32.5t-33.5 -78.5v-1211zM402 182 v1072h224q281 0 411.5 -123.5t130.5 -413.5q0 -137 -26 -234t-85 -166t-157.5 -102t-241.5 -33h-256z" />
<glyph unicode="&#xd1;" horiz-adv-x="1530" d="M172 98q0 -47 31 -72.5t73 -25.5t73.5 26t31.5 72v991l706 -1014q25 -35 65 -55t75 -20q55 0 93.5 38t38.5 103v1193q0 47 -31 73t-73 26t-73 -26.5t-31 -72.5v-1001l-708 1021q-27 38 -67 58t-78 20q-54 0 -90 -38t-36 -103v-1193zM495 1635q0 -21 13.5 -32.5 t34.5 -11.5q38 0 61 33q33 47 74 47q33 0 119 -40t133 -40q44 0 84.5 20t67.5 57.5t27 83.5q0 23 -19 28q-3 27 -31 27q-25 -3 -60.5 -42t-59.5 -39q-29 0 -116.5 38.5t-142.5 38.5q-143 0 -182 -153q-3 -8 -3 -15z" />
<glyph unicode="&#xd2;" horiz-adv-x="1607" d="M115 720q0 -224 81 -391t236.5 -259t368.5 -92q321 0 502.5 201t181.5 541t-181.5 541t-502.5 201q-213 0 -368.5 -92t-236.5 -259t-81 -391zM356 720q0 259 115 410t330 151q214 0 329 -151t115 -410q0 -260 -115 -410.5t-329 -150.5t-329.5 150.5t-115.5 410.5z M425 1918q0 -30 26 -51l314 -249q27 -22 51 -22q19 0 32 14t13 34q0 15 -15 37l-248 295q-33 41 -68 41q-39 0 -72 -31t-33 -68z" />
<glyph unicode="&#xd3;" horiz-adv-x="1607" d="M115 720q0 -224 81 -391t236.5 -259t368.5 -92q321 0 502.5 201t181.5 541t-181.5 541t-502.5 201q-213 0 -368.5 -92t-236.5 -259t-81 -391zM356 720q0 259 115 410t330 151q214 0 329 -151t115 -410q0 -260 -115 -410.5t-329 -150.5t-329.5 150.5t-115.5 410.5z M742 1650q0 -20 13.5 -33t33.5 -13q21 0 44 18l314 248q29 23 29 56q0 38 -32.5 68.5t-70.5 30.5q-35 0 -66 -39l-250 -298q-15 -20 -15 -38z" />
<glyph unicode="&#xd4;" horiz-adv-x="1607" d="M115 720q0 -224 81 -391t236.5 -259t368.5 -92q321 0 502.5 201t181.5 541t-181.5 541t-502.5 201q-213 0 -368.5 -92t-236.5 -259t-81 -391zM356 720q0 259 115 410t330 151q214 0 329 -151t115 -410q0 -260 -115 -410.5t-329 -150.5t-329.5 150.5t-115.5 410.5z M491 1607q0 -28 17.5 -45.5t45.5 -17.5q41 0 74 41l168 224l166 -224q30 -40 73 -40q26 0 44.5 17.5t18.5 42.5q0 22 -19 50l-189 261q-44 54 -95 54q-53 0 -95 -54l-190 -262l-6 -8t-5 -8t-3.5 -8t-2.5 -8t-1.5 -7.5t-0.5 -7.5z" />
<glyph unicode="&#xd5;" horiz-adv-x="1607" d="M115 720q0 -224 81 -391t236.5 -259t368.5 -92q321 0 502.5 201t181.5 541t-181.5 541t-502.5 201q-213 0 -368.5 -92t-236.5 -259t-81 -391zM356 720q0 259 115 410t330 151q214 0 329 -151t115 -410q0 -260 -115 -410.5t-329 -150.5t-329.5 150.5t-115.5 410.5z M483 1635q0 -21 13.5 -32.5t34.5 -11.5q38 0 61 33q33 47 74 47q33 0 119 -40t133 -40q44 0 84.5 20t67.5 57.5t27 83.5q0 23 -19 28q-3 27 -31 27q-25 -3 -60.5 -42t-59.5 -39q-29 0 -116.5 38.5t-142.5 38.5q-143 0 -182 -153q-3 -8 -3 -15z" />
<glyph unicode="&#xd6;" horiz-adv-x="1607" d="M115 720q0 -224 81 -391t236.5 -259t368.5 -92q321 0 502.5 201t181.5 541t-181.5 541t-502.5 201q-213 0 -368.5 -92t-236.5 -259t-81 -391zM356 720q0 259 115 410t330 151q214 0 329 -151t115 -410q0 -260 -115 -410.5t-329 -150.5t-329.5 150.5t-115.5 410.5z M486 1708q0 -45 32.5 -76.5t83.5 -31.5t83.5 32t32.5 76t-32.5 75.5t-83.5 31.5q-52 0 -84 -31.5t-32 -75.5zM886 1708q0 -45 32.5 -76.5t83.5 -31.5t83.5 32t32.5 76t-32.5 75.5t-83.5 31.5q-52 0 -84 -32t-32 -75z" />
<glyph unicode="&#xd8;" horiz-adv-x="1601" d="M115 720q0 -191 60 -342t173 -248l-110 -165q-18 -25 -18 -51q0 -27 19.5 -45t46.5 -18q36 0 69 48l105 156q148 -77 341 -77q321 0 502.5 201t181.5 541q0 177 -51 319.5t-148 240.5l109 162q23 35 23 65q0 28 -20 46t-47 18q-41 0 -65 -38l-111 -166q-158 95 -374 95 q-213 0 -368.5 -92t-236.5 -259t-81 -391zM356 720q0 259 115 410t330 151q78 0 143.5 -21t117.5 -62l-592 -886q-114 148 -114 408zM571 219l587 871q87 -144 87 -370q0 -260 -115 -410.5t-329 -150.5q-67 0 -124.5 15.5t-105.5 44.5z" />
<glyph unicode="&#xd9;" horiz-adv-x="1501" d="M177 498q0 -103 30.5 -188.5t83.5 -146.5t125.5 -103t157 -62t177.5 -20q118 0 220.5 32.5t182.5 95t126.5 163.5t46.5 229v830q0 52 -33.5 80.5t-79.5 28.5q-47 0 -81 -29t-34 -80v-824q0 -70 -19.5 -128t-53 -97.5t-78 -67t-94.5 -40t-103 -12.5q-67 0 -127.5 20.5 t-110 61t-79 108.5t-29.5 155v824q0 52 -34 80.5t-80 28.5q-47 0 -80.5 -29t-33.5 -80v-830zM381 1914q0 -30 26 -51l314 -249q27 -22 51 -22q19 0 32 14t13 34q0 15 -15 37l-248 295q-33 41 -68 41q-39 0 -72 -31t-33 -68z" />
<glyph unicode="&#xda;" horiz-adv-x="1501" d="M177 498q0 -103 30.5 -188.5t83.5 -146.5t125.5 -103t157 -62t177.5 -20q118 0 220.5 32.5t182.5 95t126.5 163.5t46.5 229v830q0 52 -33.5 80.5t-79.5 28.5q-47 0 -81 -29t-34 -80v-824q0 -70 -19.5 -128t-53 -97.5t-78 -67t-94.5 -40t-103 -12.5q-67 0 -127.5 20.5 t-110 61t-79 108.5t-29.5 155v824q0 52 -34 80.5t-80 28.5q-47 0 -80.5 -29t-33.5 -80v-830zM698 1646q0 -20 13.5 -33t33.5 -13q21 0 44 18l314 248q29 23 29 56q0 38 -32.5 68.5t-70.5 30.5q-35 0 -66 -39l-250 -298q-15 -20 -15 -38z" />
<glyph unicode="&#xdb;" horiz-adv-x="1501" d="M177 498q0 -103 30.5 -188.5t83.5 -146.5t125.5 -103t157 -62t177.5 -20q118 0 220.5 32.5t182.5 95t126.5 163.5t46.5 229v830q0 52 -33.5 80.5t-79.5 28.5q-47 0 -81 -29t-34 -80v-824q0 -70 -19.5 -128t-53 -97.5t-78 -67t-94.5 -40t-103 -12.5q-67 0 -127.5 20.5 t-110 61t-79 108.5t-29.5 155v824q0 52 -34 80.5t-80 28.5q-47 0 -80.5 -29t-33.5 -80v-830zM447 1603q0 -28 17.5 -45.5t45.5 -17.5q41 0 74 41l168 224l166 -224q30 -40 73 -40q26 0 44.5 17.5t18.5 42.5q0 22 -19 50l-189 261q-44 54 -95 54q-53 0 -95 -54l-190 -262 l-6 -8t-5 -8t-3.5 -8t-2.5 -8t-1.5 -7.5t-0.5 -7.5z" />
<glyph unicode="&#xdc;" horiz-adv-x="1501" d="M177 498q0 -103 30.5 -188.5t83.5 -146.5t125.5 -103t157 -62t177.5 -20q118 0 220.5 32.5t182.5 95t126.5 163.5t46.5 229v830q0 52 -33.5 80.5t-79.5 28.5q-47 0 -81 -29t-34 -80v-824q0 -70 -19.5 -128t-53 -97.5t-78 -67t-94.5 -40t-103 -12.5q-67 0 -127.5 20.5 t-110 61t-79 108.5t-29.5 155v824q0 52 -34 80.5t-80 28.5q-47 0 -80.5 -29t-33.5 -80v-830zM442 1704q0 -45 32.5 -76.5t83.5 -31.5t83.5 32t32.5 76t-32.5 75.5t-83.5 31.5q-52 0 -84 -31.5t-32 -75.5zM842 1704q0 -45 32.5 -76.5t83.5 -31.5t83.5 32t32.5 76t-32.5 75.5 t-83.5 31.5q-52 0 -84 -32t-32 -75z" />
<glyph unicode="&#xdd;" horiz-adv-x="1292" d="M72 1328q0 -6 1 -12t3 -12t5 -12.5t7 -12.5l443 -688v-481q0 -52 33.5 -80.5t79.5 -28.5q30 0 55 11.5t42 37t17 60.5v489l446 696q17 27 17 53q0 18 -8 34t-21.5 27.5t-31 18t-35.5 6.5q-56 0 -87 -51l-381 -615l-375 606q-35 56 -95 56q-12 0 -24.5 -2.5t-23.5 -7.5 t-21.5 -12t-18.5 -16t-14 -19t-9.5 -21.5t-3.5 -23.5zM608 1646q0 -20 13.5 -33t33.5 -13q21 0 44 18l314 248q29 23 29 56q0 38 -32.5 68.5t-70.5 30.5q-35 0 -66 -39l-250 -298q-15 -20 -15 -38z" />
<glyph unicode="&#xde;" horiz-adv-x="1308" d="M184 108q0 -52 34 -80.5t80 -28.5q47 0 81 28.5t34 80.5v275h254q120 0 219.5 21.5t182.5 68.5t130 131t47 200q0 91 -30.5 163.5t-82.5 120t-125 78.5t-153 44t-171 13h-271v111q0 51 -34.5 80t-80.5 29t-80 -28.5t-34 -80.5v-1226zM413 547v512h268q332 0 332 -255 q0 -257 -339 -257h-261z" />
<glyph unicode="&#xdf;" horiz-adv-x="1315" d="M156 97q0 -46 29.5 -71.5t70.5 -25.5t71.5 26t30.5 71v868q1 72 14.5 132.5t42.5 113.5t82 83.5t126 30.5q92 0 159.5 -45.5t67.5 -129.5q0 -37 -24.5 -72.5t-60 -65.5t-70.5 -62.5t-59.5 -76t-24.5 -92.5q0 -52 24 -96t62.5 -75t84.5 -58t92.5 -53t85 -53t62.5 -63.5 t24 -79.5q0 -93 -50 -139.5t-138 -46.5q-109 0 -174 101q-23 34 -60 34q-31 0 -56 -22.5t-25 -54.5q0 -19 10 -38q40 -81 121.5 -122t191.5 -41q103 0 188 38.5t138 117t53 183.5q0 64 -23.5 116t-61 86.5t-83 63.5t-90.5 52t-82.5 46t-61 53t-23.5 65q0 26 24.5 56.5 t59 61.5t69 65t59 78.5t24.5 89.5q0 99 -59.5 173t-152 109.5t-201.5 35.5q-246 0 -366.5 -125.5t-120.5 -356.5v-885z" />
<glyph unicode="&#xe0;" horiz-adv-x="1062" d="M69 272q0 -138 98 -213t254 -75q210 0 299 183v-74q0 -30 14.5 -51.5t36 -32t47.5 -10.5q40 0 70 25.5t30 70.5v564q0 182 -106 268t-290 86q-213 0 -368 -84q-17 -9 -25 -22.5t-8 -30.5q0 -9 2.5 -18t7 -17.5t11 -16t14.5 -13t17 -8.5t19 -3q13 0 25 5q52 22 83.5 34 t93.5 25.5t121 13.5q202 0 202 -202v-98q-108 0 -182.5 -2.5t-148 -10t-120 -21.5t-87.5 -36.5t-63 -55t-34.5 -77t-12.5 -103.5zM145 1470q0 -30 26 -51l314 -249q27 -22 51 -22q19 0 32 14t13 34q0 15 -15 37l-248 295q-33 41 -68 41q-39 0 -72 -31t-33 -68zM260 280 q0 40 8 68.5t30.5 49.5t53.5 33t85.5 19.5t118.5 10t160 2.5v-28q0 -139 -83 -229t-192 -90q-83 0 -132 40t-49 124z" />
<glyph unicode="&#xe1;" horiz-adv-x="1062" d="M69 272q0 -138 98 -213t254 -75q210 0 299 183v-74q0 -30 14.5 -51.5t36 -32t47.5 -10.5q40 0 70 25.5t30 70.5v564q0 182 -106 268t-290 86q-213 0 -368 -84q-17 -9 -25 -22.5t-8 -30.5q0 -9 2.5 -18t7 -17.5t11 -16t14.5 -13t17 -8.5t19 -3q13 0 25 5q52 22 83.5 34 t93.5 25.5t121 13.5q202 0 202 -202v-98q-108 0 -182.5 -2.5t-148 -10t-120 -21.5t-87.5 -36.5t-63 -55t-34.5 -77t-12.5 -103.5zM260 280q0 40 8 68.5t30.5 49.5t53.5 33t85.5 19.5t118.5 10t160 2.5v-28q0 -139 -83 -229t-192 -90q-83 0 -132 40t-49 124zM462 1202 q0 -20 13.5 -33t33.5 -13q21 0 44 18l314 248q29 23 29 56q0 38 -32.5 68.5t-70.5 30.5q-35 0 -66 -39l-250 -298q-15 -20 -15 -38z" />
<glyph unicode="&#xe2;" horiz-adv-x="1062" d="M69 272q0 -138 98 -213t254 -75q210 0 299 183v-74q0 -30 14.5 -51.5t36 -32t47.5 -10.5q40 0 70 25.5t30 70.5v564q0 182 -106 268t-290 86q-213 0 -368 -84q-17 -9 -25 -22.5t-8 -30.5q0 -9 2.5 -18t7 -17.5t11 -16t14.5 -13t17 -8.5t19 -3q13 0 25 5q52 22 83.5 34 t93.5 25.5t121 13.5q202 0 202 -202v-98q-108 0 -182.5 -2.5t-148 -10t-120 -21.5t-87.5 -36.5t-63 -55t-34.5 -77t-12.5 -103.5zM211 1159q0 -28 17.5 -45.5t45.5 -17.5q41 0 74 41l168 224l166 -224q30 -40 73 -40q26 0 44.5 17.5t18.5 42.5q0 22 -19 50l-189 261 q-44 54 -95 54q-53 0 -95 -54l-190 -262l-6 -8t-5 -8t-3.5 -8t-2.5 -8t-1.5 -7.5t-0.5 -7.5zM260 280q0 40 8 68.5t30.5 49.5t53.5 33t85.5 19.5t118.5 10t160 2.5v-28q0 -139 -83 -229t-192 -90q-83 0 -132 40t-49 124z" />
<glyph unicode="&#xe3;" horiz-adv-x="1062" d="M69 272q0 -138 98 -213t254 -75q210 0 299 183v-74q0 -30 14.5 -51.5t36 -32t47.5 -10.5q40 0 70 25.5t30 70.5v564q0 182 -106 268t-290 86q-213 0 -368 -84q-17 -9 -25 -22.5t-8 -30.5q0 -9 2.5 -18t7 -17.5t11 -16t14.5 -13t17 -8.5t19 -3q13 0 25 5q52 22 83.5 34 t93.5 25.5t121 13.5q202 0 202 -202v-98q-108 0 -182.5 -2.5t-148 -10t-120 -21.5t-87.5 -36.5t-63 -55t-34.5 -77t-12.5 -103.5zM203 1187q0 -21 13.5 -32.5t34.5 -11.5q38 0 61 33q33 47 74 47q33 0 119 -40t133 -40q44 0 84.5 20t67.5 57.5t27 83.5q0 23 -19 28 q-3 27 -31 27q-25 -3 -60.5 -42t-59.5 -39q-29 0 -116.5 38.5t-142.5 38.5q-143 0 -182 -153q-3 -8 -3 -15zM260 280q0 40 8 68.5t30.5 49.5t53.5 33t85.5 19.5t118.5 10t160 2.5v-28q0 -139 -83 -229t-192 -90q-83 0 -132 40t-49 124z" />
<glyph unicode="&#xe4;" horiz-adv-x="1062" d="M69 272q0 -138 98 -213t254 -75q210 0 299 183v-74q0 -30 14.5 -51.5t36 -32t47.5 -10.5q40 0 70 25.5t30 70.5v564q0 182 -106 268t-290 86q-213 0 -368 -84q-17 -9 -25 -22.5t-8 -30.5q0 -9 2.5 -18t7 -17.5t11 -16t14.5 -13t17 -8.5t19 -3q13 0 25 5q52 22 83.5 34 t93.5 25.5t121 13.5q202 0 202 -202v-98q-108 0 -182.5 -2.5t-148 -10t-120 -21.5t-87.5 -36.5t-63 -55t-34.5 -77t-12.5 -103.5zM206 1260q0 -45 32.5 -76.5t83.5 -31.5t83.5 32t32.5 76t-32.5 75.5t-83.5 31.5q-52 0 -84 -31.5t-32 -75.5zM260 280q0 40 8 68.5t30.5 49.5 t53.5 33t85.5 19.5t118.5 10t160 2.5v-28q0 -139 -83 -229t-192 -90q-83 0 -132 40t-49 124zM606 1260q0 -45 32.5 -76.5t83.5 -31.5t83.5 32t32.5 76t-32.5 75.5t-83.5 31.5q-52 0 -84 -32t-32 -75z" />
<glyph unicode="&#xe5;" horiz-adv-x="1062" d="M69 272q0 -138 98 -213t254 -75q210 0 299 183v-74q0 -30 14.5 -51.5t36 -32t47.5 -10.5q40 0 70 25.5t30 70.5v564q0 182 -106 268t-290 86q-213 0 -368 -84q-17 -9 -25 -22.5t-8 -30.5q0 -9 2.5 -18t7 -17.5t11 -16t14.5 -13t17 -8.5t19 -3q13 0 25 5q52 22 83.5 34 t93.5 25.5t121 13.5q202 0 202 -202v-98q-108 0 -182.5 -2.5t-148 -10t-120 -21.5t-87.5 -36.5t-63 -55t-34.5 -77t-12.5 -103.5zM260 280q0 40 8 68.5t30.5 49.5t53.5 33t85.5 19.5t118.5 10t160 2.5v-28q0 -139 -83 -229t-192 -90q-83 0 -132 40t-49 124zM324 1332 q0 -87 55.5 -140.5t144.5 -53.5t144 53.5t55 140.5q0 86 -55 139t-144 53t-144.5 -53t-55.5 -139zM417 1332q0 46 29.5 74.5t77.5 28.5t77.5 -28.5t29.5 -74.5q0 -47 -29.5 -75.5t-77.5 -28.5t-77.5 28.5t-29.5 75.5z" />
<glyph unicode="&#xe6;" horiz-adv-x="1719" d="M66 275q0 -140 98.5 -220.5t258.5 -80.5q128 0 236.5 53t161.5 161q54 -100 142 -157t207 -57q99 0 193 26.5t153.5 71.5t59.5 94q0 25 -15.5 42.5t-39.5 17.5q-18 0 -37 -12q-148 -90 -269 -90q-145 0 -212.5 91t-69.5 245h617q32 0 49.5 20t17.5 48q-2 108 -29 197 t-78.5 156.5t-134 105t-189.5 37.5q-209 0 -334 -171q-78 170 -322 170q-276 0 -382 -135q-16 -19 -16 -40q0 -26 18.5 -45.5t45.5 -19.5q16 0 32 9q73 40 137 60.5t156 20.5q102 0 156.5 -43.5t54.5 -145.5v-74q-66 2 -107 2q-559 0 -559 -337zM259 285q0 31 9 57t22 45 t37.5 34t44.5 25t55.5 17t58 11t64 6.5t62 3t63 1t56.5 0.5v-86q-5 -139 -79.5 -214.5t-190.5 -77.5q-89 2 -145.5 47.5t-56.5 130.5zM934 584q10 132 75.5 217.5t178.5 85.5t174 -81t70 -222h-498z" />
<glyph unicode="&#xe7;" horiz-adv-x="981" d="M83 499q0 -143 57 -259.5t168 -186t257 -69.5q199 0 305 88q18 15 26.5 32t8.5 33q0 12 -4.5 23.5t-13 19.5t-19.5 12.5t-24 4.5q-11 0 -22.5 -3.5t-22.5 -11.5q-87 -61 -219 -61q-95 0 -163.5 52t-100.5 136t-32 189q0 172 83.5 275.5t222.5 103.5q106 0 193 -53 q21 -12 43 -12q18 0 32.5 7.5t23 21t8.5 29.5q0 35 -38 63q-44 33 -115.5 56.5t-159.5 23.5q-147 0 -260.5 -69.5t-173.5 -186t-60 -258.5zM324 -325q0 -35 72 -56t162 -21q84 0 144.5 40t61.5 114q0 147 -181 149q-5 0 -17.5 -0.5t-19.5 -0.5l38 112h-73l-48 -131 q-5 -13 -5 -21q0 -33 42 -33q6 0 18 2q44 0 75.5 -17.5t31.5 -54.5q0 -40 -22.5 -60.5t-75.5 -20.5q-61 0 -159 34q-7 3 -12 3q-14 0 -23 -11.5t-9 -26.5z" />
<glyph unicode="&#xe8;" horiz-adv-x="1138" d="M86 505q0 -240 139.5 -379.5t361.5 -141.5q219 0 374 137q16 13 23.5 29t7.5 33q0 18 -8.5 34t-23 25.5t-31.5 9.5q-10 0 -19.5 -3.5t-19.5 -10.5q-71 -52 -139 -82.5t-150 -30.5q-138 2 -223 83t-89 247h670q32 0 48 21t16 54q-2 100 -29.5 184.5t-80 152.5t-141 107 t-203.5 39q-113 0 -205.5 -41.5t-152.5 -112t-92.5 -161.5t-32.5 -193zM212 1477q0 -30 26 -51l314 -249q27 -22 51 -22q19 0 32 14t13 34q0 15 -15 37l-248 295q-33 41 -68 41q-39 0 -72 -31t-33 -68zM291 577q5 57 24.5 109t54 95.5t88.5 69t120 25.5q128 0 195 -84.5 t76 -214.5h-558z" />
<glyph unicode="&#xe9;" horiz-adv-x="1138" d="M86 505q0 -240 139.5 -379.5t361.5 -141.5q219 0 374 137q16 13 23.5 29t7.5 33q0 18 -8.5 34t-23 25.5t-31.5 9.5q-10 0 -19.5 -3.5t-19.5 -10.5q-71 -52 -139 -82.5t-150 -30.5q-138 2 -223 83t-89 247h670q32 0 48 21t16 54q-2 100 -29.5 184.5t-80 152.5t-141 107 t-203.5 39q-113 0 -205.5 -41.5t-152.5 -112t-92.5 -161.5t-32.5 -193zM291 577q5 57 24.5 109t54 95.5t88.5 69t120 25.5q128 0 195 -84.5t76 -214.5h-558zM529 1209q0 -20 13.5 -33t33.5 -13q21 0 44 18l314 248q29 23 29 56q0 38 -32.5 68.5t-70.5 30.5q-35 0 -66 -39 l-250 -298q-15 -20 -15 -38z" />
<glyph unicode="&#xea;" horiz-adv-x="1138" d="M86 505q0 -240 139.5 -379.5t361.5 -141.5q219 0 374 137q16 13 23.5 29t7.5 33q0 18 -8.5 34t-23 25.5t-31.5 9.5q-10 0 -19.5 -3.5t-19.5 -10.5q-71 -52 -139 -82.5t-150 -30.5q-138 2 -223 83t-89 247h670q32 0 48 21t16 54q-2 100 -29.5 184.5t-80 152.5t-141 107 t-203.5 39q-113 0 -205.5 -41.5t-152.5 -112t-92.5 -161.5t-32.5 -193zM278 1166q0 -28 17.5 -45.5t45.5 -17.5q41 0 74 41l168 224l166 -224q30 -40 73 -40q26 0 44.5 17.5t18.5 42.5q0 22 -19 50l-189 261q-44 54 -95 54q-53 0 -95 -54l-190 -262l-6 -8t-5 -8t-3.5 -8 t-2.5 -8t-1.5 -7.5t-0.5 -7.5zM291 577q5 57 24.5 109t54 95.5t88.5 69t120 25.5q128 0 195 -84.5t76 -214.5h-558z" />
<glyph unicode="&#xeb;" horiz-adv-x="1138" d="M86 505q0 -240 139.5 -379.5t361.5 -141.5q219 0 374 137q16 13 23.5 29t7.5 33q0 18 -8.5 34t-23 25.5t-31.5 9.5q-10 0 -19.5 -3.5t-19.5 -10.5q-71 -52 -139 -82.5t-150 -30.5q-138 2 -223 83t-89 247h670q32 0 48 21t16 54q-2 100 -29.5 184.5t-80 152.5t-141 107 t-203.5 39q-113 0 -205.5 -41.5t-152.5 -112t-92.5 -161.5t-32.5 -193zM273 1267q0 -45 32.5 -76.5t83.5 -31.5t83.5 32t32.5 76t-32.5 75.5t-83.5 31.5q-52 0 -84 -31.5t-32 -75.5zM291 577q5 57 24.5 109t54 95.5t88.5 69t120 25.5q128 0 195 -84.5t76 -214.5h-558z M673 1267q0 -45 32.5 -76.5t83.5 -31.5t83.5 32t32.5 76t-32.5 75.5t-83.5 31.5q-52 0 -84 -32t-32 -75z" />
<glyph unicode="&#xec;" horiz-adv-x="496" d="M-130 1467q0 -30 26 -51l314 -249q27 -22 51 -22q19 0 32 14t13 34q0 15 -15 37l-248 295q-33 41 -68 41q-39 0 -72 -31t-33 -68zM146 101q0 -49 29 -75t71 -26q41 0 71.5 27t30.5 74v795q0 48 -29.5 74.5t-70.5 26.5t-71.5 -26.5t-30.5 -74.5v-795z" />
<glyph unicode="&#xed;" horiz-adv-x="496" d="M146 101q0 -49 29 -75t71 -26q41 0 71.5 27t30.5 74v795q0 48 -29.5 74.5t-70.5 26.5t-71.5 -26.5t-30.5 -74.5v-795zM187 1199q0 -20 13.5 -33t33.5 -13q21 0 44 18l314 248q29 23 29 56q0 38 -32.5 68.5t-70.5 30.5q-35 0 -66 -39l-250 -298q-15 -20 -15 -38z" />
<glyph unicode="&#xee;" horiz-adv-x="496" d="M-64 1156q0 -28 17.5 -45.5t45.5 -17.5q41 0 74 41l168 224l166 -224q30 -40 73 -40q26 0 44.5 17.5t18.5 42.5q0 22 -19 50l-189 261q-44 54 -95 54q-53 0 -95 -54l-190 -262l-6 -8t-5 -8t-3.5 -8t-2.5 -8t-1.5 -7.5t-0.5 -7.5zM146 101q0 -49 29 -75t71 -26 q41 0 71.5 27t30.5 74v795q0 48 -29.5 74.5t-70.5 26.5t-71.5 -26.5t-30.5 -74.5v-795z" />
<glyph unicode="&#xef;" horiz-adv-x="496" d="M-69 1257q0 -45 32.5 -76.5t83.5 -31.5t83.5 32t32.5 76t-32.5 75.5t-83.5 31.5q-52 0 -84 -31.5t-32 -75.5zM146 101q0 -49 29 -75t71 -26q41 0 71.5 27t30.5 74v795q0 48 -29.5 74.5t-70.5 26.5t-71.5 -26.5t-30.5 -74.5v-795zM331 1257q0 -45 32.5 -76.5t83.5 -31.5 t83.5 32t32.5 76t-32.5 75.5t-83.5 31.5q-52 0 -84 -32t-32 -75z" />
<glyph unicode="&#xf0;" horiz-adv-x="1203" d="M85 445q0 -211 133 -345t357 -134q119 0 212.5 35t155 95.5t102 146t57.5 181t17 205.5q0 216 -52 427h132q32 0 49.5 19.5t17.5 46.5q0 28 -17 47t-50 19h-176q-39 96 -80.5 171t-94 129t-99.5 54q-40 0 -68.5 -27t-28.5 -63q0 -30 21 -57q89 -114 127 -207h-179 q-32 0 -49.5 -19.5t-17.5 -47.5q0 -27 17.5 -46t49.5 -19h225q7 -20 13 -43t10.5 -46t8 -47.5t6.5 -48.5t4.5 -47.5t2.5 -45t1 -40.5v-21t-1 -19q-49 99 -144 149t-216 50q-205 0 -325.5 -123.5t-120.5 -328.5zM303 435q0 138 66 227t197 89q144 0 223.5 -89t79.5 -234 q0 -125 -80 -211t-202 -86q-134 0 -209 83t-75 221z" />
<glyph unicode="&#xf1;" d="M146 96q0 -45 29.5 -70.5t70.5 -25.5t71 25.5t30 70.5v475q4 140 82 222.5t189 82.5q99 0 157 -63t58 -183v-534q0 -45 29.5 -70.5t70.5 -25.5t71.5 25.5t30.5 70.5v532q0 98 -28 173.5t-78.5 121t-115 68t-141.5 22.5q-114 0 -199.5 -46t-125.5 -133v71q0 43 -29.5 67 t-70.5 24t-71 -24.5t-30 -69.5v-806zM302 1184q0 -21 13.5 -32.5t34.5 -11.5q38 0 61 33q33 47 74 47q33 0 119 -40t133 -40q44 0 84.5 20t67.5 57.5t27 83.5q0 23 -19 28q-3 27 -31 27q-25 -3 -60.5 -42t-59.5 -39q-29 0 -116.5 38.5t-142.5 38.5q-143 0 -182 -153 q-3 -8 -3 -15z" />
<glyph unicode="&#xf2;" horiz-adv-x="1177" d="M83 498q0 -105 33 -197t95 -163t160 -112.5t219 -41.5t219 41.5t160 112.5t95 163.5t33 196.5q0 144 -57.5 259.5t-174 185.5t-275.5 70q-121 0 -218.5 -41t-160 -112t-95.5 -163.5t-33 -198.5zM210 1474q0 -30 26 -51l314 -249q27 -22 51 -22q19 0 32 14t13 34 q0 15 -15 37l-248 295q-33 41 -68 41q-39 0 -72 -31t-33 -68zM282 498q0 176 81.5 277t226.5 101q144 0 226 -101.5t82 -276.5q0 -176 -81 -276t-227 -101q-144 0 -226 101t-82 276z" />
<glyph unicode="&#xf3;" horiz-adv-x="1177" d="M83 498q0 -105 33 -197t95 -163t160 -112.5t219 -41.5t219 41.5t160 112.5t95 163.5t33 196.5q0 144 -57.5 259.5t-174 185.5t-275.5 70q-121 0 -218.5 -41t-160 -112t-95.5 -163.5t-33 -198.5zM282 498q0 176 81.5 277t226.5 101q144 0 226 -101.5t82 -276.5 q0 -176 -81 -276t-227 -101q-144 0 -226 101t-82 276zM527 1206q0 -20 13.5 -33t33.5 -13q21 0 44 18l314 248q29 23 29 56q0 38 -32.5 68.5t-70.5 30.5q-35 0 -66 -39l-250 -298q-15 -20 -15 -38z" />
<glyph unicode="&#xf4;" horiz-adv-x="1177" d="M83 498q0 -105 33 -197t95 -163t160 -112.5t219 -41.5t219 41.5t160 112.5t95 163.5t33 196.5q0 144 -57.5 259.5t-174 185.5t-275.5 70q-121 0 -218.5 -41t-160 -112t-95.5 -163.5t-33 -198.5zM276 1163q0 -28 17.5 -45.5t45.5 -17.5q41 0 74 41l168 224l166 -224 q30 -40 73 -40q26 0 44.5 17.5t18.5 42.5q0 22 -19 50l-189 261q-44 54 -95 54q-53 0 -95 -54l-190 -262l-6 -8t-5 -8t-3.5 -8t-2.5 -8t-1.5 -7.5t-0.5 -7.5zM282 498q0 176 81.5 277t226.5 101q144 0 226 -101.5t82 -276.5q0 -176 -81 -276t-227 -101q-144 0 -226 101 t-82 276z" />
<glyph unicode="&#xf5;" horiz-adv-x="1177" d="M83 498q0 -105 33 -197t95 -163t160 -112.5t219 -41.5t219 41.5t160 112.5t95 163.5t33 196.5q0 144 -57.5 259.5t-174 185.5t-275.5 70q-121 0 -218.5 -41t-160 -112t-95.5 -163.5t-33 -198.5zM268 1191q0 -21 13.5 -32.5t34.5 -11.5q38 0 61 33q33 47 74 47 q33 0 119 -40t133 -40q44 0 84.5 20t67.5 57.5t27 83.5q0 23 -19 28q-3 27 -31 27q-25 -3 -60.5 -42t-59.5 -39q-29 0 -116.5 38.5t-142.5 38.5q-143 0 -182 -153q-3 -8 -3 -15zM282 498q0 176 81.5 277t226.5 101q144 0 226 -101.5t82 -276.5q0 -176 -81 -276t-227 -101 q-144 0 -226 101t-82 276z" />
<glyph unicode="&#xf6;" horiz-adv-x="1177" d="M83 498q0 -105 33 -197t95 -163t160 -112.5t219 -41.5t219 41.5t160 112.5t95 163.5t33 196.5q0 144 -57.5 259.5t-174 185.5t-275.5 70q-121 0 -218.5 -41t-160 -112t-95.5 -163.5t-33 -198.5zM271 1264q0 -45 32.5 -76.5t83.5 -31.5t83.5 32t32.5 76t-32.5 75.5 t-83.5 31.5q-52 0 -84 -31.5t-32 -75.5zM282 498q0 176 81.5 277t226.5 101q144 0 226 -101.5t82 -276.5q0 -176 -81 -276t-227 -101q-144 0 -226 101t-82 276zM671 1264q0 -45 32.5 -76.5t83.5 -31.5t83.5 32t32.5 76t-32.5 75.5t-83.5 31.5q-52 0 -84 -32t-32 -75z" />
<glyph unicode="&#xf7;" horiz-adv-x="1326" d="M138 515q0 -32 19 -54.5t54 -22.5h913q34 0 53 22.5t19 54.5t-19 55t-53 23h-913q-35 0 -54 -23t-19 -55zM551 85q0 -43 30.5 -74t82.5 -31q51 0 81.5 31t30.5 74q0 42 -30.5 73t-81.5 31t-82 -31t-31 -73zM551 946q0 -43 30.5 -73.5t82.5 -30.5q51 0 81.5 30.5 t30.5 73.5t-30.5 73.5t-81.5 30.5t-82 -30.5t-31 -73.5z" />
<glyph unicode="&#xf8;" horiz-adv-x="1177" d="M83 498q0 -148 64.5 -269t184.5 -185l-52 -122q-10 -22 -10 -38q0 -28 20 -45.5t47 -17.5q42 0 60 42l58 135q64 -14 135 -14q121 0 219 41.5t160 112.5t95 163.5t33 196.5q0 72 -15 138t-44 123t-73.5 104.5t-100.5 80.5l56 130q14 30 14 46q0 28 -20 45t-47 17 q-47 0 -64 -42l-62 -145q-71 18 -151 18q-121 0 -218.5 -41t-160 -112t-95.5 -163.5t-33 -198.5zM282 498q0 176 81.5 277t226.5 101q25 0 48.5 -3.5t45.5 -9.5l-289 -673q-113 99 -113 308zM512 130l287 664q99 -101 99 -296q0 -176 -81 -276t-227 -101q-41 0 -78 9z" />
<glyph unicode="&#xf9;" d="M136 370q0 -193 100.5 -289.5t260.5 -96.5q114 0 200 46.5t126 132.5v-72q0 -43 29.5 -67t70.5 -24q42 0 72 25t30 70v805q0 46 -29.5 71.5t-70.5 25.5q-42 0 -72 -25.5t-30 -71.5v-474q-4 -139 -82.5 -222t-190.5 -83q-99 0 -156 63t-57 184v532q0 46 -29.5 71.5 t-70.5 25.5t-71 -25.5t-30 -71.5v-530zM200 1474q0 -30 26 -51l314 -249q27 -22 51 -22q19 0 32 14t13 34q0 15 -15 37l-248 295q-33 41 -68 41q-39 0 -72 -31t-33 -68z" />
<glyph unicode="&#xfa;" d="M136 370q0 -193 100.5 -289.5t260.5 -96.5q114 0 200 46.5t126 132.5v-72q0 -43 29.5 -67t70.5 -24q42 0 72 25t30 70v805q0 46 -29.5 71.5t-70.5 25.5q-42 0 -72 -25.5t-30 -71.5v-474q-4 -139 -82.5 -222t-190.5 -83q-99 0 -156 63t-57 184v532q0 46 -29.5 71.5 t-70.5 25.5t-71 -25.5t-30 -71.5v-530zM517 1206q0 -20 13.5 -33t33.5 -13q21 0 44 18l314 248q29 23 29 56q0 38 -32.5 68.5t-70.5 30.5q-35 0 -66 -39l-250 -298q-15 -20 -15 -38z" />
<glyph unicode="&#xfb;" d="M136 370q0 -193 100.5 -289.5t260.5 -96.5q114 0 200 46.5t126 132.5v-72q0 -43 29.5 -67t70.5 -24q42 0 72 25t30 70v805q0 46 -29.5 71.5t-70.5 25.5q-42 0 -72 -25.5t-30 -71.5v-474q-4 -139 -82.5 -222t-190.5 -83q-99 0 -156 63t-57 184v532q0 46 -29.5 71.5 t-70.5 25.5t-71 -25.5t-30 -71.5v-530zM266 1163q0 -28 17.5 -45.5t45.5 -17.5q41 0 74 41l168 224l166 -224q30 -40 73 -40q26 0 44.5 17.5t18.5 42.5q0 22 -19 50l-189 261q-44 54 -95 54q-53 0 -95 -54l-190 -262l-6 -8t-5 -8t-3.5 -8t-2.5 -8t-1.5 -7.5t-0.5 -7.5z" />
<glyph unicode="&#xfc;" d="M136 370q0 -193 100.5 -289.5t260.5 -96.5q114 0 200 46.5t126 132.5v-72q0 -43 29.5 -67t70.5 -24q42 0 72 25t30 70v805q0 46 -29.5 71.5t-70.5 25.5q-42 0 -72 -25.5t-30 -71.5v-474q-4 -139 -82.5 -222t-190.5 -83q-99 0 -156 63t-57 184v532q0 46 -29.5 71.5 t-70.5 25.5t-71 -25.5t-30 -71.5v-530zM261 1264q0 -45 32.5 -76.5t83.5 -31.5t83.5 32t32.5 76t-32.5 75.5t-83.5 31.5q-52 0 -84 -31.5t-32 -75.5zM661 1264q0 -45 32.5 -76.5t83.5 -31.5t83.5 32t32.5 76t-32.5 75.5t-83.5 31.5q-52 0 -84 -32t-32 -75z" />
<glyph unicode="&#xfd;" horiz-adv-x="1051" d="M73 898q0 -22 11 -44l366 -736l-189 -392q-10 -21 -10 -42q0 -37 30 -63.5t68 -26.5q57 0 85 57l588 1216q10 20 10 41q0 38 -29.5 64.5t-68.5 26.5q-26 0 -49.5 -15t-38.5 -46l-295 -611l-291 603q-10 20 -24.5 34t-30 20t-32.5 6q-39 0 -69.5 -27t-30.5 -65zM507 1217 q0 -20 13.5 -33t33.5 -13q21 0 44 18l314 248q29 23 29 56q0 38 -32.5 68.5t-70.5 30.5q-35 0 -66 -39l-250 -298q-15 -20 -15 -38z" />
<glyph unicode="&#xfe;" horiz-adv-x="1186" d="M132 -244q0 -47 28.5 -72.5t69.5 -25.5q40 0 69.5 26t29.5 72v423q127 -205 359 -205q102 0 183 44.5t130 120t74.5 168.5t25.5 196q0 146 -44.5 261t-141 187t-233.5 72q-107 0 -202 -50t-146 -143v508q0 45 -29.5 69.5t-70.5 24.5q-42 0 -72 -25t-30 -69v-1582z M334 514q0 76 15.5 140t48.5 115t89.5 80t131.5 29q60 0 107.5 -21t77.5 -55.5t50 -83t28.5 -100t8.5 -109.5q0 -57 -6.5 -108t-24.5 -104.5t-46 -92t-74.5 -63t-106.5 -24.5q-299 0 -299 397z" />
<glyph unicode="&#xff;" horiz-adv-x="1051" d="M73 898q0 -22 11 -44l366 -736l-189 -392q-10 -21 -10 -42q0 -37 30 -63.5t68 -26.5q57 0 85 57l588 1216q10 20 10 41q0 38 -29.5 64.5t-68.5 26.5q-26 0 -49.5 -15t-38.5 -46l-295 -611l-291 603q-10 20 -24.5 34t-30 20t-32.5 6q-39 0 -69.5 -27t-30.5 -65zM251 1275 q0 -45 32.5 -76.5t83.5 -31.5t83.5 32t32.5 76t-32.5 75.5t-83.5 31.5q-52 0 -84 -31.5t-32 -75.5zM651 1275q0 -45 32.5 -76.5t83.5 -31.5t83.5 32t32.5 76t-32.5 75.5t-83.5 31.5q-52 0 -84 -32t-32 -75z" />
<glyph unicode="&#x100;" horiz-adv-x="1435" d="M59 91q0 -54 53 -83q29 -15 60 -15q34 0 61.5 18t41.5 55l110 285h673l110 -285q36 -68 103 -73q29 0 54.5 12t42 34.5t16.5 50.5q0 19 -8 39l-469 1169q-35 88 -78.5 117t-106.5 29q-64 0 -107.5 -29t-78.5 -117l-469 -1169q-8 -19 -8 -38zM384 1754q0 -30 19 -50 t54 -20h519q34 0 52 20t18 50t-18.5 50.5t-51.5 20.5h-519q-35 0 -54 -20.5t-19 -50.5zM447 513l275 712l274 -712h-549z" />
<glyph unicode="&#x101;" horiz-adv-x="1062" d="M69 272q0 -138 98 -213t254 -75q210 0 299 183v-74q0 -30 14.5 -51.5t36 -32t47.5 -10.5q40 0 70 25.5t30 70.5v564q0 182 -106 268t-290 86q-213 0 -368 -84q-17 -9 -25 -22.5t-8 -30.5q0 -9 2.5 -18t7 -17.5t11 -16t14.5 -13t17 -8.5t19 -3q13 0 25 5q52 22 83.5 34 t93.5 25.5t121 13.5q202 0 202 -202v-98q-108 0 -182.5 -2.5t-148 -10t-120 -21.5t-87.5 -36.5t-63 -55t-34.5 -77t-12.5 -103.5zM192 1310q0 -30 19 -50t54 -20h519q34 0 52 20t18 50t-18.5 50.5t-51.5 20.5h-519q-35 0 -54 -20.5t-19 -50.5zM260 280q0 40 8 68.5 t30.5 49.5t53.5 33t85.5 19.5t118.5 10t160 2.5v-28q0 -139 -83 -229t-192 -90q-83 0 -132 40t-49 124z" />
<glyph unicode="&#x102;" horiz-adv-x="1435" d="M59 91q0 -54 53 -83q29 -15 60 -15q34 0 61.5 18t41.5 55l110 285h673l110 -285q36 -68 103 -73q29 0 54.5 12t42 34.5t16.5 50.5q0 19 -8 39l-469 1169q-35 88 -78.5 117t-106.5 29q-64 0 -107.5 -29t-78.5 -117l-469 -1169q-8 -19 -8 -38zM428 1823q0 -14 8 -32 q34 -77 107 -119.5t173 -42.5t173 42.5t107 119.5q6 12 8 32q0 25 -18 40.5t-42 15.5q-38 0 -60 -34q-32 -46 -68.5 -64t-99.5 -18q-64 0 -100.5 18t-67.5 64q-21 34 -60 34q-24 0 -42 -15.5t-18 -40.5zM447 513l275 712l274 -712h-549z" />
<glyph unicode="&#x103;" horiz-adv-x="1062" d="M69 272q0 -138 98 -213t254 -75q210 0 299 183v-74q0 -30 14.5 -51.5t36 -32t47.5 -10.5q40 0 70 25.5t30 70.5v564q0 182 -106 268t-290 86q-213 0 -368 -84q-17 -9 -25 -22.5t-8 -30.5q0 -9 2.5 -18t7 -17.5t11 -16t14.5 -13t17 -8.5t19 -3q13 0 25 5q52 22 83.5 34 t93.5 25.5t121 13.5q202 0 202 -202v-98q-108 0 -182.5 -2.5t-148 -10t-120 -21.5t-87.5 -36.5t-63 -55t-34.5 -77t-12.5 -103.5zM236 1379q0 -14 8 -32q34 -77 107 -119.5t173 -42.5t173 42.5t107 119.5q6 12 8 32q0 25 -18 40.5t-42 15.5q-38 0 -60 -34q-32 -46 -68.5 -64 t-99.5 -18q-64 0 -100.5 18t-67.5 64q-21 34 -60 34q-24 0 -42 -15.5t-18 -40.5zM260 280q0 40 8 68.5t30.5 49.5t53.5 33t85.5 19.5t118.5 10t160 2.5v-28q0 -139 -83 -229t-192 -90q-83 0 -132 40t-49 124z" />
<glyph unicode="&#x104;" horiz-adv-x="1435" d="M59 91q0 -54 53 -83q29 -15 60 -15q34 0 61.5 18t41.5 55l110 285h673l110 -285q36 -68 103 -73q29 0 54.5 12t42 34.5t16.5 50.5q0 19 -8 39l-469 1169q-35 88 -78.5 117t-106.5 29q-64 0 -107.5 -29t-78.5 -117l-469 -1169q-8 -19 -8 -38zM447 513l275 712l274 -712 h-549zM1099 -259q0 -53 25 -92.5t71 -60.5t108 -21q77 0 165 33v94q-39 0 -72.5 6.5t-64.5 21t-49 44t-18 70.5q0 73 60 183h-95q-130 -153 -130 -278z" />
<glyph unicode="&#x105;" horiz-adv-x="1062" d="M69 272q0 -138 98 -213t254 -75q210 0 299 183v-74q0 -30 14.5 -51.5t36 -32t47.5 -10.5q40 0 70 25.5t30 70.5v564q0 182 -106 268t-290 86q-213 0 -368 -84q-17 -9 -25 -22.5t-8 -30.5q0 -9 2.5 -18t7 -17.5t11 -16t14.5 -13t17 -8.5t19 -3q13 0 25 5q52 22 83.5 34 t93.5 25.5t121 13.5q202 0 202 -202v-98q-108 0 -182.5 -2.5t-148 -10t-120 -21.5t-87.5 -36.5t-63 -55t-34.5 -77t-12.5 -103.5zM260 280q0 40 8 68.5t30.5 49.5t53.5 33t85.5 19.5t118.5 10t160 2.5v-28q0 -139 -83 -229t-192 -90q-83 0 -132 40t-49 124zM661 -263 q0 -53 25 -92.5t71 -60.5t108 -21q77 0 165 33v94q-39 0 -72.5 6.5t-64.5 21t-49 44t-18 70.5q0 73 60 183h-95q-130 -153 -130 -278z" />
<glyph unicode="&#x106;" horiz-adv-x="1367" d="M118 715q0 -211 80 -378t233 -263t354 -96q233 0 405 109q51 33 51 84q0 35 -24 61.5t-58 26.5q-20 0 -40 -11q-52 -28 -86.5 -44t-92 -30.5t-117.5 -14.5q-117 0 -207 41.5t-146 117t-84 176.5t-28 224t28 224.5t83 177.5t143 118.5t202 42.5q45 0 85 -5t73 -15.5 t52 -17.5t46 -20.5l31 -15.5q8 -4 16.5 -5.5t16.5 -1.5q23 0 43.5 13t32.5 34.5t12 44.5t-13 43.5t-40 34.5q-171 92 -363 92q-205 0 -362.5 -96.5t-241.5 -265.5t-84 -385zM735 1646q0 -20 13.5 -33t33.5 -13q21 0 44 18l314 248q29 23 29 56q0 38 -32.5 68.5t-70.5 30.5 q-35 0 -66 -39l-250 -298q-15 -20 -15 -38z" />
<glyph unicode="&#x107;" horiz-adv-x="981" d="M83 499q0 -143 57 -259.5t168 -186t257 -69.5q199 0 305 88q18 15 26.5 32t8.5 33q0 12 -4.5 23.5t-13 19.5t-19.5 12.5t-24 4.5q-11 0 -22.5 -3.5t-22.5 -11.5q-87 -61 -219 -61q-95 0 -163.5 52t-100.5 136t-32 189q0 172 83.5 275.5t222.5 103.5q106 0 193 -53 q21 -12 43 -12q18 0 32.5 7.5t23 21t8.5 29.5q0 35 -38 63q-44 33 -115.5 56.5t-159.5 23.5q-147 0 -260.5 -69.5t-173.5 -186t-60 -258.5zM509 1217q0 -20 13.5 -33t33.5 -13q21 0 44 18l314 248q29 23 29 56q0 38 -32.5 68.5t-70.5 30.5q-35 0 -66 -39l-250 -298 q-15 -20 -15 -38z" />
<glyph unicode="&#x108;" horiz-adv-x="1367" d="M118 715q0 -211 80 -378t233 -263t354 -96q233 0 405 109q51 33 51 84q0 35 -24 61.5t-58 26.5q-20 0 -40 -11q-52 -28 -86.5 -44t-92 -30.5t-117.5 -14.5q-117 0 -207 41.5t-146 117t-84 176.5t-28 224t28 224.5t83 177.5t143 118.5t202 42.5q45 0 85 -5t73 -15.5 t52 -17.5t46 -20.5l31 -15.5q8 -4 16.5 -5.5t16.5 -1.5q23 0 43.5 13t32.5 34.5t12 44.5t-13 43.5t-40 34.5q-171 92 -363 92q-205 0 -362.5 -96.5t-241.5 -265.5t-84 -385zM484 1603q0 -28 17.5 -45.5t45.5 -17.5q41 0 74 41l168 224l166 -224q30 -40 73 -40 q26 0 44.5 17.5t18.5 42.5q0 22 -19 50l-189 261q-44 54 -95 54q-53 0 -95 -54l-190 -262l-6 -8t-5 -8t-3.5 -8t-2.5 -8t-1.5 -7.5t-0.5 -7.5z" />
<glyph unicode="&#x109;" horiz-adv-x="981" d="M83 499q0 -143 57 -259.5t168 -186t257 -69.5q199 0 305 88q18 15 26.5 32t8.5 33q0 12 -4.5 23.5t-13 19.5t-19.5 12.5t-24 4.5q-11 0 -22.5 -3.5t-22.5 -11.5q-87 -61 -219 -61q-95 0 -163.5 52t-100.5 136t-32 189q0 172 83.5 275.5t222.5 103.5q106 0 193 -53 q21 -12 43 -12q18 0 32.5 7.5t23 21t8.5 29.5q0 35 -38 63q-44 33 -115.5 56.5t-159.5 23.5q-147 0 -260.5 -69.5t-173.5 -186t-60 -258.5zM258 1174q0 -28 17.5 -45.5t45.5 -17.5q41 0 74 41l168 224l166 -224q30 -40 73 -40q26 0 44.5 17.5t18.5 42.5q0 22 -19 50 l-189 261q-44 54 -95 54q-53 0 -95 -54l-190 -262l-6 -8t-5 -8t-3.5 -8t-2.5 -8t-1.5 -7.5t-0.5 -7.5z" />
<glyph unicode="&#x10a;" horiz-adv-x="1367" d="M118 715q0 -211 80 -378t233 -263t354 -96q233 0 405 109q51 33 51 84q0 35 -24 61.5t-58 26.5q-20 0 -40 -11q-52 -28 -86.5 -44t-92 -30.5t-117.5 -14.5q-117 0 -207 41.5t-146 117t-84 176.5t-28 224t28 224.5t83 177.5t143 118.5t202 42.5q45 0 85 -5t73 -15.5 t52 -17.5t46 -20.5l31 -15.5q8 -4 16.5 -5.5t16.5 -1.5q23 0 43.5 13t32.5 34.5t12 44.5t-13 43.5t-40 34.5q-171 92 -363 92q-205 0 -362.5 -96.5t-241.5 -265.5t-84 -385zM668 1734q0 -48 33.5 -82t89.5 -34q57 0 91 34t34 82q0 46 -34.5 80t-90.5 34q-55 0 -89 -34 t-34 -80z" />
<glyph unicode="&#x10b;" horiz-adv-x="981" d="M83 499q0 -143 57 -259.5t168 -186t257 -69.5q199 0 305 88q18 15 26.5 32t8.5 33q0 12 -4.5 23.5t-13 19.5t-19.5 12.5t-24 4.5q-11 0 -22.5 -3.5t-22.5 -11.5q-87 -61 -219 -61q-95 0 -163.5 52t-100.5 136t-32 189q0 172 83.5 275.5t222.5 103.5q106 0 193 -53 q21 -12 43 -12q18 0 32.5 7.5t23 21t8.5 29.5q0 35 -38 63q-44 33 -115.5 56.5t-159.5 23.5q-147 0 -260.5 -69.5t-173.5 -186t-60 -258.5zM441 1304q0 -48 33.5 -82t89.5 -34q57 0 91 34t34 82q0 46 -34.5 80t-90.5 34q-55 0 -89 -34t-34 -80z" />
<glyph unicode="&#x10c;" horiz-adv-x="1367" d="M118 715q0 -211 80 -378t233 -263t354 -96q233 0 405 109q51 33 51 84q0 35 -24 61.5t-58 26.5q-20 0 -40 -11q-52 -28 -86.5 -44t-92 -30.5t-117.5 -14.5q-117 0 -207 41.5t-146 117t-84 176.5t-28 224t28 224.5t83 177.5t143 118.5t202 42.5q45 0 85 -5t73 -15.5 t52 -17.5t46 -20.5l31 -15.5q8 -4 16.5 -5.5t16.5 -1.5q23 0 43.5 13t32.5 34.5t12 44.5t-13 43.5t-40 34.5q-171 92 -363 92q-205 0 -362.5 -96.5t-241.5 -265.5t-84 -385zM486 1881q0 -24 20 -50l190 -262q42 -54 95 -54q55 0 94 54l190 261q18 26 18 49q0 27 -18.5 44.5 t-45.5 17.5q-40 0 -71 -41l-167 -224l-167 224q-30 41 -73 41q-27 0 -46 -17t-19 -43z" />
<glyph unicode="&#x10d;" horiz-adv-x="981" d="M83 499q0 -143 57 -259.5t168 -186t257 -69.5q199 0 305 88q18 15 26.5 32t8.5 33q0 12 -4.5 23.5t-13 19.5t-19.5 12.5t-24 4.5q-11 0 -22.5 -3.5t-22.5 -11.5q-87 -61 -219 -61q-95 0 -163.5 52t-100.5 136t-32 189q0 172 83.5 275.5t222.5 103.5q106 0 193 -53 q21 -12 43 -12q18 0 32.5 7.5t23 21t8.5 29.5q0 35 -38 63q-44 33 -115.5 56.5t-159.5 23.5q-147 0 -260.5 -69.5t-173.5 -186t-60 -258.5zM259 1452q0 -24 20 -50l190 -262q42 -54 95 -54q55 0 94 54l190 261q18 26 18 49q0 27 -18.5 44.5t-45.5 17.5q-40 0 -71 -41 l-167 -224l-167 224q-30 41 -73 41q-27 0 -46 -17t-19 -43z" />
<glyph unicode="&#x10e;" horiz-adv-x="1511" d="M175 112q0 -46 33.5 -78t80.5 -32h356q362 0 560 183t198 528q0 351 -196 536t-575 185h-343q-47 0 -80.5 -32.5t-33.5 -78.5v-1211zM402 182v1072h224q281 0 411.5 -123.5t130.5 -413.5q0 -137 -26 -234t-85 -166t-157.5 -102t-241.5 -33h-256zM456 1881q0 -24 20 -50 l190 -262q42 -54 95 -54q55 0 94 54l190 261q18 26 18 49q0 27 -18.5 44.5t-45.5 17.5q-40 0 -71 -41l-167 -224l-167 224q-30 41 -73 41q-27 0 -46 -17t-19 -43z" />
<glyph unicode="&#x10f;" horiz-adv-x="1209" d="M83 505q0 -105 28 -198t80.5 -165.5t135.5 -115t187 -42.5q239 0 338 184v-71q0 -47 26 -71.5t74 -24.5q41 0 71 25.5t30 70.5v1241q0 45 -29.5 69.5t-70.5 24.5t-71 -24.5t-30 -69.5v-500q-97 175 -323 175q-206 0 -326 -142t-120 -366zM284 502q0 69 14.5 132t45 119 t86.5 89.5t132 33.5q61 0 110.5 -21t82 -56.5t55 -84t32 -101.5t9.5 -111q0 -88 -15 -155t-48 -119t-91.5 -79.5t-141.5 -27.5q-75 1 -130.5 36.5t-84.5 94t-42.5 121t-13.5 129.5zM1190 1017q0 -30 25 -31h55h3q21 0 33 10t20 33l145 414q3 8 3 18q0 35 -37 38h-103 q-64 -2 -73 -56l-70 -414q0 -2 -0.5 -3.5t-0.5 -4v-4.5z" />
<glyph unicode="&#x110;" horiz-adv-x="1511" d="M-7 726q0 -33 23 -53t62 -20h470q42 0 66 20t24 53q0 35 -24 55.5t-66 20.5h-464q-42 0 -66.5 -20.5t-24.5 -55.5zM175 112q0 -46 33.5 -78t80.5 -32h356q362 0 560 183t198 528q0 351 -196 536t-575 185h-343q-47 0 -80.5 -32.5t-33.5 -78.5v-1211zM402 182v1072h224 q281 0 411.5 -123.5t130.5 -413.5q0 -137 -26 -234t-85 -166t-157.5 -102t-241.5 -33h-256z" />
<glyph unicode="&#x111;" horiz-adv-x="1209" d="M83 505q0 -105 28 -198t80.5 -165.5t135.5 -115t187 -42.5q239 0 338 184v-71q0 -47 26 -71.5t74 -24.5q41 0 71 25.5t30 70.5v1241q0 45 -29.5 69.5t-70.5 24.5t-71 -24.5t-30 -69.5v-500q-97 175 -323 175q-206 0 -326 -142t-120 -366zM284 502q0 69 14.5 132t45 119 t86.5 89.5t132 33.5q61 0 110.5 -21t82 -56.5t55 -84t32 -101.5t9.5 -111q0 -88 -15 -155t-48 -119t-91.5 -79.5t-141.5 -27.5q-75 1 -130.5 36.5t-84.5 94t-42.5 121t-13.5 129.5zM580 1225q0 -30 19 -50t54 -20h519q34 0 52 20t18 50t-18.5 50.5t-51.5 20.5h-519 q-35 0 -54 -20.5t-19 -50.5z" />
<glyph unicode="&#x112;" horiz-adv-x="1238" d="M175 110q0 -43 34.5 -76.5t77.5 -33.5h756q42 0 65 27t23 62q0 36 -23 63.5t-65 27.5h-641v467h581q42 0 65.5 26.5t23.5 61.5q0 36 -23 62t-66 26h-581v429h617q41 0 64 27.5t23 63.5t-23 63t-64 27h-736q-45 0 -76.5 -33t-31.5 -77v-1213zM319 1754q0 -30 19 -50 t54 -20h519q34 0 52 20t18 50t-18.5 50.5t-51.5 20.5h-519q-35 0 -54 -20.5t-19 -50.5z" />
<glyph unicode="&#x113;" horiz-adv-x="1138" d="M86 505q0 -240 139.5 -379.5t361.5 -141.5q219 0 374 137q16 13 23.5 29t7.5 33q0 18 -8.5 34t-23 25.5t-31.5 9.5q-10 0 -19.5 -3.5t-19.5 -10.5q-71 -52 -139 -82.5t-150 -30.5q-138 2 -223 83t-89 247h670q32 0 48 21t16 54q-2 100 -29.5 184.5t-80 152.5t-141 107 t-203.5 39q-113 0 -205.5 -41.5t-152.5 -112t-92.5 -161.5t-32.5 -193zM259 1317q0 -30 19 -50t54 -20h519q34 0 52 20t18 50t-18.5 50.5t-51.5 20.5h-519q-35 0 -54 -20.5t-19 -50.5zM291 577q5 57 24.5 109t54 95.5t88.5 69t120 25.5q128 0 195 -84.5t76 -214.5h-558z" />
<glyph unicode="&#x114;" horiz-adv-x="1238" d="M175 110q0 -43 34.5 -76.5t77.5 -33.5h756q42 0 65 27t23 62q0 36 -23 63.5t-65 27.5h-641v467h581q42 0 65.5 26.5t23.5 61.5q0 36 -23 62t-66 26h-581v429h617q41 0 64 27.5t23 63.5t-23 63t-64 27h-736q-45 0 -76.5 -33t-31.5 -77v-1213zM362 1823q0 -14 8 -32 q34 -77 107 -119.5t173 -42.5t173 42.5t107 119.5q6 12 8 32q0 25 -18 40.5t-42 15.5q-38 0 -60 -34q-32 -46 -68.5 -64t-99.5 -18q-64 0 -100.5 18t-67.5 64q-21 34 -60 34q-24 0 -42 -15.5t-18 -40.5z" />
<glyph unicode="&#x115;" horiz-adv-x="1138" d="M86 505q0 -240 139.5 -379.5t361.5 -141.5q219 0 374 137q16 13 23.5 29t7.5 33q0 18 -8.5 34t-23 25.5t-31.5 9.5q-10 0 -19.5 -3.5t-19.5 -10.5q-71 -52 -139 -82.5t-150 -30.5q-138 2 -223 83t-89 247h670q32 0 48 21t16 54q-2 100 -29.5 184.5t-80 152.5t-141 107 t-203.5 39q-113 0 -205.5 -41.5t-152.5 -112t-92.5 -161.5t-32.5 -193zM291 577q5 57 24.5 109t54 95.5t88.5 69t120 25.5q128 0 195 -84.5t76 -214.5h-558zM303 1386q0 -14 8 -32q34 -77 107 -119.5t173 -42.5t173 42.5t107 119.5q6 12 8 32q0 25 -18 40.5t-42 15.5 q-38 0 -60 -34q-32 -46 -68.5 -64t-99.5 -18q-64 0 -100.5 18t-67.5 64q-21 34 -60 34q-24 0 -42 -15.5t-18 -40.5z" />
<glyph unicode="&#x116;" horiz-adv-x="1238" d="M175 110q0 -43 34.5 -76.5t77.5 -33.5h756q42 0 65 27t23 62q0 36 -23 63.5t-65 27.5h-641v467h581q42 0 65.5 26.5t23.5 61.5q0 36 -23 62t-66 26h-581v429h617q41 0 64 27.5t23 63.5t-23 63t-64 27h-736q-45 0 -76.5 -33t-31.5 -77v-1213zM522 1734q0 -48 33.5 -82 t89.5 -34q57 0 91 34t34 82q0 46 -34.5 80t-90.5 34q-55 0 -89 -34t-34 -80z" />
<glyph unicode="&#x117;" horiz-adv-x="1138" d="M86 505q0 -240 139.5 -379.5t361.5 -141.5q219 0 374 137q16 13 23.5 29t7.5 33q0 18 -8.5 34t-23 25.5t-31.5 9.5q-10 0 -19.5 -3.5t-19.5 -10.5q-71 -52 -139 -82.5t-150 -30.5q-138 2 -223 83t-89 247h670q32 0 48 21t16 54q-2 100 -29.5 184.5t-80 152.5t-141 107 t-203.5 39q-113 0 -205.5 -41.5t-152.5 -112t-92.5 -161.5t-32.5 -193zM291 577q5 57 24.5 109t54 95.5t88.5 69t120 25.5q128 0 195 -84.5t76 -214.5h-558zM462 1297q0 -48 33.5 -82t89.5 -34q57 0 91 34t34 82q0 46 -34.5 80t-90.5 34q-55 0 -89 -34t-34 -80z" />
<glyph unicode="&#x118;" horiz-adv-x="1238" d="M175 110q0 -43 34.5 -76.5t77.5 -33.5h756q42 0 65 27t23 62q0 36 -23 63.5t-65 27.5h-641v467h581q42 0 65.5 26.5t23.5 61.5q0 36 -23 62t-66 26h-581v429h617q41 0 64 27.5t23 63.5t-23 63t-64 27h-736q-45 0 -76.5 -33t-31.5 -77v-1213zM654 -269q0 -53 25 -92.5 t71 -60.5t108 -21q77 0 165 33v94q-39 0 -72.5 6.5t-64.5 21t-49 44t-18 70.5q0 73 60 183h-95q-130 -153 -130 -278z" />
<glyph unicode="&#x119;" horiz-adv-x="1138" d="M86 505q0 -240 139.5 -379.5t361.5 -141.5q219 0 374 137q16 13 23.5 29t7.5 33q0 18 -8.5 34t-23 25.5t-31.5 9.5q-10 0 -19.5 -3.5t-19.5 -10.5q-71 -52 -139 -82.5t-150 -30.5q-138 2 -223 83t-89 247h670q32 0 48 21t16 54q-2 100 -29.5 184.5t-80 152.5t-141 107 t-203.5 39q-113 0 -205.5 -41.5t-152.5 -112t-92.5 -161.5t-32.5 -193zM291 577q5 57 24.5 109t54 95.5t88.5 69t120 25.5q128 0 195 -84.5t76 -214.5h-558zM593 -250q0 -53 25 -92.5t71 -60.5t108 -21q77 0 165 33v94q-39 0 -72.5 6.5t-64.5 21t-49 44t-18 70.5 q0 73 60 183h-95q-130 -153 -130 -278z" />
<glyph unicode="&#x11a;" horiz-adv-x="1238" d="M175 110q0 -43 34.5 -76.5t77.5 -33.5h756q42 0 65 27t23 62q0 36 -23 63.5t-65 27.5h-641v467h581q42 0 65.5 26.5t23.5 61.5q0 36 -23 62t-66 26h-581v429h617q41 0 64 27.5t23 63.5t-23 63t-64 27h-736q-45 0 -76.5 -33t-31.5 -77v-1213zM339 1881q0 -24 20 -50 l190 -262q42 -54 95 -54q55 0 94 54l190 261q18 26 18 49q0 27 -18.5 44.5t-45.5 17.5q-40 0 -71 -41l-167 -224l-167 224q-30 41 -73 41q-27 0 -46 -17t-19 -43z" />
<glyph unicode="&#x11b;" horiz-adv-x="1138" d="M86 505q0 -240 139.5 -379.5t361.5 -141.5q219 0 374 137q16 13 23.5 29t7.5 33q0 18 -8.5 34t-23 25.5t-31.5 9.5q-10 0 -19.5 -3.5t-19.5 -10.5q-71 -52 -139 -82.5t-150 -30.5q-138 2 -223 83t-89 247h670q32 0 48 21t16 54q-2 100 -29.5 184.5t-80 152.5t-141 107 t-203.5 39q-113 0 -205.5 -41.5t-152.5 -112t-92.5 -161.5t-32.5 -193zM279 1444q0 -24 20 -50l190 -262q42 -54 95 -54q55 0 94 54l190 261q18 26 18 49q0 27 -18.5 44.5t-45.5 17.5q-40 0 -71 -41l-167 -224l-167 224q-30 41 -73 41q-27 0 -46 -17t-19 -43zM291 577 q5 57 24.5 109t54 95.5t88.5 69t120 25.5q128 0 195 -84.5t76 -214.5h-558z" />
<glyph unicode="&#x11c;" horiz-adv-x="1471" d="M118 722q0 -179 51 -321t144 -234t220.5 -140.5t282.5 -48.5q209 0 452 73q89 25 89 122v489q0 46 -23.5 74t-67.5 28h-387q-36 0 -56.5 -27.5t-20.5 -60.5q0 -32 20.5 -59t56.5 -27h252v-392q-156 -39 -299 -39q-237 0 -355.5 149t-118.5 417q0 125 28.5 225t86.5 175 t153.5 115.5t222.5 40.5q59 0 127 -10.5t108.5 -20t117.5 -30.5q8 -4 22 -4q36 0 58.5 29.5t22.5 65.5q0 56 -52 78q-179 73 -412 73q-177 0 -317.5 -59t-227.5 -161.5t-132.5 -234.5t-45.5 -285zM539 1594q0 -28 17.5 -45.5t45.5 -17.5q41 0 74 41l168 224l166 -224 q30 -40 73 -40q26 0 44.5 17.5t18.5 42.5q0 22 -19 50l-189 261q-44 54 -95 54q-53 0 -95 -54l-190 -262l-6 -8t-5 -8t-3.5 -8t-2.5 -8t-1.5 -7.5t-0.5 -7.5z" />
<glyph unicode="&#x11d;" horiz-adv-x="1194" d="M83 493q0 -219 124.5 -356t338.5 -137q109 0 189.5 47.5t123.5 133.5v-181q0 -140 -79.5 -216.5t-227.5 -76.5q-45 0 -91 8t-68 14t-70 23.5t-52 19.5q-13 5 -26 5q-14 0 -26 -5.5t-20.5 -15t-13.5 -22t-5 -25.5q0 -40 38 -62q55 -32 147 -54.5t201 -22.5q225 0 356 110 t131 331v891q0 45 -28 70t-67 25q-35 0 -62 -21t-31 -59v-82q-50 86 -125.5 132t-199.5 46q-212 0 -334.5 -146.5t-122.5 -373.5zM243 1156q0 -28 17.5 -45.5t45.5 -17.5q41 0 74 41l168 224l166 -224q30 -40 73 -40q26 0 44.5 17.5t18.5 42.5q0 22 -19 50l-189 261 q-44 54 -95 54q-53 0 -95 -54l-190 -262l-6 -8t-5 -8t-3.5 -8t-2.5 -8t-1.5 -7.5t-0.5 -7.5zM284 499q0 62 10.5 117t33.5 103t57 82.5t83.5 54.5t109.5 20q62 0 110.5 -20t80 -54t52 -82.5t29 -102.5t8.5 -117q0 -179 -78 -273t-202 -94q-60 0 -112 22t-93 65.5t-65 115 t-24 163.5z" />
<glyph unicode="&#x11e;" horiz-adv-x="1471" d="M118 722q0 -179 51 -321t144 -234t220.5 -140.5t282.5 -48.5q209 0 452 73q89 25 89 122v489q0 46 -23.5 74t-67.5 28h-387q-36 0 -56.5 -27.5t-20.5 -60.5q0 -32 20.5 -59t56.5 -27h252v-392q-156 -39 -299 -39q-237 0 -355.5 149t-118.5 417q0 125 28.5 225t86.5 175 t153.5 115.5t222.5 40.5q59 0 127 -10.5t108.5 -20t117.5 -30.5q8 -4 22 -4q36 0 58.5 29.5t22.5 65.5q0 56 -52 78q-179 73 -412 73q-177 0 -317.5 -59t-227.5 -161.5t-132.5 -234.5t-45.5 -285zM563 1814q0 -14 8 -32q34 -77 107 -119.5t173 -42.5t173 42.5t107 119.5 q6 12 8 32q0 25 -18 40.5t-42 15.5q-38 0 -60 -34q-32 -46 -68.5 -64t-99.5 -18q-64 0 -100.5 18t-67.5 64q-21 34 -60 34q-24 0 -42 -15.5t-18 -40.5z" />
<glyph unicode="&#x11f;" horiz-adv-x="1194" d="M83 493q0 -219 124.5 -356t338.5 -137q109 0 189.5 47.5t123.5 133.5v-181q0 -140 -79.5 -216.5t-227.5 -76.5q-45 0 -91 8t-68 14t-70 23.5t-52 19.5q-13 5 -26 5q-14 0 -26 -5.5t-20.5 -15t-13.5 -22t-5 -25.5q0 -40 38 -62q55 -32 147 -54.5t201 -22.5q225 0 356 110 t131 331v891q0 45 -28 70t-67 25q-35 0 -62 -21t-31 -59v-82q-50 86 -125.5 132t-199.5 46q-212 0 -334.5 -146.5t-122.5 -373.5zM267 1376q0 -14 8 -32q34 -77 107 -119.5t173 -42.5t173 42.5t107 119.5q6 12 8 32q0 25 -18 40.5t-42 15.5q-38 0 -60 -34q-32 -46 -68.5 -64 t-99.5 -18q-64 0 -100.5 18t-67.5 64q-21 34 -60 34q-24 0 -42 -15.5t-18 -40.5zM284 499q0 62 10.5 117t33.5 103t57 82.5t83.5 54.5t109.5 20q62 0 110.5 -20t80 -54t52 -82.5t29 -102.5t8.5 -117q0 -179 -78 -273t-202 -94q-60 0 -112 22t-93 65.5t-65 115t-24 163.5z " />
<glyph unicode="&#x120;" horiz-adv-x="1471" d="M118 722q0 -179 51 -321t144 -234t220.5 -140.5t282.5 -48.5q209 0 452 73q89 25 89 122v489q0 46 -23.5 74t-67.5 28h-387q-36 0 -56.5 -27.5t-20.5 -60.5q0 -32 20.5 -59t56.5 -27h252v-392q-156 -39 -299 -39q-237 0 -355.5 149t-118.5 417q0 125 28.5 225t86.5 175 t153.5 115.5t222.5 40.5q59 0 127 -10.5t108.5 -20t117.5 -30.5q8 -4 22 -4q36 0 58.5 29.5t22.5 65.5q0 56 -52 78q-179 73 -412 73q-177 0 -317.5 -59t-227.5 -161.5t-132.5 -234.5t-45.5 -285zM723 1725q0 -48 33.5 -82t89.5 -34q57 0 91 34t34 82q0 46 -34.5 80 t-90.5 34q-55 0 -89 -34t-34 -80z" />
<glyph unicode="&#x121;" horiz-adv-x="1194" d="M83 493q0 -219 124.5 -356t338.5 -137q109 0 189.5 47.5t123.5 133.5v-181q0 -140 -79.5 -216.5t-227.5 -76.5q-45 0 -91 8t-68 14t-70 23.5t-52 19.5q-13 5 -26 5q-14 0 -26 -5.5t-20.5 -15t-13.5 -22t-5 -25.5q0 -40 38 -62q55 -32 147 -54.5t201 -22.5q225 0 356 110 t131 331v891q0 45 -28 70t-67 25q-35 0 -62 -21t-31 -59v-82q-50 86 -125.5 132t-199.5 46q-212 0 -334.5 -146.5t-122.5 -373.5zM284 499q0 62 10.5 117t33.5 103t57 82.5t83.5 54.5t109.5 20q62 0 110.5 -20t80 -54t52 -82.5t29 -102.5t8.5 -117q0 -179 -78 -273t-202 -94 q-60 0 -112 22t-93 65.5t-65 115t-24 163.5zM427 1287q0 -48 33.5 -82t89.5 -34q57 0 91 34t34 82q0 46 -34.5 80t-90.5 34q-55 0 -89 -34t-34 -80z" />
<glyph unicode="&#x122;" horiz-adv-x="1471" d="M118 722q0 -179 51 -321t144 -234t220.5 -140.5t282.5 -48.5q209 0 452 73q89 25 89 122v489q0 46 -23.5 74t-67.5 28h-387q-36 0 -56.5 -27.5t-20.5 -60.5q0 -32 20.5 -59t56.5 -27h252v-392q-156 -39 -299 -39q-237 0 -355.5 149t-118.5 417q0 125 28.5 225t86.5 175 t153.5 115.5t222.5 40.5q59 0 127 -10.5t108.5 -20t117.5 -30.5q8 -4 22 -4q36 0 58.5 29.5t22.5 65.5q0 56 -52 78q-179 73 -412 73q-177 0 -317.5 -59t-227.5 -161.5t-132.5 -234.5t-45.5 -285zM649 -586q0 -30 25 -31h55h3q21 0 33 10t20 33l145 414q1 3 2 8t1 10 q0 35 -37 38h-103q-64 -2 -73 -56l-70 -414q0 -3 -0.5 -6t-0.5 -6z" />
<glyph unicode="&#x123;" horiz-adv-x="1194" d="M83 493q0 -219 124.5 -356t338.5 -137q109 0 189.5 47.5t123.5 133.5v-181q0 -140 -79.5 -216.5t-227.5 -76.5q-45 0 -91 8t-68 14t-70 23.5t-52 19.5q-13 5 -26 5q-14 0 -26 -5.5t-20.5 -15t-13.5 -22t-5 -25.5q0 -40 38 -62q55 -32 147 -54.5t201 -22.5q225 0 356 110 t131 331v891q0 45 -28 70t-67 25q-35 0 -62 -21t-31 -59v-82q-50 86 -125.5 132t-199.5 46q-212 0 -334.5 -146.5t-122.5 -373.5zM284 499q0 62 10.5 117t33.5 103t57 82.5t83.5 54.5t109.5 20q62 0 110.5 -20t80 -54t52 -82.5t29 -102.5t8.5 -117q0 -179 -78 -273t-202 -94 q-60 0 -112 22t-93 65.5t-65 115t-24 163.5zM456 1244q0 -35 37 -38h120q64 2 73 56l84 479q0 3 0.5 6t0.5 6q0 13 -5.5 21.5t-19.5 9.5h-65h-3q-20 0 -32 -10t-21 -33l-166 -479q-3 -8 -3 -18z" />
<glyph unicode="&#x124;" horiz-adv-x="1490" d="M175 110q0 -51 33.5 -80t79.5 -29q47 0 80.5 28.5t33.5 80.5v542h693v-542q0 -51 33.5 -80t79.5 -29q47 0 80.5 28.5t33.5 80.5v1212q0 52 -33 81t-80 29t-80.5 -29.5t-33.5 -80.5v-489h-693v489q0 52 -33.5 81t-79.5 29q-47 0 -80.5 -29.5t-33.5 -80.5v-1212zM455 1603 q0 -28 17.5 -45.5t45.5 -17.5q41 0 74 41l168 224l166 -224q30 -40 73 -40q26 0 44.5 17.5t18.5 42.5q0 22 -19 50l-189 261q-44 54 -95 54q-53 0 -95 -54l-190 -262l-6 -8t-5 -8t-3.5 -8t-2.5 -8t-1.5 -7.5t-0.5 -7.5z" />
<glyph unicode="&#x125;" horiz-adv-x="1173" d="M146 97q0 -46 29.5 -71.5t70.5 -25.5q42 0 72 25.5t30 71.5v470q0 141 81 222t197 81q95 0 151 -58t56 -174v-541q0 -46 29.5 -71.5t70.5 -25.5q42 0 72 25.5t30 71.5v535q0 98 -29.5 173t-80 119.5t-113.5 66.5t-136 22q-111 0 -198 -43.5t-130 -119.5v488q0 44 -30 69 t-71 25t-71 -25t-30 -69v-1241zM417 1356q0 -28 17.5 -45.5t45.5 -17.5q41 0 74 41l168 224l166 -224q30 -40 73 -40q26 0 44.5 17.5t18.5 42.5q0 22 -19 50l-189 261q-44 54 -95 54q-53 0 -95 -54l-190 -262l-6 -8t-5 -8t-3.5 -8t-2.5 -8t-1.5 -7.5t-0.5 -7.5z" />
<glyph unicode="&#x126;" horiz-adv-x="1490" d="M49 1076q0 -25 18 -40.5t48 -15.5h1262q31 0 49.5 15.5t18.5 40.5t-18 40.5t-50 15.5h-1262q-30 0 -48 -15.5t-18 -40.5zM175 110q0 -51 33.5 -80t79.5 -29q47 0 80.5 28.5t33.5 80.5v542h693v-542q0 -51 33.5 -80t79.5 -29q47 0 80.5 28.5t33.5 80.5v1212q0 52 -33 81 t-80 29t-80.5 -29.5t-33.5 -80.5v-489h-693v489q0 52 -33.5 81t-79.5 29q-47 0 -80.5 -29.5t-33.5 -80.5v-1212z" />
<glyph unicode="&#x127;" horiz-adv-x="1173" d="M146 97q0 -46 29.5 -71.5t70.5 -25.5q42 0 72 25.5t30 71.5v470q0 141 81 222t197 81q95 0 151 -58t56 -174v-541q0 -46 29.5 -71.5t70.5 -25.5q42 0 72 25.5t30 71.5v535q0 98 -29.5 173t-80 119.5t-113.5 66.5t-136 22q-111 0 -198 -43.5t-130 -119.5v488q0 44 -30 69 t-71 25t-71 -25t-30 -69v-1241z" />
<glyph unicode="&#x128;" horiz-adv-x="619" d="M-5 1631q0 -21 13.5 -32.5t34.5 -11.5q38 0 61 33q33 47 74 47q33 0 119 -40t133 -40q44 0 84.5 20t67.5 57.5t27 83.5q0 23 -19 28q-3 27 -31 27q-25 -3 -60.5 -42t-59.5 -39q-29 0 -116.5 38.5t-142.5 38.5q-143 0 -182 -153q-3 -8 -3 -15zM196 110q0 -51 33 -80 t79 -29q47 0 81 28.5t34 80.5v1214q0 52 -33.5 81t-79.5 29q-47 0 -80.5 -29t-33.5 -81v-1214z" />
<glyph unicode="&#x129;" horiz-adv-x="496" d="M-72 1184q0 -21 13.5 -32.5t34.5 -11.5q38 0 61 33q33 47 74 47q33 0 119 -40t133 -40q44 0 84.5 20t67.5 57.5t27 83.5q0 23 -19 28q-3 27 -31 27q-25 -3 -60.5 -42t-59.5 -39q-29 0 -116.5 38.5t-142.5 38.5q-143 0 -182 -153q-3 -8 -3 -15zM146 101q0 -49 29 -75 t71 -26q41 0 71.5 27t30.5 74v795q0 48 -29.5 74.5t-70.5 26.5t-71.5 -26.5t-30.5 -74.5v-795z" />
<glyph unicode="&#x12a;" horiz-adv-x="619" d="M-16 1754q0 -30 19 -50t54 -20h519q34 0 52 20t18 50t-18.5 50.5t-51.5 20.5h-519q-35 0 -54 -20.5t-19 -50.5zM196 110q0 -51 33 -80t79 -29q47 0 81 28.5t34 80.5v1214q0 52 -33.5 81t-79.5 29q-47 0 -80.5 -29t-33.5 -81v-1214z" />
<glyph unicode="&#x12b;" horiz-adv-x="496" d="M-83 1307q0 -30 19 -50t54 -20h519q34 0 52 20t18 50t-18.5 50.5t-51.5 20.5h-519q-35 0 -54 -20.5t-19 -50.5zM146 101q0 -49 29 -75t71 -26q41 0 71.5 27t30.5 74v795q0 48 -29.5 74.5t-70.5 26.5t-71.5 -26.5t-30.5 -74.5v-795z" />
<glyph unicode="&#x12c;" horiz-adv-x="619" d="M27 1823q0 -14 8 -32q34 -77 107 -119.5t173 -42.5t173 42.5t107 119.5q6 12 8 32q0 25 -18 40.5t-42 15.5q-38 0 -60 -34q-32 -46 -68.5 -64t-99.5 -18q-64 0 -100.5 18t-67.5 64q-21 34 -60 34q-24 0 -42 -15.5t-18 -40.5zM196 110q0 -51 33 -80t79 -29q47 0 81 28.5 t34 80.5v1214q0 52 -33.5 81t-79.5 29q-47 0 -80.5 -29t-33.5 -81v-1214z" />
<glyph unicode="&#x12d;" horiz-adv-x="496" d="M-39 1376q0 -14 8 -32q34 -77 107 -119.5t173 -42.5t173 42.5t107 119.5q6 12 8 32q0 25 -18 40.5t-42 15.5q-38 0 -60 -34q-32 -46 -68.5 -64t-99.5 -18q-64 0 -100.5 18t-67.5 64q-21 34 -60 34q-24 0 -42 -15.5t-18 -40.5zM146 101q0 -49 29 -75t71 -26q41 0 71.5 27 t30.5 74v795q0 48 -29.5 74.5t-70.5 26.5t-71.5 -26.5t-30.5 -74.5v-795z" />
<glyph unicode="&#x12e;" horiz-adv-x="619" d="M142 -255q0 -53 25 -92.5t71 -60.5t108 -21q77 0 165 33v94q-39 0 -72.5 6.5t-64.5 21t-49 44t-18 70.5q0 73 60 183h-95q-130 -153 -130 -278zM196 110q0 -51 33 -80t79 -29q47 0 81 28.5t34 80.5v1214q0 52 -33.5 81t-79.5 29q-47 0 -80.5 -29t-33.5 -81v-1214z" />
<glyph unicode="&#x12f;" horiz-adv-x="496" d="M77 -278q0 -53 25 -92.5t71 -60.5t108 -21q77 0 165 33v94q-39 0 -72.5 6.5t-64.5 21t-49 44t-18 70.5q0 73 60 183h-95q-130 -153 -130 -278zM120 1287q0 -48 33.5 -82t89.5 -34q57 0 91 34t34 82q0 46 -34.5 80t-90.5 34q-55 0 -89 -34t-34 -80zM146 101q0 -49 29 -75 t71 -26q41 0 71.5 27t30.5 74v795q0 48 -29.5 74.5t-70.5 26.5t-71.5 -26.5t-30.5 -74.5v-795z" />
<glyph unicode="&#x130;" horiz-adv-x="619" d="M186 1734q0 -48 33.5 -82t89.5 -34q57 0 91 34t34 82q0 46 -34.5 80t-90.5 34q-55 0 -89 -34t-34 -80zM196 110q0 -51 33 -80t79 -29q47 0 81 28.5t34 80.5v1214q0 52 -33.5 81t-79.5 29q-47 0 -80.5 -29t-33.5 -81v-1214z" />
<glyph unicode="&#x131;" horiz-adv-x="495" d="M146 101q0 -49 29 -75t71 -26q41 0 71.5 27t30.5 74v795q0 48 -29.5 74.5t-70.5 26.5t-71.5 -26.5t-30.5 -74.5v-795z" />
<glyph unicode="&#x132;" horiz-adv-x="1670" d="M196 110q0 -51 33 -80t79 -29q47 0 81 28.5t34 80.5v1214q0 52 -33.5 81t-79.5 29q-47 0 -80.5 -29t-33.5 -81v-1214zM692 142q0 -55 45 -82t77 -42t97 -30t141 -15q75 0 141 16t124.5 51.5t100 89t65.5 133.5t24 179v883q0 51 -33.5 79.5t-79.5 28.5q-47 0 -81 -28.5 t-34 -79.5v-866q0 -159 -57.5 -228t-177.5 -69q-100 0 -216 64q-27 17 -52 17q-37 0 -60.5 -30.5t-23.5 -70.5z" />
<glyph unicode="&#x133;" horiz-adv-x="1039" d="M128 1334q0 -53 35 -85.5t91 -32.5t90.5 32.5t34.5 85.5t-34 86t-90 33q-57 0 -92 -33t-35 -86zM153 101q0 -49 29 -75t71 -26q41 0 71.5 27t30.5 74v795q0 47 -30 74t-70 27q-41 0 -71.5 -27t-30.5 -74v-795zM461 -304q0 -19 7.5 -36t24 -28t39.5 -11q78 0 134 8 t94.5 28.5t61.5 46t35 70t16 89.5t4 115v918q0 47 -30 74t-70 27q-42 0 -72 -27t-30 -74v-951q0 -42 -1.5 -67.5t-8 -47t-15 -31.5t-27 -17.5t-39.5 -9t-56 -1.5q-31 0 -49 -22t-18 -53zM644 1334q0 -53 34.5 -85.5t90.5 -32.5q57 0 91.5 32.5t34.5 85.5t-34 86t-91 33 q-56 0 -91 -33t-35 -86z" />
<glyph unicode="&#x134;" horiz-adv-x="1051" d="M73 142q0 -55 45 -82t77 -42t97 -30t141 -15q75 0 141 16t124.5 51.5t100 89t65.5 133.5t24 179v883q0 51 -33.5 79.5t-79.5 28.5q-47 0 -81 -28.5t-34 -79.5v-866q0 -159 -57.5 -228t-177.5 -69q-100 0 -216 64q-27 17 -52 17q-37 0 -60.5 -30.5t-23.5 -70.5zM482 1603 q0 -28 17.5 -45.5t45.5 -17.5q41 0 74 41l168 224l166 -224q30 -40 73 -40q26 0 44.5 17.5t18.5 42.5q0 22 -19 50l-189 261q-44 54 -95 54q-53 0 -95 -54l-190 -262l-6 -8t-5 -8t-3.5 -8t-2.5 -8t-1.5 -7.5t-0.5 -7.5z" />
<glyph unicode="&#x135;" horiz-adv-x="502" d="M-76 -303q0 -31 19.5 -54.5t53.5 -23.5q62 0 110.5 4.5t85.5 16t63.5 26t44.5 38.5t29 48.5t16.5 62.5t7.5 74t2 88v909q0 54 -26.5 81.5t-74.5 27.5q-47 0 -75.5 -28.5t-28.5 -82.5v-929q0 -64 -5 -98t-24 -54t-46 -25.5t-81 -5.5q-34 0 -52.5 -22t-18.5 -53zM-58 1156 q0 -28 17.5 -45.5t45.5 -17.5q41 0 74 41l168 224l166 -224q30 -40 73 -40q26 0 44.5 17.5t18.5 42.5q0 22 -19 50l-189 261q-44 54 -95 54q-53 0 -95 -54l-190 -262l-6 -8t-5 -8t-3.5 -8t-2.5 -8t-1.5 -7.5t-0.5 -7.5z" />
<glyph unicode="&#x136;" horiz-adv-x="1294" d="M176 108q0 -52 33 -80t79 -28t80 28.5t34 79.5v602l606 -661q44 -48 89 -48t79 30t34 73q0 40 -24 65l-551 585l499 523q22 23 22 60q0 40 -31.5 67.5t-72.5 27.5q-43 0 -85 -45l-565 -614v552q0 50 -33.5 79t-78.5 29q-46 0 -80 -28.5t-34 -79.5v-1217zM469 -586 q0 -30 25 -31h55h3q21 0 33 10t20 33l145 414q1 3 2 8t1 10q0 35 -37 38h-103q-64 -2 -73 -56l-70 -414q0 -3 -0.5 -6t-0.5 -6z" />
<glyph unicode="&#x137;" horiz-adv-x="1025" d="M147 101q0 -48 29 -74.5t70 -26.5t71.5 27t30.5 74v417l464 -490q10 -11 21 -18t22.5 -10t22.5 -3q24 0 46 12.5t35 33.5t13 44q0 32 -25 58l-382 402l344 317q25 23 25 55q0 35 -27 63t-62 28q-14 0 -28 -5.5t-26 -16.5l-443 -417v761q0 46 -29.5 73t-69.5 27 q-42 0 -72 -27t-30 -73v-1231zM339 -586q0 -30 25 -31h55h3q21 0 33 10t20 33l145 414q1 3 2 8t1 10q0 35 -37 38h-103q-64 -2 -73 -56l-70 -414q0 -3 -0.5 -6t-0.5 -6z" />
<glyph unicode="&#x138;" horiz-adv-x="1019" d="M151 101q0 -48 29 -74.5t70 -26.5t72 27t31 74v393l463 -466q29 -30 66.5 -30t66.5 27t29 63q0 31 -26 57l-383 379l345 340q12 12 18 26t6 29q0 23 -12.5 44.5t-33 35t-43.5 13.5q-29 0 -53 -24l-443 -440v360q0 47 -30 73.5t-70 26.5q-41 0 -71.5 -26.5t-30.5 -73.5 v-807z" />
<glyph unicode="&#x139;" horiz-adv-x="1122" d="M175 113q0 -47 34.5 -80t80.5 -33h723q42 0 65.5 27t23.5 63t-23.5 63t-65.5 27h-611v1142q0 52 -33 81t-79 29q-47 0 -81 -29t-34 -81v-1209zM326 1661q0 -20 13.5 -33t33.5 -13q21 0 44 18l314 248q29 23 29 56q0 38 -32.5 68.5t-70.5 30.5q-35 0 -66 -39l-250 -298 q-15 -20 -15 -38z" />
<glyph unicode="&#x13a;" horiz-adv-x="516" d="M155 101q0 -49 29 -75t70 -26t72 27t31 74v1231q0 46 -30 73t-71 27t-71 -27t-30 -73v-1231zM240 1641q0 -20 13.5 -33t33.5 -13q21 0 44 18l314 248q29 23 29 56q0 38 -32.5 68.5t-70.5 30.5q-35 0 -66 -39l-250 -298q-15 -20 -15 -38z" />
<glyph unicode="&#x13b;" horiz-adv-x="1122" d="M175 113q0 -47 34.5 -80t80.5 -33h723q42 0 65.5 27t23.5 63t-23.5 63t-65.5 27h-611v1142q0 52 -33 81t-79 29q-47 0 -81 -29t-34 -81v-1209zM466 -586q0 -30 25 -31h55h3q21 0 33 10t20 33l145 414q1 3 2 8t1 10q0 35 -37 38h-103q-64 -2 -73 -56l-70 -414 q0 -3 -0.5 -6t-0.5 -6z" />
<glyph unicode="&#x13c;" horiz-adv-x="516" d="M68 -586q0 -30 25 -31h55h3q21 0 33 10t20 33l145 414q1 3 2 8t1 10q0 35 -37 38h-103q-64 -2 -73 -56l-70 -414q0 -3 -0.5 -6t-0.5 -6zM155 101q0 -49 29 -75t70 -26t72 27t31 74v1231q0 46 -30 73t-71 27t-71 -27t-30 -73v-1231z" />
<glyph unicode="&#x13d;" horiz-adv-x="1122" d="M175 113q0 -47 34.5 -80t80.5 -33h723q42 0 65.5 27t23.5 63t-23.5 63t-65.5 27h-611v1142q0 52 -33 81t-79 29q-47 0 -81 -29t-34 -81v-1209zM725 1017q0 -30 25 -31h55h3q21 0 33 10t20 33l145 414q3 8 3 18q0 35 -37 38h-103q-64 -2 -73 -56l-70 -414q0 -2 -0.5 -3.5 t-0.5 -4v-4.5z" />
<glyph unicode="&#x13e;" horiz-adv-x="516" d="M155 101q0 -49 29 -75t70 -26t72 27t31 74v1231q0 46 -30 73t-71 27t-71 -27t-30 -73v-1231zM555 1017q0 -30 25 -31h55h3q21 0 33 10t20 33l145 414q3 8 3 18q0 35 -37 38h-103q-64 -2 -73 -56l-70 -414q0 -2 -0.5 -3.5t-0.5 -4v-4.5z" />
<glyph unicode="&#x13f;" horiz-adv-x="1122" d="M175 113q0 -47 34.5 -80t80.5 -33h723q42 0 65.5 27t23.5 63t-23.5 63t-65.5 27h-611v1142q0 52 -33 81t-79 29q-47 0 -81 -29t-34 -81v-1209z" />
<glyph unicode="&#x140;" horiz-adv-x="516" d="M155 101q0 -49 29 -75t70 -26t72 27t31 74v1231q0 46 -30 73t-71 27t-71 -27t-30 -73v-1231z" />
<glyph unicode="&#x141;" horiz-adv-x="1163" d="M40 627q0 -19 9 -37.5t24 -30t33 -11.5t35 11l34 24v-470q0 -47 34.5 -80t80.5 -33h723q42 0 65.5 27t23.5 63t-23.5 63t-65.5 27h-611v561l167 115q28 19 28 53q0 31 -21 57t-49 26q-17 0 -32 -10l-93 -64v404q0 52 -33 81t-79 29q-47 0 -81 -29t-34 -81v-563l-104 -73 q-31 -21 -31 -59z" />
<glyph unicode="&#x142;" horiz-adv-x="602" d="M80 660q0 -19 9 -37.5t24 -30t33 -11.5t35 11l29 19v-510q0 -49 29 -75t70 -26t72 27t31 74v645l119 80q28 19 28 53q0 31 -21 57t-49 26q-17 0 -32 -10l-45 -30v410q0 46 -30 73t-71 27t-71 -27t-30 -73v-546l-99 -67q-31 -20 -31 -59z" />
<glyph unicode="&#x143;" horiz-adv-x="1530" d="M172 98q0 -47 31 -72.5t73 -25.5t73.5 26t31.5 72v991l706 -1014q25 -35 65 -55t75 -20q55 0 93.5 38t38.5 103v1193q0 47 -31 73t-73 26t-73 -26.5t-31 -72.5v-1001l-708 1021q-27 38 -67 58t-78 20q-54 0 -90 -38t-36 -103v-1193zM754 1650q0 -20 13.5 -33t33.5 -13 q21 0 44 18l314 248q29 23 29 56q0 38 -32.5 68.5t-70.5 30.5q-35 0 -66 -39l-250 -298q-15 -20 -15 -38z" />
<glyph unicode="&#x144;" d="M146 96q0 -45 29.5 -70.5t70.5 -25.5t71 25.5t30 70.5v475q4 140 82 222.5t189 82.5q99 0 157 -63t58 -183v-534q0 -45 29.5 -70.5t70.5 -25.5t71.5 25.5t30.5 70.5v532q0 98 -28 173.5t-78.5 121t-115 68t-141.5 22.5q-114 0 -199.5 -46t-125.5 -133v71q0 43 -29.5 67 t-70.5 24t-71 -24.5t-30 -69.5v-806zM561 1199q0 -20 13.5 -33t33.5 -13q21 0 44 18l314 248q29 23 29 56q0 38 -32.5 68.5t-70.5 30.5q-35 0 -66 -39l-250 -298q-15 -20 -15 -38z" />
<glyph unicode="&#x145;" horiz-adv-x="1530" d="M172 98q0 -47 31 -72.5t73 -25.5t73.5 26t31.5 72v991l706 -1014q25 -35 65 -55t75 -20q55 0 93.5 38t38.5 103v1193q0 47 -31 73t-73 26t-73 -26.5t-31 -72.5v-1001l-708 1021q-27 38 -67 58t-78 20q-54 0 -90 -38t-36 -103v-1193zM592 -586q0 -30 25 -31h55h3 q21 0 33 10t20 33l145 414q1 3 2 8t1 10q0 35 -37 38h-103q-64 -2 -73 -56l-70 -414q0 -3 -0.5 -6t-0.5 -6z" />
<glyph unicode="&#x146;" d="M146 96q0 -45 29.5 -70.5t70.5 -25.5t71 25.5t30 70.5v475q4 140 82 222.5t189 82.5q99 0 157 -63t58 -183v-534q0 -45 29.5 -70.5t70.5 -25.5t71.5 25.5t30.5 70.5v532q0 98 -28 173.5t-78.5 121t-115 68t-141.5 22.5q-114 0 -199.5 -46t-125.5 -133v71q0 43 -29.5 67 t-70.5 24t-71 -24.5t-30 -69.5v-806zM397 -586q0 -30 25 -31h55h3q21 0 33 10t20 33l145 414q1 3 2 8t1 10q0 35 -37 38h-103q-64 -2 -73 -56l-70 -414q0 -3 -0.5 -6t-0.5 -6z" />
<glyph unicode="&#x147;" horiz-adv-x="1530" d="M172 98q0 -47 31 -72.5t73 -25.5t73.5 26t31.5 72v991l706 -1014q25 -35 65 -55t75 -20q55 0 93.5 38t38.5 103v1193q0 47 -31 73t-73 26t-73 -26.5t-31 -72.5v-1001l-708 1021q-27 38 -67 58t-78 20q-54 0 -90 -38t-36 -103v-1193zM505 1885q0 -24 20 -50l190 -262 q42 -54 95 -54q55 0 94 54l190 261q18 26 18 49q0 27 -18.5 44.5t-45.5 17.5q-40 0 -71 -41l-167 -224l-167 224q-30 41 -73 41q-27 0 -46 -17t-19 -43z" />
<glyph unicode="&#x148;" d="M146 96q0 -45 29.5 -70.5t70.5 -25.5t71 25.5t30 70.5v475q4 140 82 222.5t189 82.5q99 0 157 -63t58 -183v-534q0 -45 29.5 -70.5t70.5 -25.5t71.5 25.5t30.5 70.5v532q0 98 -28 173.5t-78.5 121t-115 68t-141.5 22.5q-114 0 -199.5 -46t-125.5 -133v71q0 43 -29.5 67 t-70.5 24t-71 -24.5t-30 -69.5v-806zM312 1434q0 -24 20 -50l190 -262q42 -54 95 -54q55 0 94 54l190 261q18 26 18 49q0 27 -18.5 44.5t-45.5 17.5q-40 0 -71 -41l-167 -224l-167 224q-30 41 -73 41q-27 0 -46 -17t-19 -43z" />
<glyph unicode="&#x149;" d="M133 1185q0 -30 25 -31h65h3q20 0 32 10t21 33l166 480q3 8 3 18q0 35 -37 38h-120q-64 -2 -73 -56l-84 -480q0 -1 -0.5 -2.5t-0.5 -3v-3v-3.5zM146 96q0 -45 29.5 -70.5t70.5 -25.5t71 25.5t30 70.5v475q4 140 82 222.5t189 82.5q99 0 157 -63t58 -183v-534 q0 -45 29.5 -70.5t70.5 -25.5t71.5 25.5t30.5 70.5v532q0 98 -28 173.5t-78.5 121t-115 68t-141.5 22.5q-114 0 -199.5 -46t-125.5 -133v71q0 43 -29.5 67t-70.5 24t-71 -24.5t-30 -69.5v-806z" />
<glyph unicode="&#x14a;" horiz-adv-x="1530" d="M173 98q0 -47 31 -72.5t73 -25.5t73.5 26t31.5 72v991l773 -1096q0 -106 -22 -170t-71.5 -95t-132.5 -31q-96 0 -261 42q-15 4 -29 4q-38 0 -62 -24t-24 -55q0 -28 21 -51t62 -33q183 -43 310 -43q102 0 177 27.5t129 87t81 158.5t27 239v1285q0 47 -31 73t-73 26 t-73 -26.5t-31 -72.5v-1001l-708 1021q-27 38 -67 58t-78 20q-54 0 -90 -38t-36 -103v-1193z" />
<glyph unicode="&#x14b;" horiz-adv-x="1179" d="M146 96q0 -45 29.5 -70.5t70.5 -25.5t71 25.5t30 70.5v475q4 140 82 222.5t189 82.5q99 0 157 -63t58 -183v-545q0 -148 -44 -214.5t-146 -66.5q-81 0 -215 41q-13 4 -25 4q-30 0 -49.5 -22t-19.5 -52q0 -17 6.5 -31.5t21 -27.5t36.5 -20q155 -48 273 -48 q173 0 268 107.5t96 339.5v533q0 98 -28 173.5t-78.5 121t-115 68t-141.5 22.5q-114 0 -199.5 -46t-125.5 -133v71q0 43 -29.5 67t-70.5 24t-71 -24.5t-30 -69.5v-806z" />
<glyph unicode="&#x14c;" horiz-adv-x="1607" d="M115 720q0 -224 81 -391t236.5 -259t368.5 -92q321 0 502.5 201t181.5 541t-181.5 541t-502.5 201q-213 0 -368.5 -92t-236.5 -259t-81 -391zM356 720q0 259 115 410t330 151q214 0 329 -151t115 -410q0 -260 -115 -410.5t-329 -150.5t-329.5 150.5t-115.5 410.5z M472 1758q0 -30 19 -50t54 -20h519q34 0 52 20t18 50t-18.5 50.5t-51.5 20.5h-519q-35 0 -54 -20.5t-19 -50.5z" />
<glyph unicode="&#x14d;" horiz-adv-x="1177" d="M83 498q0 -105 33 -197t95 -163t160 -112.5t219 -41.5t219 41.5t160 112.5t95 163.5t33 196.5q0 144 -57.5 259.5t-174 185.5t-275.5 70q-121 0 -218.5 -41t-160 -112t-95.5 -163.5t-33 -198.5zM257 1314q0 -30 19 -50t54 -20h519q34 0 52 20t18 50t-18.5 50.5 t-51.5 20.5h-519q-35 0 -54 -20.5t-19 -50.5zM282 498q0 176 81.5 277t226.5 101q144 0 226 -101.5t82 -276.5q0 -176 -81 -276t-227 -101q-144 0 -226 101t-82 276z" />
<glyph unicode="&#x14e;" horiz-adv-x="1607" d="M115 720q0 -224 81 -391t236.5 -259t368.5 -92q321 0 502.5 201t181.5 541t-181.5 541t-502.5 201q-213 0 -368.5 -92t-236.5 -259t-81 -391zM356 720q0 259 115 410t330 151q214 0 329 -151t115 -410q0 -260 -115 -410.5t-329 -150.5t-329.5 150.5t-115.5 410.5z M515 1827q0 -14 8 -32q34 -77 107 -119.5t173 -42.5t173 42.5t107 119.5q6 12 8 32q0 25 -18 40.5t-42 15.5q-38 0 -60 -34q-32 -46 -68.5 -64t-99.5 -18q-64 0 -100.5 18t-67.5 64q-21 34 -60 34q-24 0 -42 -15.5t-18 -40.5z" />
<glyph unicode="&#x14f;" horiz-adv-x="1177" d="M83 498q0 -105 33 -197t95 -163t160 -112.5t219 -41.5t219 41.5t160 112.5t95 163.5t33 196.5q0 144 -57.5 259.5t-174 185.5t-275.5 70q-121 0 -218.5 -41t-160 -112t-95.5 -163.5t-33 -198.5zM282 498q0 176 81.5 277t226.5 101q144 0 226 -101.5t82 -276.5 q0 -176 -81 -276t-227 -101q-144 0 -226 101t-82 276zM300 1383q0 -14 8 -32q34 -77 107 -119.5t173 -42.5t173 42.5t107 119.5q6 12 8 32q0 25 -18 40.5t-42 15.5q-38 0 -60 -34q-32 -46 -68.5 -64t-99.5 -18q-64 0 -100.5 18t-67.5 64q-21 34 -60 34q-24 0 -42 -15.5 t-18 -40.5z" />
<glyph unicode="&#x150;" horiz-adv-x="1607" d="M115 720q0 -224 81 -391t236.5 -259t368.5 -92q321 0 502.5 201t181.5 541t-181.5 541t-502.5 201q-213 0 -368.5 -92t-236.5 -259t-81 -391zM356 720q0 259 115 410t330 151q214 0 329 -151t115 -410q0 -260 -115 -410.5t-329 -150.5t-329.5 150.5t-115.5 410.5z M583 1555q0 -19 13.5 -32.5t34.5 -13.5q22 0 44 18l318 252q26 19 26 51q0 36 -32.5 67t-70.5 31q-36 0 -61 -31l-259 -309q-11 -12 -13 -33zM932 1555q0 -19 13 -32.5t33 -13.5q22 0 44 18l319 252q25 19 25 51q0 36 -32.5 67t-70.5 31q-36 0 -60 -31l-260 -309 q-11 -13 -11 -33z" />
<glyph unicode="&#x151;" horiz-adv-x="1177" d="M83 498q0 -105 33 -197t95 -163t160 -112.5t219 -41.5t219 41.5t160 112.5t95 163.5t33 196.5q0 144 -57.5 259.5t-174 185.5t-275.5 70q-121 0 -218.5 -41t-160 -112t-95.5 -163.5t-33 -198.5zM282 498q0 176 81.5 277t226.5 101q144 0 226 -101.5t82 -276.5 q0 -176 -81 -276t-227 -101q-144 0 -226 101t-82 276zM368 1111q0 -19 13.5 -32.5t34.5 -13.5q22 0 44 18l318 252q26 19 26 51q0 36 -32.5 67t-70.5 31q-36 0 -61 -31l-259 -309q-11 -12 -13 -33zM717 1111q0 -19 13 -32.5t33 -13.5q22 0 44 18l319 252q25 19 25 51 q0 36 -32.5 67t-70.5 31q-36 0 -60 -31l-260 -309q-11 -13 -11 -33z" />
<glyph unicode="&#x152;" horiz-adv-x="1997" d="M110 715q0 -340 166 -540.5t448 -200.5q54 0 139 6t149.5 12.5t69.5 6.5h712q40 0 63.5 25.5t23.5 60.5q0 36 -23.5 62t-63.5 26h-520v476h461q41 0 65 25t24 60t-24 61t-65 26h-461v437h497q41 0 64 26t23 62q0 34 -23 60t-64 26h-670q-6 0 -70.5 6t-150 12t-142.5 6 q-293 0 -460.5 -199t-167.5 -542zM336 717q0 94 15 178.5t47 157t78.5 125t112.5 82.5t146 30q90 0 169 -5.5t110.5 -10t39.5 -6.5v-1101q-4 -3 -40.5 -8.5t-114 -11.5t-164.5 -7q-81 0 -147.5 30.5t-112.5 83.5t-78 126t-46.5 157.5t-14.5 179.5z" />
<glyph unicode="&#x153;" horiz-adv-x="1847" d="M80 497q0 -103 30.5 -196t89.5 -166.5t155 -117t216 -43.5q241 0 366 214q54 -103 143.5 -160.5t209.5 -57.5q99 0 191 27t149.5 72.5t57.5 96.5q0 25 -15.5 42.5t-38.5 17.5q-18 0 -38 -12q-139 -90 -260 -90q-152 0 -222.5 91t-72.5 245h637q33 0 50 20t17 48 q-2 108 -30 197.5t-81.5 157.5t-139 105.5t-196.5 37.5q-119 0 -210 -56.5t-148 -155.5q-57 98 -150 153.5t-219 55.5q-97 0 -178.5 -28.5t-138.5 -77.5t-96.5 -116t-58.5 -143.5t-19 -160.5zM289 497q0 74 16.5 140.5t49 122t88.5 88.5t128 33t126.5 -34t86 -91t46.5 -124 t15 -141q-1 -72 -17 -137t-48 -119.5t-85.5 -87t-123.5 -32.5q-72 0 -128 33t-88.5 88.5t-49 121.5t-16.5 139zM1041 584q9 132 74.5 217.5t178.5 85.5q120 0 185.5 -81.5t74.5 -221.5h-513z" />
<glyph unicode="&#x154;" horiz-adv-x="1376" d="M175 109q0 -51 33.5 -79.5t79.5 -28.5t80 28.5t34 79.5v534h312h5q76 0 122.5 -12t76 -45.5t43 -81t22.5 -130.5l30 -273q5 -48 41 -74t81 -26q43 0 75 28t32 73q0 6 -1 13l-34 297q-31 275 -276 327v4q155 27 233 114.5t78 212.5q0 363 -513 363h-440q-47 0 -80.5 -32.5 t-33.5 -78.5v-1213zM402 818v435h299q39 0 62 -0.5t60.5 -5t60.5 -12t50.5 -22.5t43 -37t26.5 -55t11 -76q0 -60 -21 -102.5t-52 -66.5t-81 -37.5t-93.5 -17t-103.5 -3.5h-262zM637 1646q0 -20 13.5 -33t33.5 -13q21 0 44 18l314 248q29 23 29 56q0 38 -32.5 68.5 t-70.5 30.5q-35 0 -66 -39l-250 -298q-15 -20 -15 -38z" />
<glyph unicode="&#x155;" horiz-adv-x="746" d="M148 95q0 -46 29 -70.5t70 -24.5t72 25t31 70v489q0 127 75.5 189t208.5 62q33 0 51 24t18 57q0 36 -20 62t-56 26q-101 0 -177.5 -63t-101.5 -156l2 123q0 17 -5.5 31.5t-15 24.5t-22 17.5t-27 11t-30.5 3.5q-41 0 -71.5 -24.5t-30.5 -68.5v-808zM316 1209 q0 -20 13.5 -33t33.5 -13q21 0 44 18l314 248q29 23 29 56q0 38 -32.5 68.5t-70.5 30.5q-35 0 -66 -39l-250 -298q-15 -20 -15 -38z" />
<glyph unicode="&#x156;" horiz-adv-x="1376" d="M175 109q0 -51 33.5 -79.5t79.5 -28.5t80 28.5t34 79.5v534h312h5q76 0 122.5 -12t76 -45.5t43 -81t22.5 -130.5l30 -273q5 -48 41 -74t81 -26q43 0 75 28t32 73q0 6 -1 13l-34 297q-31 275 -276 327v4q155 27 233 114.5t78 212.5q0 363 -513 363h-440q-47 0 -80.5 -32.5 t-33.5 -78.5v-1213zM402 818v435h299q39 0 62 -0.5t60.5 -5t60.5 -12t50.5 -22.5t43 -37t26.5 -55t11 -76q0 -60 -21 -102.5t-52 -66.5t-81 -37.5t-93.5 -17t-103.5 -3.5h-262zM522 -586q0 -30 25 -31h55h3q21 0 33 10t20 33l145 414q1 3 2 8t1 10q0 35 -37 38h-103 q-64 -2 -73 -56l-70 -414q0 -3 -0.5 -6t-0.5 -6z" />
<glyph unicode="&#x157;" horiz-adv-x="746" d="M53 -586q0 -30 25 -31h55h3q21 0 33 10t20 33l145 414q1 3 2 8t1 10q0 35 -37 38h-103q-64 -2 -73 -56l-70 -414q0 -3 -0.5 -6t-0.5 -6zM148 95q0 -46 29 -70.5t70 -24.5t72 25t31 70v489q0 127 75.5 189t208.5 62q33 0 51 24t18 57q0 36 -20 62t-56 26 q-101 0 -177.5 -63t-101.5 -156l2 123q0 17 -5.5 31.5t-15 24.5t-22 17.5t-27 11t-30.5 3.5q-41 0 -71.5 -24.5t-30.5 -68.5v-808z" />
<glyph unicode="&#x158;" horiz-adv-x="1376" d="M175 109q0 -51 33.5 -79.5t79.5 -28.5t80 28.5t34 79.5v534h312h5q76 0 122.5 -12t76 -45.5t43 -81t22.5 -130.5l30 -273q5 -48 41 -74t81 -26q43 0 75 28t32 73q0 6 -1 13l-34 297q-31 275 -276 327v4q155 27 233 114.5t78 212.5q0 363 -513 363h-440q-47 0 -80.5 -32.5 t-33.5 -78.5v-1213zM387 1881q0 -24 20 -50l190 -262q42 -54 95 -54q55 0 94 54l190 261q18 26 18 49q0 27 -18.5 44.5t-45.5 17.5q-40 0 -71 -41l-167 -224l-167 224q-30 41 -73 41q-27 0 -46 -17t-19 -43zM402 818v435h299q39 0 62 -0.5t60.5 -5t60.5 -12t50.5 -22.5 t43 -37t26.5 -55t11 -76q0 -60 -21 -102.5t-52 -66.5t-81 -37.5t-93.5 -17t-103.5 -3.5h-262z" />
<glyph unicode="&#x159;" horiz-adv-x="746" d="M66 1444q0 -24 20 -50l190 -262q42 -54 95 -54q55 0 94 54l190 261q18 26 18 49q0 27 -18.5 44.5t-45.5 17.5q-40 0 -71 -41l-167 -224l-167 224q-30 41 -73 41q-27 0 -46 -17t-19 -43zM148 95q0 -46 29 -70.5t70 -24.5t72 25t31 70v489q0 127 75.5 189t208.5 62 q33 0 51 24t18 57q0 36 -20 62t-56 26q-101 0 -177.5 -63t-101.5 -156l2 123q0 17 -5.5 31.5t-15 24.5t-22 17.5t-27 11t-30.5 3.5q-41 0 -71.5 -24.5t-30.5 -68.5v-808z" />
<glyph unicode="&#x15a;" horiz-adv-x="1291" d="M125 180q0 -10 3 -18.5t10 -14.5q190 -169 505 -169q166 0 289.5 48.5t191.5 143.5t68 226q0 83 -24.5 146.5t-75 109.5t-113 78t-153.5 62l-303 98q-88 28 -129 72t-41 117q0 102 87.5 152t232.5 50q181 0 351 -102q23 -14 46 -14q36 0 61 28.5t25 63.5q0 34 -25 55 q-70 61 -201 105.5t-274 44.5q-148 0 -265.5 -45.5t-187 -135.5t-69.5 -210q0 -145 77 -229.5t239 -138.5l304 -101q117 -39 166.5 -87t49.5 -141q0 -105 -89.5 -160t-231.5 -55q-219 0 -399 130q-6 4 -12 6t-13 2q-34 0 -67 -40t-33 -77zM592 1646q0 -20 13.5 -33t33.5 -13 q21 0 44 18l314 248q29 23 29 56q0 38 -32.5 68.5t-70.5 30.5q-35 0 -66 -39l-250 -298q-15 -20 -15 -38z" />
<glyph unicode="&#x15b;" horiz-adv-x="1004" d="M108 741q0 -39 7.5 -71t19.5 -56t34 -44t44.5 -34t58.5 -27.5t67.5 -23t78.5 -21.5l170 -43q82 -21 119 -55t37 -89q0 -80 -65.5 -120t-168.5 -40q-147 0 -286 85q-24 14 -47 14q-29 0 -48 -20t-19 -46q0 -35 31 -57q107 -76 264 -102q58 -9 114 -9q86 0 157.5 19 t125.5 56.5t84 97.5t30 137q0 110 -68 179t-221 108l-168 41q-101 25 -132.5 49t-31.5 81q0 45 30.5 75.5t79 43t111.5 12.5q21 0 43 -2t40 -5t38 -7.5t34.5 -9t32 -10t27.5 -9.5t24.5 -9.5t19.5 -7.5q18 -6 33 -6q14 0 26 5t20 13.5t12 20t4 23.5q0 43 -43 64 q-58 30 -143 52.5t-183 22.5q-218 0 -322 -100q-71 -69 -71 -175zM433 1210q0 -20 13.5 -33t33.5 -13q21 0 44 18l314 248q29 23 29 56q0 38 -32.5 68.5t-70.5 30.5q-35 0 -66 -39l-250 -298q-15 -20 -15 -38z" />
<glyph unicode="&#x15c;" horiz-adv-x="1291" d="M125 180q0 -10 3 -18.5t10 -14.5q190 -169 505 -169q166 0 289.5 48.5t191.5 143.5t68 226q0 83 -24.5 146.5t-75 109.5t-113 78t-153.5 62l-303 98q-88 28 -129 72t-41 117q0 102 87.5 152t232.5 50q181 0 351 -102q23 -14 46 -14q36 0 61 28.5t25 63.5q0 34 -25 55 q-70 61 -201 105.5t-274 44.5q-148 0 -265.5 -45.5t-187 -135.5t-69.5 -210q0 -145 77 -229.5t239 -138.5l304 -101q117 -39 166.5 -87t49.5 -141q0 -105 -89.5 -160t-231.5 -55q-219 0 -399 130q-6 4 -12 6t-13 2q-34 0 -67 -40t-33 -77zM341 1603q0 -28 17.5 -45.5 t45.5 -17.5q41 0 74 41l168 224l166 -224q30 -40 73 -40q26 0 44.5 17.5t18.5 42.5q0 22 -19 50l-189 261q-44 54 -95 54q-53 0 -95 -54l-190 -262l-6 -8t-5 -8t-3.5 -8t-2.5 -8t-1.5 -7.5t-0.5 -7.5z" />
<glyph unicode="&#x15d;" horiz-adv-x="1004" d="M108 741q0 -39 7.5 -71t19.5 -56t34 -44t44.5 -34t58.5 -27.5t67.5 -23t78.5 -21.5l170 -43q82 -21 119 -55t37 -89q0 -80 -65.5 -120t-168.5 -40q-147 0 -286 85q-24 14 -47 14q-29 0 -48 -20t-19 -46q0 -35 31 -57q107 -76 264 -102q58 -9 114 -9q86 0 157.5 19 t125.5 56.5t84 97.5t30 137q0 110 -68 179t-221 108l-168 41q-101 25 -132.5 49t-31.5 81q0 45 30.5 75.5t79 43t111.5 12.5q21 0 43 -2t40 -5t38 -7.5t34.5 -9t32 -10t27.5 -9.5t24.5 -9.5t19.5 -7.5q18 -6 33 -6q14 0 26 5t20 13.5t12 20t4 23.5q0 43 -43 64 q-58 30 -143 52.5t-183 22.5q-218 0 -322 -100q-71 -69 -71 -175zM182 1167q0 -28 17.5 -45.5t45.5 -17.5q41 0 74 41l168 224l166 -224q30 -40 73 -40q26 0 44.5 17.5t18.5 42.5q0 22 -19 50l-189 261q-44 54 -95 54q-53 0 -95 -54l-190 -262l-6 -8t-5 -8t-3.5 -8t-2.5 -8 t-1.5 -7.5t-0.5 -7.5z" />
<glyph unicode="&#x15e;" horiz-adv-x="1291" d="M125 180q0 -10 3 -18.5t10 -14.5q190 -169 505 -169q166 0 289.5 48.5t191.5 143.5t68 226q0 83 -24.5 146.5t-75 109.5t-113 78t-153.5 62l-303 98q-88 28 -129 72t-41 117q0 102 87.5 152t232.5 50q181 0 351 -102q23 -14 46 -14q36 0 61 28.5t25 63.5q0 34 -25 55 q-70 61 -201 105.5t-274 44.5q-148 0 -265.5 -45.5t-187 -135.5t-69.5 -210q0 -145 77 -229.5t239 -138.5l304 -101q117 -39 166.5 -87t49.5 -141q0 -105 -89.5 -160t-231.5 -55q-219 0 -399 130q-6 4 -12 6t-13 2q-34 0 -67 -40t-33 -77zM423 -325q0 -35 72 -56t162 -21 q84 0 144.5 40t61.5 114q0 147 -181 149q-5 0 -17.5 -0.5t-19.5 -0.5l38 112h-73l-48 -131q-5 -13 -5 -21q0 -33 42 -33q6 0 18 2q44 0 75.5 -17.5t31.5 -54.5q0 -40 -22.5 -60.5t-75.5 -20.5q-61 0 -159 34q-7 3 -12 3q-14 0 -23 -11.5t-9 -26.5z" />
<glyph unicode="&#x15f;" horiz-adv-x="1004" d="M108 741q0 -39 7.5 -71t19.5 -56t34 -44t44.5 -34t58.5 -27.5t67.5 -23t78.5 -21.5l170 -43q82 -21 119 -55t37 -89q0 -80 -65.5 -120t-168.5 -40q-147 0 -286 85q-24 14 -47 14q-29 0 -48 -20t-19 -46q0 -35 31 -57q107 -76 264 -102q58 -9 114 -9q86 0 157.5 19 t125.5 56.5t84 97.5t30 137q0 110 -68 179t-221 108l-168 41q-101 25 -132.5 49t-31.5 81q0 45 30.5 75.5t79 43t111.5 12.5q21 0 43 -2t40 -5t38 -7.5t34.5 -9t32 -10t27.5 -9.5t24.5 -9.5t19.5 -7.5q18 -6 33 -6q14 0 26 5t20 13.5t12 20t4 23.5q0 43 -43 64 q-58 30 -143 52.5t-183 22.5q-218 0 -322 -100q-71 -69 -71 -175zM284 -331q0 -35 72 -56t162 -21q84 0 144.5 40t61.5 114q0 147 -181 149q-5 0 -17.5 -0.5t-19.5 -0.5l38 112h-73l-48 -131q-5 -13 -5 -21q0 -33 42 -33q6 0 18 2q44 0 75.5 -17.5t31.5 -54.5 q0 -40 -22.5 -60.5t-75.5 -20.5q-61 0 -159 34q-7 3 -12 3q-14 0 -23 -11.5t-9 -26.5z" />
<glyph unicode="&#x160;" horiz-adv-x="1291" d="M125 180q0 -10 3 -18.5t10 -14.5q190 -169 505 -169q166 0 289.5 48.5t191.5 143.5t68 226q0 83 -24.5 146.5t-75 109.5t-113 78t-153.5 62l-303 98q-88 28 -129 72t-41 117q0 102 87.5 152t232.5 50q181 0 351 -102q23 -14 46 -14q36 0 61 28.5t25 63.5q0 34 -25 55 q-70 61 -201 105.5t-274 44.5q-148 0 -265.5 -45.5t-187 -135.5t-69.5 -210q0 -145 77 -229.5t239 -138.5l304 -101q117 -39 166.5 -87t49.5 -141q0 -105 -89.5 -160t-231.5 -55q-219 0 -399 130q-6 4 -12 6t-13 2q-34 0 -67 -40t-33 -77zM342 1881q0 -24 20 -50l190 -262 q42 -54 95 -54q55 0 94 54l190 261q18 26 18 49q0 27 -18.5 44.5t-45.5 17.5q-40 0 -71 -41l-167 -224l-167 224q-30 41 -73 41q-27 0 -46 -17t-19 -43z" />
<glyph unicode="&#x161;" horiz-adv-x="779" d="M108 741q0 -39 7.5 -71t19.5 -56t34 -44t44.5 -34t58.5 -27.5t67.5 -23t78.5 -21.5l170 -43q82 -21 119 -55t37 -89q0 -80 -65.5 -120t-168.5 -40q-147 0 -286 85q-24 14 -47 14q-29 0 -48 -20t-19 -46q0 -35 31 -57q107 -76 264 -102q58 -9 114 -9q86 0 157.5 19 t125.5 56.5t84 97.5t30 137q0 110 -68 179t-221 108l-168 41q-101 25 -132.5 49t-31.5 81q0 45 30.5 75.5t79 43t111.5 12.5q21 0 43 -2t40 -5t38 -7.5t34.5 -9t32 -10t27.5 -9.5t24.5 -9.5t19.5 -7.5q18 -6 33 -6q14 0 26 5t20 13.5t12 20t4 23.5q0 43 -43 64 q-58 30 -143 52.5t-183 22.5q-218 0 -322 -100q-71 -69 -71 -175zM200 1444q0 -24 20 -50l190 -262q42 -54 95 -54q55 0 94 54l190 261q18 26 18 49q0 27 -18.5 44.5t-45.5 17.5q-40 0 -71 -41l-167 -224l-167 224q-30 41 -73 41q-27 0 -46 -17t-19 -43z" />
<glyph unicode="&#x162;" horiz-adv-x="1175" d="M26 1342q0 -36 24 -63t66 -27h362v-1142q0 -52 34 -81.5t80 -29.5t80 29.5t34 81.5v1142h359q42 0 66 27t24 64q0 36 -24 63t-66 27h-949q-42 0 -66 -27t-24 -64zM365 -325q0 -35 72 -56t162 -21q84 0 144.5 40t61.5 114q0 147 -181 149q-5 0 -17.5 -0.5t-19.5 -0.5 l38 112h-73l-48 -131q-5 -13 -5 -21q0 -33 42 -33q6 0 18 2q44 0 75.5 -17.5t31.5 -54.5q0 -40 -22.5 -60.5t-75.5 -20.5q-61 0 -159 34q-7 3 -12 3q-14 0 -23 -11.5t-9 -26.5z" />
<glyph unicode="&#x163;" horiz-adv-x="756" d="M30 922q0 -29 19 -47.5t55 -18.5h116v-565q0 -149 71 -226t193 -77h9.5h10h9.5h10h9q22 0 38 0.5t35.5 2.5t32.5 5.5t26.5 9.5t21.5 14.5t13 21.5t5 29q0 31 -21.5 54.5t-58.5 23.5h-6l-71 -4h-10q-61 0 -88 46t-27 142v523h179q36 0 54 17.5t18 46.5t-18 48t-54 19h-179 v286q0 39 -21.5 59t-54.5 20q-39 0 -66.5 -25t-32.5 -63l-27 -277h-117q-36 0 -54.5 -18t-18.5 -47zM229 -325q0 -35 72 -56t162 -21q84 0 144.5 40t61.5 114q0 147 -181 149q-5 0 -17.5 -0.5t-19.5 -0.5l38 112h-73l-48 -131q-5 -13 -5 -21q0 -33 42 -33q6 0 18 2 q44 0 75.5 -17.5t31.5 -54.5q0 -40 -22.5 -60.5t-75.5 -20.5q-61 0 -159 34q-7 3 -12 3q-14 0 -23 -11.5t-9 -26.5z" />
<glyph unicode="&#x164;" horiz-adv-x="1175" d="M26 1342q0 -36 24 -63t66 -27h362v-1142q0 -52 34 -81.5t80 -29.5t80 29.5t34 81.5v1142h359q42 0 66 27t24 64q0 36 -24 63t-66 27h-949q-42 0 -66 -27t-24 -64zM292 1885q0 -24 20 -50l190 -262q42 -54 95 -54q55 0 94 54l190 261q18 26 18 49q0 27 -18.5 44.5 t-45.5 17.5q-40 0 -71 -41l-167 -224l-167 224q-30 41 -73 41q-27 0 -46 -17t-19 -43z" />
<glyph unicode="&#x165;" horiz-adv-x="756" d="M30 922q0 -29 19 -47.5t55 -18.5h116v-565q0 -149 71 -226t193 -77h9.5h10h9.5h10h9q22 0 38 0.5t35.5 2.5t32.5 5.5t26.5 9.5t21.5 14.5t13 21.5t5 29q0 31 -21.5 54.5t-58.5 23.5h-6l-71 -4h-10q-61 0 -88 46t-27 142v523h179q36 0 54 17.5t18 46.5t-18 48t-54 19h-179 v286q0 39 -21.5 59t-54.5 20q-39 0 -66.5 -25t-32.5 -63l-27 -277h-117q-36 0 -54.5 -18t-18.5 -47zM606 1101q0 -30 25 -31h55h3q21 0 33 10t20 33l145 414q3 8 3 18q0 35 -37 38h-103q-64 -2 -73 -56l-70 -414q0 -2 -0.5 -3.5t-0.5 -4v-4.5z" />
<glyph unicode="&#x166;" horiz-adv-x="1175" d="M26 1342q0 -36 24 -63t66 -27h362v-1142q0 -52 34 -81.5t80 -29.5t80 29.5t34 81.5v1142h359q42 0 66 27t24 64q0 36 -24 63t-66 27h-949q-42 0 -66 -27t-24 -64zM260 775q0 -30 19 -50t54 -20h519q34 0 52 20t18 50t-18.5 50.5t-51.5 20.5h-519q-35 0 -54 -20.5 t-19 -50.5z" />
<glyph unicode="&#x167;" horiz-adv-x="756" d="M18 599q0 -30 19 -50t54 -20h519q34 0 52 20t18 50t-18.5 50.5t-51.5 20.5h-519q-35 0 -54 -20.5t-19 -50.5zM30 922q0 -29 19 -47.5t55 -18.5h116v-565q0 -149 71 -226t193 -77h9.5h10h9.5h10h9q22 0 38 0.5t35.5 2.5t32.5 5.5t26.5 9.5t21.5 14.5t13 21.5t5 29 q0 31 -21.5 54.5t-58.5 23.5h-6l-71 -4h-10q-61 0 -88 46t-27 142v523h179q36 0 54 17.5t18 46.5t-18 48t-54 19h-179v286q0 39 -21.5 59t-54.5 20q-39 0 -66.5 -25t-32.5 -63l-27 -277h-117q-36 0 -54.5 -18t-18.5 -47z" />
<glyph unicode="&#x168;" horiz-adv-x="1501" d="M177 498q0 -103 30.5 -188.5t83.5 -146.5t125.5 -103t157 -62t177.5 -20q118 0 220.5 32.5t182.5 95t126.5 163.5t46.5 229v830q0 52 -33.5 80.5t-79.5 28.5q-47 0 -81 -29t-34 -80v-824q0 -70 -19.5 -128t-53 -97.5t-78 -67t-94.5 -40t-103 -12.5q-67 0 -127.5 20.5 t-110 61t-79 108.5t-29.5 155v824q0 52 -34 80.5t-80 28.5q-47 0 -80.5 -29t-33.5 -80v-830zM439 1631q0 -21 13.5 -32.5t34.5 -11.5q38 0 61 33q33 47 74 47q33 0 119 -40t133 -40q44 0 84.5 20t67.5 57.5t27 83.5q0 23 -19 28q-3 27 -31 27q-25 -3 -60.5 -42t-59.5 -39 q-29 0 -116.5 38.5t-142.5 38.5q-143 0 -182 -153q-3 -8 -3 -15z" />
<glyph unicode="&#x169;" d="M136 370q0 -193 100.5 -289.5t260.5 -96.5q114 0 200 46.5t126 132.5v-72q0 -43 29.5 -67t70.5 -24q42 0 72 25t30 70v805q0 46 -29.5 71.5t-70.5 25.5q-42 0 -72 -25.5t-30 -71.5v-474q-4 -139 -82.5 -222t-190.5 -83q-99 0 -156 63t-57 184v532q0 46 -29.5 71.5 t-70.5 25.5t-71 -25.5t-30 -71.5v-530zM258 1191q0 -21 13.5 -32.5t34.5 -11.5q38 0 61 33q33 47 74 47q33 0 119 -40t133 -40q44 0 84.5 20t67.5 57.5t27 83.5q0 23 -19 28q-3 27 -31 27q-25 -3 -60.5 -42t-59.5 -39q-29 0 -116.5 38.5t-142.5 38.5q-143 0 -182 -153 q-3 -8 -3 -15z" />
<glyph unicode="&#x16a;" horiz-adv-x="1501" d="M177 498q0 -103 30.5 -188.5t83.5 -146.5t125.5 -103t157 -62t177.5 -20q118 0 220.5 32.5t182.5 95t126.5 163.5t46.5 229v830q0 52 -33.5 80.5t-79.5 28.5q-47 0 -81 -29t-34 -80v-824q0 -70 -19.5 -128t-53 -97.5t-78 -67t-94.5 -40t-103 -12.5q-67 0 -127.5 20.5 t-110 61t-79 108.5t-29.5 155v824q0 52 -34 80.5t-80 28.5q-47 0 -80.5 -29t-33.5 -80v-830zM428 1754q0 -30 19 -50t54 -20h519q34 0 52 20t18 50t-18.5 50.5t-51.5 20.5h-519q-35 0 -54 -20.5t-19 -50.5z" />
<glyph unicode="&#x16b;" d="M136 370q0 -193 100.5 -289.5t260.5 -96.5q114 0 200 46.5t126 132.5v-72q0 -43 29.5 -67t70.5 -24q42 0 72 25t30 70v805q0 46 -29.5 71.5t-70.5 25.5q-42 0 -72 -25.5t-30 -71.5v-474q-4 -139 -82.5 -222t-190.5 -83q-99 0 -156 63t-57 184v532q0 46 -29.5 71.5 t-70.5 25.5t-71 -25.5t-30 -71.5v-530zM247 1314q0 -30 19 -50t54 -20h519q34 0 52 20t18 50t-18.5 50.5t-51.5 20.5h-519q-35 0 -54 -20.5t-19 -50.5z" />
<glyph unicode="&#x16c;" horiz-adv-x="1501" d="M177 498q0 -103 30.5 -188.5t83.5 -146.5t125.5 -103t157 -62t177.5 -20q118 0 220.5 32.5t182.5 95t126.5 163.5t46.5 229v830q0 52 -33.5 80.5t-79.5 28.5q-47 0 -81 -29t-34 -80v-824q0 -70 -19.5 -128t-53 -97.5t-78 -67t-94.5 -40t-103 -12.5q-67 0 -127.5 20.5 t-110 61t-79 108.5t-29.5 155v824q0 52 -34 80.5t-80 28.5q-47 0 -80.5 -29t-33.5 -80v-830zM471 1823q0 -14 8 -32q34 -77 107 -119.5t173 -42.5t173 42.5t107 119.5q6 12 8 32q0 25 -18 40.5t-42 15.5q-38 0 -60 -34q-32 -46 -68.5 -64t-99.5 -18q-64 0 -100.5 18 t-67.5 64q-21 34 -60 34q-24 0 -42 -15.5t-18 -40.5z" />
<glyph unicode="&#x16d;" d="M136 370q0 -193 100.5 -289.5t260.5 -96.5q114 0 200 46.5t126 132.5v-72q0 -43 29.5 -67t70.5 -24q42 0 72 25t30 70v805q0 46 -29.5 71.5t-70.5 25.5q-42 0 -72 -25.5t-30 -71.5v-474q-4 -139 -82.5 -222t-190.5 -83q-99 0 -156 63t-57 184v532q0 46 -29.5 71.5 t-70.5 25.5t-71 -25.5t-30 -71.5v-530zM291 1383q0 -14 8 -32q34 -77 107 -119.5t173 -42.5t173 42.5t107 119.5q6 12 8 32q0 25 -18 40.5t-42 15.5q-38 0 -60 -34q-32 -46 -68.5 -64t-99.5 -18q-64 0 -100.5 18t-67.5 64q-21 34 -60 34q-24 0 -42 -15.5t-18 -40.5z" />
<glyph unicode="&#x16e;" horiz-adv-x="1501" d="M177 498q0 -103 30.5 -188.5t83.5 -146.5t125.5 -103t157 -62t177.5 -20q118 0 220.5 32.5t182.5 95t126.5 163.5t46.5 229v830q0 52 -33.5 80.5t-79.5 28.5q-47 0 -81 -29t-34 -80v-824q0 -70 -19.5 -128t-53 -97.5t-78 -67t-94.5 -40t-103 -12.5q-67 0 -127.5 20.5 t-110 61t-79 108.5t-29.5 155v824q0 52 -34 80.5t-80 28.5q-47 0 -80.5 -29t-33.5 -80v-830zM560 1776q0 -87 55.5 -140.5t144.5 -53.5t144 53.5t55 140.5q0 86 -55 139t-144 53t-144.5 -53t-55.5 -139zM653 1776q0 46 29.5 74.5t77.5 28.5t77.5 -28.5t29.5 -74.5 q0 -47 -29.5 -75.5t-77.5 -28.5t-77.5 28.5t-29.5 75.5z" />
<glyph unicode="&#x16f;" d="M136 370q0 -193 100.5 -289.5t260.5 -96.5q114 0 200 46.5t126 132.5v-72q0 -43 29.5 -67t70.5 -24q42 0 72 25t30 70v805q0 46 -29.5 71.5t-70.5 25.5q-42 0 -72 -25.5t-30 -71.5v-474q-4 -139 -82.5 -222t-190.5 -83q-99 0 -156 63t-57 184v532q0 46 -29.5 71.5 t-70.5 25.5t-71 -25.5t-30 -71.5v-530zM379 1336q0 -87 55.5 -140.5t144.5 -53.5t144 53.5t55 140.5q0 86 -55 139t-144 53t-144.5 -53t-55.5 -139zM472 1336q0 46 29.5 74.5t77.5 28.5t77.5 -28.5t29.5 -74.5q0 -47 -29.5 -75.5t-77.5 -28.5t-77.5 28.5t-29.5 75.5z" />
<glyph unicode="&#x170;" horiz-adv-x="1501" d="M177 498q0 -103 30.5 -188.5t83.5 -146.5t125.5 -103t157 -62t177.5 -20q118 0 220.5 32.5t182.5 95t126.5 163.5t46.5 229v830q0 52 -33.5 80.5t-79.5 28.5q-47 0 -81 -29t-34 -80v-824q0 -70 -19.5 -128t-53 -97.5t-78 -67t-94.5 -40t-103 -12.5q-67 0 -127.5 20.5 t-110 61t-79 108.5t-29.5 155v824q0 52 -34 80.5t-80 28.5q-47 0 -80.5 -29t-33.5 -80v-830zM539 1551q0 -19 13.5 -32.5t34.5 -13.5q22 0 44 18l318 252q26 19 26 51q0 36 -32.5 67t-70.5 31q-36 0 -61 -31l-259 -309q-11 -12 -13 -33zM888 1551q0 -19 13 -32.5t33 -13.5 q22 0 44 18l319 252q25 19 25 51q0 36 -32.5 67t-70.5 31q-36 0 -60 -31l-260 -309q-11 -13 -11 -33z" />
<glyph unicode="&#x171;" d="M136 370q0 -193 100.5 -289.5t260.5 -96.5q114 0 200 46.5t126 132.5v-72q0 -43 29.5 -67t70.5 -24q42 0 72 25t30 70v805q0 46 -29.5 71.5t-70.5 25.5q-42 0 -72 -25.5t-30 -71.5v-474q-4 -139 -82.5 -222t-190.5 -83q-99 0 -156 63t-57 184v532q0 46 -29.5 71.5 t-70.5 25.5t-71 -25.5t-30 -71.5v-530zM358 1111q0 -19 13.5 -32.5t34.5 -13.5q22 0 44 18l318 252q26 19 26 51q0 36 -32.5 67t-70.5 31q-36 0 -61 -31l-259 -309q-11 -12 -13 -33zM707 1111q0 -19 13 -32.5t33 -13.5q22 0 44 18l319 252q25 19 25 51q0 36 -32.5 67 t-70.5 31q-36 0 -60 -31l-260 -309q-11 -13 -11 -33z" />
<glyph unicode="&#x172;" horiz-adv-x="1501" d="M177 498q0 -103 30.5 -188.5t83.5 -146.5t125.5 -103t157 -62t177.5 -20q118 0 220.5 32.5t182.5 95t126.5 163.5t46.5 229v830q0 52 -33.5 80.5t-79.5 28.5q-47 0 -81 -29t-34 -80v-824q0 -70 -19.5 -128t-53 -97.5t-78 -67t-94.5 -40t-103 -12.5q-67 0 -127.5 20.5 t-110 61t-79 108.5t-29.5 155v824q0 52 -34 80.5t-80 28.5q-47 0 -80.5 -29t-33.5 -80v-830zM716 -269q0 -53 25 -92.5t71 -60.5t108 -21q77 0 165 33v94q-39 0 -72.5 6.5t-64.5 21t-49 44t-18 70.5q0 73 60 183h-95q-130 -153 -130 -278z" />
<glyph unicode="&#x173;" d="M136 370q0 -193 100.5 -289.5t260.5 -96.5q114 0 200 46.5t126 132.5v-72q0 -43 29.5 -67t70.5 -24q42 0 72 25t30 70v805q0 46 -29.5 71.5t-70.5 25.5q-42 0 -72 -25.5t-30 -71.5v-474q-4 -139 -82.5 -222t-190.5 -83q-99 0 -156 63t-57 184v532q0 46 -29.5 71.5 t-70.5 25.5t-71 -25.5t-30 -71.5v-530zM758 -258q0 -53 25 -92.5t71 -60.5t108 -21q77 0 165 33v94q-39 0 -72.5 6.5t-64.5 21t-49 44t-18 70.5q0 73 60 183h-95q-130 -153 -130 -278z" />
<glyph unicode="&#x174;" horiz-adv-x="2144" d="M51 1334q0 -15 4 -32l319 -1179q16 -60 62 -92.5t102.5 -32.5t104.5 32t66 91l335 1054l335 -1054q19 -59 65.5 -91t103.5 -32t103.5 32.5t62.5 92.5l319 1179q2 6 3 11.5t1 10.5v10q0 45 -33.5 72t-77.5 27q-36 0 -65 -19.5t-38 -56.5l-288 -1135l-341 1090 q-22 71 -58 96t-92 25q-55 0 -91.5 -26t-58.5 -95l-341 -1090l-288 1135q-4 15 -11.5 28t-17.5 21.5t-22 14.5t-25 9t-27 3q-28 0 -53 -11t-41.5 -34.5t-16.5 -53.5zM754 1603q0 -28 17.5 -45.5t45.5 -17.5q41 0 74 41l168 224l166 -224q30 -40 73 -40q26 0 44.5 17.5 t18.5 42.5q0 22 -19 50l-189 261q-44 54 -95 54q-53 0 -95 -54l-190 -262l-6 -8t-5 -8t-3.5 -8t-2.5 -8t-1.5 -7.5t-0.5 -7.5z" />
<glyph unicode="&#x175;" horiz-adv-x="1713" d="M80 909q0 -17 6 -34l258 -763q36 -112 131 -112q102 0 144 123l239 682l238 -682q43 -123 145 -123q94 0 131 112l258 763q6 17 6 34q0 11 -3 21.5t-8 19t-11.5 15.5t-15 12.5t-18 9.5t-19.5 6t-20 2q-29 0 -52.5 -16t-33.5 -48l-231 -720l-235 678q-37 108 -131 108 q-95 0 -132 -108l-235 -678l-230 720q-10 32 -34 48t-53 16q-10 0 -20 -2t-19 -6t-17.5 -9.5t-15 -12.5t-11.5 -15.5t-8 -19t-3 -21.5zM553 1169q0 -28 17.5 -45.5t45.5 -17.5q41 0 74 41l168 224l166 -224q30 -40 73 -40q26 0 44.5 17.5t18.5 42.5q0 22 -19 50l-189 261 q-44 54 -95 54q-53 0 -95 -54l-190 -262l-6 -8t-5 -8t-3.5 -8t-2.5 -8t-1.5 -7.5t-0.5 -7.5z" />
<glyph unicode="&#x176;" horiz-adv-x="1292" d="M72 1328q0 -6 1 -12t3 -12t5 -12.5t7 -12.5l443 -688v-481q0 -52 33.5 -80.5t79.5 -28.5q30 0 55 11.5t42 37t17 60.5v489l446 696q17 27 17 53q0 18 -8 34t-21.5 27.5t-31 18t-35.5 6.5q-56 0 -87 -51l-381 -615l-375 606q-35 56 -95 56q-12 0 -24.5 -2.5t-23.5 -7.5 t-21.5 -12t-18.5 -16t-14 -19t-9.5 -21.5t-3.5 -23.5zM357 1603q0 -28 17.5 -45.5t45.5 -17.5q41 0 74 41l168 224l166 -224q30 -40 73 -40q26 0 44.5 17.5t18.5 42.5q0 22 -19 50l-189 261q-44 54 -95 54q-53 0 -95 -54l-190 -262l-6 -8t-5 -8t-3.5 -8t-2.5 -8t-1.5 -7.5 t-0.5 -7.5z" />
<glyph unicode="&#x177;" horiz-adv-x="1051" d="M73 898q0 -22 11 -44l366 -736l-189 -392q-10 -21 -10 -42q0 -37 30 -63.5t68 -26.5q57 0 85 57l588 1216q10 20 10 41q0 38 -29.5 64.5t-68.5 26.5q-26 0 -49.5 -15t-38.5 -46l-295 -611l-291 603q-10 20 -24.5 34t-30 20t-32.5 6q-39 0 -69.5 -27t-30.5 -65zM256 1174 q0 -28 17.5 -45.5t45.5 -17.5q41 0 74 41l168 224l166 -224q30 -40 73 -40q26 0 44.5 17.5t18.5 42.5q0 22 -19 50l-189 261q-44 54 -95 54q-53 0 -95 -54l-190 -262l-6 -8t-5 -8t-3.5 -8t-2.5 -8t-1.5 -7.5t-0.5 -7.5z" />
<glyph unicode="&#x178;" horiz-adv-x="1292" d="M72 1328q0 -6 1 -12t3 -12t5 -12.5t7 -12.5l443 -688v-481q0 -52 33.5 -80.5t79.5 -28.5q30 0 55 11.5t42 37t17 60.5v489l446 696q17 27 17 53q0 18 -8 34t-21.5 27.5t-31 18t-35.5 6.5q-56 0 -87 -51l-381 -615l-375 606q-35 56 -95 56q-12 0 -24.5 -2.5t-23.5 -7.5 t-21.5 -12t-18.5 -16t-14 -19t-9.5 -21.5t-3.5 -23.5zM352 1704q0 -45 32.5 -76.5t83.5 -31.5t83.5 32t32.5 76t-32.5 75.5t-83.5 31.5q-52 0 -84 -31.5t-32 -75.5zM752 1704q0 -45 32.5 -76.5t83.5 -31.5t83.5 32t32.5 76t-32.5 75.5t-83.5 31.5q-52 0 -84 -32t-32 -75z " />
<glyph unicode="&#x179;" horiz-adv-x="1184" d="M89 101q0 -43 30 -72t89 -29h830q42 0 65 27.5t23 63.5q0 35 -23 62t-65 27h-682l752 1081q25 36 25 76q0 41 -28.5 68.5t-75.5 27.5h-842q-42 0 -64.5 -27t-22.5 -63t23 -63.5t64 -27.5h675l-750 -1080q-23 -34 -23 -71zM577 1646q0 -20 13.5 -33t33.5 -13q21 0 44 18 l314 248q29 23 29 56q0 38 -32.5 68.5t-70.5 30.5q-35 0 -66 -39l-250 -298q-15 -20 -15 -38z" />
<glyph unicode="&#x17a;" horiz-adv-x="952" d="M79 87q0 -37 26.5 -62t71.5 -25h610q37 0 58 23t21 54q0 32 -20.5 54.5t-58.5 22.5h-467l525 687q27 37 27 73t-27 59.5t-77 23.5h-595q-37 0 -57.5 -23t-20.5 -55t20.5 -54.5t57.5 -22.5h456l-525 -686q-25 -32 -25 -69zM420 1209q0 -20 13.5 -33t33.5 -13q21 0 44 18 l314 248q29 23 29 56q0 38 -32.5 68.5t-70.5 30.5q-35 0 -66 -39l-250 -298q-15 -20 -15 -38z" />
<glyph unicode="&#x17b;" horiz-adv-x="1184" d="M89 101q0 -43 30 -72t89 -29h830q42 0 65 27.5t23 63.5q0 35 -23 62t-65 27h-682l752 1081q25 36 25 76q0 41 -28.5 68.5t-75.5 27.5h-842q-42 0 -64.5 -27t-22.5 -63t23 -63.5t64 -27.5h675l-750 -1080q-23 -34 -23 -71zM510 1734q0 -48 33.5 -82t89.5 -34q57 0 91 34 t34 82q0 46 -34.5 80t-90.5 34q-55 0 -89 -34t-34 -80z" />
<glyph unicode="&#x17c;" horiz-adv-x="952" d="M79 87q0 -37 26.5 -62t71.5 -25h610q37 0 58 23t21 54q0 32 -20.5 54.5t-58.5 22.5h-467l525 687q27 37 27 73t-27 59.5t-77 23.5h-595q-37 0 -57.5 -23t-20.5 -55t20.5 -54.5t57.5 -22.5h456l-525 -686q-25 -32 -25 -69zM353 1297q0 -48 33.5 -82t89.5 -34q57 0 91 34 t34 82q0 46 -34.5 80t-90.5 34q-55 0 -89 -34t-34 -80z" />
<glyph unicode="&#x17d;" horiz-adv-x="1184" d="M89 101q0 -43 30 -72t89 -29h830q42 0 65 27.5t23 63.5q0 35 -23 62t-65 27h-682l752 1081q25 36 25 76q0 41 -28.5 68.5t-75.5 27.5h-842q-42 0 -64.5 -27t-22.5 -63t23 -63.5t64 -27.5h675l-750 -1080q-23 -34 -23 -71zM327 1881q0 -24 20 -50l190 -262q42 -54 95 -54 q55 0 94 54l190 261q18 26 18 49q0 27 -18.5 44.5t-45.5 17.5q-40 0 -71 -41l-167 -224l-167 224q-30 41 -73 41q-27 0 -46 -17t-19 -43z" />
<glyph unicode="&#x17e;" horiz-adv-x="952" d="M79 87q0 -37 26.5 -62t71.5 -25h610q37 0 58 23t21 54q0 32 -20.5 54.5t-58.5 22.5h-467l525 687q27 37 27 73t-27 59.5t-77 23.5h-595q-37 0 -57.5 -23t-20.5 -55t20.5 -54.5t57.5 -22.5h456l-525 -686q-25 -32 -25 -69zM170 1444q0 -24 20 -50l190 -262q42 -54 95 -54 q55 0 94 54l190 261q18 26 18 49q0 27 -18.5 44.5t-45.5 17.5q-40 0 -71 -41l-167 -224l-167 224q-30 41 -73 41q-27 0 -46 -17t-19 -43z" />
<glyph unicode="&#x192;" horiz-adv-x="1203" d="M-30 -474q0 -27 24 -45.5t71 -18.5q52 0 98.5 13.5t97 49.5t93 94.5t83 154t70.5 222.5q27 112 55 244t61 291.5t50 241.5h202q39 0 61 24.5t22 58.5t-22 59t-61 25h-169q53 261 121.5 375t169.5 114q51 0 80 22t29 51q0 26 -24 45t-67 19q-366 0 -479 -626h-178 q-39 0 -61.5 -25t-22.5 -58q0 -34 22.5 -59t61.5 -25h146q-18 -84 -50 -242t-60 -290t-55 -243q-91 -388 -264 -390q-47 -1 -76 -26t-29 -56z" />
<glyph unicode="&#x2c6;" horiz-adv-x="569" d="M-19 1205q0 -28 17.5 -45.5t45.5 -17.5q41 0 74 41l168 224l166 -224q30 -40 73 -40q26 0 44.5 17.5t18.5 42.5q0 22 -19 50l-189 261q-44 54 -95 54q-53 0 -95 -54l-190 -262l-6 -8t-5 -8t-3.5 -8t-2.5 -8t-1.5 -7.5t-0.5 -7.5z" />
<glyph unicode="&#x2da;" horiz-adv-x="569" d="M85 1378q0 -87 55.5 -140.5t144.5 -53.5t144 53.5t55 140.5q0 86 -55 139t-144 53t-144.5 -53t-55.5 -139zM178 1378q0 46 29.5 74.5t77.5 28.5t77.5 -28.5t29.5 -74.5q0 -47 -29.5 -75.5t-77.5 -28.5t-77.5 28.5t-29.5 75.5z" />
<glyph unicode="&#x2dc;" horiz-adv-x="569" d="M-28 1233q0 -21 13.5 -32.5t34.5 -11.5q38 0 61 33q33 47 74 47q33 0 119 -40t133 -40q44 0 84.5 20t67.5 57.5t27 83.5q0 23 -19 28q-3 27 -31 27q-25 -3 -60.5 -42t-59.5 -39q-29 0 -116.5 38.5t-142.5 38.5q-143 0 -182 -153q-3 -8 -3 -15z" />
<glyph unicode="&#x3a9;" horiz-adv-x="1558" d="M138 934q0 -169 98 -370t267 -405h-263q-30 0 -46.5 -23.5t-16.5 -55.5t16.5 -56t46.5 -24h486q-360 568 -360 872q0 176 109 276t347 100q239 0 348 -100t109 -276q0 -303 -361 -872h486q30 0 47 23.5t17 56.5q0 32 -17 55.5t-47 23.5h-262q163 192 263.5 398.5 t100.5 376.5q0 88 -18 161.5t-65 143t-122.5 117t-197 76t-281.5 28.5q-149 0 -267 -28.5t-195 -77.5t-128 -117t-72.5 -143t-21.5 -160z" />
<glyph unicode="&#x3c0;" horiz-adv-x="1247" d="M114 994q0 -33 25 -56.5t71 -23.5h77q0 -372 -160 -817q-2 -5 -3.5 -10t-2.5 -9.5t-1.5 -9t-0.5 -9.5q0 -37 29 -59t69 -22q38 0 71 20.5t49 61.5q52 132 90.5 384.5t46.5 469.5h344v-532q0 -271 37 -348q27 -54 84 -55q14 0 30 3q53 8 74.5 27t21.5 53q0 25 -13.5 79 t-27 129t-13.5 153v491h82q38 0 59 23.5t21 56.5q0 32 -21 55.5t-59 23.5h-883q-45 0 -70.5 -23.5t-25.5 -55.5z" />
<glyph unicode="&#x2000;" horiz-adv-x="1018" />
<glyph unicode="&#x2001;" horiz-adv-x="2036" />
<glyph unicode="&#x2002;" horiz-adv-x="1018" />
<glyph unicode="&#x2003;" horiz-adv-x="2036" />
<glyph unicode="&#x2004;" horiz-adv-x="678" />
<glyph unicode="&#x2005;" horiz-adv-x="509" />
<glyph unicode="&#x2006;" horiz-adv-x="339" />
<glyph unicode="&#x2007;" horiz-adv-x="339" />
<glyph unicode="&#x2008;" horiz-adv-x="254" />
<glyph unicode="&#x2009;" horiz-adv-x="407" />
<glyph unicode="&#x200a;" horiz-adv-x="113" />
<glyph unicode="&#x2010;" horiz-adv-x="670" d="M38 529q0 -34 24.5 -56t62.5 -22h420q37 0 61.5 22t24.5 56q0 35 -24 57.5t-62 22.5h-420q-38 0 -62.5 -22.5t-24.5 -57.5z" />
<glyph unicode="&#x2011;" horiz-adv-x="670" d="M38 529q0 -34 24.5 -56t62.5 -22h420q37 0 61.5 22t24.5 56q0 35 -24 57.5t-62 22.5h-420q-38 0 -62.5 -22.5t-24.5 -57.5z" />
<glyph unicode="&#x2012;" horiz-adv-x="670" d="M38 529q0 -34 24.5 -56t62.5 -22h420q37 0 61.5 22t24.5 56q0 35 -24 57.5t-62 22.5h-420q-38 0 -62.5 -22.5t-24.5 -57.5z" />
<glyph unicode="&#x2013;" horiz-adv-x="1024" d="M1 530q0 -34 21.5 -59t59.5 -25h859q38 0 59 24.5t21 58.5t-21 59t-59 25h-859q-38 0 -59.5 -25t-21.5 -58z" />
<glyph unicode="&#x2014;" horiz-adv-x="2048" d="M1 530q0 -34 21 -59t59 -25h1886q37 0 58 24.5t21 58.5t-20.5 59t-58.5 25h-1886q-38 0 -59 -24.5t-21 -58.5z" />
<glyph unicode="&#x2018;" horiz-adv-x="601" d="M124 965q0 -38 37 -38h126q64 2 73 56l72 407q1 6 1 12q0 31 -25 31h-64q-22 0 -34.5 -9.5t-21.5 -33.5l-161 -407q-3 -8 -3 -18z" />
<glyph unicode="&#x2019;" horiz-adv-x="601" d="M151 958q0 -31 25 -31h65q22 0 34.5 9.5t21.5 33.5l160 407q3 8 3 18q0 16 -8.5 27t-28.5 11h-125q-64 -2 -73 -56l-73 -407q0 -3 -0.5 -6t-0.5 -6z" />
<glyph unicode="&#x201a;" horiz-adv-x="601" d="M151 -248.5v-3v-3.5q0 -30 25 -31h65q22 0 34.5 9.5t21.5 33.5l160 408q3 8 3 18q0 16 -8.5 27t-28.5 11h-125q-64 -2 -73 -56l-73 -408q0 -1 -0.5 -2.5t-0.5 -3z" />
<glyph unicode="&#x201c;" horiz-adv-x="1154" d="M191 965q0 -38 37 -38h126q64 2 73 56l72 407q7 43 -24 43h-64q-22 0 -34.5 -9.5t-21.5 -33.5l-161 -407q-3 -8 -3 -18zM599 965q0 -10 3 -18t11.5 -14t22.5 -6h125q64 2 73 56l73 407q1 6 1 12q0 8 -1.5 14.5t-7.5 11.5t-16 5h-64q-41 0 -56 -43l-161 -407q-3 -8 -3 -18 z" />
<glyph unicode="&#x201d;" horiz-adv-x="1154" d="M225 958q0 -31 25 -31h64h3q20 0 32 10t21 33l161 407q1 3 2 8t1 10q0 15 -8.5 26t-28.5 12h-126q-64 -2 -73 -56l-72 -407q0 -3 -0.5 -6t-0.5 -6zM626 958q0 -13 5.5 -22t19.5 -9h64h3q20 0 32 10t21 33l161 407q1 3 2 8t1 10q0 15 -8.5 26t-28.5 12h-126 q-64 -2 -73 -56l-72 -407q-1 -6 -1 -12z" />
<glyph unicode="&#x201e;" horiz-adv-x="1154" d="M231 -216.5v-3v-3.5q0 -30 25 -31h65h3q20 0 32 10t21 33l160 407q3 8 3 18q0 35 -37 38h-125q-64 -2 -73 -56l-73 -407q0 -1 -0.5 -2.5t-0.5 -3zM643 -223q0 -13 5.5 -21.5t19.5 -9.5h64h3q21 0 33 10t20 33l161 407q3 8 3 18q0 35 -37 38h-125q-64 -2 -73 -56l-73 -407 q-1 -6 -1 -12z" />
<glyph unicode="&#x2026;" horiz-adv-x="1808" d="M176 114q0 -48 35 -82t90 -34t89.5 34t34.5 82t-35 82t-89 34q-55 0 -90 -35t-35 -81zM778 114q0 -48 35 -82t90 -34q56 0 90.5 34t34.5 82t-35.5 82t-89.5 34q-55 0 -90 -35t-35 -81zM1381 114q0 -48 34.5 -82t90.5 -34q55 0 89.5 34t34.5 82t-35 82t-89 34 q-56 0 -90.5 -34.5t-34.5 -81.5z" />
<glyph unicode="&#x202f;" horiz-adv-x="407" />
<glyph unicode="&#x2030;" horiz-adv-x="2314" d="M40 1024q0 -168 89 -278t238 -110q158 0 245.5 112.5t87.5 283.5q0 165 -89 275.5t-238 110.5q-158 0 -245.5 -112.5t-87.5 -281.5zM188 1028q0 118 43.5 196t138.5 78q65 0 107 -40.5t58 -99t16 -134.5q0 -122 -44 -198.5t-137 -76.5q-95 0 -138.5 77.5t-43.5 197.5z M305 -9q0 -24 19.5 -41.5t45.5 -17.5q33 0 59 46l767 1359q17 32 17 51q0 26 -18 44t-42 18q-36 0 -59 -41l-773 -1375q-16 -28 -16 -43zM837 355q0 -167 89 -277t239 -110q106 0 183 54.5t114 142.5t37 197q0 167 -89.5 277.5t-237.5 110.5q-106 0 -183.5 -54.5 t-114.5 -142.5t-37 -198zM987 359q0 76 16 134.5t58 99t107 40.5t107 -40t58.5 -99t16.5 -135q0 -121 -44 -197.5t-138 -76.5q-49 0 -85.5 22t-56.5 61.5t-29.5 86.5t-9.5 104zM1585 355q0 -167 89.5 -277t238.5 -110q106 0 183 54.5t113.5 142.5t36.5 197 q0 167 -88.5 277.5t-237.5 110.5q-106 0 -183.5 -54.5t-114.5 -142.5t-37 -198zM1734 359q0 78 17 137t59 98t106 39q65 0 107 -40t58.5 -99t16.5 -135q0 -122 -44 -198t-138 -76q-65 0 -107.5 40t-58.5 98.5t-16 135.5z" />
<glyph unicode="&#x2039;" horiz-adv-x="601" d="M97 540l225 -398q30 -56 82 -56q29 0 50.5 19.5t21.5 46.5q0 17 -6 29l-167 359l167 358q6 14 6 28q0 28 -21.5 47.5t-50.5 19.5q-50 0 -82 -56z" />
<glyph unicode="&#x203a;" horiz-adv-x="601" d="M127 153q0 -28 21.5 -47.5t50.5 -19.5q52 0 83 56l225 398l-225 397q-32 56 -83 56q-29 0 -50.5 -19.5t-21.5 -47.5q0 -14 6 -28l167 -358l-167 -359q-6 -13 -6 -28z" />
<glyph unicode="&#x2044;" horiz-adv-x="609" d="M-14 4q0 -33 23.5 -53.5t54.5 -20.5q54 0 74 56l481 1439q5 18 5 30q0 33 -23.5 53t-55.5 20q-59 0 -77 -55l-477 -1439q-5 -14 -5 -30z" />
<glyph unicode="&#x205f;" horiz-adv-x="509" />
<glyph unicode="&#x20ac;" horiz-adv-x="1411" d="M13 561q0 -24 13.5 -41.5t37.5 -17.5h137q27 -117 84 -213t138 -165.5t189 -107.5t233 -38q233 0 405 109q51 33 51 84q0 23 -11 43t-30 32.5t-41 12.5q-20 0 -40 -11q-52 -28 -86.5 -44t-92 -30.5t-117.5 -14.5q-176 0 -286.5 91t-152.5 252h517q26 0 40 17t14 41 q0 25 -15 43.5t-41 18.5h-536q-5 46 -5 96q0 23 1 46h542q26 0 40 17t14 41q0 25 -15 43.5t-41 18.5h-527q17 90 52.5 161.5t89.5 125t130.5 82t169.5 28.5q45 0 85 -5t73 -15.5t52 -17.5t46 -20.5l31 -15.5q16 -7 33 -7q35 0 61.5 28t26.5 64q0 50 -53 78q-171 92 -363 92 q-133 0 -248.5 -42t-201 -118t-143 -182.5t-80.5 -235.5h-129q-24 0 -37.5 -18t-13.5 -43q0 -24 13.5 -41.5t37.5 -17.5h115q-1 -24 -1 -49q0 -47 4 -93h-118q-24 0 -37.5 -18t-13.5 -43z" />
<glyph unicode="&#x2122;" horiz-adv-x="1951" d="M64 1332q0 -22 14.5 -38t40.5 -16h177v-556q0 -33 22 -51.5t52 -18.5t52 18.5t22 51.5v556h176q26 0 40 16t14 37q0 23 -14 39t-40 16h-501q-27 0 -41 -16t-14 -38zM825 721q0 -33 21.5 -51.5t50.5 -18.5t50 18.5t21 51.5v468l229 -486q18 -47 65 -47q48 0 67 47l228 486 v-468q0 -33 21 -51.5t50 -18.5t50.5 18.5t21.5 51.5v540q0 61 -31 92.5t-77 31.5q-78 0 -116 -86l-212 -447l-213 447q-20 44 -51 65.5t-65 21.5q-47 0 -78.5 -32t-31.5 -93v-540z" />
<glyph unicode="&#x2202;" horiz-adv-x="1189" d="M84 457q0 -70 16.5 -138t52.5 -130.5t87.5 -110t125.5 -75.5t162 -28q174 0 301.5 111.5t191.5 302t64 436.5q0 196 -42.5 348.5t-118.5 248t-178.5 144t-226.5 48.5q-168 0 -357 -84q-47 -21 -47 -67q0 -32 22 -57t53 -25q14 0 27 5q164 67 290 67q182 0 284 -148.5 t102 -449.5q0 -53 -2 -64q-8 10 -21.5 25.5t-49 48t-74 58t-94 45.5t-110.5 20q-94 0 -177.5 -37.5t-145.5 -105.5t-98.5 -168.5t-36.5 -219.5zM279 457q0 156 88 266.5t213 110.5q56 0 107 -21.5t86.5 -55t60 -69.5t35.5 -71q-13 -128 -54 -236t-111.5 -178t-156.5 -70h-2 q-118 0 -192 91t-74 233z" />
<glyph unicode="&#x2206;" horiz-adv-x="1255" d="M12 0h1231l-511 1380q-14 33 -43 50.5t-63 17.5t-62.5 -18t-40.5 -50zM234 117l390 1110l398 -1110h-788z" />
<glyph unicode="&#x220f;" horiz-adv-x="1508" d="M65 1353q0 -35 21 -60.5t59 -25.5h142v-1171q0 -45 29 -70.5t69 -25.5q39 0 68 25t29 71v1171h548v-1172q0 -45 28.5 -70t68.5 -25t69 25t29 70l1 1172h133q36 0 55.5 25.5t19.5 60.5t-19.5 60.5t-54.5 25.5h-1213q-39 0 -60.5 -25.5t-21.5 -60.5z" />
<glyph unicode="&#x2211;" horiz-adv-x="1191" d="M32 -132q0 -29 19.5 -48t61.5 -19h1035q39 0 61 26t22 61q0 36 -22 62t-61 26h-844l524 666l-482 634h767q37 0 57.5 24t20.5 57t-20.5 57t-57.5 24h-970q-45 0 -66.5 -20.5t-21.5 -50.5q0 -35 21 -59l526 -692l-551 -695q-19 -22 -19 -53z" />
<glyph unicode="&#x221a;" horiz-adv-x="1332" d="M125 453q0 -14 3.5 -25t10.5 -23l200 -350q49 -89 87 -123t102 -34q71 0 116.5 36.5t75.5 118.5l508 1382q7 18 7 36q0 42 -33 70t-77 28q-30 0 -60.5 -20t-45.5 -59l-490 -1337l-4 -1l-188 350q-11 19 -26 32t-32 19t-36 6q-18 0 -36 -5.5t-33 -15.5t-26 -23t-17 -29 t-6 -33z" />
<glyph unicode="&#x221e;" horiz-adv-x="1625" d="M102 588q0 -140 95 -235.5t225 -95.5q61 0 115.5 18.5t105 57.5t86 74t86.5 93q108 -128 197 -185.5t184 -57.5q132 0 228.5 94t96.5 247v2q0 146 -88.5 236t-226.5 90q-49 0 -95.5 -14.5t-78.5 -32t-73 -54.5t-60.5 -57.5t-59.5 -66.5q-11 -12 -16 -18 q-98 117 -187.5 180t-197.5 63q-145 0 -240.5 -95.5t-95.5 -242.5zM224 590q0 96 55 161.5t147 65.5q30 0 59.5 -8t51.5 -17t50.5 -32t42.5 -35t43 -45.5t38 -44.5t40 -50q-6 -7 -28 -31t-30.5 -33.5t-30 -31.5t-34 -32t-33 -27t-37 -25.5t-37 -18t-40.5 -13.5t-41 -4h-3 q-95 0 -154 64t-59 157zM882 595q8 9 45 50.5t59 62.5t59 51t74.5 44t76.5 14h3q88 0 145.5 -62.5t57.5 -164.5q0 -86 -54.5 -153.5t-144.5 -67.5q-77 0 -144.5 50.5t-176.5 175.5z" />
<glyph unicode="&#x222b;" horiz-adv-x="770" d="M53 -264q0 -31 31 -53.5t89 -22.5q53 0 96 13t85 49.5t71 94.5t46.5 154t17.5 223q0 174 -15 518.5t-15 504.5q0 221 40.5 317t134.5 96q43 0 69 20t26 48t-28 48.5t-81 20.5q-332 0 -332 -531q0 -163 15.5 -513.5t15.5 -526.5q0 -96 -9.5 -167t-24.5 -113t-37.5 -67.5 t-44.5 -34t-49 -8.5q-49 0 -75 -20.5t-26 -49.5z" />
<glyph unicode="&#x2248;" horiz-adv-x="1190" d="M168 355q0 -27 19 -45t47 -18q30 0 43 11q21 16 35 38t25 33t33 11q24 -2 199 -49t235 -47q76 0 126.5 50.5t50.5 140.5q0 28 -22 47t-48 19q-30 0 -48 -15t-23.5 -32.5t-16 -32.5t-27.5 -15q-24 0 -203 47.5t-243 47.5q-66 0 -124 -48.5t-58 -142.5zM168 737 q0 -26 19 -44t47 -18q30 0 43 10q21 16 35.5 38.5t25 33.5t32.5 11q25 -1 200 -48.5t234 -47.5q76 0 126.5 50t50.5 141q0 28 -22 47t-48 19q-30 0 -48 -15t-23.5 -33t-16 -33t-27.5 -15q-24 0 -203 48t-243 48q-66 0 -124 -49t-58 -143z" />
<glyph unicode="&#x2260;" d="M89 359q0 -31 20 -54t56 -23h210l-87 -189q-9 -22 -8 -37q0 -32 23.5 -52.5t54.5 -20.5q50 0 73 51l113 248h490q36 0 56.5 23t20.5 54t-20.5 53.5t-56.5 22.5h-424l114 255h310q36 0 56 22t20 53t-20 54t-56 23h-245l84 182q8 16 8 36q0 32 -24 52t-55 20q-53 0 -75 -50 l-107 -240h-455q-37 0 -56.5 -22t-19.5 -54q0 -31 20 -53.5t56 -22.5h390l-116 -255h-274q-36 0 -56 -22t-20 -54z" />
<glyph unicode="&#x2264;" horiz-adv-x="1190" d="M55 722q0 -59 67 -87l879 -386q14 -7 32 -7q30 0 49.5 22.5t19.5 51.5q0 45 -43 63l-782 342l780 325q45 18 45 63q0 30 -21 53.5t-52 23.5q-16 0 -30 -7l-875 -369q-69 -31 -69 -88zM100 70q0 -26 16.5 -45t45.5 -19h847q29 0 45.5 19t16.5 44q0 26 -16.5 45t-45.5 19 h-847q-30 0 -46 -18.5t-16 -44.5z" />
<glyph unicode="&#x2265;" horiz-adv-x="1190" d="M95 1120q0 -42 44 -61l781 -343l-779 -325q-45 -20 -45 -64q0 -30 21 -53t52 -23q16 0 30 7l874 370q69 29 69 87q0 59 -67 87l-878 386q-15 7 -31 7q-30 0 -50.5 -23t-20.5 -52zM111 70q0 -26 16.5 -45t45.5 -19h847q29 0 45.5 18.5t16.5 44.5t-16.5 45t-45.5 19h-847 q-29 0 -45.5 -18.5t-16.5 -44.5z" />
<glyph unicode="&#x25fc;" horiz-adv-x="995" d="M0 0v995h995v-995h-995z" />
</font>
</defs>
</svg>
