<?xml version="1.0" standalone="no"?>
<!DOCTYPE svg PUBLIC "-//W3C//DTD SVG 1.1//EN" "http://www.w3.org/Graphics/SVG/1.1/DTD/svg11.dtd" >
<svg xmlns="http://www.w3.org/2000/svg" xmlns:xlink="http://www.w3.org/1999/xlink" version="1.1">
<metadata></metadata>
<defs>
<font id="nunitoitalic" horiz-adv-x="1228" >
<font-face units-per-em="2048" ascent="1638" descent="-410" />
<missing-glyph horiz-adv-x="528" />
<glyph horiz-adv-x="0" />
<glyph unicode="&#xd;" horiz-adv-x="528" />
<glyph horiz-adv-x="0" />
<glyph horiz-adv-x="0" />
<glyph unicode=" "  horiz-adv-x="528" />
<glyph unicode="&#x09;" horiz-adv-x="528" />
<glyph unicode="&#xa0;" horiz-adv-x="528" />
<glyph unicode="!" horiz-adv-x="468" d="M90 104q0 51 33 84t82 33q47 0 78.5 -32.5t31.5 -84.5q0 -51 -31.5 -82.5t-78.5 -31.5q-49 0 -82 31.5t-33 82.5zM176 424l25 928q0 49 30.5 75.5t77.5 26.5q41 0 67.5 -22.5t26.5 -61.5l-2 -18l-120 -928q-4 -29 -20.5 -43t-37.5 -14q-20 0 -33.5 15t-13.5 42z" />
<glyph unicode="&#x22;" horiz-adv-x="862" d="M201 1343q-2 53 25.5 82t74.5 29q39 0 62.5 -22.5t23.5 -63.5q0 -18 -2 -29l-68 -417q-8 -55 -57 -56q-22 0 -37.5 15.5t-15.5 40.5zM611 1343q-2 53 25.5 82t74.5 29q39 0 62.5 -22.5t23.5 -63.5q0 -18 -2 -29l-68 -417q-8 -55 -57 -56q-22 0 -37.5 15.5t-15.5 40.5z " />
<glyph unicode="#" d="M70 436q0 25 18 41.5t45 16.5h273l92 473h-324q-27 0 -45 18.5t-18 44.5q0 25 18 41t45 16h346l64 324q4 23 21.5 36t39.5 13q33 0 51.5 -23.5t12.5 -58.5l-58 -291h103l63 324q4 23 21.5 36t40.5 13q29 0 46 -17.5t17 -45.5q0 -12 -2 -19l-57 -291h239q29 0 46.5 -17 t17.5 -46q0 -25 -18.5 -41t-45.5 -16h-262l-94 -473h315q27 0 45.5 -18.5t18.5 -45.5q0 -25 -18.5 -41t-45.5 -16h-338l-65 -334q-2 -20 -19.5 -34.5t-40.5 -14.5q-27 0 -45 18.5t-18 44.5q0 12 2 19l59 301h-104l-66 -334q-4 -23 -21 -36t-40 -13q-27 0 -45 18.5t-18 44.5 q0 12 2 19l59 301h-250q-27 0 -45 18.5t-18 44.5zM535 494h104l92 473h-102z" />
<glyph unicode="$" d="M68 213q0 31 19 53.5t46 22.5q18 0 39 -15q96 -76 197.5 -111.5t226.5 -35.5q170 0 262 67.5t92 192.5q0 68 -44 112t-109.5 71.5t-178.5 62.5q-145 47 -234 87t-152.5 117.5t-63.5 198.5q0 119 59.5 213t167 149.5t244.5 61.5l12 154q4 35 23.5 55.5t50.5 20.5 q33 0 53.5 -21.5t16.5 -54.5l-13 -160q115 -14 213.5 -55t167.5 -109q27 -25 27 -57q0 -31 -19.5 -53.5t-50.5 -22.5q-27 0 -53 21q-86 72 -184.5 105.5t-216.5 33.5q-152 0 -239 -71.5t-87 -196.5q0 -78 47 -128.5t115.5 -79t191.5 -67.5q137 -43 223.5 -81t145.5 -109.5 t59 -184.5q0 -115 -56 -206t-159.5 -146t-240.5 -63l-15 -154q-2 -35 -21.5 -55.5t-49.5 -20.5q-33 0 -53.5 21.5t-16.5 54.5l12 156q-250 20 -413 151q-41 33 -41 76z" />
<glyph unicode="%" horiz-adv-x="1904" d="M154 971q0 231 96 361t264 130q164 0 252 -100t88 -293q0 -231 -96 -360t-266 -129q-164 0 -251 101t-87 290zM303 954q0 -133 46 -194.5t145 -61.5q102 0 155 99.5t53 289.5q0 131 -46 193.5t-142 62.5q-104 0 -157.5 -99t-53.5 -290zM449 27q0 23 14 45l901 1368 q27 41 68 41q25 0 44 -18.5t19 -43.5q0 -20 -16 -47l-901 -1368q-27 -41 -66 -41q-27 0 -45 18.5t-18 45.5zM1087 377q0 231 96.5 361t266.5 130q164 0 251 -100t87 -293q0 -231 -95.5 -360t-265.5 -129q-163 0 -251.5 101t-88.5 290zM1239 360q0 -131 46 -193.5t142 -62.5 q105 0 158 99.5t53 290.5q0 131 -46 193.5t-142 62.5q-104 0 -157.5 -99.5t-53.5 -290.5z" />
<glyph unicode="&#x26;" horiz-adv-x="1359" d="M104 360q0 135 83 240t262 209q-92 104 -128 178t-36 154q0 143 97 230t255 87q150 0 238 -77.5t88 -211.5q0 -109 -66 -193.5t-233 -191.5l340 -376q82 162 96 383q4 35 27.5 53t52.5 18q31 0 50 -19.5t15 -56.5q-23 -291 -145 -487l178 -197q20 -22 20 -49 q0 -29 -22.5 -51t-52.5 -22q-31 0 -58 28l-153 172q-88 -94 -201 -144t-244 -50q-135 0 -240.5 47t-164 132t-58.5 195zM268 367q0 -113 83 -179.5t224 -66.5q206 0 345 162l-383 426q-145 -86 -207 -163t-62 -179zM442 1141q0 -59 28 -114.5t105 -143.5q137 84 189.5 144 t52.5 134q0 78 -48 124t-128 46q-90 0 -144.5 -52t-54.5 -138z" />
<glyph unicode="'" horiz-adv-x="452" d="M201 1343q-2 53 25.5 82t74.5 29q39 0 62.5 -22.5t23.5 -63.5q0 -18 -2 -29l-68 -417q-8 -55 -57 -56q-22 0 -37.5 15.5t-15.5 40.5z" />
<glyph unicode="(" horiz-adv-x="643" d="M209 381q0 289 76.5 555t220.5 489q25 39 67 39q25 0 42.5 -14t17.5 -39q0 -14 -10 -35q-244 -483 -244 -997q0 -356 110 -676q4 -20 5 -27q0 -29 -19.5 -46t-46.5 -17q-20 0 -37.5 11t-28.5 34q-153 344 -153 723z" />
<glyph unicode=")" horiz-adv-x="643" d="M18 -334q0 14 11 35q244 469 243 997q0 356 -110 676q-4 20 -4 27q0 29 19.5 46t45.5 17q20 0 38 -11t28 -34q153 -352 153 -723q0 -287 -76.5 -554t-220.5 -490q-27 -39 -67 -39q-25 0 -42.5 14.5t-17.5 38.5z" />
<glyph unicode="*" horiz-adv-x="921" d="M102 1094q0 27 18.5 45t51.5 16l246 -8l-131 207q-12 23 -13 39q0 25 19.5 43t44.5 18q35 0 55 -37l115 -219l115 217q20 39 57 39q25 0 44 -18.5t19 -42.5q0 -16 -12 -39l-131 -207l246 8q33 2 51 -16.5t18 -44.5q0 -25 -18 -44.5t-51 -17.5l-246 8l131 -206 q12 -18 12 -39q0 -25 -19 -42.5t-44 -17.5q-37 0 -57 37l-115 217l-115 -219q-16 -37 -55 -37q-25 0 -44.5 18.5t-19.5 43.5q0 18 13 36l131 209l-246 -8q-33 -2 -51.5 17.5t-18.5 44.5z" />
<glyph unicode="+" d="M123 582q0 27 19.5 46t47.5 19h375l29 369q2 29 21.5 48t46.5 19q29 0 44 -19.5t13 -47.5l-29 -369h369q26 0 44.5 -18.5t18.5 -44.5q0 -27 -19.5 -46.5t-47.5 -19.5h-375l-29 -368q-4 -29 -23.5 -47.5t-45.5 -18.5q-27 0 -43.5 19.5t-14.5 46.5l29 368h-369 q-27 0 -44 18.5t-17 45.5z" />
<glyph unicode="," horiz-adv-x="468" d="M88 -186q0 23 21 43q59 59 75 139q-43 4 -68.5 33.5t-25.5 74.5q0 53 32 85t79 32q51 0 81.5 -35.5t30.5 -103.5q0 -84 -33.5 -160t-93.5 -133q-23 -23 -47 -22q-23 0 -37 13t-14 34z" />
<glyph unicode="-" horiz-adv-x="870" d="M137 543q0 33 20.5 52t59.5 19h451q35 0 54 -19.5t19 -47.5q0 -33 -21.5 -51.5t-60.5 -18.5h-448q-37 0 -55.5 17.5t-18.5 48.5z" />
<glyph unicode="." horiz-adv-x="468" d="M90 104q0 51 33 84t82 33q47 0 78.5 -32.5t31.5 -84.5q0 -51 -31.5 -82.5t-78.5 -31.5q-49 0 -82 31.5t-33 82.5z" />
<glyph unicode="/" horiz-adv-x="579" d="M-72 -68q0 18 4 27l615 1534q8 23 26.5 35t38.5 12q29 0 50.5 -17.5t21.5 -45.5q0 -12 -6 -29l-610 -1534q-9 -23 -27 -35t-41 -12q-27 0 -49.5 18.5t-22.5 46.5z" />
<glyph unicode="0" d="M123 614q0 266 63.5 457t184.5 290t291 99q236 0 358.5 -160.5t122.5 -470.5q0 -401 -142.5 -623t-398.5 -222q-235 0 -357 160.5t-122 469.5zM293 588q0 -236 78 -349.5t237 -113.5q178 0 271.5 185.5t93.5 545.5q0 236 -77 349.5t-237 113.5q-180 0 -273 -185.5 t-93 -545.5z" />
<glyph unicode="1" d="M217 70q0 33 21.5 52t58.5 19h258l88 1096l-213 -129q-20 -12 -41 -12q-31 0 -52.5 23.5t-21.5 54.5q0 37 37 61l330 201q35 20 70 20t53 -20.5t16 -55.5l-96 -1239h252q37 0 56.5 -18.5t19.5 -48.5q0 -35 -20.5 -54.5t-59.5 -19.5h-680q-37 0 -56.5 19.5t-19.5 50.5z " />
<glyph unicode="2" d="M125 66q0 41 37 77l534 539q123 123 175.5 216t52.5 194q0 106 -66.5 166.5t-181.5 60.5q-104 0 -195.5 -34t-181.5 -105q-27 -20 -53 -21q-25 0 -41.5 18.5t-16.5 45.5q0 47 43 82q86 72 205 113.5t248 41.5q188 0 298 -99t110 -267q0 -129 -64.5 -247t-218.5 -269 l-442 -437h649q69 0 69 -63q0 -35 -20.5 -56.5t-60.5 -21.5h-807q-33 0 -52.5 18.5t-19.5 47.5z" />
<glyph unicode="3" d="M92 197q0 31 18.5 54t47.5 23q20 0 49 -18q172 -129 371 -129q154 0 239.5 74.5t85.5 212.5q0 248 -315 248h-115q-27 0 -44 20t-17 51t18.5 50.5t50.5 19.5h103q158 0 249 79t91 216q0 102 -69 161.5t-187 59.5q-193 0 -369 -139q-27 -20 -53 -21q-25 0 -41.5 18.5 t-16.5 45.5q0 47 43 82q86 72 205 113.5t248 41.5q184 0 296 -95t112 -255q0 -129 -71 -228.5t-196 -144.5q115 -32 179.5 -114t64.5 -205q0 -129 -60.5 -227.5t-172 -151.5t-263.5 -53q-137 0 -253.5 41t-196.5 106q-31 25 -31 64z" />
<glyph unicode="4" d="M80 383q0 33 26 66l746 966q29 41 80 41q35 0 56.5 -21.5t19.5 -60.5l-74 -921h153q37 0 55.5 -18.5t18.5 -51.5q0 -31 -21.5 -50.5t-58.5 -19.5h-157l-21 -243q-2 -37 -26.5 -58.5t-59.5 -21.5q-37 0 -59.5 22.5t-20.5 63.5l19 237h-594q-37 0 -59.5 19.5t-22.5 50.5z M281 453h487l55 704z" />
<glyph unicode="5" d="M141 209q0 29 19.5 50.5t50.5 21.5q29 0 57 -21q172 -133 350 -133q156 0 248 94t92 254q0 131 -80.5 211t-213.5 80q-98 0 -176 -36t-144 -112q-25 -23 -61 -22q-31 0 -50.5 20.5t-15.5 55.5l53 690q2 39 27 60.5t63 21.5h719q37 0 56.5 -18.5t19.5 -49.5 q0 -33 -21.5 -52t-60.5 -19h-639l-41 -506q59 51 137 78.5t164 27.5q127 0 225.5 -52t151.5 -147.5t53 -218.5q0 -150 -63.5 -263t-179 -175.5t-267.5 -62.5q-125 0 -241.5 42t-198.5 115q-33 27 -33 66z" />
<glyph unicode="6" horiz-adv-x="1226" d="M127 604q0 260 73.5 453.5t211 298t321.5 104.5q127 0 239.5 -41t184.5 -116q35 -29 35 -70q0 -29 -18.5 -50.5t-45.5 -21.5q-29 0 -57 23q-70 63 -157 99t-183 36q-184 0 -296.5 -154.5t-135.5 -443.5l-4 -49q53 109 155.5 171t229.5 62q131 0 231.5 -54t155.5 -153.5 t55 -228.5q0 -139 -61.5 -249.5t-170 -173t-243.5 -62.5q-250 0 -385 161.5t-135 458.5zM328 430q0 -137 87 -221t228 -84q139 0 226 93t87 245q0 137 -84 220t-223 83q-141 0 -231 -94t-90 -242z" />
<glyph unicode="7" d="M201 1370q0 35 21.5 54.5t60.5 19.5h817q35 0 53 -18.5t18 -49.5q0 -29 -20 -65l-745 -1282q-29 -49 -78 -49q-31 0 -53.5 20t-22.5 51q0 25 14 47l703 1205h-690q-39 0 -58.5 18t-19.5 49z" />
<glyph unicode="8" d="M86 375q0 131 80 231.5t217 138.5q-100 41 -154.5 121t-54.5 193q0 121 61.5 212t174 140t262.5 49q225 0 349 -95t124 -263q0 -129 -70.5 -226.5t-191.5 -140.5q118 -39 179.5 -126t61.5 -218q0 -121 -64.5 -213t-183 -142t-280.5 -50q-246 0 -378 100t-132 289z M252 379q0 -252 342 -252q174 0 269 70.5t95 201.5q0 135 -80.5 199t-263.5 64q-176 0 -269 -71t-93 -212zM340 1049q0 -115 80 -180.5t231 -65.5q158 0 242 73.5t84 206.5q0 115 -77 176.5t-228 61.5q-162 0 -247 -70.5t-85 -201.5z" />
<glyph unicode="9" d="M74 211q0 29 18.5 50.5t44.5 21.5q27 0 56 -23q72 -63 158.5 -99t180.5 -36q186 0 299 154.5t134 445.5l4 49q-53 -111 -153.5 -173t-229.5 -62q-131 0 -231.5 55t-156 154.5t-55.5 228.5q0 137 61.5 247.5t170 173t243.5 62.5q250 0 385.5 -161.5t135.5 -458.5 q0 -260 -74 -453.5t-211 -298t-322 -104.5q-127 0 -239.5 41t-183.5 116q-35 29 -35 70zM309 981q0 -137 84 -220t223 -83q142 0 232 94t90 242q0 137 -87 221t-230 84q-139 0 -225.5 -93t-86.5 -245z" />
<glyph unicode=":" horiz-adv-x="468" d="M90 104q0 51 33 84t82 33q47 0 78.5 -32.5t31.5 -84.5q0 -51 -31.5 -82.5t-78.5 -31.5q-49 0 -82 31.5t-33 82.5zM156 903q0 51 31.5 83t80.5 32t81 -32t32 -83q0 -49 -32 -82t-81 -33t-80.5 32t-31.5 83z" />
<glyph unicode=";" horiz-adv-x="468" d="M88 -186q0 23 21 43q59 59 75 139q-43 4 -68.5 33.5t-25.5 74.5q0 53 32 85t79 32q51 0 81.5 -35.5t30.5 -103.5q0 -84 -33.5 -160t-93.5 -133q-23 -23 -47 -22q-23 0 -37 13t-14 34zM156 903q0 51 31.5 83t80.5 32t81 -32t32 -83q0 -49 -32 -82t-81 -33t-80.5 32 t-31.5 83z" />
<glyph unicode="&#x3c;" d="M123 582q0 31 18.5 56.5t48.5 37.5l859 375q25 10 41 10q29 0 46 -17.5t17 -44.5q0 -18 -10 -32.5t-29 -22.5l-835 -362l778 -361q16 -8 24.5 -23.5t5.5 -33.5q-2 -27 -22.5 -44.5t-50.5 -17.5q-16 0 -41 11l-797 374q-57 25 -53 95z" />
<glyph unicode="=" d="M104 379q0 27 19.5 45t48.5 18h868q27 0 44.5 -18t17.5 -47q0 -27 -19.5 -45.5t-48.5 -18.5h-868q-27 0 -44.5 18.5t-17.5 47.5zM135 788q0 27 20.5 45.5t49.5 18.5h868q27 0 44.5 -18.5t17.5 -47.5q0 -27 -20.5 -45t-49.5 -18h-868q-27 0 -44.5 18.5t-17.5 46.5z" />
<glyph unicode="&#x3e;" d="M88 164q2 37 41 57l836 361l-779 362q-33 16 -32 55q2 27 23.5 44.5t51.5 17.5q16 0 41 -10l797 -375q27 -12 41 -35t14 -49q0 -35 -19.5 -63.5t-49.5 -41.5l-858 -374q-25 -10 -43 -11q-29 0 -47.5 17.5t-16.5 44.5z" />
<glyph unicode="?" horiz-adv-x="907" d="M47 1223q0 45 39 77q90 76 209 118t240 42q174 0 275 -81t101 -216q0 -117 -54 -201.5t-163 -193.5q-98 -102 -151.5 -178t-71.5 -176q-10 -47 -53 -47q-25 0 -38 16t-9 45q6 90 35.5 163t69.5 126t104 125q82 92 120.5 155.5t38.5 147.5q0 80 -58 127t-163 47 q-94 0 -180 -34t-188 -107q-29 -18 -48 -19q-25 0 -40 18.5t-15 45.5zM283 104q0 51 31.5 84t80.5 33q47 0 80 -32.5t33 -84.5q0 -49 -32 -81.5t-81 -32.5t-80.5 31.5t-31.5 82.5z" />
<glyph unicode="@" horiz-adv-x="1896" d="M111 559q0 270 113.5 473t311 313.5t443.5 110.5q262 0 449.5 -107.5t282.5 -279.5t95 -364q0 -201 -60 -329t-153.5 -186.5t-197.5 -58.5q-109 0 -171.5 48t-70.5 134h-4q-51 -84 -128 -133t-179 -49q-135 0 -219 95.5t-84 262.5q0 139 54 262t152.5 197t225.5 74 q96 0 167.5 -46t94.5 -120h2l16 90q4 25 22.5 39t45.5 14q29 0 46 -16t17 -45q0 -10 -2 -16l-84 -480q-8 -57 -8 -73q0 -70 33 -98.5t98 -28.5q57 0 116.5 46t100.5 149.5t41 267.5q0 162 -77.5 305t-235.5 232t-385 89q-209 0 -376 -93t-263 -268t-96 -411q0 -225 88 -394 t254 -260t393 -91q311 0 485 168q29 27 60 26q25 0 41 -18.5t16 -44.5q0 -33 -25 -56q-92 -92 -242.5 -146t-334.5 -54q-264 0 -460.5 108.5t-302 306t-105.5 455.5zM670 496q0 -121 57 -187.5t141 -66.5q103 0 177.5 62.5t113.5 160.5t39 207q0 115 -56.5 175t-152.5 60 q-98 0 -171 -59.5t-110.5 -154.5t-37.5 -197z" />
<glyph unicode="A" horiz-adv-x="1488" d="M39 66q0 23 10 40l670 1289q14 29 40.5 44t57.5 15t56.5 -16.5t37.5 -48.5l473 -1291q7 -14 7 -30q0 -35 -25 -57.5t-57 -22.5q-53 0 -74 55l-117 328h-760l-170 -334q-12 -23 -31.5 -35t-39.5 -12q-31 0 -54.5 21.5t-23.5 54.5zM430 510h639l-264 739z" />
<glyph unicode="B" horiz-adv-x="1380" d="M145 92l101 1270q2 39 26.5 60.5t61.5 21.5h477q227 0 345 -92t118 -262q0 -127 -66.5 -217.5t-195.5 -135.5q116 -30 178.5 -114t62.5 -207q0 -197 -131 -306.5t-364 -109.5h-527q-41 0 -65 26q-22 24 -21 60v6zM317 139h435q338 1 338 275q0 250 -314 250h-418z M369 803h403q162 0 248 69.5t86 202.5q0 229 -309 230h-389z" />
<glyph unicode="C" horiz-adv-x="1386" d="M141 662q0 242 85 422t242 278t370 98q156 0 282.5 -44t210.5 -126q33 -27 33 -63q0 -31 -19.5 -53.5t-48.5 -22.5q-23 0 -47 18q-84 74 -181 110t-228 36q-248 0 -386.5 -174t-138.5 -482q0 -254 121 -392t346 -138q106 0 207 36t182 105q27 20 52 21q27 0 43 -19.5 t16 -48.5q0 -39 -33 -65q-90 -84 -215 -129t-274 -45q-189 0 -328 81.5t-215 234.5t-76 362z" />
<glyph unicode="D" horiz-adv-x="1513" d="M145 92l101 1270q2 39 26.5 60.5t61.5 21.5h395q326 0 502 -174t176 -490q0 -244 -86 -419t-252 -268t-399 -93h-439q-41 0 -65 26q-22 24 -21 60v6zM319 143h343q283 0 427 164t144 475q0 518 -518 518h-305z" />
<glyph unicode="E" horiz-adv-x="1191" d="M145 86l101 1276q6 82 88 82h768q35 0 54.5 -18.5t19.5 -49.5q0 -35 -20.5 -53t-59.5 -18h-688l-39 -502h641q37 0 56 -18.5t19 -49.5q0 -33 -21.5 -52t-57.5 -19h-648l-41 -525h682q35 0 54.5 -18.5t19.5 -48.5q0 -33 -21.5 -52.5t-58.5 -19.5h-768q-41 0 -61 22 q-19 20 -19 57v7z" />
<glyph unicode="F" horiz-adv-x="1140" d="M143 76l103 1286q6 82 88 82h747q35 0 54.5 -19.5t19.5 -50.5q0 -35 -20.5 -53t-59.5 -18h-665l-39 -498h618q37 0 56.5 -18.5t19.5 -49.5q0 -35 -20.5 -54t-59.5 -19h-627l-47 -594q-2 -37 -26.5 -58.5t-61.5 -21.5t-59 24q-21 22 -21 56v6z" />
<glyph unicode="G" horiz-adv-x="1482" d="M139 647q0 248 88 431.5t251 282.5t384 99q150 0 270.5 -42t204.5 -120q39 -33 39 -73q0 -29 -19.5 -51.5t-45.5 -22.5q-25 0 -49 18q-90 76 -184.5 112t-215.5 36q-170 0 -294 -80t-189.5 -229.5t-65.5 -354.5q0 -254 125 -391t371 -137q172 0 334 55l35 441h-291 q-37 0 -57.5 17t-20.5 46q0 31 21.5 49.5t56.5 18.5h368q37 0 59.5 -23.5t18.5 -58.5l-37 -502q-4 -49 -21.5 -73.5t-55.5 -35.5q-86 -35 -202 -55t-218 -20q-317 0 -488.5 175t-171.5 488z" />
<glyph unicode="H" horiz-adv-x="1552" d="M145 76l103 1298q2 37 25.5 58.5t60.5 21.5q38 0 60 -24q21 -22 20 -56v-6l-45 -563h862l45 569q2 37 26.5 58.5t59.5 21.5q38 0 60 -24q21 -22 20 -56v-6l-103 -1298q-2 -37 -25.5 -58.5t-60.5 -21.5t-59 24q-20 21 -20 53v9l47 586h-863l-47 -592q-2 -37 -26.5 -58.5 t-59.5 -21.5q-37 0 -59 24q-21 22 -21 56v6z" />
<glyph unicode="I" horiz-adv-x="524" d="M145 76l103 1298q2 37 25.5 58.5t60.5 21.5q40 0 62 -24q21 -22 20 -56v-6l-103 -1298q-2 -37 -26.5 -58.5t-61.5 -21.5t-59 24q-21 22 -21 56v6z" />
<glyph unicode="J" horiz-adv-x="667" d="M-55 61q0 31 18.5 48.5t52.5 19.5l66 4q102 8 161.5 71.5t67.5 180.5l80 985q2 39 26.5 61.5t63.5 22.5t59 -22q19 -21 19 -55v-7l-78 -987q-14 -182 -111.5 -280.5t-273.5 -108.5l-65 -4h-8q-39 0 -59 18q-21 19 -19 53z" />
<glyph unicode="K" horiz-adv-x="1286" d="M145 76l103 1298q2 35 26.5 57.5t59.5 22.5q36 0 60 -24q22 -23 22 -56v-6l-47 -586l768 650q26 22 51 22q29 0 50.5 -22.5t21.5 -51.5q0 -33 -29 -59l-701 -584l646 -622q20 -20 20 -47q0 -29 -23.5 -53.5t-52.5 -24.5q-31 0 -55 26l-703 672l-49 -618 q-4 -35 -27.5 -57.5t-60.5 -22.5t-59 24q-21 22 -21 56v6z" />
<glyph unicode="L" horiz-adv-x="1105" d="M145 86l103 1288q2 37 26.5 58.5t61.5 21.5q38 0 60 -24q20 -22 20 -55v-7l-97 -1225h658q37 0 56.5 -19.5t19.5 -49.5q0 -35 -20.5 -54.5t-59.5 -19.5h-748q-41 0 -63 22q-18 19 -18 52q0 6 1 12z" />
<glyph unicode="M" horiz-adv-x="1722" d="M145 72l103 1298q4 37 26.5 60.5t59.5 23.5q55 0 80 -59l440 -994l600 1002q31 53 88 53q35 0 54.5 -20.5t15.5 -55.5l-105 -1314q-2 -37 -24.5 -56.5t-55.5 -19.5q-35 0 -55 22.5t-18 59.5l84 1042l-512 -844q-31 -53 -84 -53q-55 0 -80 57l-379 836l-82 -1044 q-2 -35 -25.5 -55.5t-56.5 -20.5q-35 0 -55 22q-19 20 -19 54v6z" />
<glyph unicode="N" horiz-adv-x="1513" d="M143 76l103 1294q2 39 25.5 61.5t58.5 22.5q45 0 71 -39l758 -1128l88 1087q2 37 24.5 58.5t57.5 21.5t57 -24q20 -22 19 -54v-6l-102 -1298q-4 -39 -23.5 -60.5t-56.5 -21.5q-49 0 -74 39l-760 1132l-88 -1091q-2 -37 -24.5 -58.5t-57.5 -21.5t-57 24q-20 22 -19 55v7z " />
<glyph unicode="O" horiz-adv-x="1564" d="M141 662q0 242 83 423t235.5 279t355.5 98q199 0 343.5 -82t222 -235.5t77.5 -364.5q0 -240 -83 -421t-235.5 -279t-355.5 -98q-198 0 -342.5 81.5t-222.5 235.5t-78 363zM313 659q0 -256 123 -394t348 -138q156 0 268.5 79t173 226.5t60.5 349.5q0 258 -123 396.5 t-348 138.5q-156 0 -268.5 -79t-173 -226.5t-60.5 -352.5z" />
<glyph unicode="P" horiz-adv-x="1320" d="M143 76l103 1286q6 82 88 82h477q221 0 341 -106.5t120 -290.5q0 -223 -135.5 -339t-376.5 -116h-408l-41 -522q-2 -37 -26.5 -58.5t-61.5 -21.5t-59 24q-21 22 -21 56v6zM365 731h387q354 0 354 307q0 266 -309 267h-387z" />
<glyph unicode="Q" horiz-adv-x="1564" d="M141 662q0 242 83 423t235.5 279t355.5 98q199 0 344.5 -82t222 -235.5t76.5 -364.5q0 -284 -115.5 -485t-332.5 -272q39 -16 68.5 -49t60.5 -89l78 -147q12 -23 12 -43q0 -31 -25.5 -51.5t-58.5 -20.5q-23 0 -44.5 12.5t-33.5 34.5l-106 197q-57 113 -218 117 q-182 6 -317 88t-210 233.5t-75 356.5zM313 659q0 -256 123 -394t348 -138q156 0 268.5 79t173 226.5t60.5 349.5q0 258 -123 396.5t-348 138.5q-156 0 -268.5 -79t-173 -226.5t-60.5 -352.5z" />
<glyph unicode="R" horiz-adv-x="1404" d="M145 78l101 1284q2 39 26.5 60.5t61.5 21.5h508q221 0 339.5 -99.5t118.5 -285.5q0 -188 -102 -299t-305 -133q45 -16 80 -52t69 -102l201 -373q10 -20 10 -37q0 -31 -26.5 -53t-59.5 -22q-23 0 -43 12t-32 37l-226 426q-45 84 -100 115.5t-156 31.5h-256l-41 -540 q-2 -37 -26.5 -58.5t-63.5 -21.5t-61 24q-18 20 -18 52q0 6 1 12zM365 750h421q176 0 263.5 73.5t87.5 225.5q0 131 -77 193.5t-231 62.5h-421z" />
<glyph unicode="S" horiz-adv-x="1263" d="M84 269.5q18 21.5 45 21.5q20 0 43 -15q94 -78 204.5 -114.5t250.5 -36.5q176 0 270 65.5t94 184.5q0 74 -46 121t-115.5 74.5t-190.5 62.5q-152 43 -246 84t-160.5 122t-66.5 212q0 123 65.5 216t187.5 143t283 50q150 0 279 -45t215 -125q29 -27 29 -61 q0 -31 -19.5 -52.5t-48.5 -21.5t-57 23q-76 66 -179.5 103.5t-220.5 37.5q-176 0 -270 -68.5t-94 -191.5q0 -82 49 -133.5t122 -81t202 -68.5q147 -43 237 -82t152.5 -112.5t62.5 -194.5q0 -186 -144.5 -294.5t-393.5 -108.5h-4q-324 0 -513 157q-40 32 -40 76q0 31 18 52.5 z" />
<glyph unicode="T" horiz-adv-x="1224" d="M80 1370q0 35 20.5 54.5t59.5 19.5h1050q37 0 55.5 -18.5t18.5 -51.5q0 -74 -80 -74h-444l-96 -1230q-4 -35 -28 -57.5t-61 -22.5t-59 24q-21 22 -20 56v6l96 1224h-438q-35 0 -54.5 19.5t-19.5 50.5z" />
<glyph unicode="U" horiz-adv-x="1482" d="M170 494q0 49 2 75l66 805q2 35 26.5 57.5t59.5 22.5q38 0 60 -24q20 -21 19 -53v-9l-63 -797q-2 -23 -2 -65q0 -190 94 -284.5t287 -94.5q201 0 308.5 102.5t123.5 317.5l66 827q4 35 27.5 57.5t58.5 22.5q37 0 60 -24q21 -22 21 -56v-6l-65 -805q-23 -291 -175.5 -435 t-428.5 -144q-271 0 -408 131t-137 379z" />
<glyph unicode="V" horiz-adv-x="1415" d="M106 1376q0 35 27 56.5t62 21.5q55 0 71 -49l420 -1194l606 1200q21 43 72 43q31 0 55.5 -19.5t24.5 -50.5q0 -18 -12 -41l-668 -1298q-14 -29 -40 -43t-54 -14q-31 0 -56.5 16t-38.5 47l-462 1297q-6 16 -7 28z" />
<glyph unicode="W" horiz-adv-x="2254" d="M162 1374q0 37 25.5 58.5t60.5 21.5q27 0 47 -14.5t29 -42.5l303 -1157l491 1153q14 31 37 46t47 15q27 0 48.5 -16.5t29.5 -44.5l305 -1157l494 1169q10 25 30.5 38t44.5 13q29 0 50.5 -18.5t21.5 -48.5q0 -23 -8 -41l-557 -1301q-12 -29 -37 -44t-53 -15 q-29 0 -52.5 17.5t-31.5 47.5l-305 1127l-488 -1133q-12 -29 -36.5 -44t-51.5 -15q-31 0 -54.5 17.5t-31.5 47.5l-354 1297z" />
<glyph unicode="X" horiz-adv-x="1323" d="M31 61q0 29 24 60l529 620l-408 584q-16 27 -16 47q0 33 26.5 57.5t59.5 24.5q37 0 61 -33l383 -559l471 563q29 31 62 31q31 0 54 -22.5t23 -53.5t-22 -55l-500 -588l434 -618q16 -23 17 -49q0 -33 -25.5 -56.5t-58.5 -23.5q-39 0 -64 33l-407 593l-506 -598 q-24 -30 -60 -30h-2q-31 0 -53 21.5t-22 51.5z" />
<glyph unicode="Y" horiz-adv-x="1230" d="M90 1378q0 31 25.5 53.5t58.5 22.5q39 0 62 -35l401 -596l491 592q31 39 74 39q29 0 50.5 -20.5t21.5 -47.5q0 -33 -23 -57l-538 -647l-47 -612q-2 -37 -27 -58.5t-59 -21.5q-37 0 -60 24q-22 21 -22 56v6l47 606l-439 647q-16 23 -16 49z" />
<glyph unicode="Z" horiz-adv-x="1208" d="M45 68q0 33 25 63l905 1172h-754q-35 0 -54.5 18t-19.5 49q0 74 80 74h897q31 0 49.5 -19.5t18.5 -48.5q0 -35 -23 -63l-905 -1172h776q37 0 56.5 -18.5t19.5 -48.5q0 -35 -20.5 -54.5t-59.5 -19.5h-919q-33 0 -52.5 19.5t-19.5 48.5z" />
<glyph unicode="[" horiz-adv-x="643" d="M172 -160l111 1395q8 100 65.5 154.5t157.5 54.5h135q33 0 52.5 -15.5t19.5 -44.5q0 -35 -21.5 -53t-54.5 -18h-96q-88 0 -95 -92l-110 -1366q-6 -92 82 -93h94q31 0 49.5 -16t18.5 -45q0 -35 -21.5 -52.5t-56.5 -17.5h-140q-100 0 -149 54.5t-41 154.5z" />
<glyph unicode="\" horiz-adv-x="577" d="M49 1468q0 31 23.5 51.5t54.5 20.5q23 0 41 -14.5t25 -40.5l366 -1530q2 -6 2 -18q0 -29 -23.5 -48.5t-54.5 -19.5q-23 0 -41 14.5t-24 40.5l-367 1526q-2 6 -2 18z" />
<glyph unicode="]" horiz-adv-x="643" d="M-61 -309q0 35 21.5 53t53.5 18h97q88 0 94 93l108 1366q4 47 -15 69.5t-65 22.5h-96q-29 0 -47 16.5t-18 44.5q0 35 21.5 52.5t56.5 17.5h139q100 0 149 -54.5t41 -154.5l-112 -1395q-8 -100 -64.5 -154.5t-157.5 -54.5h-137q-31 0 -50 15.5t-19 44.5z" />
<glyph unicode="^" d="M123 348q0 18 8 35l453 846q14 27 38.5 43t55.5 16q29 0 51.5 -16.5t32.5 -42.5l319 -852q4 -17 4 -23q0 -29 -22.5 -48t-48.5 -19q-37 0 -49 35l-299 804l-426 -804q-18 -33 -54 -33q-25 0 -44 17.5t-19 41.5z" />
<glyph unicode="_" horiz-adv-x="1024" d="M-45 -55q2 25 22.5 40t51.5 15h889q31 0 47 -15.5t14 -37.5q0 -25 -19.5 -40.5t-50.5 -15.5h-891q-28 0 -45.5 15.5t-17.5 38.5z" />
<glyph unicode="`" horiz-adv-x="614" d="M106 1487q0 31 22.5 51.5t51.5 20.5q51 0 74 -56l133 -315q6 -12 6 -25q0 -20 -13.5 -31.5t-33.5 -11.5q-35 0 -56 29l-168 287q-16 25 -16 51z" />
<glyph unicode="a" horiz-adv-x="1085" d="M104 272q0 113 59.5 179.5t190.5 97.5t355 31h73l4 59l2 39q0 106 -52 156.5t-161 50.5q-147 0 -317 -101q-20 -10 -33 -10q-25 0 -41 19.5t-16 46.5q0 45 39 69q74 51 177 82t204 31q360 0 360 -342q0 -37 -2 -55l-43 -559q-2 -37 -24.5 -56.5t-57.5 -19.5 q-37 0 -59.5 23.5t-18.5 58.5l7 90q-45 -84 -124 -130t-182 -46q-150 0 -245 80.5t-95 205.5zM272 287q0 -78 55.5 -124t151.5 -46q117 0 199 82t90 211l4 63h-57q-170 0 -265.5 -17.5t-136.5 -57.5t-41 -111z" />
<glyph unicode="b" horiz-adv-x="1191" d="M119 72l104 1308q2 35 29 55.5t61 20.5q37 0 57.5 -19.5t18.5 -56.5l-41 -530q51 82 138 127t190 45q125 0 221 -59.5t149.5 -169t53.5 -254.5q0 -164 -58.5 -290t-165 -194.5t-245.5 -68.5q-119 0 -206 51t-132 145l-8 -110q-2 -39 -28 -60.5t-60 -21.5q-37 0 -59 22 q-20 20 -19 53v7zM317 467q0 -168 77 -256t222 -88q146 0 230 110.5t84 305.5q0 164 -78 255t-219 91q-147 0 -231.5 -111.5t-84.5 -306.5z" />
<glyph unicode="c" horiz-adv-x="980" d="M94 467q0 168 61.5 293t176 193.5t270.5 68.5q100 0 188.5 -29.5t141.5 -74.5q31 -25 31 -64q0 -29 -18.5 -52.5t-45.5 -23.5q-16 0 -35 13q-123 92 -262 92q-160 0 -248 -110.5t-88 -307.5q0 -160 80 -251t225 -91q72 0 131.5 22.5t118.5 67.5q20 14 39 14 q25 0 40 -19.5t15 -45.5q0 -33 -26 -58q-59 -55 -147.5 -86.5t-184.5 -31.5q-139 0 -244.5 59t-162 168t-56.5 254z" />
<glyph unicode="d" horiz-adv-x="1191" d="M94 465q0 166 58.5 292t165 195.5t245.5 69.5q117 0 204 -51t130 -142l43 551q2 35 27.5 55.5t60.5 20.5q37 0 58.5 -20.5t19.5 -55.5l-102 -1308q-2 -39 -28 -60.5t-61 -21.5t-56 22q-19 20 -19 53v7l8 88q-51 -82 -139 -128t-191 -46q-125 0 -221 58t-149.5 166.5 t-53.5 254.5zM262 471q0 -166 79 -257t220 -91q148 0 232 111.5t84 304.5q0 168 -77 257t-222 89t-230.5 -110.5t-85.5 -303.5z" />
<glyph unicode="e" horiz-adv-x="1079" d="M94 469q0 164 60.5 289t172 194.5t259.5 69.5q201 0 307 -120t106 -347q0 -39 -20.5 -60.5t-54.5 -21.5h-664v-8q0 -164 81 -254t234 -90q162 0 285 90q20 14 41 14q25 0 40 -18.5t15 -42.5q0 -37 -32 -68q-55 -49 -154.5 -79.5t-202.5 -30.5q-217 0 -345 131t-128 352z M268 580h582v24q0 136 -62 210q-68 80 -196 79q-137 0 -219 -81t-105 -232z" />
<glyph unicode="f" horiz-adv-x="671" d="M35 930q0 31 18.5 49t55.5 18h141l2 37q14 199 116.5 298.5t297.5 111.5l41 2q8 1 16 1q29 0 47 -13q21 -15 21 -48q0 -63 -70 -69l-59 -4q-117 -8 -174.5 -70.5t-67.5 -187.5l-4 -58h223q33 0 50.5 -17t17.5 -46q0 -31 -18.5 -49.5t-53.5 -18.5h-229l-64 -796 q-2 -39 -26.5 -59.5t-59.5 -20.5t-58 20q-22 19 -22 54v6l64 796h-138q-33 0 -50 17.5t-17 46.5z" />
<glyph unicode="g" horiz-adv-x="1200" d="M96 489q0 156 58.5 277t165 188.5t247.5 67.5q119 0 207 -51t133 -144l8 109q4 39 30 60.5t61 21.5q34 0 56 -22q19 -19 19 -53v-7l-69 -868q-16 -223 -138 -337t-346 -114q-115 0 -215 28.5t-174 80.5q-41 29 -41 67q0 29 19.5 49.5t46.5 20.5q14 0 29 -8 q82 -51 161.5 -77t177.5 -26q293 0 316 307l12 148q-47 -82 -135 -129t-197 -47q-197 0 -314.5 125t-117.5 333zM264 489q0 -156 78 -238.5t223 -82.5q150 0 235 104.5t85 286.5q0 156 -79 241t-222 85q-150 0 -235 -105.5t-85 -290.5z" />
<glyph unicode="h" horiz-adv-x="1163" d="M119 72l104 1308q2 35 29 55.5t61 20.5q37 0 57.5 -19.5t18.5 -56.5l-43 -532q53 84 140 129t196 45q168 0 256 -88t88 -256q0 -37 -2 -55l-43 -551q-4 -41 -28.5 -61.5t-59.5 -20.5q-39 0 -61 20q-18 17 -18 50q0 6 1 12l43 540q2 14 2 43q0 227 -219 228 q-139 0 -221 -83t-94 -229l-41 -499q-2 -41 -27 -61.5t-61 -20.5q-37 0 -59 20q-20 19 -19 55v7z" />
<glyph unicode="i" horiz-adv-x="475" d="M119 72l71 868q2 39 28 58.5t61 19.5t57 -20q20 -18 20 -52v-6l-71 -868q-2 -41 -28 -61.5t-60 -20.5q-35 0 -57 20q-21 19 -21 55v7zM195 1337q0 45 30.5 74t79.5 29t80 -29t31 -74q0 -47 -30.5 -75.5t-80.5 -28.5q-49 0 -79.5 28.5t-30.5 75.5z" />
<glyph unicode="j" horiz-adv-x="475" d="M-244 -309q0 27 17.5 44t52.5 19l59 4q111 8 165 66.5t65 179.5l75 932q2 41 27 61.5t59 20.5q35 0 58 -20q22 -19 22 -56v-6l-73 -916q-14 -190 -111.5 -285t-288.5 -106l-43 -4h-8q-35 0 -56 17q-22 18 -20 49zM195 1337q0 45 30.5 74t79.5 29t80 -29t31 -74 q0 -47 -30.5 -75.5t-80.5 -28.5q-49 0 -79.5 28.5t-30.5 75.5z" />
<glyph unicode="k" horiz-adv-x="1024" d="M121 74l102 1302q2 37 29 57.5t61 20.5q37 0 57 -22q19 -20 19 -55v-7l-65 -827l514 444q22 23 53 23q29 0 50.5 -21.5t21.5 -50.5q0 -31 -27 -55l-430 -369l412 -397q20 -23 20 -49q0 -31 -24.5 -55.5t-55.5 -24.5q-27 0 -51 24l-488 463l-32 -407q-2 -39 -26.5 -58.5 t-59.5 -19.5q-37 0 -59 22q-21 21 -21 56v6z" />
<glyph unicode="l" horiz-adv-x="475" d="M119 72l104 1306q2 39 29 58.5t61 19.5q35 0 56.5 -19.5t19.5 -58.5l-104 -1306q-2 -41 -28 -61.5t-60 -20.5q-35 0 -57 20q-21 19 -21 55v7z" />
<glyph unicode="m" horiz-adv-x="1744" d="M119 72l71 868q2 37 28 57.5t61 20.5t55 -19.5t18 -56.5l-8 -92q102 172 313 172q115 0 190 -48t105 -140q51 90 139.5 139t200.5 49q156 0 236 -87t80 -253q0 -39 -2 -59l-43 -551q-2 -41 -28 -61.5t-60 -20.5q-35 0 -57 20q-21 19 -21 55v7l43 542q2 16 2 50 q0 113 -48 166t-147 53q-125 0 -198.5 -82t-83.5 -234l-39 -495q-4 -41 -30 -61.5t-60 -20.5q-36 0 -58 20q-19 17 -19 50q0 6 1 12l43 542q2 16 2 50q0 113 -48 166t-147 53q-125 0 -197.5 -81t-86.5 -235l-41 -495q-2 -41 -28 -61.5t-60 -20.5q-35 0 -57 20q-21 19 -21 55 v7z" />
<glyph unicode="n" horiz-adv-x="1163" d="M119 72l71 868q2 37 28 57.5t61 20.5t55 -20.5t18 -55.5l-8 -98q51 84 139 131t199 47q168 0 256 -88t88 -256q0 -37 -2 -55l-43 -551q-4 -41 -28.5 -61.5t-59.5 -20.5q-39 0 -61 20q-18 17 -18 50q0 6 1 12l43 540q2 14 2 43q0 227 -219 228q-139 0 -221 -83t-94 -229 l-41 -499q-2 -41 -27 -61.5t-61 -20.5q-37 0 -59 20q-20 19 -19 55v7z" />
<glyph unicode="o" horiz-adv-x="1136" d="M94 469q0 166 60.5 291t170 193.5t255.5 68.5q141 0 245.5 -59.5t161.5 -170t57 -255.5q0 -166 -60 -291t-171 -192.5t-256 -67.5q-139 0 -244.5 59t-162 169t-56.5 255zM262 463q0 -166 76 -253t221 -87q150 0 232.5 112.5t82.5 307.5q0 164 -76.5 253t-217.5 89 q-150 0 -234 -115t-84 -307z" />
<glyph unicode="p" horiz-adv-x="1191" d="M90 -305l98 1241q4 41 29 61.5t59 20.5q37 0 58 -22q20 -19 20 -53v-7l-8 -88q49 82 136 128t192 46q127 0 223 -59.5t149.5 -168t53.5 -253.5q0 -166 -59.5 -291t-166 -194.5t-243.5 -69.5q-117 0 -205 51t-131 143l-39 -485q-2 -37 -26.5 -56.5t-61.5 -19.5t-58.5 19.5 t-19.5 56.5zM317 467q0 -168 77 -256t220 -88q148 0 232 110.5t84 301.5q0 166 -78 258t-219 92q-147 0 -231.5 -111.5t-84.5 -306.5z" />
<glyph unicode="q" horiz-adv-x="1191" d="M92 467q0 164 59.5 290t166 195.5t243.5 69.5q119 0 207 -52t131 -147l8 113q4 41 29 61.5t59 20.5q37 0 59 -22q19 -19 19 -53v-7l-98 -1241q-2 -35 -28.5 -55.5t-61.5 -20.5q-37 0 -57.5 19.5t-18.5 56.5l37 465q-49 -82 -137 -128t-193 -46q-125 0 -221 59t-149.5 168 t-53.5 254zM262 467q0 -164 78 -254t219 -90q148 0 231.5 111.5t83.5 304.5q0 168 -76.5 257t-219.5 89q-147 0 -231.5 -111.5t-84.5 -306.5z" />
<glyph unicode="r" horiz-adv-x="722" d="M119 72l71 868q2 37 28 57.5t61 20.5t54 -19.5t17 -56.5l-8 -106q53 84 135 127t197 53l22 2q35 4 54.5 -13.5t19.5 -50.5q0 -74 -80 -80l-55 -6q-150 -14 -224.5 -87.5t-84.5 -211.5l-41 -497q-2 -41 -28 -61.5t-60 -20.5q-35 0 -57 20q-21 19 -21 55v7z" />
<glyph unicode="s" horiz-adv-x="983" d="M63 160q0 29 17.5 48t44.5 19q18 0 39 -12q72 -47 145.5 -71.5t159.5 -24.5q240 0 240 147q0 68 -57.5 100.5t-180.5 69.5q-106 31 -170.5 59.5t-111 83t-46.5 144.5q0 135 109.5 217t290.5 82q94 0 182 -30.5t141 -80.5q31 -23 31 -61q0 -27 -17.5 -47.5t-41.5 -20.5 q-23 0 -47 19q-117 86 -252 86q-113 0 -173.5 -39t-60.5 -117q0 -68 58.5 -100.5t177.5 -67.5q104 -31 169.5 -59.5t111.5 -83.5t46 -146q0 -133 -110.5 -210.5t-298.5 -77.5q-103 0 -198 28.5t-157 73.5q-41 27 -41 72z" />
<glyph unicode="t" horiz-adv-x="696" d="M35 930q0 33 19.5 50t54.5 17h139l18 234q4 35 27.5 56.5t60.5 21.5q38 -1 60 -23q18 -19 19 -48q0 -5 -1 -11l-18 -230h225q31 0 49.5 -17t18.5 -46q0 -33 -18.5 -50.5t-53.5 -17.5h-232l-38 -506q-2 -14 -3 -41q0 -98 45.5 -149t127.5 -51q27 0 51 3t37 3 q20 0 33.5 -16.5t13.5 -45.5q0 -43 -36 -60t-126 -17q-147 0 -229 84t-82 237q0 29 2 45l39 514h-136q-33 0 -50 17.5t-17 46.5z" />
<glyph unicode="u" horiz-adv-x="1148" d="M137 328q0 37 2 55l43 553q4 39 30 60.5t60 21.5q36 0 58 -22q18 -18 19 -48q0 -6 -1 -12l-43 -543q-2 -14 -2 -43q0 -225 215 -225q133 0 213 82t90 227l41 502q4 39 30 60.5t60 21.5q36 0 58 -22q18 -18 19 -48q0 -6 -1 -12l-70 -870q-2 -35 -27.5 -55.5t-60.5 -20.5 t-55 19.5t-18 53.5l8 99q-51 -84 -137 -130t-193 -46q-166 0 -252 87t-86 255z" />
<glyph unicode="v" horiz-adv-x="1052" d="M72 930q0 33 26.5 54.5t59.5 21.5q23 0 42 -12.5t27 -37.5l275 -776l399 783q23 45 70 45q31 0 54.5 -20.5t23.5 -51.5q0 -16 -11 -37l-446 -848q-16 -31 -44 -47t-59 -16q-35 0 -62.5 18.5t-39.5 52.5l-309 844q-6 16 -6 27z" />
<glyph unicode="w" horiz-adv-x="1724" d="M111 932q0 35 25.5 56.5t58.5 21.5q55 0 73 -56l211 -757l328 745q14 33 40.5 50.5t53.5 17.5q29 0 53.5 -18.5t32.5 -49.5l209 -743l332 762q25 47 74 47q33 0 56 -20.5t23 -51.5q0 -18 -8 -35l-387 -848q-14 -29 -40.5 -45t-59.5 -16q-35 0 -61.5 17.5t-37.5 51.5 l-206 709l-318 -717q-12 -29 -38.5 -45t-59.5 -16q-35 0 -62.5 18.5t-37.5 50.5l-250 844q-4 20 -4 27z" />
<glyph unicode="x" horiz-adv-x="1060" d="M33 61q0 29 24 56l373 397l-289 367q-18 25 -18 49q0 33 25.5 56.5t58.5 23.5q35 0 59 -31l271 -350l333 350q29 29 62 29q29 0 51.5 -21.5t22.5 -50.5t-25 -53l-348 -371l309 -395q18 -20 19 -47q0 -33 -26 -56.5t-58 -23.5q-37 0 -60 28l-295 379l-358 -383 q-26 -26 -56 -26h-2q-29 0 -51 21.5t-22 51.5z" />
<glyph unicode="y" horiz-adv-x="1052" d="M72 930q0 33 26.5 54.5t59.5 21.5q23 0 42 -12.5t27 -37.5l275 -776l399 783q23 45 70 45q31 0 54.5 -20.5t23.5 -51.5q0 -16 -11 -37l-647 -1231q-27 -49 -76 -49q-29 0 -50 18.5t-21 47.5q0 12 10 36l152 289l-328 893q-6 16 -6 27z" />
<glyph unicode="z" horiz-adv-x="1030" d="M51 63q0 33 27 60l665 743h-538q-33 0 -50.5 16.5t-17.5 47.5t18.5 49t55.5 18h692q31 0 48.5 -19.5t17.5 -47.5q0 -37 -27 -64l-659 -735h573q33 0 51.5 -17.5t18.5 -45.5q0 -31 -19.5 -49.5t-56.5 -18.5h-733q-31 0 -48.5 18.5t-17.5 44.5z" />
<glyph unicode="{" horiz-adv-x="718" d="M88 537q0 63 78 69q80 4 114.5 42t41.5 122l34 465q8 100 63.5 154.5t153.5 54.5h148q31 0 49 -16.5t18 -45.5q0 -33 -20 -51t-51 -18h-101q-90 0 -96 -92l-37 -467q-8 -90 -55 -145.5t-111 -69.5q59 -14 99.5 -69.5t34.5 -145.5l-39 -469q-6 -92 82 -93h92q31 0 50 -17 t19 -46q0 -35 -20.5 -51.5t-54.5 -16.5h-121q-102 0 -157.5 47.5t-55.5 135.5l2 26l37 465q6 84 -23 123t-108 43q-33 2 -49.5 19.5t-16.5 46.5z" />
<glyph unicode="|" horiz-adv-x="534" d="M125 -297l133 1669q2 35 26.5 58.5t59.5 23.5q33 0 54.5 -23.5t19.5 -58.5l-133 -1669q-2 -35 -27 -58.5t-59 -23.5q-35 0 -55.5 23.5t-18.5 58.5z" />
<glyph unicode="}" horiz-adv-x="718" d="M-63 -307q0 35 21.5 52t55.5 17h95q90 0 96 93l37 469q8 90 55 144t113 69q-61 16 -100.5 71.5t-33.5 145.5l35 467q8 92 -80 92h-94q-29 0 -48 17.5t-19 43.5q0 35 20.5 52.5t52.5 17.5h123q111 0 165 -54.5t46 -154.5l-37 -465q-6 -84 23 -122t108 -42q68 -6 68 -65 q0 -29 -20.5 -48.5t-57.5 -21.5q-80 -4 -115.5 -43t-42.5 -121l-36 -467q-6 -100 -61.5 -154.5t-153.5 -54.5h-148q-31 0 -49 16.5t-18 45.5z" />
<glyph unicode="~" d="M135 541q0 20 12 41q47 70 111 106.5t139 36.5q66 0 124.5 -23.5t140.5 -68.5q66 -37 105.5 -53.5t78.5 -16.5q88 0 147 78q27 35 62 35q23 0 38 -14.5t15 -36.5q0 -20 -14 -41q-98 -143 -250 -144q-66 0 -122 22.5t-142 69.5q-68 37 -106 54.5t-77 17.5q-92 0 -147 -80 q-27 -35 -62 -35q-23 0 -38 14.5t-15 37.5z" />
<glyph unicode="&#xa2;" d="M184 467q0 231 115 377.5t317 173.5l13 158q4 35 23.5 55t52.5 20t51 -21.5t16 -53.5l-12 -158q80 -8 149.5 -35t114.5 -65q31 -25 31 -64q0 -29 -18.5 -52.5t-45.5 -23.5q-16 0 -35 13q-123 92 -262 92q-159 0 -247.5 -110.5t-88.5 -307.5q0 -160 79 -251t227 -91 q72 0 131 22.5t118 67.5q20 14 39 14q25 0 40.5 -20.5t15.5 -46.5q0 -35 -27 -56q-55 -51 -135 -82.5t-168 -35.5l-14 -156q-2 -35 -21.5 -55.5t-50.5 -20.5q-33 0 -52.5 21.5t-17.5 54.5l13 166q-162 35 -256.5 159t-94.5 312z" />
<glyph unicode="&#xa3;" d="M49 70q0 33 21.5 52t60.5 19h139l43 523h-157q-25 0 -40.5 16t-15.5 41q0 27 18.5 44t47.5 17h156l22 275q14 188 130 295.5t302 107.5q123 0 232.5 -43t185.5 -123q31 -28 31 -65q0 -29 -19.5 -49.5t-46.5 -20.5q-31 0 -55 23q-66 63 -152 100t-174 37 q-119 0 -188.5 -68.5t-79.5 -195.5l-21 -273h326q25 0 40 -16t15 -41q0 -27 -18 -44t-47 -17h-326l-41 -523h619q35 0 54 -17.5t19 -49.5q0 -74 -83 -74h-926q-72 0 -72 70z" />
<glyph unicode="&#xa5;" d="M104 1374q0 31 26 54.5t56 23.5q39 0 62 -35l393 -586l487 590q25 33 64 33q29 0 51.5 -20.5t22.5 -49.5q0 -31 -19 -51l-454 -545h266q27 0 41 -16t14 -43t-18.5 -44t-44.5 -17h-338l-15 -189h336q27 0 41.5 -16.5t14.5 -42.5q0 -27 -18.5 -44.5t-45.5 -17.5h-338 l-22 -282q-2 -41 -26 -63.5t-62 -22.5q-39 0 -60.5 22.5t-19.5 63.5l22 282h-338q-27 0 -41 16.5t-14 43.5t18.5 44t44.5 17h340l15 189h-338q-25 0 -40 17t-15 42q0 27 18 44t45 17h270l-366 543q-14 20 -15 43z" />
<glyph unicode="&#xa8;" horiz-adv-x="614" d="M98 1337q0 43 28.5 70t71.5 27t73 -27t30 -70q0 -45 -29 -71.5t-74 -26.5q-43 0 -71.5 27.5t-28.5 70.5zM448 1337q0 43 30 70t73 27t71.5 -27t28.5 -70t-28.5 -70.5t-71.5 -27.5t-73 27.5t-30 70.5z" />
<glyph unicode="&#xa9;" horiz-adv-x="1669" d="M121 723q0 205 96 372t264 263t373 96t372 -96t263 -263t96 -372t-96 -372t-264 -264t-371 -97q-205 0 -373 97t-264 264t-96 372zM217 723q0 -178 83 -325.5t228.5 -231.5t325.5 -84q178 0 323.5 84t228.5 231.5t83 325.5t-83 324.5t-228.5 230.5t-323.5 84 q-180 0 -325.5 -84t-228.5 -230.5t-83 -324.5zM455 723q0 203 112.5 321.5t300.5 118.5q156 0 275 -92q29 -20 28 -57q0 -25 -13 -44.5t-38 -19.5q-18 0 -47 17q-59 37 -100 54t-99 17q-127 0 -193.5 -80.5t-66.5 -234.5q0 -156 67 -236.5t193 -80.5q57 0 98.5 17t100.5 54 q29 16 47 17q25 0 38 -19.5t13 -44.5q0 -35 -28 -57q-104 -92 -275 -92q-188 0 -300.5 118.5t-112.5 323.5z" />
<glyph unicode="&#xaa;" horiz-adv-x="675" d="M102 1012q0 96 82 138t275 42h45l2 35q10 117 -111 116q-86 0 -180 -51q-12 -6 -22 -6q-18 0 -32 15.5t-14 35.5q0 37 35 58q43 27 106.5 43t125.5 16q125 0 184 -64.5t49 -191.5l-24 -295q-2 -33 -22.5 -51t-47.5 -18q-33 0 -52.5 18t-17.5 51l4 35q-59 -104 -184 -104 q-88 0 -144.5 50t-56.5 128zM242 1022q0 -37 28.5 -60.5t69.5 -23.5q66 0 109 41t47 106l2 29h-43q-119 0 -166 -20.5t-47 -71.5z" />
<glyph unicode="&#xab;" horiz-adv-x="903" d="M119 541q0 27 18 53l187 276q25 39 71 39q25 0 43.5 -14t18.5 -39q0 -14 -13 -37l-161 -274l112 -277q6 -14 6 -30q0 -27 -19.5 -44.5t-45.5 -17.5q-43 0 -64 41l-141 277q-12 25 -12 47zM490 541q0 27 18 53l187 276q25 39 71 39q25 0 43.5 -14t18.5 -39q0 -14 -13 -37 l-161 -274l112 -277q6 -14 6 -30q0 -27 -19.5 -44.5t-45.5 -17.5q-43 0 -64 41l-141 277q-12 25 -12 47z" />
<glyph unicode="&#xac;" d="M139 797q0 27 20.5 44t49.5 17h868q27 0 45.5 -18.5t16.5 -46.5l-35 -420q-2 -29 -22.5 -48.5t-49.5 -19.5q-24 0 -39.5 19.5t-13.5 48.5l29 360h-807q-27 0 -44.5 18.5t-17.5 45.5z" />
<glyph unicode="&#xad;" horiz-adv-x="870" d="M137 543q0 33 20.5 52t59.5 19h451q35 0 54 -19.5t19 -47.5q0 -33 -21.5 -51.5t-60.5 -18.5h-448q-37 0 -55.5 17.5t-18.5 48.5z" />
<glyph unicode="&#xae;" horiz-adv-x="1669" d="M121 723q0 205 96 372t264 263t373 96t372 -96t263 -263t96 -372t-96 -372t-264 -264t-371 -97q-205 0 -372 97t-264 264t-97 372zM217 723q0 -180 84 -326.5t229.5 -230.5t323.5 -84t323.5 84t228.5 230.5t83 326.5t-83 325.5t-228.5 229.5t-323.5 84t-323.5 -84 t-229.5 -229.5t-84 -325.5zM518 356l57 723q2 35 24 55.5t56 20.5h267q147 0 224 -62.5t77 -181.5q0 -106 -62.5 -174.5t-175.5 -85.5q33 -8 56.5 -30.5t48.5 -61.5l100 -178q12 -18 12 -37q0 -27 -23.5 -46t-54.5 -19q-47 0 -69 40l-142 248q-23 39 -49 54.5t-71 15.5h-103 l-20 -281q-2 -37 -24.5 -56t-57.5 -19q-33 0 -52.5 19t-17.5 56zM698 754h205q84 0 127 38.5t43 112.5q0 68 -41 98.5t-131 30.5h-180z" />
<glyph unicode="&#xb1;" d="M82 66q0 27 19.5 45t48.5 18h868q26 0 43.5 -19.5t17.5 -46.5t-20.5 -45t-48.5 -18h-869q-27 0 -43 18.5t-16 47.5zM129 670q2 27 21.5 44t48.5 17h372l23 285q2 29 21.5 48t48.5 19q27 0 42 -19.5t13 -47.5l-23 -285h371q27 0 44 -17.5t17 -43.5q0 -29 -20.5 -47.5 t-50.5 -18.5h-371l-22 -282q-2 -29 -22.5 -49.5t-49.5 -20.5q-27 0 -42 19.5t-13 47.5l22 285h-369q-27 0 -44 18.5t-17 47.5z" />
<glyph unicode="&#xb4;" horiz-adv-x="614" d="M327 1163q0 20 11 33l249 317q29 41 70 41q31 0 55.5 -21.5t24.5 -51.5q0 -31 -29 -60l-295 -282q-21 -21 -41 -21q-18 0 -31.5 13.5t-13.5 31.5z" />
<glyph unicode="&#xb5;" horiz-adv-x="1148" d="M84 -305l100 1241q2 39 28 60.5t60 21.5q37 0 58.5 -21.5t19.5 -60.5l-45 -543q-2 -14 -2 -41q0 -227 215 -227q131 0 212 83t93 226l41 502q2 39 28 60.5t60 21.5q37 0 58.5 -21.5t19.5 -60.5l-69 -870q-2 -35 -29 -55.5t-62 -20.5t-55 19.5t-18 53.5l8 99 q-51 -84 -137 -130t-191 -46q-123 0 -198 57l-29 -346q-2 -35 -27.5 -55.5t-62.5 -20.5q-35 0 -56.5 19.5t-19.5 54.5z" />
<glyph unicode="&#xb8;" horiz-adv-x="614" d="M66 -326q0 23 19 39.5t46 7.5q61 -18 117 -18q119 0 119 72q0 27 -18.5 41t-51.5 14q-29 0 -56.5 -9t-35.5 -9q-16 0 -27.5 12t-9.5 26l39 191h115l-25 -127q12 2 43 2q68 0 108.5 -37t40.5 -100q0 -80 -65.5 -127t-175.5 -47q-74 0 -148 24q-35 14 -34 45z" />
<glyph unicode="&#xba;" horiz-adv-x="700" d="M94 1116q0 154 89 246t237 92q131 0 210 -78t79 -207q0 -152 -89.5 -243.5t-238.5 -91.5q-131 0 -209 77.5t-78 204.5zM242 1120q0 -82 36.5 -126t106.5 -44q84 0 130 57.5t46 159.5q0 82 -38 126t-107 44q-84 0 -129 -58t-45 -159z" />
<glyph unicode="&#xbb;" horiz-adv-x="899" d="M82 229q0 18 12 39l164 275l-117 276q-6 16 -6 29q0 29 20.5 46t47.5 17q43 0 63 -41l144 -276q12 -20 12 -45q0 -27 -21 -55l-188 -279q-27 -39 -68 -39q-27 0 -45 14.5t-18 38.5zM453 229q0 18 12 39l164 275l-117 276q-6 16 -6 29q0 29 20.5 46t47.5 17q43 0 63 -41 l144 -276q12 -20 12 -45q0 -27 -21 -55l-188 -279q-27 -39 -68 -39q-27 0 -45 14.5t-18 38.5z" />
<glyph unicode="&#xc0;" horiz-adv-x="1488" d="M39 66q0 23 10 40l670 1289q14 29 40.5 44t57.5 15t56.5 -16.5t37.5 -48.5l473 -1291q7 -14 7 -30q0 -35 -25 -57.5t-57 -22.5q-53 0 -74 55l-117 328h-760l-170 -334q-12 -23 -31.5 -35t-39.5 -12q-31 0 -54.5 21.5t-23.5 54.5zM430 510h639l-264 739zM584 1831 q0 27 20.5 45t47.5 18q43 0 65 -43l133 -225q8 -14 8 -27q0 -18 -14 -30.5t-33 -12.5q-29 0 -45 23l-162 203q-20 23 -20 49z" />
<glyph unicode="&#xc1;" horiz-adv-x="1488" d="M39 66q0 23 10 40l670 1289q14 29 40.5 44t57.5 15t56.5 -16.5t37.5 -48.5l473 -1291q7 -14 7 -30q0 -35 -25 -57.5t-57 -22.5q-53 0 -74 55l-117 328h-760l-170 -334q-12 -23 -31.5 -35t-39.5 -12q-31 0 -54.5 21.5t-23.5 54.5zM430 510h639l-264 739zM807 1597 q0 16 13 35l157 219q29 41 70 41q29 0 48 -18.5t19 -44.5q0 -31 -28 -60l-191 -190q-27 -23 -47 -23q-16 0 -28.5 12.5t-12.5 28.5z" />
<glyph unicode="&#xc2;" horiz-adv-x="1488" d="M39 66q0 23 10 40l670 1289q14 29 40.5 44t57.5 15t56.5 -16.5t37.5 -48.5l473 -1291q7 -14 7 -30q0 -35 -25 -57.5t-57 -22.5q-53 0 -74 55l-117 328h-760l-170 -334q-12 -23 -31.5 -35t-39.5 -12q-31 0 -54.5 21.5t-23.5 54.5zM430 510h639l-264 739zM578 1612 q0 20 18 41l181 200q35 37 81 37q47 0 74 -37l141 -196q14 -20 15 -41q0 -25 -18.5 -42.5t-43.5 -17.5q-35 0 -59 39l-115 183l-155 -193q-29 -31 -58 -31q-25 0 -43 17.5t-18 40.5z" />
<glyph unicode="&#xc3;" horiz-adv-x="1488" d="M39 66q0 23 10 40l670 1289q14 29 40.5 44t57.5 15t56.5 -16.5t37.5 -48.5l473 -1291q7 -14 7 -30q0 -35 -25 -57.5t-57 -22.5q-53 0 -74 55l-117 328h-760l-170 -334q-12 -23 -31.5 -35t-39.5 -12q-31 0 -54.5 21.5t-23.5 54.5zM430 510h639l-264 739zM516 1669 q0 37 25 76t69 64.5t99 25.5q35 0 69.5 -12.5t88.5 -38.5q82 -43 120 -43q35 0 55.5 14t43.5 41q23 33 45 33q20 0 30.5 -13.5t10.5 -35.5q0 -37 -24.5 -76t-68.5 -64.5t-100 -25.5q-35 0 -69.5 12t-87.5 39q-82 43 -121 43q-35 0 -55.5 -14.5t-43.5 -40.5 q-12 -16 -22 -24.5t-25 -8.5q-18 0 -28.5 13.5t-10.5 35.5z" />
<glyph unicode="&#xc4;" horiz-adv-x="1488" d="M39 66q0 23 10 40l670 1289q14 29 40.5 44t57.5 15t56.5 -16.5t37.5 -48.5l473 -1291q7 -14 7 -30q0 -35 -25 -57.5t-57 -22.5q-53 0 -74 55l-117 328h-760l-170 -334q-12 -23 -31.5 -35t-39.5 -12q-31 0 -54.5 21.5t-23.5 54.5zM430 510h639l-264 739zM568 1724 q0 43 28.5 71t71.5 28t72.5 -28t29.5 -71q0 -45 -28.5 -71.5t-73.5 -26.5q-43 0 -71.5 27.5t-28.5 70.5zM918 1724q0 43 29.5 71t72.5 28t72 -28t29 -71t-29 -70.5t-72 -27.5t-72.5 27.5t-29.5 70.5z" />
<glyph unicode="&#xc5;" horiz-adv-x="1488" d="M39 66q0 23 10 40l676 1299q-49 27 -78 74t-29 104q0 86 61.5 144.5t147.5 58.5t146.5 -58.5t60.5 -144.5q0 -63 -33.5 -113.5t-91.5 -72.5l475 -1299q7 -14 7 -30q0 -35 -25 -57.5t-57 -22.5q-53 0 -74 55l-117 328h-760l-170 -334q-12 -23 -31.5 -35t-39.5 -12 q-31 0 -54.5 21.5t-23.5 54.5zM430 510h639l-264 739zM727 1583q0 -43 28.5 -72.5t71.5 -29.5t71 29.5t28 72.5t-28 73t-71 30t-71.5 -30t-28.5 -73z" />
<glyph unicode="&#xc6;" horiz-adv-x="2029" d="M14 57q0 29 21 58l876 1278q39 51 103 51h925q35 0 54.5 -19.5t19.5 -50.5q0 -33 -21.5 -52t-58.5 -19h-819l68 -500h665q37 0 56.5 -18.5t19.5 -49.5q0 -33 -21.5 -52t-58.5 -19h-643l72 -523h563q37 0 57.5 -19.5t20.5 -49.5q0 -33 -21.5 -52.5t-60.5 -19.5h-621 q-35 0 -57.5 16.5t-26.5 46.5l-41 308h-690l-225 -336q-31 -47 -80 -47q-31 0 -53.5 19.5t-22.5 49.5zM487 510h580l-96 719z" />
<glyph unicode="&#xc7;" horiz-adv-x="1386" d="M141 662q0 242 85 422t242 278t370 98q156 0 282.5 -44t210.5 -126q33 -26 33 -63q0 -31 -19.5 -53.5t-48.5 -22.5q-23 0 -47 18q-84 74 -181 110t-228 36q-248 0 -386.5 -174t-138.5 -482q0 -254 121 -392t346 -138q106 0 207 36t182 105q27 20 52 21q27 0 43 -19.5 t16 -48.5q0 -39 -33 -65q-178 -166 -463 -174l-14 -70q12 2 43 2q68 0 109 -37t41 -100q0 -80 -65.5 -127t-176.5 -47q-74 0 -148 24q-35 14 -34 45q0 23 19.5 39.5t45.5 7.5q61 -18 117 -18q119 0 119 72q0 27 -18.5 41t-51.5 14q-29 0 -56.5 -9t-35.5 -9q-16 0 -27.5 12 t-9.5 26l29 138q-246 29 -388.5 207t-142.5 467z" />
<glyph unicode="&#xc8;" horiz-adv-x="1191" d="M145 86l101 1276q6 82 88 82h768q35 0 54.5 -18.5t19.5 -49.5q0 -35 -20.5 -53t-59.5 -18h-688l-39 -502h641q37 0 56 -18.5t19 -49.5q0 -33 -21.5 -52t-57.5 -19h-648l-41 -525h682q35 0 54.5 -18.5t19.5 -48.5q0 -33 -21.5 -52.5t-58.5 -19.5h-768q-41 0 -61.5 22.5 t-18.5 63.5zM502 1831q0 27 20.5 45t47.5 18q43 0 65 -43l133 -225q8 -14 8 -27q0 -18 -14 -30.5t-33 -12.5q-29 0 -45 23l-162 203q-20 23 -20 49z" />
<glyph unicode="&#xc9;" horiz-adv-x="1191" d="M145 86l101 1276q6 82 88 82h768q35 0 54.5 -18.5t19.5 -49.5q0 -35 -20.5 -53t-59.5 -18h-688l-39 -502h641q37 0 56 -18.5t19 -49.5q0 -33 -21.5 -52t-57.5 -19h-648l-41 -525h682q35 0 54.5 -18.5t19.5 -48.5q0 -33 -21.5 -52.5t-58.5 -19.5h-768q-41 0 -61.5 22.5 t-18.5 63.5zM725 1597q0 16 13 35l157 219q29 41 70 41q29 0 48 -18.5t19 -44.5q0 -31 -28 -60l-191 -190q-27 -23 -47 -23q-16 0 -28.5 12.5t-12.5 28.5z" />
<glyph unicode="&#xca;" horiz-adv-x="1191" d="M145 86l101 1276q6 82 88 82h768q35 0 54.5 -18.5t19.5 -49.5q0 -35 -20.5 -53t-59.5 -18h-688l-39 -502h641q37 0 56 -18.5t19 -49.5q0 -33 -21.5 -52t-57.5 -19h-648l-41 -525h682q35 0 54.5 -18.5t19.5 -48.5q0 -33 -21.5 -52.5t-58.5 -19.5h-768q-41 0 -61.5 22.5 t-18.5 63.5zM496 1612q0 20 18 41l181 200q35 37 81 37q47 0 74 -37l141 -196q14 -20 15 -41q0 -25 -18.5 -42.5t-43.5 -17.5q-35 0 -59 39l-115 183l-155 -193q-29 -31 -58 -31q-25 0 -43 17.5t-18 40.5z" />
<glyph unicode="&#xcb;" horiz-adv-x="1191" d="M145 86l101 1276q6 82 88 82h768q35 0 54.5 -18.5t19.5 -49.5q0 -35 -20.5 -53t-59.5 -18h-688l-39 -502h641q37 0 56 -18.5t19 -49.5q0 -33 -21.5 -52t-57.5 -19h-648l-41 -525h682q35 0 54.5 -18.5t19.5 -48.5q0 -33 -21.5 -52.5t-58.5 -19.5h-768q-41 0 -61.5 22.5 t-18.5 63.5zM486 1724q0 43 28.5 71t71.5 28t72.5 -28t29.5 -71q0 -45 -28.5 -71.5t-73.5 -26.5q-43 0 -71.5 27.5t-28.5 70.5zM836 1724q0 43 29.5 71t72.5 28t72 -28t29 -71t-29 -70.5t-72 -27.5t-72.5 27.5t-29.5 70.5z" />
<glyph unicode="&#xcc;" horiz-adv-x="524" d="M100 1831q0 27 20.5 45t47.5 18q43 0 65 -43l133 -225q8 -14 8 -27q0 -18 -14 -30.5t-33 -12.5q-29 0 -45 23l-162 203q-20 23 -20 49zM145 76l103 1298q2 37 25.5 58.5t60.5 21.5q39 0 61.5 -23.5t20.5 -62.5l-103 -1298q-2 -37 -26.5 -58.5t-61.5 -21.5t-59.5 23.5 t-20.5 62.5z" />
<glyph unicode="&#xcd;" horiz-adv-x="524" d="M145 76l103 1298q2 37 25.5 58.5t60.5 21.5q39 0 61.5 -23.5t20.5 -62.5l-103 -1298q-2 -37 -26.5 -58.5t-61.5 -21.5t-59.5 23.5t-20.5 62.5zM323 1597q0 16 13 35l157 219q29 41 70 41q29 0 48 -18.5t19 -44.5q0 -31 -28 -60l-191 -190q-27 -23 -47 -23 q-16 0 -28.5 12.5t-12.5 28.5z" />
<glyph unicode="&#xce;" horiz-adv-x="524" d="M94 1612q0 20 18 41l181 200q35 37 81 37q47 0 74 -37l141 -196q14 -20 15 -41q0 -25 -18.5 -42.5t-43.5 -17.5q-35 0 -59 39l-115 183l-155 -193q-29 -31 -58 -31q-25 0 -43 17.5t-18 40.5zM145 76l103 1298q2 37 25.5 58.5t60.5 21.5q39 0 61.5 -23.5t20.5 -62.5 l-103 -1298q-2 -37 -26.5 -58.5t-61.5 -21.5t-59.5 23.5t-20.5 62.5z" />
<glyph unicode="&#xcf;" horiz-adv-x="524" d="M84 1724q0 43 28.5 71t71.5 28t72.5 -28t29.5 -71q0 -45 -28.5 -71.5t-73.5 -26.5q-43 0 -71.5 27.5t-28.5 70.5zM145 76l103 1298q2 37 25.5 58.5t60.5 21.5q39 0 61.5 -23.5t20.5 -62.5l-103 -1298q-2 -37 -26.5 -58.5t-61.5 -21.5t-59.5 23.5t-20.5 62.5zM434 1724 q0 43 29.5 71t72.5 28t72 -28t29 -71t-29 -70.5t-72 -27.5t-72.5 27.5t-29.5 70.5z" />
<glyph unicode="&#xd0;" horiz-adv-x="1540" d="M18 731q0 33 21.5 51.5t60.5 18.5h129l43 561q2 39 27 60.5t61 21.5h396q325 0 501.5 -174t176.5 -490q0 -244 -86 -419t-252 -268t-400 -93h-438q-41 0 -64.5 25.5t-19.5 66.5l45 572h-123q-37 0 -57.5 18t-20.5 49zM346 143h342q283 0 427.5 164t144.5 475 q0 256 -129.5 387t-387.5 131h-307l-39 -499h326q39 0 58.5 -18.5t19.5 -49.5q0 -33 -20.5 -51t-59.5 -18h-334z" />
<glyph unicode="&#xd1;" horiz-adv-x="1513" d="M143 76l103 1294q2 39 25.5 61.5t58.5 22.5q45 0 71 -39l758 -1128l88 1087q2 37 24.5 58.5t57.5 21.5t56.5 -23.5t19.5 -60.5l-102 -1298q-4 -39 -23.5 -60.5t-56.5 -21.5q-49 0 -74 39l-760 1132l-88 -1091q-2 -37 -24.5 -58.5t-57.5 -21.5t-56.5 23.5t-19.5 62.5z M526 1669q0 37 25 76t69 64.5t99 25.5q35 0 69.5 -12.5t88.5 -38.5q82 -43 120 -43q35 0 55.5 14t43.5 41q23 33 45 33q20 0 30.5 -13.5t10.5 -35.5q0 -37 -24.5 -76t-68.5 -64.5t-100 -25.5q-35 0 -69.5 12t-87.5 39q-82 43 -121 43q-35 0 -55.5 -14.5t-43.5 -40.5 q-12 -16 -22 -24.5t-25 -8.5q-18 0 -28.5 13.5t-10.5 35.5z" />
<glyph unicode="&#xd2;" horiz-adv-x="1564" d="M141 662q0 242 83 423t235.5 279t355.5 98q199 0 343.5 -82t222 -235.5t77.5 -364.5q0 -240 -83 -421t-235.5 -279t-355.5 -98q-198 0 -342.5 81.5t-222.5 235.5t-78 363zM313 659q0 -256 123 -394t348 -138q156 0 268.5 79t173 226.5t60.5 349.5q0 258 -123 396.5 t-348 138.5q-156 0 -268.5 -79t-173 -226.5t-60.5 -352.5zM621 1831q0 27 20.5 45t47.5 18q43 0 65 -43l133 -225q8 -14 8 -27q0 -18 -14 -30.5t-33 -12.5q-29 0 -45 23l-162 203q-20 23 -20 49z" />
<glyph unicode="&#xd3;" horiz-adv-x="1564" d="M141 662q0 242 83 423t235.5 279t355.5 98q199 0 343.5 -82t222 -235.5t77.5 -364.5q0 -240 -83 -421t-235.5 -279t-355.5 -98q-198 0 -342.5 81.5t-222.5 235.5t-78 363zM313 659q0 -256 123 -394t348 -138q156 0 268.5 79t173 226.5t60.5 349.5q0 258 -123 396.5 t-348 138.5q-156 0 -268.5 -79t-173 -226.5t-60.5 -352.5zM844 1597q0 16 13 35l157 219q29 41 70 41q29 0 48 -18.5t19 -44.5q0 -31 -28 -60l-191 -190q-27 -23 -47 -23q-16 0 -28.5 12.5t-12.5 28.5z" />
<glyph unicode="&#xd4;" horiz-adv-x="1564" d="M141 662q0 242 83 423t235.5 279t355.5 98q199 0 343.5 -82t222 -235.5t77.5 -364.5q0 -240 -83 -421t-235.5 -279t-355.5 -98q-198 0 -342.5 81.5t-222.5 235.5t-78 363zM313 659q0 -256 123 -394t348 -138q156 0 268.5 79t173 226.5t60.5 349.5q0 258 -123 396.5 t-348 138.5q-156 0 -268.5 -79t-173 -226.5t-60.5 -352.5zM615 1612q0 20 18 41l181 200q35 37 81 37q47 0 74 -37l141 -196q14 -20 15 -41q0 -25 -18.5 -42.5t-43.5 -17.5q-35 0 -59 39l-115 183l-155 -193q-29 -31 -58 -31q-25 0 -43 17.5t-18 40.5z" />
<glyph unicode="&#xd5;" horiz-adv-x="1564" d="M141 662q0 242 83 423t235.5 279t355.5 98q199 0 343.5 -82t222 -235.5t77.5 -364.5q0 -240 -83 -421t-235.5 -279t-355.5 -98q-198 0 -342.5 81.5t-222.5 235.5t-78 363zM313 659q0 -256 123 -394t348 -138q156 0 268.5 79t173 226.5t60.5 349.5q0 258 -123 396.5 t-348 138.5q-156 0 -268.5 -79t-173 -226.5t-60.5 -352.5zM553 1669q0 37 25 76t69 64.5t99 25.5q35 0 69.5 -12.5t88.5 -38.5q82 -43 120 -43q35 0 55.5 14t43.5 41q23 33 45 33q20 0 30.5 -13.5t10.5 -35.5q0 -37 -24.5 -76t-68.5 -64.5t-100 -25.5q-35 0 -69.5 12 t-87.5 39q-82 43 -121 43q-35 0 -55.5 -14.5t-43.5 -40.5q-12 -16 -22 -24.5t-25 -8.5q-18 0 -28.5 13.5t-10.5 35.5z" />
<glyph unicode="&#xd6;" horiz-adv-x="1564" d="M141 662q0 242 83 423t235.5 279t355.5 98q199 0 343.5 -82t222 -235.5t77.5 -364.5q0 -240 -83 -421t-235.5 -279t-355.5 -98q-198 0 -342.5 81.5t-222.5 235.5t-78 363zM313 659q0 -256 123 -394t348 -138q156 0 268.5 79t173 226.5t60.5 349.5q0 258 -123 396.5 t-348 138.5q-156 0 -268.5 -79t-173 -226.5t-60.5 -352.5zM605 1724q0 43 28.5 71t71.5 28t72.5 -28t29.5 -71q0 -45 -28.5 -71.5t-73.5 -26.5q-43 0 -71.5 27.5t-28.5 70.5zM955 1724q0 43 29.5 71t72.5 28t72 -28t29 -71t-29 -70.5t-72 -27.5t-72.5 27.5t-29.5 70.5z" />
<glyph unicode="&#xd8;" horiz-adv-x="1564" d="M141 662q0 242 83 423t235.5 279t355.5 98q197 0 342 -82l74 111q23 37 61 37q27 0 47.5 -19.5t20.5 -46.5q0 -23 -14 -43l-80 -119q192 -182 192 -520q0 -240 -83 -421t-235.5 -279t-355.5 -98q-193 0 -340 79l-73 -108q-23 -35 -62 -35q-27 0 -46 18.5t-19 45.5 q0 20 14 43l78 116q-94 88 -144.5 220.5t-50.5 300.5zM313 659q0 -246 113 -383l647 977q-109 63 -258 64q-156 0 -268.5 -79t-173 -226.5t-60.5 -352.5zM528 188q104 -61 256 -61q156 0 268.5 79t173 226.5t60.5 349.5q0 242 -110 381z" />
<glyph unicode="&#xd9;" horiz-adv-x="1482" d="M170 494q0 49 2 75l66 805q2 35 26.5 57.5t59.5 22.5q37 0 59.5 -23.5t19.5 -62.5l-63 -797q-2 -23 -2 -65q0 -190 94 -284.5t287 -94.5q201 0 308.5 102.5t123.5 317.5l66 827q4 35 27.5 57.5t58.5 22.5q37 0 60 -23.5t21 -62.5l-65 -805q-23 -291 -175.5 -435 t-428.5 -144q-271 0 -408 131t-137 379zM580 1831q0 27 20.5 45t47.5 18q43 0 65 -43l133 -225q8 -14 8 -27q0 -18 -14 -30.5t-33 -12.5q-29 0 -45 23l-162 203q-20 23 -20 49z" />
<glyph unicode="&#xda;" horiz-adv-x="1482" d="M170 494q0 49 2 75l66 805q2 35 26.5 57.5t59.5 22.5q37 0 59.5 -23.5t19.5 -62.5l-63 -797q-2 -23 -2 -65q0 -190 94 -284.5t287 -94.5q201 0 308.5 102.5t123.5 317.5l66 827q4 35 27.5 57.5t58.5 22.5q37 0 60 -23.5t21 -62.5l-65 -805q-23 -291 -175.5 -435 t-428.5 -144q-271 0 -408 131t-137 379zM803 1597q0 16 13 35l157 219q29 41 70 41q29 0 48 -18.5t19 -44.5q0 -31 -28 -60l-191 -190q-27 -23 -47 -23q-16 0 -28.5 12.5t-12.5 28.5z" />
<glyph unicode="&#xdb;" horiz-adv-x="1482" d="M170 494q0 49 2 75l66 805q2 35 26.5 57.5t59.5 22.5q37 0 59.5 -23.5t19.5 -62.5l-63 -797q-2 -23 -2 -65q0 -190 94 -284.5t287 -94.5q201 0 308.5 102.5t123.5 317.5l66 827q4 35 27.5 57.5t58.5 22.5q37 0 60 -23.5t21 -62.5l-65 -805q-23 -291 -175.5 -435 t-428.5 -144q-271 0 -408 131t-137 379zM574 1612q0 20 18 41l181 200q35 37 81 37q47 0 74 -37l141 -196q14 -20 15 -41q0 -25 -18.5 -42.5t-43.5 -17.5q-35 0 -59 39l-115 183l-155 -193q-29 -31 -58 -31q-25 0 -43 17.5t-18 40.5z" />
<glyph unicode="&#xdc;" horiz-adv-x="1482" d="M170 494q0 49 2 75l66 805q2 35 26.5 57.5t59.5 22.5q37 0 59.5 -23.5t19.5 -62.5l-63 -797q-2 -23 -2 -65q0 -190 94 -284.5t287 -94.5q201 0 308.5 102.5t123.5 317.5l66 827q4 35 27.5 57.5t58.5 22.5q37 0 60 -23.5t21 -62.5l-65 -805q-23 -291 -175.5 -435 t-428.5 -144q-271 0 -408 131t-137 379zM564 1724q0 43 28.5 71t71.5 28t72.5 -28t29.5 -71q0 -45 -28.5 -71.5t-73.5 -26.5q-43 0 -71.5 27.5t-28.5 70.5zM914 1724q0 43 29.5 71t72.5 28t72 -28t29 -71t-29 -70.5t-72 -27.5t-72.5 27.5t-29.5 70.5z" />
<glyph unicode="&#xdd;" horiz-adv-x="1230" d="M90 1378q0 31 25.5 53.5t58.5 22.5q39 0 62 -35l401 -596l491 592q31 39 74 39q29 0 50.5 -20.5t21.5 -47.5q0 -33 -23 -57l-538 -647l-47 -612q-2 -37 -27 -58.5t-59 -21.5q-37 0 -60.5 23.5t-21.5 62.5l47 606l-439 647q-16 23 -16 49zM676 1597q0 16 13 35l157 219 q29 41 70 41q29 0 48 -18.5t19 -44.5q0 -31 -28 -60l-191 -190q-27 -23 -47 -23q-16 0 -28.5 12.5t-12.5 28.5z" />
<glyph unicode="&#xde;" horiz-adv-x="1320" d="M145 76l103 1298q2 37 25.5 58.5t60.5 21.5t59.5 -23.5t20.5 -62.5l-19 -242h416q209 0 322.5 -94t113.5 -274q0 -197 -124 -306.5t-357 -109.5h-434l-21 -272q-2 -37 -26.5 -58.5t-59.5 -21.5q-37 0 -59.5 23.5t-20.5 62.5zM344 479h414q325 1 325 271q0 123 -71.5 180 t-214.5 57h-414z" />
<glyph unicode="&#xdf;" horiz-adv-x="1261" d="M119 72l74 915q18 225 144 346t341 121q158 0 249 -66.5t91 -181.5q0 -90 -48 -154.5t-134 -136.5q-66 -55 -97.5 -94t-31.5 -84q0 -59 48 -91t150 -71q90 -33 145.5 -62.5t94.5 -82.5t39 -135q0 -139 -107.5 -224t-283.5 -85q-97 0 -188 28.5t-152 77.5q-33 25 -33 64 q0 29 18.5 50t44.5 21q20 0 41 -14q72 -49 137.5 -70.5t143.5 -21.5q100 0 158.5 44t58.5 118q0 61 -50 94t-155 72q-88 33 -143.5 60.5t-93 76.5t-37.5 127q0 84 44 142t128 128q74 61 108.5 104t34.5 103q0 61 -49 96t-135 35q-287 0 -314 -330l-75 -919 q-4 -39 -26.5 -60.5t-61.5 -21.5t-60.5 21.5t-17.5 60.5z" />
<glyph unicode="&#xe0;" horiz-adv-x="1085" d="M104 272q0 113 59.5 179.5t190.5 97.5t355 31h73l4 59l2 39q0 106 -52 156.5t-161 50.5q-147 0 -317 -101q-20 -10 -33 -10q-25 0 -41 19.5t-16 46.5q0 45 39 69q74 51 177 82t204 31q360 0 360 -342q0 -37 -2 -55l-43 -559q-2 -37 -24.5 -56.5t-57.5 -19.5 q-37 0 -59.5 23.5t-18.5 58.5l7 90q-45 -84 -124 -130t-182 -46q-150 0 -245 80.5t-95 205.5zM272 287q0 -78 55.5 -124t151.5 -46q117 0 199 82t90 211l4 63h-57q-170 0 -265.5 -17.5t-136.5 -57.5t-41 -111zM360 1487q0 31 22.5 51.5t51.5 20.5q51 0 74 -56l133 -315 q6 -12 6 -25q0 -20 -13.5 -31.5t-33.5 -11.5q-35 0 -56 29l-168 287q-16 25 -16 51z" />
<glyph unicode="&#xe1;" horiz-adv-x="1085" d="M104 272q0 113 59.5 179.5t190.5 97.5t355 31h73l4 59l2 39q0 106 -52 156.5t-161 50.5q-147 0 -317 -101q-20 -10 -33 -10q-25 0 -41 19.5t-16 46.5q0 45 39 69q74 51 177 82t204 31q360 0 360 -342q0 -37 -2 -55l-43 -559q-2 -37 -24.5 -56.5t-57.5 -19.5 q-37 0 -59.5 23.5t-18.5 58.5l7 90q-45 -84 -124 -130t-182 -46q-150 0 -245 80.5t-95 205.5zM272 287q0 -78 55.5 -124t151.5 -46q117 0 199 82t90 211l4 63h-57q-170 0 -265.5 -17.5t-136.5 -57.5t-41 -111zM581 1163q0 20 11 33l249 317q29 41 70 41q31 0 55.5 -21.5 t24.5 -51.5q0 -31 -29 -60l-295 -282q-21 -21 -41 -21q-18 0 -31.5 13.5t-13.5 31.5z" />
<glyph unicode="&#xe2;" horiz-adv-x="1085" d="M104 272q0 113 59.5 179.5t190.5 97.5t355 31h73l4 59l2 39q0 106 -52 156.5t-161 50.5q-147 0 -317 -101q-20 -10 -33 -10q-25 0 -41 19.5t-16 46.5q0 45 39 69q74 51 177 82t204 31q360 0 360 -342q0 -37 -2 -55l-43 -559q-2 -37 -24.5 -56.5t-57.5 -19.5 q-37 0 -59.5 23.5t-18.5 58.5l7 90q-45 -84 -124 -130t-182 -46q-150 0 -245 80.5t-95 205.5zM272 287q0 -78 55.5 -124t151.5 -46q117 0 199 82t90 211l4 63h-57q-170 0 -265.5 -17.5t-136.5 -57.5t-41 -111zM358 1180q0 23 14 43l187 278q33 51 86 51q25 0 45 -13t33 -38 l143 -282q8 -16 8 -35q0 -27 -21.5 -46.5t-47.5 -19.5q-39 0 -58 41l-112 262l-152 -264q-24 -39 -61 -39q-25 0 -44.5 18.5t-19.5 43.5z" />
<glyph unicode="&#xe3;" horiz-adv-x="1085" d="M104 272q0 113 59.5 179.5t190.5 97.5t355 31h73l4 59l2 39q0 106 -52 156.5t-161 50.5q-147 0 -317 -101q-20 -10 -33 -10q-25 0 -41 19.5t-16 46.5q0 45 39 69q74 51 177 82t204 31q360 0 360 -342q0 -37 -2 -55l-43 -559q-2 -37 -24.5 -56.5t-57.5 -19.5 q-37 0 -59.5 23.5t-18.5 58.5l7 90q-45 -84 -124 -130t-182 -46q-150 0 -245 80.5t-95 205.5zM272 287q0 -78 55.5 -124t151.5 -46q117 0 199 82t90 211l4 63h-57q-170 0 -265.5 -17.5t-136.5 -57.5t-41 -111zM299 1274q0 37 26.5 83t71.5 77.5t96 31.5q39 0 74 -18t86 -53 q39 -29 65.5 -42.5t51.5 -13.5q35 0 55 18.5t41 51.5q16 23 26.5 34t24.5 11q39 0 39 -51q0 -37 -26.5 -83t-71.5 -78t-96 -32q-39 0 -74 18.5t-86 53.5q-39 29 -65.5 42t-49.5 13q-33 0 -52.5 -17t-45.5 -52q-27 -45 -49 -45q-18 0 -29.5 14t-11.5 37z" />
<glyph unicode="&#xe4;" horiz-adv-x="1085" d="M104 272q0 113 59.5 179.5t190.5 97.5t355 31h73l4 59l2 39q0 106 -52 156.5t-161 50.5q-147 0 -317 -101q-20 -10 -33 -10q-25 0 -41 19.5t-16 46.5q0 45 39 69q74 51 177 82t204 31q360 0 360 -342q0 -37 -2 -55l-43 -559q-2 -37 -24.5 -56.5t-57.5 -19.5 q-37 0 -59.5 23.5t-18.5 58.5l7 90q-45 -84 -124 -130t-182 -46q-150 0 -245 80.5t-95 205.5zM272 287q0 -78 55.5 -124t151.5 -46q117 0 199 82t90 211l4 63h-57q-170 0 -265.5 -17.5t-136.5 -57.5t-41 -111zM352 1337q0 43 28.5 70t71.5 27t73 -27t30 -70q0 -45 -29 -71.5 t-74 -26.5q-43 0 -71.5 27.5t-28.5 70.5zM702 1337q0 43 30 70t73 27t71.5 -27t28.5 -70t-28.5 -70.5t-71.5 -27.5t-73 27.5t-30 70.5z" />
<glyph unicode="&#xe5;" horiz-adv-x="1085" d="M104 272q0 113 59.5 179.5t190.5 97.5t355 31h73l4 59l2 39q0 106 -52 156.5t-161 50.5q-147 0 -317 -101q-20 -10 -33 -10q-25 0 -41 19.5t-16 46.5q0 45 39 69q74 51 177 82t204 31q360 0 360 -342q0 -37 -2 -55l-43 -559q-2 -37 -24.5 -56.5t-57.5 -19.5 q-37 0 -59.5 23.5t-18.5 58.5l7 90q-45 -84 -124 -130t-182 -46q-150 0 -245 80.5t-95 205.5zM272 287q0 -78 55.5 -124t151.5 -46q117 0 199 82t90 211l4 63h-57q-170 0 -265.5 -17.5t-136.5 -57.5t-41 -111zM419 1335q0 86 60.5 144.5t146.5 58.5t146.5 -58.5t60.5 -144.5 t-60.5 -144t-146.5 -58t-146.5 58t-60.5 144zM528 1335q0 -43 27.5 -72.5t70.5 -29.5t71 29.5t28 72.5t-28 73t-71 30t-70.5 -30t-27.5 -73z" />
<glyph unicode="&#xe6;" horiz-adv-x="1746" d="M104 272q0 113 59.5 179.5t190.5 97.5t355 31h77l5 59q2 14 2 43q0 102 -52.5 152.5t-160.5 50.5q-156 0 -322 -101q-20 -10 -35 -10q-25 0 -40 19.5t-15 46.5q0 45 39 69q76 51 179 82t210 31q244 0 317 -166q61 80 150.5 123t202.5 43q190 0 294.5 -120t104.5 -347 q0 -41 -20.5 -61.5t-55.5 -20.5h-649v-8q0 -164 81 -254t236 -90q70 0 140.5 23.5t128.5 66.5q20 14 43 14q25 0 40 -18.5t15 -42.5q0 -37 -33 -68q-55 -47 -152.5 -78.5t-187.5 -31.5q-154 0 -258 65.5t-153 188.5q-51 -121 -153.5 -187.5t-235.5 -66.5q-154 0 -250.5 79.5 t-96.5 206.5zM272 285q0 -76 55.5 -122t147.5 -46q121 0 204 85t95 220l4 51h-63q-180 0 -275.5 -19.5t-131.5 -59.5t-36 -109zM948 580h570q6 154 -61.5 233.5t-188.5 79.5q-133 0 -215 -81t-105 -232z" />
<glyph unicode="&#xe7;" horiz-adv-x="980" d="M94 467q0 168 61.5 293t176 193.5t270.5 68.5q100 0 188.5 -29.5t141.5 -74.5q31 -25 31 -64q0 -29 -18.5 -52.5t-45.5 -23.5q-16 0 -35 13q-123 92 -262 92q-160 0 -248 -110.5t-88 -307.5q0 -160 80 -251t225 -91q72 0 131.5 22.5t118.5 67.5q20 14 39 14 q25 0 40 -19.5t15 -45.5q0 -33 -26 -58q-59 -53 -145.5 -84.5t-180.5 -33.5l-14 -72q12 2 43 2q68 0 108.5 -37t40.5 -100q0 -80 -65.5 -127t-175.5 -47q-74 0 -148 24q-35 14 -35 45q0 23 19.5 39.5t46.5 7.5q61 -18 117 -18q119 0 118 72q0 27 -18 41t-51 14 q-29 0 -56.5 -9t-35.5 -9q-16 0 -27.5 12t-9.5 26l29 146q-166 31 -260.5 155.5t-94.5 315.5z" />
<glyph unicode="&#xe8;" horiz-adv-x="1079" d="M94 469q0 164 60.5 289t172 194.5t259.5 69.5q201 0 307 -120t106 -347q0 -39 -20.5 -60.5t-54.5 -21.5h-664v-8q0 -164 81 -254t234 -90q162 0 285 90q20 14 41 14q25 0 40 -18.5t15 -42.5q0 -37 -32 -68q-55 -49 -154.5 -79.5t-202.5 -30.5q-217 0 -345 131t-128 352z M268 580h582q6 154 -62.5 233.5t-195.5 79.5q-137 0 -219 -81t-105 -232zM364 1487q0 31 22.5 51.5t51.5 20.5q51 0 74 -56l133 -315q6 -12 6 -25q0 -20 -13.5 -31.5t-33.5 -11.5q-35 0 -56 29l-168 287q-16 25 -16 51z" />
<glyph unicode="&#xe9;" horiz-adv-x="1079" d="M94 469q0 164 60.5 289t172 194.5t259.5 69.5q201 0 307 -120t106 -347q0 -39 -20.5 -60.5t-54.5 -21.5h-664v-8q0 -164 81 -254t234 -90q162 0 285 90q20 14 41 14q25 0 40 -18.5t15 -42.5q0 -37 -32 -68q-55 -49 -154.5 -79.5t-202.5 -30.5q-217 0 -345 131t-128 352z M268 580h582q6 154 -62.5 233.5t-195.5 79.5q-137 0 -219 -81t-105 -232zM585 1163q0 20 11 33l249 317q29 41 70 41q31 0 55.5 -21.5t24.5 -51.5q0 -31 -29 -60l-295 -282q-21 -21 -41 -21q-18 0 -31.5 13.5t-13.5 31.5z" />
<glyph unicode="&#xea;" horiz-adv-x="1079" d="M94 469q0 164 60.5 289t172 194.5t259.5 69.5q201 0 307 -120t106 -347q0 -39 -20.5 -60.5t-54.5 -21.5h-664v-8q0 -164 81 -254t234 -90q162 0 285 90q20 14 41 14q25 0 40 -18.5t15 -42.5q0 -37 -32 -68q-55 -49 -154.5 -79.5t-202.5 -30.5q-217 0 -345 131t-128 352z M268 580h582q6 154 -62.5 233.5t-195.5 79.5q-137 0 -219 -81t-105 -232zM362 1180q0 23 14 43l187 278q33 51 86 51q25 0 45 -13t33 -38l143 -282q8 -16 8 -35q0 -27 -21.5 -46.5t-47.5 -19.5q-39 0 -58 41l-112 262l-152 -264q-24 -39 -61 -39q-25 0 -44.5 18.5 t-19.5 43.5z" />
<glyph unicode="&#xeb;" horiz-adv-x="1079" d="M94 469q0 164 60.5 289t172 194.5t259.5 69.5q201 0 307 -120t106 -347q0 -39 -20.5 -60.5t-54.5 -21.5h-664v-8q0 -164 81 -254t234 -90q162 0 285 90q20 14 41 14q25 0 40 -18.5t15 -42.5q0 -37 -32 -68q-55 -49 -154.5 -79.5t-202.5 -30.5q-217 0 -345 131t-128 352z M268 580h582q6 154 -62.5 233.5t-195.5 79.5q-137 0 -219 -81t-105 -232zM356 1337q0 43 28.5 70t71.5 27t73 -27t30 -70q0 -45 -29 -71.5t-74 -26.5q-43 0 -71.5 27.5t-28.5 70.5zM706 1337q0 43 30 70t73 27t71.5 -27t28.5 -70t-28.5 -70.5t-71.5 -27.5t-73 27.5t-30 70.5 z" />
<glyph unicode="&#xec;" horiz-adv-x="475" d="M37 1487q0 31 22.5 51.5t51.5 20.5q51 0 74 -56l133 -315q6 -12 6 -25q0 -20 -13.5 -31.5t-33.5 -11.5q-35 0 -56 29l-168 287q-16 25 -16 51zM119 72l71 868q2 39 28 58.5t61 19.5t57 -19.5t20 -58.5l-71 -868q-2 -41 -28 -61.5t-60 -20.5q-35 0 -57.5 20.5t-20.5 61.5z " />
<glyph unicode="&#xed;" horiz-adv-x="475" d="M119 72l71 868q2 39 28 58.5t61 19.5t57 -19.5t20 -58.5l-71 -868q-2 -41 -28 -61.5t-60 -20.5q-35 0 -57.5 20.5t-20.5 61.5zM258 1163q0 20 11 33l249 317q29 41 70 41q31 0 55.5 -21.5t24.5 -51.5q0 -31 -29 -60l-295 -282q-21 -21 -41 -21q-18 0 -31.5 13.5 t-13.5 31.5z" />
<glyph unicode="&#xee;" horiz-adv-x="475" d="M35 1180q0 23 14 43l187 278q33 51 86 51q25 0 45 -13t33 -38l143 -282q8 -16 8 -35q0 -27 -21.5 -46.5t-47.5 -19.5q-39 0 -58 41l-112 262l-152 -264q-24 -39 -61 -39q-25 0 -44.5 18.5t-19.5 43.5zM119 72l71 868q2 39 28 58.5t61 19.5t57 -19.5t20 -58.5l-71 -868 q-2 -41 -28 -61.5t-60 -20.5q-35 0 -57.5 20.5t-20.5 61.5z" />
<glyph unicode="&#xef;" horiz-adv-x="475" d="M29 1337q0 43 28.5 70t71.5 27t73 -27t30 -70q0 -45 -29 -71.5t-74 -26.5q-43 0 -71.5 27.5t-28.5 70.5zM119 72l71 868q2 39 28 58.5t61 19.5t57 -19.5t20 -58.5l-71 -868q-2 -41 -28 -61.5t-60 -20.5q-35 0 -57.5 20.5t-20.5 61.5zM379 1337q0 43 30 70t73 27t71.5 -27 t28.5 -70t-28.5 -70.5t-71.5 -27.5t-73 27.5t-30 70.5z" />
<glyph unicode="&#xf0;" horiz-adv-x="1144" d="M90 430q0 150 60.5 263.5t169 176t249.5 62.5q115 0 202 -44t134 -124q-18 215 -160 371l-294 -105q-12 -4 -21 -4q-23 0 -38 17.5t-15 37.5q0 16 10 30.5t29 21.5l239 84q-86 68 -215 112q-25 8 -38 25.5t-13 38.5q0 25 18.5 44t47.5 19q8 0 24 -4q197 -61 330 -182 l227 80q17 4 21 4q23 0 37 -16.5t14 -37.5q0 -39 -39 -51l-178 -63q170 -211 170 -529q0 -342 -136.5 -506.5t-371.5 -164.5q-211 0 -337 120.5t-126 323.5zM258 426q0 -145 77 -224t220 -79q152 0 234.5 100.5t82.5 276.5q0 137 -78.5 217t-218.5 80q-150 0 -233.5 -100.5 t-83.5 -270.5z" />
<glyph unicode="&#xf1;" horiz-adv-x="1163" d="M119 72l71 868q2 37 28 57.5t61 20.5t55 -20.5t18 -55.5l-8 -98q51 84 139 131t199 47q168 0 256 -88t88 -256q0 -37 -2 -55l-43 -551q-4 -41 -28.5 -61.5t-59.5 -20.5q-39 0 -60.5 20.5t-17.5 61.5l43 540q2 14 2 43q0 227 -219 228q-139 0 -221 -83t-94 -229l-41 -499 q-2 -41 -27 -61.5t-61 -20.5q-37 0 -58.5 20.5t-19.5 61.5zM322 1274q0 37 26.5 83t71.5 77.5t96 31.5q39 0 74 -18t86 -53q39 -29 65.5 -42.5t51.5 -13.5q35 0 55 18.5t41 51.5q16 23 26.5 34t24.5 11q39 0 39 -51q0 -37 -26.5 -83t-71.5 -78t-96 -32q-39 0 -74 18.5 t-86 53.5q-39 29 -65.5 42t-49.5 13q-33 0 -52.5 -17t-45.5 -52q-27 -45 -49 -45q-18 0 -29.5 14t-11.5 37z" />
<glyph unicode="&#xf2;" horiz-adv-x="1136" d="M94 469q0 166 60.5 291t170 193.5t255.5 68.5q141 0 245.5 -59.5t161.5 -170t57 -255.5q0 -166 -60 -291t-171 -192.5t-256 -67.5q-139 0 -244.5 59t-162 169t-56.5 255zM262 463q0 -166 76 -253t221 -87q150 0 232.5 112.5t82.5 307.5q0 164 -76.5 253t-217.5 89 q-150 0 -234 -115t-84 -307zM366 1487q0 31 22.5 51.5t51.5 20.5q51 0 74 -56l133 -315q6 -12 6 -25q0 -20 -13.5 -31.5t-33.5 -11.5q-35 0 -56 29l-168 287q-16 25 -16 51z" />
<glyph unicode="&#xf3;" horiz-adv-x="1136" d="M94 469q0 166 60.5 291t170 193.5t255.5 68.5q141 0 245.5 -59.5t161.5 -170t57 -255.5q0 -166 -60 -291t-171 -192.5t-256 -67.5q-139 0 -244.5 59t-162 169t-56.5 255zM262 463q0 -166 76 -253t221 -87q150 0 232.5 112.5t82.5 307.5q0 164 -76.5 253t-217.5 89 q-150 0 -234 -115t-84 -307zM587 1163q0 20 11 33l249 317q29 41 70 41q31 0 55.5 -21.5t24.5 -51.5q0 -31 -29 -60l-295 -282q-21 -21 -41 -21q-18 0 -31.5 13.5t-13.5 31.5z" />
<glyph unicode="&#xf4;" horiz-adv-x="1136" d="M94 469q0 166 60.5 291t170 193.5t255.5 68.5q141 0 245.5 -59.5t161.5 -170t57 -255.5q0 -166 -60 -291t-171 -192.5t-256 -67.5q-139 0 -244.5 59t-162 169t-56.5 255zM262 463q0 -166 76 -253t221 -87q150 0 232.5 112.5t82.5 307.5q0 164 -76.5 253t-217.5 89 q-150 0 -234 -115t-84 -307zM364 1180q0 23 14 43l187 278q33 51 86 51q25 0 45 -13t33 -38l143 -282q8 -16 8 -35q0 -27 -21.5 -46.5t-47.5 -19.5q-39 0 -58 41l-112 262l-152 -264q-24 -39 -61 -39q-25 0 -44.5 18.5t-19.5 43.5z" />
<glyph unicode="&#xf5;" horiz-adv-x="1136" d="M94 469q0 166 60.5 291t170 193.5t255.5 68.5q141 0 245.5 -59.5t161.5 -170t57 -255.5q0 -166 -60 -291t-171 -192.5t-256 -67.5q-139 0 -244.5 59t-162 169t-56.5 255zM262 463q0 -166 76 -253t221 -87q150 0 232.5 112.5t82.5 307.5q0 164 -76.5 253t-217.5 89 q-150 0 -234 -115t-84 -307zM305 1274q0 37 26.5 83t71.5 77.5t96 31.5q39 0 74 -18t86 -53q39 -29 65.5 -42.5t51.5 -13.5q35 0 55 18.5t41 51.5q16 23 26.5 34t24.5 11q39 0 39 -51q0 -37 -26.5 -83t-71.5 -78t-96 -32q-39 0 -74 18.5t-86 53.5q-39 29 -65.5 42t-49.5 13 q-33 0 -52.5 -17t-45.5 -52q-27 -45 -49 -45q-18 0 -29.5 14t-11.5 37z" />
<glyph unicode="&#xf6;" horiz-adv-x="1136" d="M94 469q0 166 60.5 291t170 193.5t255.5 68.5q141 0 245.5 -59.5t161.5 -170t57 -255.5q0 -166 -60 -291t-171 -192.5t-256 -67.5q-139 0 -244.5 59t-162 169t-56.5 255zM262 463q0 -166 76 -253t221 -87q150 0 232.5 112.5t82.5 307.5q0 164 -76.5 253t-217.5 89 q-150 0 -234 -115t-84 -307zM358 1337q0 43 28.5 70t71.5 27t73 -27t30 -70q0 -45 -29 -71.5t-74 -26.5q-43 0 -71.5 27.5t-28.5 70.5zM708 1337q0 43 30 70t73 27t71.5 -27t28.5 -70t-28.5 -70.5t-71.5 -27.5t-73 27.5t-30 70.5z" />
<glyph unicode="&#xf7;" d="M123 584q0 27 19.5 45t47.5 18h869q27 0 44 -18.5t17 -46.5q0 -27 -19.5 -45.5t-47.5 -18.5h-869q-26 0 -43.5 18.5t-17.5 47.5zM494 387q0 43 28.5 71.5t69.5 28.5t69.5 -28.5t28.5 -71.5q0 -45 -28.5 -73.5t-69.5 -28.5t-69.5 28.5t-28.5 73.5zM526 780q0 45 29 73 t72 28q41 0 68.5 -29t27.5 -72t-27.5 -71.5t-68.5 -28.5q-43 0 -72 27.5t-29 72.5z" />
<glyph unicode="&#xf8;" horiz-adv-x="1136" d="M94 469q0 166 60.5 291t170 193.5t255.5 68.5q129 0 231 -51l53 80q20 33 56 32q23 0 38 -14t15 -37q0 -18 -15 -39l-57 -86q70 -65 106.5 -159.5t36.5 -210.5q0 -166 -60 -291t-171 -192.5t-256 -67.5q-127 0 -229 51l-54 -82q-20 -31 -53 -31q-23 0 -38 14.5t-15 36.5 q0 18 12 37l58 88q-70 63 -107 157.5t-37 211.5zM262 463q1 -150 62 -234l407 621q-63 35 -151 35q-152 0 -235 -114t-83 -308zM406 156q66 -35 153 -35q152 0 235 113.5t83 308.5q0 147 -62 233z" />
<glyph unicode="&#xf9;" horiz-adv-x="1148" d="M137 328q0 37 2 55l43 553q4 39 30 60.5t60 21.5q37 0 58.5 -21.5t17.5 -60.5l-43 -543q-2 -14 -2 -43q0 -225 215 -225q133 0 213 82t90 227l41 502q4 39 30 60.5t60 21.5q37 0 58.5 -21.5t17.5 -60.5l-70 -870q-2 -35 -27.5 -55.5t-60.5 -20.5t-55 19.5t-18 53.5l8 99 q-51 -84 -137 -130t-193 -46q-166 0 -252 87t-86 255zM373 1487q0 31 22.5 51.5t51.5 20.5q51 0 74 -56l133 -315q6 -12 6 -25q0 -20 -13.5 -31.5t-33.5 -11.5q-35 0 -56 29l-168 287q-16 25 -16 51z" />
<glyph unicode="&#xfa;" horiz-adv-x="1148" d="M137 328q0 37 2 55l43 553q4 39 30 60.5t60 21.5q37 0 58.5 -21.5t17.5 -60.5l-43 -543q-2 -14 -2 -43q0 -225 215 -225q133 0 213 82t90 227l41 502q4 39 30 60.5t60 21.5q37 0 58.5 -21.5t17.5 -60.5l-70 -870q-2 -35 -27.5 -55.5t-60.5 -20.5t-55 19.5t-18 53.5l8 99 q-51 -84 -137 -130t-193 -46q-166 0 -252 87t-86 255zM594 1163q0 20 11 33l249 317q29 41 70 41q31 0 55.5 -21.5t24.5 -51.5q0 -31 -29 -60l-295 -282q-21 -21 -41 -21q-18 0 -31.5 13.5t-13.5 31.5z" />
<glyph unicode="&#xfb;" horiz-adv-x="1148" d="M137 328q0 37 2 55l43 553q4 39 30 60.5t60 21.5q37 0 58.5 -21.5t17.5 -60.5l-43 -543q-2 -14 -2 -43q0 -225 215 -225q133 0 213 82t90 227l41 502q4 39 30 60.5t60 21.5q37 0 58.5 -21.5t17.5 -60.5l-70 -870q-2 -35 -27.5 -55.5t-60.5 -20.5t-55 19.5t-18 53.5l8 99 q-51 -84 -137 -130t-193 -46q-166 0 -252 87t-86 255zM371 1180q0 23 14 43l187 278q33 51 86 51q25 0 45 -13t33 -38l143 -282q8 -16 8 -35q0 -27 -21.5 -46.5t-47.5 -19.5q-39 0 -58 41l-112 262l-152 -264q-24 -39 -61 -39q-25 0 -44.5 18.5t-19.5 43.5z" />
<glyph unicode="&#xfc;" horiz-adv-x="1148" d="M137 328q0 37 2 55l43 553q4 39 30 60.5t60 21.5q37 0 58.5 -21.5t17.5 -60.5l-43 -543q-2 -14 -2 -43q0 -225 215 -225q133 0 213 82t90 227l41 502q4 39 30 60.5t60 21.5q37 0 58.5 -21.5t17.5 -60.5l-70 -870q-2 -35 -27.5 -55.5t-60.5 -20.5t-55 19.5t-18 53.5l8 99 q-51 -84 -137 -130t-193 -46q-166 0 -252 87t-86 255zM365 1337q0 43 28.5 70t71.5 27t73 -27t30 -70q0 -45 -29 -71.5t-74 -26.5q-43 0 -71.5 27.5t-28.5 70.5zM715 1337q0 43 30 70t73 27t71.5 -27t28.5 -70t-28.5 -70.5t-71.5 -27.5t-73 27.5t-30 70.5z" />
<glyph unicode="&#xfd;" horiz-adv-x="1052" d="M72 930q0 33 26.5 54.5t59.5 21.5q23 0 42 -12.5t27 -37.5l275 -776l399 783q23 45 70 45q31 0 54.5 -20.5t23.5 -51.5q0 -16 -11 -37l-647 -1231q-27 -49 -76 -49q-29 0 -50 18.5t-21 47.5q0 12 10 36l152 289l-328 893q-6 16 -6 27zM549 1163q0 20 11 33l249 317 q29 41 70 41q31 0 55.5 -21.5t24.5 -51.5q0 -31 -29 -60l-295 -282q-21 -21 -41 -21q-18 0 -31.5 13.5t-13.5 31.5z" />
<glyph unicode="&#xfe;" horiz-adv-x="1191" d="M90 -305l133 1679q4 41 28.5 61.5t61.5 20.5t59.5 -21.5t18.5 -60.5l-43 -522q51 80 137 125t189 45q127 0 223 -59.5t149.5 -168t53.5 -253.5q0 -166 -59.5 -291t-166 -194.5t-243.5 -69.5q-117 0 -205 51t-131 143l-39 -485q-2 -37 -26.5 -56.5t-61.5 -19.5t-58.5 19.5 t-19.5 56.5zM317 467q0 -168 77 -256t220 -88q148 0 232 110.5t84 301.5q0 166 -78 258t-219 92q-147 0 -231.5 -111.5t-84.5 -306.5z" />
<glyph unicode="&#xff;" horiz-adv-x="1052" d="M72 930q0 33 26.5 54.5t59.5 21.5q23 0 42 -12.5t27 -37.5l275 -776l399 783q23 45 70 45q31 0 54.5 -20.5t23.5 -51.5q0 -16 -11 -37l-647 -1231q-27 -49 -76 -49q-29 0 -50 18.5t-21 47.5q0 12 10 36l152 289l-328 893q-6 16 -6 27zM320 1337q0 43 28.5 70t71.5 27 t73 -27t30 -70q0 -45 -29 -71.5t-74 -26.5q-43 0 -71.5 27.5t-28.5 70.5zM670 1337q0 43 30 70t73 27t71.5 -27t28.5 -70t-28.5 -70.5t-71.5 -27.5t-73 27.5t-30 70.5z" />
<glyph unicode="&#x100;" horiz-adv-x="1488" d="M39 66q0 23 10 40l670 1289q14 29 40.5 44t57.5 15t56.5 -16.5t37.5 -48.5l473 -1291q7 -14 7 -30q0 -35 -25 -57.5t-57 -22.5q-53 0 -74 55l-117 328h-760l-170 -334q-12 -23 -31.5 -35t-39.5 -12q-31 0 -54.5 21.5t-23.5 54.5zM430 510h639l-264 739zM523 1722 q0 31 21.5 47.5t55.5 16.5h498q33 0 50.5 -16.5t17.5 -45.5q0 -31 -21.5 -47t-56.5 -16h-498q-33 0 -50 16.5t-17 44.5z" />
<glyph unicode="&#x101;" horiz-adv-x="1085" d="M104 272q0 113 59.5 179.5t190.5 97.5t355 31h73l4 59l2 39q0 106 -52 156.5t-161 50.5q-147 0 -317 -101q-20 -10 -33 -10q-25 0 -41 19.5t-16 46.5q0 45 39 69q74 51 177 82t204 31q360 0 360 -342q0 -37 -2 -55l-43 -559q-2 -37 -24.5 -56.5t-57.5 -19.5 q-37 0 -59.5 23.5t-18.5 58.5l7 90q-45 -84 -124 -130t-182 -46q-150 0 -245 80.5t-95 205.5zM272 287q0 -78 55.5 -124t151.5 -46q117 0 199 82t90 211l4 63h-57q-170 0 -265.5 -17.5t-136.5 -57.5t-41 -111zM307 1335q0 31 21.5 47.5t56.5 16.5h497q33 0 50.5 -16.5 t17.5 -45.5q0 -31 -21.5 -47t-56.5 -16h-498q-32 0 -49.5 16.5t-17.5 44.5z" />
<glyph unicode="&#x102;" horiz-adv-x="1488" d="M39 66q0 23 10 40l670 1289q14 29 40.5 44t57.5 15t56.5 -16.5t37.5 -48.5l473 -1291q7 -14 7 -30q0 -35 -25 -57.5t-57 -22.5q-53 0 -74 55l-117 328h-760l-170 -334q-12 -23 -31.5 -35t-39.5 -12q-31 0 -54.5 21.5t-23.5 54.5zM430 510h639l-264 739zM527 1798 q0 25 16 40t41 15q33 0 57 -32q63 -111 201 -111q135 0 213 111q29 35 64 34q23 0 38 -14t15 -35q0 -18 -13 -41q-51 -86 -135 -130t-188 -44q-105 0 -182.5 44t-118.5 130q-8 16 -8 33z" />
<glyph unicode="&#x103;" horiz-adv-x="1085" d="M104 272q0 113 59.5 179.5t190.5 97.5t355 31h73l4 59l2 39q0 106 -52 156.5t-161 50.5q-147 0 -317 -101q-20 -10 -33 -10q-25 0 -41 19.5t-16 46.5q0 45 39 69q74 51 177 82t204 31q360 0 360 -342q0 -37 -2 -55l-43 -559q-2 -37 -24.5 -56.5t-57.5 -19.5 q-37 0 -59.5 23.5t-18.5 58.5l7 90q-45 -84 -124 -130t-182 -46q-150 0 -245 80.5t-95 205.5zM272 287q0 -78 55.5 -124t151.5 -46q117 0 199 82t90 211l4 63h-57q-170 0 -265.5 -17.5t-136.5 -57.5t-41 -111zM309 1427q0 27 17.5 44.5t41.5 17.5q39 0 60 -41 q29 -66 80 -100.5t120 -34.5q137 0 215 135q23 41 62 41q23 0 38 -14.5t15 -38.5q0 -20 -8 -37q-47 -100 -135 -154.5t-197 -54.5q-106 0 -185 54t-118 155q-6 16 -6 28z" />
<glyph unicode="&#x104;" horiz-adv-x="1488" d="M37 66q0 23 10 40l672 1289q14 29 40.5 44t55.5 15q33 0 58.5 -16.5t37.5 -48.5l469 -1289q6 -18 6 -34q0 -29 -17 -48.5t-42 -23.5q-63 -6 -104 -50t-41 -110q0 -59 31.5 -90t89.5 -31q47 0 98 25q16 6 26 6q16 0 25.5 -11.5t9.5 -29.5q0 -16 -9 -32.5t-26 -26.5 q-72 -39 -151 -39q-102 0 -164.5 56t-62.5 146q0 88 46 153t134 97l-113 314h-758l-170 -334q-27 -47 -71 -47q-33 0 -56.5 21.5t-23.5 54.5zM428 510h639l-264 739z" />
<glyph unicode="&#x105;" horiz-adv-x="1085" d="M104 272q0 113 59.5 179.5t190.5 97.5t355 31h73l4 59l2 39q0 106 -51 156.5t-162 50.5q-150 0 -317 -101q-20 -10 -35 -10q-25 0 -40 19.5t-15 46.5q0 47 39 69q76 51 179 82t202 31q360 0 360 -342q0 -37 -2 -55l-43 -557q-2 -55 -51 -66q-70 -14 -116 -57t-46 -111 q0 -57 32 -89t91 -32q41 0 96 25q17 6 25 6q18 0 27.5 -11.5t9.5 -29.5q0 -39 -35 -59q-72 -39 -148 -39q-104 0 -166.5 55t-62.5 147q0 84 48 147.5t136 96.5v21l7 90q-47 -86 -127 -131t-181 -45q-150 0 -244 79.5t-94 206.5zM272 285q0 -76 55.5 -122t151.5 -46 q117 0 199 82t90 211l4 63h-57q-180 0 -275.5 -19.5t-131.5 -59.5t-36 -109z" />
<glyph unicode="&#x106;" horiz-adv-x="1386" d="M141 662q0 242 85 422t242 278t370 98q156 0 282.5 -44t210.5 -126q33 -27 33 -63q0 -31 -19.5 -53.5t-48.5 -22.5q-23 0 -47 18q-84 74 -181 110t-228 36q-248 0 -386.5 -174t-138.5 -482q0 -254 121 -392t346 -138q106 0 207 36t182 105q27 20 52 21q27 0 43 -19.5 t16 -48.5q0 -39 -33 -65q-90 -84 -215 -129t-274 -45q-189 0 -328 81.5t-215 234.5t-76 362zM852 1597q0 16 13 35l157 219q29 41 70 41q29 0 48 -18.5t19 -44.5q0 -31 -28 -60l-191 -190q-27 -23 -47 -23q-16 0 -28.5 12.5t-12.5 28.5z" />
<glyph unicode="&#x107;" horiz-adv-x="980" d="M94 467q0 168 61.5 293t176 193.5t270.5 68.5q100 0 188.5 -29.5t141.5 -74.5q31 -25 31 -64q0 -29 -18.5 -52.5t-45.5 -23.5q-16 0 -35 13q-123 92 -262 92q-160 0 -248 -110.5t-88 -307.5q0 -160 80 -251t225 -91q72 0 131.5 22.5t118.5 67.5q20 14 39 14 q25 0 40 -19.5t15 -45.5q0 -33 -26 -58q-59 -55 -147.5 -86.5t-184.5 -31.5q-139 0 -244.5 59t-162 168t-56.5 254zM594 1163q0 20 11 33l249 317q29 41 70 41q31 0 55.5 -21.5t24.5 -51.5q0 -31 -29 -60l-295 -282q-21 -21 -41 -21q-18 0 -31.5 13.5t-13.5 31.5z" />
<glyph unicode="&#x108;" horiz-adv-x="1386" d="M141 662q0 242 85 422t242 278t370 98q156 0 282.5 -44t210.5 -126q33 -27 33 -63q0 -31 -19.5 -53.5t-48.5 -22.5q-23 0 -47 18q-84 74 -181 110t-228 36q-248 0 -386.5 -174t-138.5 -482q0 -254 121 -392t346 -138q106 0 207 36t182 105q27 20 52 21q27 0 43 -19.5 t16 -48.5q0 -39 -33 -65q-90 -84 -215 -129t-274 -45q-189 0 -328 81.5t-215 234.5t-76 362zM623 1612q0 20 18 41l181 200q35 37 81 37q47 0 74 -37l141 -196q14 -20 15 -41q0 -25 -18.5 -42.5t-43.5 -17.5q-35 0 -59 39l-115 183l-155 -193q-29 -31 -58 -31 q-25 0 -43 17.5t-18 40.5z" />
<glyph unicode="&#x109;" horiz-adv-x="980" d="M94 467q0 168 61.5 293t176 193.5t270.5 68.5q100 0 188.5 -29.5t141.5 -74.5q31 -25 31 -64q0 -29 -18.5 -52.5t-45.5 -23.5q-16 0 -35 13q-123 92 -262 92q-160 0 -248 -110.5t-88 -307.5q0 -160 80 -251t225 -91q72 0 131.5 22.5t118.5 67.5q20 14 39 14 q25 0 40 -19.5t15 -45.5q0 -33 -26 -58q-59 -55 -147.5 -86.5t-184.5 -31.5q-139 0 -244.5 59t-162 168t-56.5 254zM371 1180q0 23 14 43l187 278q33 51 86 51q25 0 45 -13t33 -38l143 -282q8 -16 8 -35q0 -27 -21.5 -46.5t-47.5 -19.5q-39 0 -58 41l-112 262l-152 -264 q-24 -39 -61 -39q-25 0 -44.5 18.5t-19.5 43.5z" />
<glyph unicode="&#x10a;" horiz-adv-x="1386" d="M141 662q0 242 85 422t242 278t370 98q156 0 282.5 -44t210.5 -126q33 -27 33 -63q0 -31 -19.5 -53.5t-48.5 -22.5q-23 0 -47 18q-84 74 -181 110t-228 36q-248 0 -386.5 -174t-138.5 -482q0 -254 121 -392t346 -138q106 0 207 36t182 105q27 20 52 21q27 0 43 -19.5 t16 -48.5q0 -39 -33 -65q-90 -84 -215 -129t-274 -45q-189 0 -328 81.5t-215 234.5t-76 362zM779 1724q0 47 30.5 75t79.5 28t80 -27.5t31 -75.5q0 -47 -31 -75.5t-80 -28.5t-79.5 28.5t-30.5 75.5z" />
<glyph unicode="&#x10b;" horiz-adv-x="980" d="M94 467q0 168 61.5 293t176 193.5t270.5 68.5q100 0 188.5 -29.5t141.5 -74.5q31 -25 31 -64q0 -29 -18.5 -52.5t-45.5 -23.5q-16 0 -35 13q-123 92 -262 92q-160 0 -248 -110.5t-88 -307.5q0 -160 80 -251t225 -91q72 0 131.5 22.5t118.5 67.5q20 14 39 14 q25 0 40 -19.5t15 -45.5q0 -33 -26 -58q-59 -55 -147.5 -86.5t-184.5 -31.5q-139 0 -244.5 59t-162 168t-56.5 254zM531 1337q0 45 30.5 74t79.5 29t80 -29t31 -74q0 -47 -30.5 -75.5t-80.5 -28.5q-49 0 -79.5 28.5t-30.5 75.5z" />
<glyph unicode="&#x10c;" horiz-adv-x="1386" d="M141 662q0 242 85 422t242 278t370 98q156 0 282.5 -44t210.5 -126q33 -27 33 -63q0 -31 -19.5 -53.5t-48.5 -22.5q-23 0 -47 18q-84 74 -181 110t-228 36q-248 0 -386.5 -174t-138.5 -482q0 -254 121 -392t346 -138q106 0 207 36t182 105q27 20 52 21q27 0 43 -19.5 t16 -48.5q0 -39 -33 -65q-90 -84 -215 -129t-274 -45q-189 0 -328 81.5t-215 234.5t-76 362zM641 1829q0 25 18.5 42t43.5 17q37 0 61 -39l115 -184l156 195q24 30 57 30q23 0 41 -17.5t18 -39.5q0 -23 -16 -41l-180 -201q-35 -37 -82 -37q-45 0 -74 37l-141 195 q-16 23 -17 43z" />
<glyph unicode="&#x10d;" horiz-adv-x="980" d="M94 467q0 168 61.5 293t176 193.5t270.5 68.5q100 0 188.5 -29.5t141.5 -74.5q31 -25 31 -64q0 -29 -18.5 -52.5t-45.5 -23.5q-16 0 -35 13q-123 92 -262 92q-160 0 -248 -110.5t-88 -307.5q0 -160 80 -251t225 -91q72 0 131.5 22.5t118.5 67.5q20 14 39 14 q25 0 40 -19.5t15 -45.5q0 -33 -26 -58q-59 -55 -147.5 -86.5t-184.5 -31.5q-139 0 -244.5 59t-162 168t-56.5 254zM396 1487q0 27 21.5 46t47.5 19q37 0 56 -41l112 -262l154 264q10 19 26.5 29t32.5 10q25 0 44.5 -18t19.5 -43q0 -23 -15 -43l-184 -279q-37 -51 -88 -51 t-78 51l-141 283q-8 16 -8 35z" />
<glyph unicode="&#x10e;" horiz-adv-x="1513" d="M145 92l101 1270q2 39 26.5 60.5t61.5 21.5h395q326 0 502 -174t176 -490q0 -244 -86 -419t-252 -268t-399 -93h-439q-41 0 -64.5 25.5t-21.5 66.5zM319 143h343q283 0 427 164t144 475q0 518 -518 518h-305zM606 1829q0 25 18.5 42t43.5 17q37 0 61 -39l115 -184 l156 195q24 30 57 30q23 0 41 -17.5t18 -39.5q0 -23 -16 -41l-180 -201q-35 -37 -82 -37q-45 0 -74 37l-141 195q-16 23 -17 43z" />
<glyph unicode="&#x10f;" horiz-adv-x="1191" d="M94 465q0 166 58.5 292t165 195.5t245.5 69.5q117 0 204 -51t130 -142l43 551q2 35 27.5 55.5t60.5 20.5q37 0 58.5 -20.5t19.5 -55.5l-102 -1308q-2 -39 -28 -60.5t-61 -21.5t-56 21.5t-19 60.5l8 88q-51 -82 -139 -128t-191 -46q-125 0 -221 58t-149.5 166.5 t-53.5 254.5zM262 471q0 -166 79 -257t220 -91q148 0 232 111.5t84 304.5q0 168 -77 257t-222 89t-230.5 -110.5t-85.5 -303.5zM1151 1083l25 299q2 35 22.5 54.5t46.5 19.5q23 0 39 -15.5t16 -43.5q0 -14 -2 -23l-65 -299q-4 -18 -16.5 -27.5t-26.5 -9.5q-16 0 -28.5 12.5 t-10.5 32.5z" />
<glyph unicode="&#x110;" horiz-adv-x="1540" d="M18 731q0 33 21.5 51.5t60.5 18.5h129l43 561q2 39 27 60.5t61 21.5h396q325 0 501.5 -174t176.5 -490q0 -244 -86 -419t-252 -268t-400 -93h-438q-41 0 -64.5 25.5t-19.5 66.5l45 572h-123q-37 0 -57.5 18t-20.5 49zM346 143h342q283 0 427.5 164t144.5 475 q0 256 -129.5 387t-387.5 131h-307l-39 -499h326q39 0 58.5 -18.5t19.5 -49.5q0 -33 -20.5 -51t-59.5 -18h-334z" />
<glyph unicode="&#x111;" horiz-adv-x="1191" d="M94 465q0 166 58.5 292t165 195.5t245.5 69.5q117 0 204 -51t130 -142l25 308h-336q-33 0 -50.5 16t-17.5 45t19.5 46.5t52.5 17.5h342l8 118q2 35 27.5 55.5t60.5 20.5q37 0 58.5 -20.5t19.5 -55.5l-10 -118h135q33 0 50 -16.5t17 -45.5t-19 -46t-54 -17h-138l-83 -1065 q-2 -39 -28 -60.5t-61 -21.5t-56 21.5t-19 60.5l8 88q-51 -82 -139 -128t-191 -46q-125 0 -221 58t-149.5 166.5t-53.5 254.5zM262 471q0 -166 79 -257t220 -91q148 0 232 111.5t84 304.5q0 168 -77 257t-222 89t-230.5 -110.5t-85.5 -303.5z" />
<glyph unicode="&#x112;" horiz-adv-x="1191" d="M145 86l101 1276q6 82 88 82h768q35 0 54.5 -18.5t19.5 -49.5q0 -35 -20.5 -53t-59.5 -18h-688l-39 -502h641q37 0 56 -18.5t19 -49.5q0 -33 -21.5 -52t-57.5 -19h-648l-41 -525h682q35 0 54.5 -18.5t19.5 -48.5q0 -33 -21.5 -52.5t-58.5 -19.5h-768q-41 0 -61.5 22.5 t-18.5 63.5zM441 1722q0 31 21.5 47.5t55.5 16.5h498q33 0 50.5 -16.5t17.5 -45.5q0 -31 -21.5 -47t-56.5 -16h-498q-33 0 -50 16.5t-17 44.5z" />
<glyph unicode="&#x113;" horiz-adv-x="1079" d="M94 469q0 164 60.5 289t172 194.5t259.5 69.5q201 0 307 -120t106 -347q0 -39 -20.5 -60.5t-54.5 -21.5h-664v-8q0 -164 81 -254t234 -90q162 0 285 90q20 14 41 14q25 0 40 -18.5t15 -42.5q0 -37 -32 -68q-55 -49 -154.5 -79.5t-202.5 -30.5q-217 0 -345 131t-128 352z M268 580h582q6 154 -62.5 233.5t-195.5 79.5q-137 0 -219 -81t-105 -232zM311 1335q0 31 21.5 47.5t56.5 16.5h497q33 0 50.5 -16.5t17.5 -45.5q0 -31 -21.5 -47t-56.5 -16h-498q-32 0 -49.5 16.5t-17.5 44.5z" />
<glyph unicode="&#x114;" horiz-adv-x="1191" d="M145 86l101 1276q6 82 88 82h768q35 0 54.5 -18.5t19.5 -49.5q0 -35 -20.5 -53t-59.5 -18h-688l-39 -502h641q37 0 56 -18.5t19 -49.5q0 -33 -21.5 -52t-57.5 -19h-648l-41 -525h682q35 0 54.5 -18.5t19.5 -48.5q0 -33 -21.5 -52.5t-58.5 -19.5h-768q-41 0 -61.5 22.5 t-18.5 63.5zM445 1798q0 25 16 40t41 15q33 0 57 -32q63 -111 201 -111q135 0 213 111q29 35 64 34q23 0 38 -14t15 -35q0 -18 -13 -41q-51 -86 -135 -130t-188 -44q-105 0 -182.5 44t-118.5 130q-8 16 -8 33z" />
<glyph unicode="&#x115;" horiz-adv-x="1079" d="M94 469q0 164 60.5 289t172 194.5t259.5 69.5q201 0 307 -120t106 -347q0 -39 -20.5 -60.5t-54.5 -21.5h-664v-8q0 -164 81 -254t234 -90q162 0 285 90q20 14 41 14q25 0 40 -18.5t15 -42.5q0 -37 -32 -68q-55 -49 -154.5 -79.5t-202.5 -30.5q-217 0 -345 131t-128 352z M268 580h582q6 154 -62.5 233.5t-195.5 79.5q-137 0 -219 -81t-105 -232zM313 1427q0 27 17.5 44.5t41.5 17.5q39 0 60 -41q29 -66 80 -100.5t120 -34.5q137 0 215 135q23 41 62 41q23 0 38 -14.5t15 -38.5q0 -20 -8 -37q-47 -100 -135 -154.5t-197 -54.5q-106 0 -185 54 t-118 155q-6 16 -6 28z" />
<glyph unicode="&#x116;" horiz-adv-x="1191" d="M145 86l101 1276q6 82 88 82h768q35 0 54.5 -18.5t19.5 -49.5q0 -35 -20.5 -53t-59.5 -18h-688l-39 -502h641q37 0 56 -18.5t19 -49.5q0 -33 -21.5 -52t-57.5 -19h-648l-41 -525h682q35 0 54.5 -18.5t19.5 -48.5q0 -33 -21.5 -52.5t-58.5 -19.5h-768q-41 0 -61.5 22.5 t-18.5 63.5zM652 1724q0 47 30.5 75t79.5 28t80 -27.5t31 -75.5q0 -47 -31 -75.5t-80 -28.5t-79.5 28.5t-30.5 75.5z" />
<glyph unicode="&#x117;" horiz-adv-x="1079" d="M94 469q0 164 60.5 289t172 194.5t259.5 69.5q201 0 307 -120t106 -347q0 -39 -20.5 -60.5t-54.5 -21.5h-664v-8q0 -164 81 -254t234 -90q162 0 285 90q20 14 41 14q25 0 40 -18.5t15 -42.5q0 -37 -32 -68q-55 -49 -154.5 -79.5t-202.5 -30.5q-217 0 -345 131t-128 352z M268 580h582q6 154 -62.5 233.5t-195.5 79.5q-137 0 -219 -81t-105 -232zM522 1337q0 45 30.5 74t79.5 29t80 -29t31 -74q0 -47 -30.5 -75.5t-80.5 -28.5q-49 0 -79.5 28.5t-30.5 75.5z" />
<glyph unicode="&#x118;" horiz-adv-x="1191" d="M145 86l101 1276q6 82 88 82h768q35 0 54.5 -18.5t19.5 -49.5q0 -35 -20.5 -53t-59.5 -18h-688l-39 -502h641q37 0 56 -18.5t19 -49.5q0 -33 -21.5 -52t-57.5 -19h-648l-41 -525h682q35 0 54.5 -18.5t19.5 -48.5q0 -61 -67 -72q-88 -2 -134.5 -49t-46.5 -117 q0 -59 32 -90t87 -31q43 0 100 25q16 6 25 6q18 0 27.5 -11.5t9.5 -29.5q0 -39 -35 -59q-72 -39 -151 -39q-102 0 -165 56t-63 146q0 117 92 193h-559q-41 0 -61.5 22.5t-18.5 63.5z" />
<glyph unicode="&#x119;" horiz-adv-x="1079" d="M94 469q0 164 60.5 289t172 194.5t259.5 69.5q201 0 307 -120t106 -347q0 -39 -20.5 -60.5t-54.5 -21.5h-664v-8q0 -164 81 -254t234 -90q162 0 285 90q20 14 41 14q25 0 40 -18.5t15 -42.5q0 -37 -32 -68q-43 -35 -103 -59q-102 -45 -142 -95.5t-40 -109.5 q0 -57 30.5 -88t88.5 -31q49 0 100 25q16 6 25 6q16 0 25.5 -11.5t9.5 -29.5q0 -39 -33 -59q-72 -39 -156 -39q-100 0 -161.5 55t-61.5 145q0 111 82 181h-21q-217 0 -345 131t-128 352zM268 580h582q6 154 -62.5 233.5t-195.5 79.5q-137 0 -219 -81t-105 -232z" />
<glyph unicode="&#x11a;" horiz-adv-x="1191" d="M145 86l101 1276q6 82 88 82h768q35 0 54.5 -18.5t19.5 -49.5q0 -35 -20.5 -53t-59.5 -18h-688l-39 -502h641q37 0 56 -18.5t19 -49.5q0 -33 -21.5 -52t-57.5 -19h-648l-41 -525h682q35 0 54.5 -18.5t19.5 -48.5q0 -33 -21.5 -52.5t-58.5 -19.5h-768q-41 0 -61.5 22.5 t-18.5 63.5zM514 1829q0 25 18.5 42t43.5 17q37 0 61 -39l115 -184l156 195q24 30 57 30q23 0 41 -17.5t18 -39.5q0 -23 -16 -41l-180 -201q-35 -37 -82 -37q-45 0 -74 37l-141 195q-16 23 -17 43z" />
<glyph unicode="&#x11b;" horiz-adv-x="1079" d="M94 469q0 164 60.5 289t172 194.5t259.5 69.5q201 0 307 -120t106 -347q0 -39 -20.5 -60.5t-54.5 -21.5h-664v-8q0 -164 81 -254t234 -90q162 0 285 90q20 14 41 14q25 0 40 -18.5t15 -42.5q0 -37 -32 -68q-55 -49 -154.5 -79.5t-202.5 -30.5q-217 0 -345 131t-128 352z M268 580h582q6 154 -62.5 233.5t-195.5 79.5q-137 0 -219 -81t-105 -232zM387 1487q0 27 21.5 46t47.5 19q37 0 56 -41l112 -262l154 264q10 19 26.5 29t32.5 10q25 0 44.5 -18t19.5 -43q0 -23 -15 -43l-184 -279q-37 -51 -88 -51t-78 51l-141 283q-8 16 -8 35z" />
<glyph unicode="&#x11c;" horiz-adv-x="1482" d="M139 647q0 248 88 431.5t251 282.5t384 99q150 0 270.5 -42t204.5 -120q39 -33 39 -73q0 -29 -19.5 -51.5t-45.5 -22.5q-25 0 -49 18q-90 76 -184.5 112t-215.5 36q-170 0 -294 -80t-189.5 -229.5t-65.5 -354.5q0 -254 125 -391t371 -137q172 0 334 55l35 441h-291 q-37 0 -57.5 17t-20.5 46q0 31 21.5 49.5t56.5 18.5h368q37 0 59.5 -23.5t18.5 -58.5l-37 -502q-4 -49 -21.5 -73.5t-55.5 -35.5q-86 -35 -202 -55t-218 -20q-317 0 -488.5 175t-171.5 488zM635 1612q0 20 18 41l181 200q35 37 81 37q47 0 74 -37l141 -196q14 -20 15 -41 q0 -25 -18.5 -42.5t-43.5 -17.5q-35 0 -59 39l-115 183l-155 -193q-29 -31 -58 -31q-25 0 -43 17.5t-18 40.5z" />
<glyph unicode="&#x11d;" horiz-adv-x="1200" d="M96 489q0 156 58.5 277t165 188.5t247.5 67.5q119 0 207 -51t133 -144l8 109q4 39 30 60.5t61 21.5q34 0 55.5 -21.5t19.5 -60.5l-69 -868q-16 -223 -138 -337t-346 -114q-115 0 -215 28.5t-174 80.5q-41 29 -41 67q0 29 19.5 49.5t46.5 20.5q14 0 29 -8 q82 -51 161.5 -77t177.5 -26q293 0 316 307l12 148q-47 -82 -135 -129t-197 -47q-197 0 -314.5 125t-117.5 333zM264 489q0 -156 78 -238.5t223 -82.5q150 0 235 104.5t85 286.5q0 156 -79 241t-222 85q-150 0 -235 -105.5t-85 -290.5zM401 1180q0 23 14 43l187 278 q33 51 86 51q25 0 45 -13t33 -38l143 -282q8 -16 8 -35q0 -27 -21.5 -46.5t-47.5 -19.5q-39 0 -58 41l-112 262l-152 -264q-24 -39 -61 -39q-25 0 -44.5 18.5t-19.5 43.5z" />
<glyph unicode="&#x11e;" horiz-adv-x="1482" d="M139 647q0 248 88 431.5t251 282.5t384 99q150 0 270.5 -42t204.5 -120q39 -33 39 -73q0 -29 -19.5 -51.5t-45.5 -22.5q-25 0 -49 18q-90 76 -184.5 112t-215.5 36q-170 0 -294 -80t-189.5 -229.5t-65.5 -354.5q0 -254 125 -391t371 -137q172 0 334 55l35 441h-291 q-37 0 -57.5 17t-20.5 46q0 31 21.5 49.5t56.5 18.5h368q37 0 59.5 -23.5t18.5 -58.5l-37 -502q-4 -49 -21.5 -73.5t-55.5 -35.5q-86 -35 -202 -55t-218 -20q-317 0 -488.5 175t-171.5 488zM584 1798q0 25 16 40t41 15q33 0 57 -32q63 -111 201 -111q135 0 213 111 q29 35 64 34q23 0 38 -14t15 -35q0 -18 -13 -41q-51 -86 -135 -130t-188 -44q-105 0 -182.5 44t-118.5 130q-8 16 -8 33z" />
<glyph unicode="&#x11f;" horiz-adv-x="1200" d="M96 489q0 156 58.5 277t165 188.5t247.5 67.5q119 0 207 -51t133 -144l8 109q4 39 30 60.5t61 21.5q34 0 55.5 -21.5t19.5 -60.5l-69 -868q-16 -223 -138 -337t-346 -114q-115 0 -215 28.5t-174 80.5q-41 29 -41 67q0 29 19.5 49.5t46.5 20.5q14 0 29 -8 q82 -51 161.5 -77t177.5 -26q293 0 316 307l12 148q-47 -82 -135 -129t-197 -47q-197 0 -314.5 125t-117.5 333zM264 489q0 -156 78 -238.5t223 -82.5q150 0 235 104.5t85 286.5q0 156 -79 241t-222 85q-150 0 -235 -105.5t-85 -290.5zM352 1427q0 27 17.5 44.5t41.5 17.5 q39 0 60 -41q29 -66 80 -100.5t120 -34.5q137 0 215 135q23 41 62 41q23 0 38 -14.5t15 -38.5q0 -20 -8 -37q-47 -100 -135 -154.5t-197 -54.5q-106 0 -185 54t-118 155q-6 16 -6 28z" />
<glyph unicode="&#x120;" horiz-adv-x="1482" d="M139 647q0 248 88 431.5t251 282.5t384 99q150 0 270.5 -42t204.5 -120q39 -33 39 -73q0 -29 -19.5 -51.5t-45.5 -22.5q-25 0 -49 18q-90 76 -184.5 112t-215.5 36q-170 0 -294 -80t-189.5 -229.5t-65.5 -354.5q0 -254 125 -391t371 -137q172 0 334 55l35 441h-291 q-37 0 -57.5 17t-20.5 46q0 31 21.5 49.5t56.5 18.5h368q37 0 59.5 -23.5t18.5 -58.5l-37 -502q-4 -49 -21.5 -73.5t-55.5 -35.5q-86 -35 -202 -55t-218 -20q-317 0 -488.5 175t-171.5 488zM791 1724q0 47 30.5 75t79.5 28t80 -27.5t31 -75.5q0 -47 -31 -75.5t-80 -28.5 t-79.5 28.5t-30.5 75.5z" />
<glyph unicode="&#x121;" horiz-adv-x="1200" d="M96 489q0 156 58.5 277t165 188.5t247.5 67.5q119 0 207 -51t133 -144l8 109q4 39 30 60.5t61 21.5q34 0 55.5 -21.5t19.5 -60.5l-69 -868q-16 -223 -138 -337t-346 -114q-115 0 -215 28.5t-174 80.5q-41 29 -41 67q0 29 19.5 49.5t46.5 20.5q14 0 29 -8 q82 -51 161.5 -77t177.5 -26q293 0 316 307l12 148q-47 -82 -135 -129t-197 -47q-197 0 -314.5 125t-117.5 333zM264 489q0 -156 78 -238.5t223 -82.5q150 0 235 104.5t85 286.5q0 156 -79 241t-222 85q-150 0 -235 -105.5t-85 -290.5zM561 1337q0 45 30.5 74t79.5 29 t80 -29t31 -74q0 -47 -30.5 -75.5t-80.5 -28.5q-49 0 -79.5 28.5t-30.5 75.5z" />
<glyph unicode="&#x122;" horiz-adv-x="1482" d="M139 647q0 248 88 431.5t251 282.5t384 99q150 0 270.5 -42t204.5 -120q39 -33 39 -73q0 -29 -19.5 -51.5t-45.5 -22.5q-25 0 -49 18q-90 76 -184.5 112t-215.5 36q-170 0 -294 -80t-189.5 -229.5t-65.5 -354.5q0 -254 125 -391t371 -137q172 0 334 55l35 441h-291 q-37 0 -57.5 17t-20.5 46q0 31 21.5 49.5t56.5 18.5h368q37 0 59.5 -23.5t18.5 -58.5l-37 -502q-4 -49 -21.5 -73.5t-55.5 -35.5q-86 -35 -202 -55t-218 -20q-317 0 -488.5 175t-171.5 488zM659 -240q0 45 29.5 74t73.5 29q53 0 81.5 -31t28.5 -88q0 -66 -26.5 -129.5 t-77.5 -116.5q-23 -25 -52 -24q-18 0 -31.5 11t-13.5 28q0 20 17 36q55 63 67 123h-2q-41 0 -67.5 23.5t-26.5 64.5z" />
<glyph unicode="&#x123;" horiz-adv-x="1200" d="M96 489q0 156 58.5 277t165 188.5t247.5 67.5q119 0 207 -51t133 -144l8 109q4 39 30 60.5t61 21.5q34 0 55.5 -21.5t19.5 -60.5l-69 -868q-16 -223 -138 -337t-346 -114q-115 0 -215 28.5t-174 80.5q-41 29 -41 67q0 29 19.5 49.5t46.5 20.5q14 0 29 -8 q82 -51 161.5 -77t177.5 -26q293 0 316 307l12 148q-47 -82 -135 -129t-197 -47q-197 0 -314.5 125t-117.5 333zM264 489q0 -156 78 -238.5t223 -82.5q150 0 235 104.5t85 286.5q0 156 -79 241t-222 85q-150 0 -235 -105.5t-85 -290.5zM555 1296q0 66 26.5 129.5t77.5 116.5 q25 25 53 25q16 0 28.5 -11.5t12.5 -27.5q0 -20 -16 -37q-53 -59 -66 -123h2q41 0 68 -23.5t27 -64.5q0 -45 -27 -73.5t-70 -28.5q-53 0 -84.5 30.5t-31.5 87.5z" />
<glyph unicode="&#x124;" horiz-adv-x="1552" d="M145 76l103 1298q2 37 25.5 58.5t60.5 21.5t59.5 -23.5t20.5 -62.5l-45 -563h862l45 569q2 37 26.5 58.5t59.5 21.5q37 0 59.5 -23.5t20.5 -62.5l-103 -1298q-2 -37 -25.5 -58.5t-60.5 -21.5t-59.5 23.5t-19.5 62.5l47 586h-863l-47 -592q-2 -37 -26.5 -58.5t-59.5 -21.5 q-37 0 -59.5 23.5t-20.5 62.5zM608 1612q0 20 18 41l181 200q35 37 81 37q47 0 74 -37l141 -196q14 -20 15 -41q0 -25 -18.5 -42.5t-43.5 -17.5q-35 0 -59 39l-115 183l-155 -193q-29 -31 -58 -31q-25 0 -43 17.5t-18 40.5z" />
<glyph unicode="&#x125;" horiz-adv-x="1163" d="M70 1612q0 20 18 41l181 200q35 37 81 37q47 0 74 -37l141 -196q14 -20 15 -41q0 -25 -18.5 -42.5t-43.5 -17.5q-35 0 -59 39l-115 183l-155 -193q-29 -31 -58 -31q-25 0 -43 17.5t-18 40.5zM119 72l104 1308q2 35 29 55.5t61 20.5q37 0 57.5 -19.5t18.5 -56.5l-43 -532 q53 84 140 129t196 45q168 0 256 -88t88 -256q0 -37 -2 -55l-43 -551q-4 -41 -28.5 -61.5t-59.5 -20.5q-39 0 -60.5 20.5t-17.5 61.5l43 540q2 14 2 43q0 227 -219 228q-139 0 -221 -83t-94 -229l-41 -499q-2 -41 -27 -61.5t-61 -20.5q-37 0 -58.5 20.5t-19.5 61.5z" />
<glyph unicode="&#x126;" horiz-adv-x="1607" d="M51 1128q0 31 20.5 50.5t55.5 19.5h135l14 176q2 37 26 58.5t60 21.5q37 0 59.5 -23.5t20.5 -62.5l-14 -170h862l15 176q2 37 26.5 58.5t59.5 21.5q37 0 59.5 -23.5t19.5 -62.5l-12 -170h127q33 0 52.5 -18.5t19.5 -46.5q0 -31 -20.5 -49.5t-55.5 -18.5h-133l-78 -995 q-2 -37 -26.5 -58.5t-61.5 -21.5t-59.5 23.5t-20.5 62.5l47 586h-862l-47 -592q-2 -37 -25.5 -58.5t-60.5 -21.5t-59.5 23.5t-20.5 62.5l78 989h-131q-33 0 -51.5 17.5t-18.5 45.5zM397 805h863l20 260h-862z" />
<glyph unicode="&#x127;" horiz-adv-x="1163" d="M4 1198q0 29 19.5 46.5t54.5 17.5h135l10 118q2 35 29 55.5t61 20.5q37 0 57.5 -19.5t18.5 -56.5l-10 -118h340q31 0 48 -17.5t17 -44.5q0 -31 -18 -47t-53 -16h-342l-25 -289q53 84 140 129t196 45q168 0 256 -88t88 -256q0 -37 -2 -55l-43 -551q-4 -41 -28.5 -61.5 t-59.5 -20.5q-39 0 -60.5 20.5t-17.5 61.5l43 540q2 14 2 43q0 227 -219 228q-139 0 -221 -83t-94 -229l-41 -499q-2 -41 -27 -61.5t-61 -20.5q-37 0 -58.5 20.5t-19.5 61.5l86 1065h-133q-31 0 -49.5 17t-18.5 44z" />
<glyph unicode="&#x128;" horiz-adv-x="524" d="M32 1669q0 37 25 76t69 64.5t99 25.5q35 0 69.5 -12.5t88.5 -38.5q82 -43 120 -43q35 0 55.5 14t43.5 41q23 33 45 33q20 0 30.5 -13.5t10.5 -35.5q0 -37 -24.5 -76t-68.5 -64.5t-100 -25.5q-35 0 -69.5 12t-87.5 39q-82 43 -121 43q-35 0 -55.5 -14.5t-43.5 -40.5 q-12 -16 -22 -24.5t-25 -8.5q-18 0 -28.5 13.5t-10.5 35.5zM145 76l103 1298q2 37 25.5 58.5t60.5 21.5q39 0 61.5 -23.5t20.5 -62.5l-103 -1298q-2 -37 -26.5 -58.5t-61.5 -21.5t-59.5 23.5t-20.5 62.5z" />
<glyph unicode="&#x129;" horiz-adv-x="475" d="M-24 1274q0 37 26.5 83t71.5 77.5t96 31.5q39 0 74 -18t86 -53q39 -29 65.5 -42.5t51.5 -13.5q35 0 55 18.5t41 51.5q16 23 26.5 34t24.5 11q39 0 39 -51q0 -37 -26.5 -83t-71.5 -78t-96 -32q-39 0 -74 18.5t-86 53.5q-39 29 -65.5 42t-49.5 13q-33 0 -52.5 -17 t-45.5 -52q-27 -45 -49 -45q-18 0 -29.5 14t-11.5 37zM119 72l71 868q2 39 28 58.5t61 19.5t57 -19.5t20 -58.5l-71 -868q-2 -41 -28 -61.5t-60 -20.5q-35 0 -57.5 20.5t-20.5 61.5z" />
<glyph unicode="&#x12a;" horiz-adv-x="524" d="M39 1722q0 31 21.5 47.5t55.5 16.5h498q33 0 50.5 -16.5t17.5 -45.5q0 -31 -21.5 -47t-56.5 -16h-498q-33 0 -50 16.5t-17 44.5zM145 76l103 1298q2 37 25.5 58.5t60.5 21.5q39 0 61.5 -23.5t20.5 -62.5l-103 -1298q-2 -37 -26.5 -58.5t-61.5 -21.5t-59.5 23.5 t-20.5 62.5z" />
<glyph unicode="&#x12b;" horiz-adv-x="475" d="M-16 1335q0 31 21.5 47.5t56.5 16.5h497q33 0 50.5 -16.5t17.5 -45.5q0 -31 -21.5 -47t-56.5 -16h-498q-32 0 -49.5 16.5t-17.5 44.5zM119 72l71 868q2 39 28 58.5t61 19.5t57 -19.5t20 -58.5l-71 -868q-2 -41 -28 -61.5t-60 -20.5q-35 0 -57.5 20.5t-20.5 61.5z" />
<glyph unicode="&#x12c;" horiz-adv-x="524" d="M43 1798q0 25 16 40t41 15q33 0 57 -32q63 -111 201 -111q135 0 213 111q29 35 64 34q23 0 38 -14t15 -35q0 -18 -13 -41q-51 -86 -135 -130t-188 -44q-105 0 -182.5 44t-118.5 130q-8 16 -8 33zM145 76l103 1298q2 37 25.5 58.5t60.5 21.5q39 0 61.5 -23.5t20.5 -62.5 l-103 -1298q-2 -37 -26.5 -58.5t-61.5 -21.5t-59.5 23.5t-20.5 62.5z" />
<glyph unicode="&#x12d;" horiz-adv-x="475" d="M-14 1427q0 27 17.5 44.5t41.5 17.5q39 0 60 -41q29 -66 80 -100.5t120 -34.5q137 0 215 135q23 41 62 41q23 0 38 -14.5t15 -38.5q0 -20 -8 -37q-47 -100 -135 -154.5t-197 -54.5q-106 0 -185 54t-118 155q-6 16 -6 28zM119 72l71 868q2 39 28 58.5t61 19.5t57 -19.5 t20 -58.5l-71 -868q-2 -41 -28 -61.5t-60 -20.5q-35 0 -57.5 20.5t-20.5 61.5z" />
<glyph unicode="&#x12e;" horiz-adv-x="524" d="M-35 -190q0 90 47 154.5t133 92.5q-4 10 0 23l103 1294q2 37 25.5 58.5t60.5 21.5q39 0 61.5 -23.5t20.5 -62.5l-103 -1298q-2 -29 -20.5 -49.5t-44.5 -24.5q-72 -12 -111 -54t-39 -108q0 -59 32 -90t89 -31q45 0 100 25q16 6 27 6q16 0 25.5 -11.5t9.5 -29.5 q0 -16 -9.5 -32.5t-25.5 -26.5q-68 -39 -151 -39q-104 0 -167 56t-63 149z" />
<glyph unicode="&#x12f;" horiz-adv-x="475" d="M-59 -193q0 86 47 152t131 96v17l71 868q2 39 28 58.5t61 19.5q34 0 56.5 -19.5t20.5 -58.5l-71 -868q-4 -61 -66 -78q-68 -10 -106.5 -52t-38.5 -110q0 -57 31.5 -88t87.5 -31q49 0 100 25q14 6 24 6q18 0 27.5 -12.5t9.5 -30.5q0 -16 -9 -32.5t-26 -24.5 q-72 -39 -155 -39q-100 0 -161.5 55t-61.5 147zM190 1337q0 45 31 74t80 29t81 -29t32 -74q0 -47 -32 -75.5t-81 -28.5t-80 28.5t-31 75.5z" />
<glyph unicode="&#x130;" horiz-adv-x="524" d="M145 76l103 1298q2 37 25.5 58.5t60.5 21.5q39 0 61.5 -23.5t20.5 -62.5l-103 -1298q-2 -37 -26.5 -58.5t-61.5 -21.5t-59.5 23.5t-20.5 62.5zM250 1724q0 47 30.5 75t79.5 28t80 -27.5t31 -75.5q0 -47 -31 -75.5t-80 -28.5t-79.5 28.5t-30.5 75.5z" />
<glyph unicode="&#x131;" horiz-adv-x="475" d="M119 72l71 868q2 39 28 58.5t61 19.5t57 -19.5t20 -58.5l-71 -868q-2 -41 -28 -61.5t-60 -20.5q-35 0 -57.5 20.5t-20.5 61.5z" />
<glyph unicode="&#x134;" horiz-adv-x="667" d="M-55 61q0 31 18.5 48.5t52.5 19.5l66 4q102 8 161.5 71.5t67.5 180.5l80 985q2 39 26.5 61.5t63.5 22.5t59.5 -22.5t18.5 -61.5l-78 -987q-14 -182 -111.5 -280.5t-273.5 -108.5l-65 -4q-45 -2 -66.5 17.5t-19.5 53.5zM238 1612q0 20 18 41l181 200q35 37 81 37 q47 0 74 -37l141 -196q14 -20 15 -41q0 -25 -18.5 -42.5t-43.5 -17.5q-35 0 -59 39l-115 183l-155 -193q-29 -31 -58 -31q-25 0 -43 17.5t-18 40.5z" />
<glyph unicode="&#x135;" horiz-adv-x="475" d="M-244 -309q0 27 17.5 44t52.5 19l59 4q111 8 165 66.5t65 179.5l75 932q2 41 27 61.5t59 20.5q35 0 58.5 -20.5t21.5 -61.5l-73 -916q-14 -190 -111.5 -285t-288.5 -106l-43 -4q-41 -2 -63.5 16.5t-20.5 49.5zM35 1180q0 23 14 43l187 278q33 51 86 51q25 0 45 -13 t33 -38l143 -282q8 -16 8 -35q0 -27 -21.5 -46.5t-47.5 -19.5q-39 0 -58 41l-112 262l-152 -264q-24 -39 -61 -39q-25 0 -44.5 18.5t-19.5 43.5z" />
<glyph unicode="&#x136;" horiz-adv-x="1286" d="M145 76l103 1298q2 35 26.5 57.5t59.5 22.5q37 0 60.5 -24.5t21.5 -61.5l-47 -586l768 650q26 22 51 22q29 0 50.5 -22.5t21.5 -51.5q0 -33 -29 -59l-701 -584l646 -622q20 -20 20 -47q0 -29 -23.5 -53.5t-52.5 -24.5q-31 0 -55 26l-703 672l-49 -618q-4 -35 -27.5 -57.5 t-60.5 -22.5t-59.5 24.5t-20.5 61.5zM489 -240q0 45 29.5 74t73.5 29q53 0 81.5 -31t28.5 -88q0 -66 -26.5 -129.5t-77.5 -116.5q-23 -25 -52 -24q-18 0 -31.5 11t-13.5 28q0 20 17 36q55 63 67 123h-2q-41 0 -67.5 23.5t-26.5 64.5z" />
<glyph unicode="&#x137;" horiz-adv-x="1024" d="M121 74l102 1302q2 37 29 57.5t61 20.5q37 0 57.5 -21.5t18.5 -62.5l-65 -827l514 444q22 23 53 23q29 0 50.5 -21.5t21.5 -50.5q0 -31 -27 -55l-430 -369l412 -397q20 -23 20 -49q0 -31 -24.5 -55.5t-55.5 -24.5q-27 0 -51 24l-488 463l-32 -407q-2 -39 -26.5 -58.5 t-59.5 -19.5q-37 0 -59.5 22.5t-20.5 61.5zM354 -240q0 45 29.5 74t73.5 29q53 0 81.5 -31t28.5 -88q0 -66 -26.5 -129.5t-77.5 -116.5q-23 -25 -52 -24q-18 0 -31.5 11t-13.5 28q0 20 17 36q55 63 67 123h-2q-41 0 -67.5 23.5t-26.5 64.5z" />
<glyph unicode="&#x138;" horiz-adv-x="1024" d="M119 72l71 868q2 39 28 58.5t61 19.5t57 -19.5t20 -58.5l-32 -399l514 446q22 23 53 23q29 0 50.5 -21.5t21.5 -50.5q0 -31 -27 -55l-430 -369l412 -397q20 -23 20 -49q0 -31 -24.5 -55.5t-55.5 -24.5q-27 0 -51 24l-490 465l-32 -405q-2 -41 -28 -61.5t-60 -20.5 q-35 0 -57.5 20.5t-20.5 61.5z" />
<glyph unicode="&#x139;" horiz-adv-x="1105" d="M145 86l103 1288q2 37 26.5 58.5t61.5 21.5q39 0 60.5 -23.5t19.5 -62.5l-97 -1225h658q37 0 56.5 -19.5t19.5 -49.5q0 -35 -20.5 -54.5t-59.5 -19.5h-748q-41 0 -62.5 22.5t-17.5 63.5zM323 1597q0 16 13 35l157 219q29 41 70 41q29 0 48 -18.5t19 -44.5q0 -31 -28 -60 l-191 -190q-27 -23 -47 -23q-16 0 -28.5 12.5t-12.5 28.5z" />
<glyph unicode="&#x13a;" horiz-adv-x="475" d="M119 72l104 1306q2 39 29 58.5t61 19.5q35 0 56.5 -19.5t19.5 -58.5l-104 -1306q-2 -41 -28 -61.5t-60 -20.5q-35 0 -57.5 20.5t-20.5 61.5zM299 1597q0 16 13 35l157 219q29 41 70 41q29 0 48 -18.5t19 -44.5q0 -31 -28 -60l-191 -190q-27 -23 -47 -23q-16 0 -28.5 12.5 t-12.5 28.5z" />
<glyph unicode="&#x13b;" horiz-adv-x="1105" d="M145 86l103 1288q2 37 26.5 58.5t61.5 21.5q39 0 60.5 -23.5t19.5 -62.5l-97 -1225h658q37 0 56.5 -19.5t19.5 -49.5q0 -35 -20.5 -54.5t-59.5 -19.5h-748q-41 0 -62.5 22.5t-17.5 63.5zM475 -240q0 45 29.5 74t73.5 29q53 0 81.5 -31t28.5 -88q0 -66 -26.5 -129.5 t-77.5 -116.5q-23 -25 -52 -24q-18 0 -31.5 11t-13.5 28q0 20 17 36q55 63 67 123h-2q-41 0 -67.5 23.5t-26.5 64.5z" />
<glyph unicode="&#x13c;" horiz-adv-x="475" d="M80 -240q0 45 29.5 74t73.5 29q53 0 81.5 -31t28.5 -88q0 -66 -26.5 -129.5t-77.5 -116.5q-23 -25 -52 -24q-18 0 -31.5 11t-13.5 28q0 20 17 36q55 63 67 123h-2q-41 0 -67.5 23.5t-26.5 64.5zM119 72l104 1306q2 39 29 58.5t61 19.5q35 0 56.5 -19.5t19.5 -58.5 l-104 -1306q-2 -41 -28 -61.5t-60 -20.5q-35 0 -57.5 20.5t-20.5 61.5z" />
<glyph unicode="&#x13d;" horiz-adv-x="1105" d="M145 86l103 1288q2 37 26.5 58.5t61.5 21.5q39 0 60.5 -23.5t19.5 -62.5l-97 -1225h658q37 0 56.5 -19.5t19.5 -49.5q0 -35 -20.5 -54.5t-59.5 -19.5h-748q-41 0 -62.5 22.5t-17.5 63.5zM565 1083l22 303q2 33 22.5 52.5t47.5 19.5t45.5 -17.5t18.5 -47.5q0 -12 -2 -21 l-64 -295q-4 -18 -17.5 -28.5t-29.5 -10.5q-18 0 -31.5 12.5t-11.5 32.5z" />
<glyph unicode="&#x13e;" horiz-adv-x="475" d="M119 72l104 1306q2 39 29 58.5t61 19.5q35 0 56.5 -19.5t19.5 -58.5l-104 -1306q-2 -41 -28 -61.5t-60 -20.5q-35 0 -57.5 20.5t-20.5 61.5zM438 1083l25 299q2 35 22.5 54.5t46.5 19.5q23 0 39.5 -15.5t16.5 -43.5q0 -14 -2 -23l-68 -299q-4 -18 -16.5 -27.5t-24.5 -9.5 q-16 0 -28.5 12.5t-10.5 32.5z" />
<glyph unicode="&#x13f;" horiz-adv-x="1105" d="M145 86l103 1288q2 37 26.5 58.5t61.5 21.5q39 0 60.5 -23.5t19.5 -62.5l-97 -1225h658q37 0 56.5 -19.5t19.5 -49.5q0 -35 -20.5 -54.5t-59.5 -19.5h-748q-41 0 -62.5 22.5t-17.5 63.5zM625 723q0 47 30.5 76t79.5 29t80 -29t31 -76t-31 -75.5t-80 -28.5t-79.5 28.5 t-30.5 75.5z" />
<glyph unicode="&#x140;" horiz-adv-x="534" d="M119 72l104 1306q2 39 29 58.5t61 19.5q35 0 56.5 -19.5t19.5 -58.5l-104 -1306q-2 -41 -28 -61.5t-60 -20.5q-35 0 -57.5 20.5t-20.5 61.5zM394 723q0 47 30.5 76t79.5 29t80 -29t31 -76t-31 -75.5t-80 -28.5t-79.5 28.5t-30.5 75.5z" />
<glyph unicode="&#x141;" horiz-adv-x="1132" d="M8 600q0 41 41 64l176 96l49 614q2 37 27 58.5t61 21.5q39 0 60.5 -23.5t19.5 -62.5l-41 -512l314 172q20 10 33 10q27 0 45 -20.5t18 -46.5q0 -35 -37 -58l-385 -213l-43 -557h660q34 0 53.5 -19.5t19.5 -49.5q0 -35 -20.5 -54.5t-59.5 -19.5h-747q-41 0 -61.5 22.5 t-18.5 63.5l41 518l-107 -59q-20 -10 -36 -10q-25 0 -43.5 20t-18.5 45z" />
<glyph unicode="&#x142;" horiz-adv-x="577" d="M6 602q0 37 37 57l184 103l49 616q2 39 29 58.5t62 19.5t56 -19.5t19 -58.5l-41 -522l111 62q21 10 33 10q27 0 45 -20.5t18 -47.5q0 -39 -37 -59l-182 -101l-49 -628q-4 -41 -29.5 -61.5t-60.5 -20.5t-57.5 20.5t-18.5 61.5l41 534l-111 -61q-14 -8 -32 -8 q-27 0 -46.5 20.5t-19.5 44.5z" />
<glyph unicode="&#x143;" horiz-adv-x="1513" d="M143 76l103 1294q2 39 25.5 61.5t58.5 22.5q45 0 71 -39l758 -1128l88 1087q2 37 24.5 58.5t57.5 21.5t56.5 -23.5t19.5 -60.5l-102 -1298q-4 -39 -23.5 -60.5t-56.5 -21.5q-49 0 -74 39l-760 1132l-88 -1091q-2 -37 -24.5 -58.5t-57.5 -21.5t-56.5 23.5t-19.5 62.5z M817 1597q0 16 13 35l157 219q29 41 70 41q29 0 48 -18.5t19 -44.5q0 -31 -28 -60l-191 -190q-27 -23 -47 -23q-16 0 -28.5 12.5t-12.5 28.5z" />
<glyph unicode="&#x144;" horiz-adv-x="1163" d="M119 72l71 868q2 37 28 57.5t61 20.5t55 -20.5t18 -55.5l-8 -98q51 84 139 131t199 47q168 0 256 -88t88 -256q0 -37 -2 -55l-43 -551q-4 -41 -28.5 -61.5t-59.5 -20.5q-39 0 -60.5 20.5t-17.5 61.5l43 540q2 14 2 43q0 227 -219 228q-139 0 -221 -83t-94 -229l-41 -499 q-2 -41 -27 -61.5t-61 -20.5q-37 0 -58.5 20.5t-19.5 61.5zM604 1163q0 20 11 33l249 317q29 41 70 41q31 0 55.5 -21.5t24.5 -51.5q0 -31 -29 -60l-295 -282q-21 -21 -41 -21q-18 0 -31.5 13.5t-13.5 31.5z" />
<glyph unicode="&#x145;" horiz-adv-x="1513" d="M143 76l103 1294q2 39 25.5 61.5t58.5 22.5q45 0 71 -39l758 -1128l88 1087q2 37 24.5 58.5t57.5 21.5t56.5 -23.5t19.5 -60.5l-102 -1298q-4 -39 -23.5 -60.5t-56.5 -21.5q-49 0 -74 39l-760 1132l-88 -1091q-2 -37 -24.5 -58.5t-57.5 -21.5t-56.5 23.5t-19.5 62.5z M600 -240q0 45 29.5 74t73.5 29q53 0 81.5 -31t28.5 -88q0 -66 -26.5 -129.5t-77.5 -116.5q-23 -25 -52 -24q-18 0 -31.5 11t-13.5 28q0 20 17 36q55 63 67 123h-2q-41 0 -67.5 23.5t-26.5 64.5z" />
<glyph unicode="&#x146;" horiz-adv-x="1163" d="M119 72l71 868q2 37 28 57.5t61 20.5t55 -20.5t18 -55.5l-8 -98q51 84 139 131t199 47q168 0 256 -88t88 -256q0 -37 -2 -55l-43 -551q-4 -41 -28.5 -61.5t-59.5 -20.5q-39 0 -60.5 20.5t-17.5 61.5l43 540q2 14 2 43q0 227 -219 228q-139 0 -221 -83t-94 -229l-41 -499 q-2 -41 -27 -61.5t-61 -20.5q-37 0 -58.5 20.5t-19.5 61.5zM426 -240q0 45 29.5 74t73.5 29q53 0 81.5 -31t28.5 -88q0 -66 -26.5 -129.5t-77.5 -116.5q-23 -25 -52 -24q-18 0 -31.5 11t-13.5 28q0 20 17 36q55 63 67 123h-2q-41 0 -67.5 23.5t-26.5 64.5z" />
<glyph unicode="&#x147;" horiz-adv-x="1513" d="M143 76l103 1294q2 39 25.5 61.5t58.5 22.5q45 0 71 -39l758 -1128l88 1087q2 37 24.5 58.5t57.5 21.5t56.5 -23.5t19.5 -60.5l-102 -1298q-4 -39 -23.5 -60.5t-56.5 -21.5q-49 0 -74 39l-760 1132l-88 -1091q-2 -37 -24.5 -58.5t-57.5 -21.5t-56.5 23.5t-19.5 62.5z M606 1829q0 25 18.5 42t43.5 17q37 0 61 -39l115 -184l156 195q24 30 57 30q23 0 41 -17.5t18 -39.5q0 -23 -16 -41l-180 -201q-35 -37 -82 -37q-45 0 -74 37l-141 195q-16 23 -17 43z" />
<glyph unicode="&#x148;" horiz-adv-x="1163" d="M119 72l71 868q2 37 28 57.5t61 20.5t55 -20.5t18 -55.5l-8 -98q51 84 139 131t199 47q168 0 256 -88t88 -256q0 -37 -2 -55l-43 -551q-4 -41 -28.5 -61.5t-59.5 -20.5q-39 0 -60.5 20.5t-17.5 61.5l43 540q2 14 2 43q0 227 -219 228q-139 0 -221 -83t-94 -229l-41 -499 q-2 -41 -27 -61.5t-61 -20.5q-37 0 -58.5 20.5t-19.5 61.5zM406 1487q0 27 21.5 46t47.5 19q37 0 56 -41l112 -262l154 264q10 19 26.5 29t32.5 10q25 0 44.5 -18t19.5 -43q0 -23 -15 -43l-184 -279q-37 -51 -88 -51t-78 51l-141 283q-8 16 -8 35z" />
<glyph unicode="&#x149;" horiz-adv-x="1163" d="M119 72l71 868q2 37 28 57.5t61 20.5t55 -20.5t18 -55.5l-8 -98q51 84 139 131t199 47q168 0 256 -88t88 -256q0 -37 -2 -55l-43 -551q-4 -41 -28.5 -61.5t-59.5 -20.5q-39 0 -60.5 20.5t-17.5 61.5l43 540q2 14 2 43q0 227 -219 228q-139 0 -221 -83t-94 -229l-41 -499 q-2 -41 -27 -61.5t-61 -20.5q-37 0 -58.5 20.5t-19.5 61.5zM268 1452q0 45 30 72.5t75 27.5q108 1 108 -116q0 -66 -26.5 -129.5t-77.5 -116.5q-25 -27 -53 -27q-18 0 -30.5 11.5t-12.5 27.5q0 20 16 37q55 61 68 125q-41 0 -69 23.5t-28 64.5z" />
<glyph unicode="&#x14a;" horiz-adv-x="1513" d="M143 76l103 1294q2 39 25.5 61.5t58.5 22.5q45 0 71 -39l758 -1128l88 1087q2 37 24.5 58.5t57.5 21.5t56.5 -23.5t19.5 -60.5l-107 -1354q-14 -182 -111 -281.5t-272 -109.5l-71 -4q-41 -2 -62.5 16.5t-21.5 51.5q0 31 18.5 49t50.5 20l82 4q96 4 157.5 71t70.5 181 l2 23l-752 1124l-88 -1091q-2 -37 -24.5 -58.5t-57.5 -21.5t-56.5 23.5t-19.5 62.5z" />
<glyph unicode="&#x14b;" horiz-adv-x="1163" d="M119 72l71 868q2 37 28 57.5t61 20.5t55 -20.5t18 -55.5l-8 -98q51 84 139 131t199 47q168 0 256 -87t88 -257q0 -37 -2 -55l-47 -603q-14 -190 -111.5 -285t-287.5 -106l-43 -4q-41 -2 -63.5 15.5t-22.5 50.5q4 57 71 63l60 4q111 8 165 66.5t64 179.5l49 608q2 14 2 43 q0 227 -219 228q-139 0 -221 -83t-94 -229l-41 -499q-2 -41 -27 -61.5t-61 -20.5q-37 0 -58.5 20.5t-19.5 61.5z" />
<glyph unicode="&#x14c;" horiz-adv-x="1564" d="M141 662q0 242 83 423t235.5 279t355.5 98q199 0 343.5 -82t222 -235.5t77.5 -364.5q0 -240 -83 -421t-235.5 -279t-355.5 -98q-198 0 -342.5 81.5t-222.5 235.5t-78 363zM313 659q0 -256 123 -394t348 -138q156 0 268.5 79t173 226.5t60.5 349.5q0 258 -123 396.5 t-348 138.5q-156 0 -268.5 -79t-173 -226.5t-60.5 -352.5zM560 1722q0 31 21.5 47.5t55.5 16.5h498q33 0 50.5 -16.5t17.5 -45.5q0 -31 -21.5 -47t-56.5 -16h-498q-33 0 -50 16.5t-17 44.5z" />
<glyph unicode="&#x14d;" horiz-adv-x="1136" d="M94 469q0 166 60.5 291t170 193.5t255.5 68.5q141 0 245.5 -59.5t161.5 -170t57 -255.5q0 -166 -60 -291t-171 -192.5t-256 -67.5q-139 0 -244.5 59t-162 169t-56.5 255zM262 463q0 -166 76 -253t221 -87q150 0 232.5 112.5t82.5 307.5q0 164 -76.5 253t-217.5 89 q-150 0 -234 -115t-84 -307zM313 1335q0 31 21.5 47.5t56.5 16.5h497q33 0 50.5 -16.5t17.5 -45.5q0 -31 -21.5 -47t-56.5 -16h-498q-32 0 -49.5 16.5t-17.5 44.5z" />
<glyph unicode="&#x14e;" horiz-adv-x="1564" d="M141 662q0 242 83 423t235.5 279t355.5 98q199 0 343.5 -82t222 -235.5t77.5 -364.5q0 -240 -83 -421t-235.5 -279t-355.5 -98q-198 0 -342.5 81.5t-222.5 235.5t-78 363zM313 659q0 -256 123 -394t348 -138q156 0 268.5 79t173 226.5t60.5 349.5q0 258 -123 396.5 t-348 138.5q-156 0 -268.5 -79t-173 -226.5t-60.5 -352.5zM564 1798q0 25 16 40t41 15q33 0 57 -32q63 -111 201 -111q135 0 213 111q29 35 64 34q23 0 38 -14t15 -35q0 -18 -13 -41q-51 -86 -135 -130t-188 -44q-105 0 -182.5 44t-118.5 130q-8 16 -8 33z" />
<glyph unicode="&#x14f;" horiz-adv-x="1136" d="M94 469q0 166 60.5 291t170 193.5t255.5 68.5q141 0 245.5 -59.5t161.5 -170t57 -255.5q0 -166 -60 -291t-171 -192.5t-256 -67.5q-139 0 -244.5 59t-162 169t-56.5 255zM262 463q0 -166 76 -253t221 -87q150 0 232.5 112.5t82.5 307.5q0 164 -76.5 253t-217.5 89 q-150 0 -234 -115t-84 -307zM315 1427q0 27 17.5 44.5t41.5 17.5q39 0 60 -41q29 -66 80 -100.5t120 -34.5q137 0 215 135q23 41 62 41q23 0 38 -14.5t15 -38.5q0 -20 -8 -37q-47 -100 -135 -154.5t-197 -54.5q-106 0 -185 54t-118 155q-6 16 -6 28z" />
<glyph unicode="&#x150;" horiz-adv-x="1564" d="M141 662q0 242 83 423t235.5 279t355.5 98q199 0 343.5 -82t222 -235.5t77.5 -364.5q0 -240 -83 -421t-235.5 -279t-355.5 -98q-198 0 -342.5 81.5t-222.5 235.5t-78 363zM313 659q0 -256 123 -394t348 -138q156 0 268.5 79t173 226.5t60.5 349.5q0 258 -123 396.5 t-348 138.5q-156 0 -268.5 -79t-173 -226.5t-60.5 -352.5zM723 1591q0 12 5 21l116 229q25 47 66 47q25 0 42 -16.5t17 -40.5q0 -23 -18 -47l-160 -207q-14 -21 -37 -21q-12 0 -21.5 10.5t-9.5 24.5zM969 1591q0 12 4 21l117 229q25 47 66 47q25 0 42 -16.5t17 -40.5 q0 -23 -19 -47l-157 -207q-19 -21 -37 -21q-14 0 -23.5 10.5t-9.5 24.5z" />
<glyph unicode="&#x151;" horiz-adv-x="1136" d="M94 469q0 166 60.5 291t170 193.5t255.5 68.5q141 0 245.5 -59.5t161.5 -170t57 -255.5q0 -166 -60 -291t-171 -192.5t-256 -67.5q-139 0 -244.5 59t-162 169t-56.5 255zM262 463q0 -166 76 -253t221 -87q150 0 232.5 112.5t82.5 307.5q0 164 -76.5 253t-217.5 89 q-150 0 -234 -115t-84 -307zM464 1169l95 320q8 33 29.5 50t45.5 17q27 0 45.5 -17t18.5 -46q0 -23 -14 -49l-148 -301q-6 -13 -16.5 -20t-20.5 -7q-18 0 -29.5 15.5t-5.5 37.5zM712 1169l94 320q8 33 30 50t46 17q27 0 45.5 -17t18.5 -46q0 -23 -15 -49l-147 -301 q-6 -13 -16.5 -20t-20.5 -7q-18 0 -29.5 15.5t-5.5 37.5z" />
<glyph unicode="&#x152;" horiz-adv-x="2140" d="M141 664q0 244 86 418.5t252 268t400 93.5h1173q35 0 54.5 -18.5t19.5 -49.5q0 -35 -20.5 -53t-59.5 -18h-690l-39 -502h643q37 0 56.5 -18.5t19.5 -49.5q0 -33 -21.5 -52t-58.5 -19h-651l-41 -525h686q35 0 54 -18.5t19 -48.5q0 -33 -21.5 -52.5t-57.5 -19.5h-1125 q-326 0 -502 174t-176 490zM313 662q0 -256 130 -389.5t388 -133.5h267l92 1166h-303q-283 0 -428.5 -166t-145.5 -477z" />
<glyph unicode="&#x153;" horiz-adv-x="1851" d="M94 469q0 166 60.5 291t170 193.5t255.5 68.5q287 0 389 -231q57 111 159.5 171t239.5 60q193 0 297 -120t104 -347q0 -41 -20 -61.5t-55 -20.5h-656v-8q0 -164 82 -254t238 -90q72 0 143.5 23.5t128.5 66.5q20 14 43 14q25 0 40.5 -18.5t15.5 -42.5q0 -37 -33 -68 q-55 -47 -153.5 -78.5t-190.5 -31.5q-145 0 -248 59t-156 170q-57 -109 -158.5 -169t-236.5 -60q-137 0 -241.5 59t-161 169t-56.5 255zM262 463q0 -166 76 -253t221 -87q150 0 231.5 112.5t81.5 307.5q0 164 -76.5 253t-215.5 89q-150 0 -234 -115t-84 -307zM1047 580h575 q6 156 -62.5 234.5t-189.5 78.5q-135 0 -219 -81t-104 -232z" />
<glyph unicode="&#x154;" horiz-adv-x="1404" d="M145 78l101 1284q2 39 26.5 60.5t61.5 21.5h508q221 0 339.5 -99.5t118.5 -285.5q0 -188 -102 -299t-305 -133q45 -16 80 -52t69 -102l201 -373q10 -20 10 -37q0 -31 -26.5 -53t-59.5 -22q-23 0 -43 12t-32 37l-226 426q-45 84 -100 115.5t-156 31.5h-256l-41 -540 q-2 -37 -26.5 -58.5t-63.5 -21.5t-60.5 23.5t-17.5 64.5zM365 750h421q176 0 263.5 73.5t87.5 225.5q0 131 -77 193.5t-231 62.5h-421zM760 1597q0 16 13 35l157 219q29 41 70 41q29 0 48 -18.5t19 -44.5q0 -31 -28 -60l-191 -190q-27 -23 -47 -23q-16 0 -28.5 12.5 t-12.5 28.5z" />
<glyph unicode="&#x155;" horiz-adv-x="722" d="M119 72l71 868q2 37 28 57.5t61 20.5t54 -19.5t17 -56.5l-8 -106q53 84 135 127t197 53l22 2q35 4 54.5 -13.5t19.5 -50.5q0 -74 -80 -80l-55 -6q-150 -14 -224.5 -87.5t-84.5 -211.5l-41 -497q-2 -41 -28 -61.5t-60 -20.5q-35 0 -57.5 20.5t-20.5 61.5zM458 1163 q0 20 11 33l249 317q29 41 70 41q31 0 55.5 -21.5t24.5 -51.5q0 -31 -29 -60l-295 -282q-21 -21 -41 -21q-18 0 -31.5 13.5t-13.5 31.5z" />
<glyph unicode="&#x156;" horiz-adv-x="1404" d="M145 78l101 1284q2 39 26.5 60.5t61.5 21.5h508q221 0 339.5 -99.5t118.5 -285.5q0 -188 -102 -299t-305 -133q45 -16 80 -52t69 -102l201 -373q10 -20 10 -37q0 -31 -26.5 -53t-59.5 -22q-23 0 -43 12t-32 37l-226 426q-45 84 -100 115.5t-156 31.5h-256l-41 -540 q-2 -37 -26.5 -58.5t-63.5 -21.5t-60.5 23.5t-17.5 64.5zM365 750h421q176 0 263.5 73.5t87.5 225.5q0 131 -77 193.5t-231 62.5h-421zM541 -240q0 45 29.5 74t73.5 29q53 0 81.5 -31t28.5 -88q0 -66 -26.5 -129.5t-77.5 -116.5q-23 -25 -52 -24q-18 0 -31.5 11t-13.5 28 q0 20 17 36q55 63 67 123h-2q-41 0 -67.5 23.5t-26.5 64.5z" />
<glyph unicode="&#x157;" horiz-adv-x="722" d="M80 -240q0 45 29.5 74t73.5 29q53 0 81.5 -31t28.5 -88q0 -66 -26.5 -129.5t-77.5 -116.5q-23 -25 -52 -24q-18 0 -31.5 11t-13.5 28q0 20 17 36q55 63 67 123h-2q-41 0 -67.5 23.5t-26.5 64.5zM119 72l71 868q2 37 28 57.5t61 20.5t54 -19.5t17 -56.5l-8 -106 q53 84 135 127t197 53l22 2q35 4 54.5 -13.5t19.5 -50.5q0 -74 -80 -80l-55 -6q-150 -14 -224.5 -87.5t-84.5 -211.5l-41 -497q-2 -41 -28 -61.5t-60 -20.5q-35 0 -57.5 20.5t-20.5 61.5z" />
<glyph unicode="&#x158;" horiz-adv-x="1404" d="M145 78l101 1284q2 39 26.5 60.5t61.5 21.5h508q221 0 339.5 -99.5t118.5 -285.5q0 -188 -102 -299t-305 -133q45 -16 80 -52t69 -102l201 -373q10 -20 10 -37q0 -31 -26.5 -53t-59.5 -22q-23 0 -43 12t-32 37l-226 426q-45 84 -100 115.5t-156 31.5h-256l-41 -540 q-2 -37 -26.5 -58.5t-63.5 -21.5t-60.5 23.5t-17.5 64.5zM365 750h421q176 0 263.5 73.5t87.5 225.5q0 131 -77 193.5t-231 62.5h-421zM549 1829q0 25 18.5 42t43.5 17q37 0 61 -39l115 -184l156 195q24 30 57 30q23 0 41 -17.5t18 -39.5q0 -23 -16 -41l-180 -201 q-35 -37 -82 -37q-45 0 -74 37l-141 195q-16 23 -17 43z" />
<glyph unicode="&#x159;" horiz-adv-x="722" d="M119 72l71 868q2 37 28 57.5t61 20.5t54 -19.5t17 -56.5l-8 -106q53 84 135 127t197 53l22 2q35 4 54.5 -13.5t19.5 -50.5q0 -74 -80 -80l-55 -6q-150 -14 -224.5 -87.5t-84.5 -211.5l-41 -497q-2 -41 -28 -61.5t-60 -20.5q-35 0 -57.5 20.5t-20.5 61.5zM260 1487 q0 27 21.5 46t47.5 19q37 0 56 -41l112 -262l154 264q10 19 26.5 29t32.5 10q25 0 44.5 -18t19.5 -43q0 -23 -15 -43l-184 -279q-37 -51 -88 -51t-78 51l-141 283q-8 16 -8 35z" />
<glyph unicode="&#x15a;" horiz-adv-x="1263" d="M66 219q0 29 18 50.5t45 21.5q20 0 43 -15q94 -78 204.5 -114.5t250.5 -36.5q176 0 270 65.5t94 184.5q0 74 -46 121t-115.5 74.5t-190.5 62.5q-152 43 -246 84t-160.5 122t-66.5 212q0 123 65.5 216t187.5 143t283 50q150 0 279 -45t215 -125q29 -27 29 -61 q0 -31 -19.5 -52.5t-48.5 -21.5t-57 23q-76 66 -179.5 103.5t-220.5 37.5q-176 0 -270 -68.5t-94 -191.5q0 -82 49 -133.5t122 -81t202 -68.5q147 -43 237 -82t152.5 -112.5t62.5 -194.5q0 -186 -144.5 -294.5t-393.5 -108.5q-327 -1 -517 157q-41 33 -40 78zM694 1597 q0 16 13 35l157 219q29 41 70 41q29 0 48 -18.5t19 -44.5q0 -31 -28 -60l-191 -190q-27 -23 -47 -23q-16 0 -28.5 12.5t-12.5 28.5z" />
<glyph unicode="&#x15b;" horiz-adv-x="983" d="M63 160q0 29 17.5 48t44.5 19q18 0 39 -12q72 -47 145.5 -71.5t159.5 -24.5q240 0 240 147q0 68 -57.5 100.5t-180.5 69.5q-106 31 -170.5 59.5t-111 83t-46.5 144.5q0 135 109.5 217t290.5 82q94 0 182 -30.5t141 -80.5q31 -23 31 -61q0 -27 -17.5 -47.5t-41.5 -20.5 q-23 0 -47 19q-117 86 -252 86q-113 0 -173.5 -39t-60.5 -117q0 -68 58.5 -100.5t177.5 -67.5q104 -31 169.5 -59.5t111.5 -83.5t46 -146q0 -133 -110.5 -210.5t-298.5 -77.5q-103 0 -198 28.5t-157 73.5q-41 27 -41 72zM530 1163q0 20 11 33l249 317q29 41 70 41 q31 0 55.5 -21.5t24.5 -51.5q0 -31 -29 -60l-295 -282q-21 -21 -41 -21q-18 0 -31.5 13.5t-13.5 31.5z" />
<glyph unicode="&#x15c;" horiz-adv-x="1263" d="M66 219q0 29 18 50.5t45 21.5q20 0 43 -15q94 -78 204.5 -114.5t250.5 -36.5q176 0 270 65.5t94 184.5q0 74 -46 121t-115.5 74.5t-190.5 62.5q-152 43 -246 84t-160.5 122t-66.5 212q0 123 65.5 216t187.5 143t283 50q150 0 279 -45t215 -125q29 -27 29 -61 q0 -31 -19.5 -52.5t-48.5 -21.5t-57 23q-76 66 -179.5 103.5t-220.5 37.5q-176 0 -270 -68.5t-94 -191.5q0 -82 49 -133.5t122 -81t202 -68.5q147 -43 237 -82t152.5 -112.5t62.5 -194.5q0 -186 -144.5 -294.5t-393.5 -108.5q-327 -1 -517 157q-41 33 -40 78zM465 1612 q0 20 18 41l181 200q35 37 81 37q47 0 74 -37l141 -196q14 -20 15 -41q0 -25 -18.5 -42.5t-43.5 -17.5q-35 0 -59 39l-115 183l-155 -193q-29 -31 -58 -31q-25 0 -43 17.5t-18 40.5z" />
<glyph unicode="&#x15d;" horiz-adv-x="983" d="M63 160q0 29 17.5 48t44.5 19q18 0 39 -12q72 -47 145.5 -71.5t159.5 -24.5q240 0 240 147q0 68 -57.5 100.5t-180.5 69.5q-106 31 -170.5 59.5t-111 83t-46.5 144.5q0 135 109.5 217t290.5 82q94 0 182 -30.5t141 -80.5q31 -23 31 -61q0 -27 -17.5 -47.5t-41.5 -20.5 q-23 0 -47 19q-117 86 -252 86q-113 0 -173.5 -39t-60.5 -117q0 -68 58.5 -100.5t177.5 -67.5q104 -31 169.5 -59.5t111.5 -83.5t46 -146q0 -133 -110.5 -210.5t-298.5 -77.5q-103 0 -198 28.5t-157 73.5q-41 27 -41 72zM307 1180q0 23 14 43l187 278q33 51 86 51 q25 0 45 -13t33 -38l143 -282q8 -16 8 -35q0 -27 -21.5 -46.5t-47.5 -19.5q-39 0 -58 41l-112 262l-152 -264q-24 -39 -61 -39q-25 0 -44.5 18.5t-19.5 43.5z" />
<glyph unicode="&#x15e;" horiz-adv-x="1263" d="M66 219q0 29 18 50.5t45 21.5q20 0 43 -15q94 -78 204.5 -114.5t250.5 -36.5q176 0 270 65.5t94 184.5q0 74 -46 121t-115.5 74.5t-190.5 62.5q-152 43 -246 84t-160.5 122t-66.5 212q0 123 65.5 216t187.5 143t283 50q150 0 279 -45t215 -125q29 -27 29 -61 q0 -31 -19.5 -52.5t-48.5 -21.5t-57 23q-76 66 -179.5 103.5t-220.5 37.5q-176 0 -270 -68.5t-94 -191.5q0 -82 49 -133.5t122 -81t202 -68.5q147 -43 237 -82t152.5 -112.5t62.5 -194.5q0 -184 -140 -291.5t-384 -111.5l-14 -70q12 2 43 2q68 0 108.5 -37t40.5 -100 q0 -80 -65.5 -127t-176.5 -47q-74 0 -147 24q-35 14 -35 45q0 23 19.5 39.5t46.5 7.5q61 -18 116 -18q119 0 119 72q0 27 -18.5 41t-50.5 14q-29 0 -56.5 -9t-36.5 -9q-16 0 -27 12t-9 26l28 138q-254 20 -416 153q-41 33 -40 78z" />
<glyph unicode="&#x15f;" horiz-adv-x="983" d="M63 160q0 29 17.5 48t44.5 19q18 0 39 -12q72 -47 145.5 -71.5t159.5 -24.5q240 0 240 147q0 68 -57.5 100.5t-180.5 69.5q-106 31 -170.5 59.5t-111 83t-46.5 144.5q0 135 109.5 217t290.5 82q94 0 182 -30.5t141 -80.5q31 -23 31 -61q0 -27 -17.5 -47.5t-41.5 -20.5 q-23 0 -47 19q-117 86 -252 86q-113 0 -173.5 -39t-60.5 -117q0 -68 58.5 -100.5t177.5 -67.5q104 -31 169.5 -59.5t111.5 -83.5t46 -146q0 -129 -102 -205.5t-279 -82.5l-14 -72q12 2 43 2q68 0 109 -37t41 -100q0 -80 -65.5 -127t-176.5 -47q-74 0 -148 24q-35 14 -34 45 q0 23 19.5 39.5t45.5 7.5q61 -18 117 -18q119 0 119 72q0 27 -18.5 41t-51.5 14q-29 0 -56.5 -9t-35.5 -9q-16 0 -27.5 12t-9.5 26l29 142q-78 8 -148.5 33.5t-120.5 62.5q-41 27 -41 72z" />
<glyph unicode="&#x160;" horiz-adv-x="1263" d="M66 219q0 29 18 50.5t45 21.5q20 0 43 -15q94 -78 204.5 -114.5t250.5 -36.5q176 0 270 65.5t94 184.5q0 74 -46 121t-115.5 74.5t-190.5 62.5q-152 43 -246 84t-160.5 122t-66.5 212q0 123 65.5 216t187.5 143t283 50q150 0 279 -45t215 -125q29 -27 29 -61 q0 -31 -19.5 -52.5t-48.5 -21.5t-57 23q-76 66 -179.5 103.5t-220.5 37.5q-176 0 -270 -68.5t-94 -191.5q0 -82 49 -133.5t122 -81t202 -68.5q147 -43 237 -82t152.5 -112.5t62.5 -194.5q0 -186 -144.5 -294.5t-393.5 -108.5q-327 -1 -517 157q-41 33 -40 78zM483 1829 q0 25 18.5 42t43.5 17q37 0 61 -39l115 -184l156 195q24 30 57 30q23 0 41 -17.5t18 -39.5q0 -23 -16 -41l-180 -201q-35 -37 -82 -37q-45 0 -74 37l-141 195q-16 23 -17 43z" />
<glyph unicode="&#x161;" horiz-adv-x="983" d="M63 160q0 29 17.5 48t44.5 19q18 0 39 -12q72 -47 145.5 -71.5t159.5 -24.5q240 0 240 147q0 68 -57.5 100.5t-180.5 69.5q-106 31 -170.5 59.5t-111 83t-46.5 144.5q0 135 109.5 217t290.5 82q94 0 182 -30.5t141 -80.5q31 -23 31 -61q0 -27 -17.5 -47.5t-41.5 -20.5 q-23 0 -47 19q-117 86 -252 86q-113 0 -173.5 -39t-60.5 -117q0 -68 58.5 -100.5t177.5 -67.5q104 -31 169.5 -59.5t111.5 -83.5t46 -146q0 -133 -110.5 -210.5t-298.5 -77.5q-103 0 -198 28.5t-157 73.5q-41 27 -41 72zM332 1487q0 27 21.5 46t47.5 19q37 0 56 -41 l112 -262l154 264q10 19 26.5 29t32.5 10q25 0 44.5 -18t19.5 -43q0 -23 -15 -43l-184 -279q-37 -51 -88 -51t-78 51l-141 283q-8 16 -8 35z" />
<glyph unicode="&#x162;" horiz-adv-x="1224" d="M80 1370q0 35 20.5 54.5t59.5 19.5h1050q37 0 55.5 -18.5t18.5 -51.5q0 -74 -80 -74h-444l-96 -1230q-2 -25 -15.5 -44.5t-36.5 -29.5l-16 -82q12 2 43 2q68 0 108.5 -37t40.5 -100q0 -80 -65.5 -127t-175.5 -47q-74 0 -148 24q-35 14 -34 45q0 23 19 39.5t46 7.5 q61 -18 117 -18q119 0 119 72q0 27 -18.5 41t-51.5 14q-29 0 -56.5 -9t-35.5 -9q-16 0 -27.5 12t-9.5 26l37 181q-10 23 -8 45l96 1224h-438q-35 0 -54.5 19.5t-19.5 50.5z" />
<glyph unicode="&#x163;" horiz-adv-x="696" d="M35 930q0 33 19.5 50t54.5 17h139l18 234q4 35 27.5 56.5t60.5 21.5q39 0 60.5 -22.5t17.5 -59.5l-18 -230h225q31 0 49.5 -17t18.5 -46q0 -33 -18.5 -50.5t-53.5 -17.5h-232l-38 -506q-2 -14 -3 -41q0 -98 45.5 -149t127.5 -51q27 0 51 3t37 3q20 0 33.5 -16.5 t13.5 -45.5q0 -43 -36 -60t-126 -17q-20 0 -62 4l-14 -76q12 2 43 2q68 0 109 -37t41 -100q0 -80 -65.5 -127t-176.5 -47q-74 0 -147 24q-35 14 -35 45q0 23 19.5 39.5t45.5 7.5q61 -18 117 -18q119 0 119 72q0 27 -18.5 41t-51.5 14q-29 0 -56.5 -9t-35.5 -9 q-16 0 -27.5 12t-9.5 26l35 175q-68 37 -104.5 109.5t-36.5 172.5q0 29 2 45l39 514h-136q-33 0 -50 17.5t-17 46.5z" />
<glyph unicode="&#x164;" horiz-adv-x="1224" d="M80 1370q0 35 20.5 54.5t59.5 19.5h1050q37 0 55.5 -18.5t18.5 -51.5q0 -74 -80 -74h-444l-96 -1230q-4 -35 -28 -57.5t-61 -22.5q-36 0 -58.5 23.5t-20.5 62.5l96 1224h-438q-35 0 -54.5 19.5t-19.5 50.5zM463 1829q0 25 18.5 42t43.5 17q37 0 61 -39l115 -184l156 195 q24 30 57 30q23 0 41 -17.5t18 -39.5q0 -23 -16 -41l-180 -201q-35 -37 -82 -37q-45 0 -74 37l-141 195q-16 23 -17 43z" />
<glyph unicode="&#x165;" horiz-adv-x="696" d="M35 930q0 33 19.5 50t54.5 17h139l18 234q4 35 27.5 56.5t60.5 21.5q39 0 60.5 -22.5t17.5 -59.5l-18 -230h225q31 0 49.5 -17t18.5 -46q0 -33 -18.5 -50.5t-53.5 -17.5h-232l-38 -506q-2 -14 -3 -41q0 -98 45.5 -149t127.5 -51q27 0 51 3t37 3q20 0 33.5 -16.5 t13.5 -45.5q0 -43 -36 -60t-126 -17q-147 0 -229 84t-82 237q0 29 2 45l39 514h-136q-33 0 -50 17.5t-17 46.5zM532 1120l25 273q2 31 23.5 47t50.5 16q27 0 46 -15.5t19 -41.5q0 -12 -2 -19l-67 -266q-4 -16 -17.5 -25.5t-29.5 -9.5q-20 0 -35 11.5t-13 29.5z" />
<glyph unicode="&#x166;" horiz-adv-x="1224" d="M80 1370q0 35 20.5 54.5t59.5 19.5h1050q37 0 55.5 -18.5t18.5 -51.5q0 -74 -80 -74h-444l-39 -499h229q33 0 52.5 -18.5t19.5 -49.5q0 -33 -20.5 -51t-55.5 -18h-235l-47 -594q-4 -35 -28 -57.5t-61 -22.5t-59 23.5t-20 62.5l47 588h-234q-33 0 -52 18t-19 49 q0 33 21.5 51.5t55.5 18.5h238l39 499h-438q-35 0 -54.5 19.5t-19.5 50.5z" />
<glyph unicode="&#x167;" horiz-adv-x="716" d="M45 930q0 31 18.5 49t55.5 18h139l18 234q2 35 28 56.5t61 21.5q37 0 58 -22.5t19 -59.5l-18 -230h225q31 0 49.5 -17t18.5 -46q0 -68 -72 -68h-231l-17 -229h185q31 0 49 -16.5t18 -42.5q0 -31 -19.5 -48.5t-51.5 -17.5h-191l-12 -152q-2 -14 -2 -41q0 -98 48 -149 t140 -51q16 0 70 4h6q16 0 27.5 -13.5t11.5 -31.5q0 -35 -37 -51q-8 -23 -32.5 -32t-74.5 -9q-156 0 -240.5 84t-84.5 237q0 29 2 45l12 160h-98q-31 0 -49.5 16.5t-18.5 44.5q0 29 19.5 46.5t54.5 17.5h102l17 229h-135q-33 0 -50.5 17.5t-17.5 46.5z" />
<glyph unicode="&#x168;" horiz-adv-x="1482" d="M170 494q0 49 2 75l66 805q2 35 26.5 57.5t59.5 22.5q37 0 59.5 -23.5t19.5 -62.5l-63 -797q-2 -23 -2 -65q0 -190 94 -284.5t287 -94.5q201 0 308.5 102.5t123.5 317.5l66 827q4 35 27.5 57.5t58.5 22.5q37 0 60 -23.5t21 -62.5l-65 -805q-23 -291 -175.5 -435 t-428.5 -144q-271 0 -408 131t-137 379zM512 1669q0 37 25 76t69 64.5t99 25.5q35 0 69.5 -12.5t88.5 -38.5q82 -43 120 -43q35 0 55.5 14t43.5 41q23 33 45 33q20 0 30.5 -13.5t10.5 -35.5q0 -37 -24.5 -76t-68.5 -64.5t-100 -25.5q-35 0 -69.5 12t-87.5 39q-82 43 -121 43 q-35 0 -55.5 -14.5t-43.5 -40.5q-12 -16 -22 -24.5t-25 -8.5q-18 0 -28.5 13.5t-10.5 35.5z" />
<glyph unicode="&#x169;" horiz-adv-x="1148" d="M137 328q0 37 2 55l43 553q4 39 30 60.5t60 21.5q37 0 58.5 -21.5t17.5 -60.5l-43 -543q-2 -14 -2 -43q0 -225 215 -225q133 0 213 82t90 227l41 502q4 39 30 60.5t60 21.5q37 0 58.5 -21.5t17.5 -60.5l-70 -870q-2 -35 -27.5 -55.5t-60.5 -20.5t-55 19.5t-18 53.5l8 99 q-51 -84 -137 -130t-193 -46q-166 0 -252 87t-86 255zM312 1274q0 37 26.5 83t71.5 77.5t96 31.5q39 0 74 -18t86 -53q39 -29 65.5 -42.5t51.5 -13.5q35 0 55 18.5t41 51.5q16 23 26.5 34t24.5 11q39 0 39 -51q0 -37 -26.5 -83t-71.5 -78t-96 -32q-39 0 -74 18.5t-86 53.5 q-39 29 -65.5 42t-49.5 13q-33 0 -52.5 -17t-45.5 -52q-27 -45 -49 -45q-18 0 -29.5 14t-11.5 37z" />
<glyph unicode="&#x16a;" horiz-adv-x="1482" d="M170 494q0 49 2 75l66 805q2 35 26.5 57.5t59.5 22.5q37 0 59.5 -23.5t19.5 -62.5l-63 -797q-2 -23 -2 -65q0 -190 94 -284.5t287 -94.5q201 0 308.5 102.5t123.5 317.5l66 827q4 35 27.5 57.5t58.5 22.5q37 0 60 -23.5t21 -62.5l-65 -805q-23 -291 -175.5 -435 t-428.5 -144q-271 0 -408 131t-137 379zM519 1722q0 31 21.5 47.5t55.5 16.5h498q33 0 50.5 -16.5t17.5 -45.5q0 -31 -21.5 -47t-56.5 -16h-498q-33 0 -50 16.5t-17 44.5z" />
<glyph unicode="&#x16b;" horiz-adv-x="1148" d="M137 328q0 37 2 55l43 553q4 39 30 60.5t60 21.5q37 0 58.5 -21.5t17.5 -60.5l-43 -543q-2 -14 -2 -43q0 -225 215 -225q133 0 213 82t90 227l41 502q4 39 30 60.5t60 21.5q37 0 58.5 -21.5t17.5 -60.5l-70 -870q-2 -35 -27.5 -55.5t-60.5 -20.5t-55 19.5t-18 53.5l8 99 q-51 -84 -137 -130t-193 -46q-166 0 -252 87t-86 255zM320 1335q0 31 21.5 47.5t56.5 16.5h497q33 0 50.5 -16.5t17.5 -45.5q0 -31 -21.5 -47t-56.5 -16h-498q-32 0 -49.5 16.5t-17.5 44.5z" />
<glyph unicode="&#x16c;" horiz-adv-x="1482" d="M170 494q0 49 2 75l66 805q2 35 26.5 57.5t59.5 22.5q37 0 59.5 -23.5t19.5 -62.5l-63 -797q-2 -23 -2 -65q0 -190 94 -284.5t287 -94.5q201 0 308.5 102.5t123.5 317.5l66 827q4 35 27.5 57.5t58.5 22.5q37 0 60 -23.5t21 -62.5l-65 -805q-23 -291 -175.5 -435 t-428.5 -144q-271 0 -408 131t-137 379zM523 1798q0 25 16 40t41 15q33 0 57 -32q63 -111 201 -111q135 0 213 111q29 35 64 34q23 0 38 -14t15 -35q0 -18 -13 -41q-51 -86 -135 -130t-188 -44q-105 0 -182.5 44t-118.5 130q-8 16 -8 33z" />
<glyph unicode="&#x16d;" horiz-adv-x="1148" d="M137 328q0 37 2 55l43 553q4 39 30 60.5t60 21.5q37 0 58.5 -21.5t17.5 -60.5l-43 -543q-2 -14 -2 -43q0 -225 215 -225q133 0 213 82t90 227l41 502q4 39 30 60.5t60 21.5q37 0 58.5 -21.5t17.5 -60.5l-70 -870q-2 -35 -27.5 -55.5t-60.5 -20.5t-55 19.5t-18 53.5l8 99 q-51 -84 -137 -130t-193 -46q-166 0 -252 87t-86 255zM322 1427q0 27 17.5 44.5t41.5 17.5q39 0 60 -41q29 -66 80 -100.5t120 -34.5q137 0 215 135q23 41 62 41q23 0 38 -14.5t15 -38.5q0 -20 -8 -37q-47 -100 -135 -154.5t-197 -54.5q-106 0 -185 54t-118 155q-6 16 -6 28 z" />
<glyph unicode="&#x16e;" horiz-adv-x="1482" d="M170 494q0 49 2 75l66 805q2 35 26.5 57.5t59.5 22.5q37 0 59.5 -23.5t19.5 -62.5l-63 -797q-2 -23 -2 -65q0 -190 94 -284.5t287 -94.5q201 0 308.5 102.5t123.5 317.5l66 827q4 35 27.5 57.5t58.5 22.5q37 0 60 -23.5t21 -62.5l-65 -805q-23 -291 -175.5 -435 t-428.5 -144q-271 0 -408 131t-137 379zM633 1759q0 86 60.5 144.5t146.5 58.5t146.5 -58.5t60.5 -144.5t-60.5 -144.5t-146.5 -58.5t-146.5 58.5t-60.5 144.5zM742 1759q0 -43 27.5 -72.5t70.5 -29.5t70.5 29.5t27.5 72.5t-27.5 73t-70.5 30t-70.5 -30t-27.5 -73z" />
<glyph unicode="&#x16f;" horiz-adv-x="1148" d="M137 328q0 37 2 55l43 553q4 39 30 60.5t60 21.5q37 0 58.5 -21.5t17.5 -60.5l-43 -543q-2 -14 -2 -43q0 -225 215 -225q133 0 213 82t90 227l41 502q4 39 30 60.5t60 21.5q37 0 58.5 -21.5t17.5 -60.5l-70 -870q-2 -35 -27.5 -55.5t-60.5 -20.5t-55 19.5t-18 53.5l8 99 q-51 -84 -137 -130t-193 -46q-166 0 -252 87t-86 255zM432 1335q0 86 60.5 144.5t146.5 58.5t146.5 -58.5t60.5 -144.5t-60.5 -144t-146.5 -58t-146.5 58t-60.5 144zM541 1335q0 -43 27.5 -72.5t70.5 -29.5t71 29.5t28 72.5t-28 73t-71 30t-70.5 -30t-27.5 -73z" />
<glyph unicode="&#x170;" horiz-adv-x="1482" d="M170 494q0 49 2 75l66 805q2 35 26.5 57.5t59.5 22.5q37 0 59.5 -23.5t19.5 -62.5l-63 -797q-2 -23 -2 -65q0 -190 94 -284.5t287 -94.5q201 0 308.5 102.5t123.5 317.5l66 827q4 35 27.5 57.5t58.5 22.5q37 0 60 -23.5t21 -62.5l-65 -805q-23 -291 -175.5 -435 t-428.5 -144q-271 0 -408 131t-137 379zM682 1591q0 12 5 21l116 229q25 47 66 47q25 0 42 -16.5t17 -40.5q0 -23 -18 -47l-160 -207q-14 -21 -37 -21q-12 0 -21.5 10.5t-9.5 24.5zM928 1591q0 12 4 21l117 229q25 47 66 47q25 0 42 -16.5t17 -40.5q0 -23 -19 -47l-157 -207 q-19 -21 -37 -21q-14 0 -23.5 10.5t-9.5 24.5z" />
<glyph unicode="&#x171;" horiz-adv-x="1148" d="M137 328q0 37 2 55l43 553q4 39 30 60.5t60 21.5q37 0 58.5 -21.5t17.5 -60.5l-43 -543q-2 -14 -2 -43q0 -225 215 -225q133 0 213 82t90 227l41 502q4 39 30 60.5t60 21.5q37 0 58.5 -21.5t17.5 -60.5l-70 -870q-2 -35 -27.5 -55.5t-60.5 -20.5t-55 19.5t-18 53.5l8 99 q-51 -84 -137 -130t-193 -46q-166 0 -252 87t-86 255zM471 1169l95 320q8 33 29.5 50t45.5 17q27 0 45.5 -17t18.5 -46q0 -23 -14 -49l-148 -301q-6 -13 -16.5 -20t-20.5 -7q-18 0 -29.5 15.5t-5.5 37.5zM719 1169l94 320q8 33 30 50t46 17q27 0 45.5 -17t18.5 -46 q0 -23 -15 -49l-147 -301q-6 -13 -16.5 -20t-20.5 -7q-18 0 -29.5 15.5t-5.5 37.5z" />
<glyph unicode="&#x172;" horiz-adv-x="1482" d="M170 494q0 49 2 75l66 805q2 35 26.5 57.5t59.5 22.5q37 0 59.5 -23.5t19.5 -62.5l-63 -797q-2 -23 -2 -65q0 -190 94 -284.5t287 -94.5q201 0 308.5 102.5t123.5 317.5l66 827q4 35 27.5 57.5t58.5 22.5q36 0 59.5 -23.5t21.5 -62.5l-65 -805q-37 -457 -393 -555 q-88 -25 -132 -66.5t-44 -107.5q0 -59 31.5 -90t90.5 -31q41 0 97 25q16 6 26 6q16 0 25.5 -11.5t9.5 -29.5q0 -39 -35 -59q-72 -39 -147 -39q-104 0 -167 56t-63 146q0 113 87 177q-264 2 -399.5 132t-135.5 378z" />
<glyph unicode="&#x173;" horiz-adv-x="1148" d="M137 328q0 37 2 55l43 553q4 39 30 60.5t60 21.5q37 0 58.5 -21.5t17.5 -60.5l-43 -543q-2 -14 -2 -43q0 -225 215 -225q133 0 213 82t90 227l41 502q4 39 30 60.5t60 21.5q37 0 58.5 -21.5t17.5 -60.5l-67 -868q-2 -55 -54 -66q-70 -16 -114.5 -57t-44.5 -111 q0 -59 32.5 -90t89.5 -31q41 0 97 25q16 6 26 6q16 0 25.5 -11.5t9.5 -29.5q0 -39 -35 -59q-70 -39 -147 -39q-104 0 -167 56t-63 146q0 82 47.5 145.5t133.5 96.5v14l8 99q-51 -84 -137 -130t-193 -46q-166 0 -252 87t-86 255z" />
<glyph unicode="&#x174;" horiz-adv-x="2254" d="M162 1374q0 37 25.5 58.5t60.5 21.5q27 0 47 -14.5t29 -42.5l303 -1157l491 1153q14 31 37 46t47 15q27 0 48.5 -16.5t29.5 -44.5l305 -1157l494 1169q10 25 30.5 38t44.5 13q29 0 50.5 -18.5t21.5 -48.5q0 -23 -8 -41l-557 -1301q-12 -29 -37 -44t-53 -15 q-29 0 -52.5 17.5t-31.5 47.5l-305 1127l-488 -1133q-12 -29 -36.5 -44t-51.5 -15q-31 0 -54.5 17.5t-31.5 47.5l-354 1297zM959 1612q0 20 18 41l181 200q35 37 81 37q47 0 74 -37l141 -196q14 -20 15 -41q0 -25 -18.5 -42.5t-43.5 -17.5q-35 0 -59 39l-115 183l-155 -193 q-29 -31 -58 -31q-25 0 -43 17.5t-18 40.5z" />
<glyph unicode="&#x175;" horiz-adv-x="1724" d="M111 932q0 35 25.5 56.5t58.5 21.5q55 0 73 -56l211 -757l328 745q14 33 40.5 50.5t53.5 17.5q29 0 53.5 -18.5t32.5 -49.5l209 -743l332 762q25 47 74 47q33 0 56 -20.5t23 -51.5q0 -18 -8 -35l-387 -848q-14 -29 -40.5 -45t-59.5 -16q-35 0 -61.5 17.5t-37.5 51.5 l-206 709l-318 -717q-12 -29 -38.5 -45t-59.5 -16q-35 0 -62.5 18.5t-37.5 50.5l-250 844q-4 20 -4 27zM659 1180q0 23 14 43l187 278q33 51 86 51q25 0 45 -13t33 -38l143 -282q8 -16 8 -35q0 -27 -21.5 -46.5t-47.5 -19.5q-39 0 -58 41l-112 262l-152 -264 q-24 -39 -61 -39q-25 0 -44.5 18.5t-19.5 43.5z" />
<glyph unicode="&#x176;" horiz-adv-x="1230" d="M90 1378q0 31 25.5 53.5t58.5 22.5q39 0 62 -35l401 -596l491 592q31 39 74 39q29 0 50.5 -20.5t21.5 -47.5q0 -33 -23 -57l-538 -647l-47 -612q-2 -37 -27 -58.5t-59 -21.5q-37 0 -60.5 23.5t-21.5 62.5l47 606l-439 647q-16 23 -16 49zM447 1612q0 20 18 41l181 200 q35 37 81 37q47 0 74 -37l141 -196q14 -20 15 -41q0 -25 -18.5 -42.5t-43.5 -17.5q-35 0 -59 39l-115 183l-155 -193q-29 -31 -58 -31q-25 0 -43 17.5t-18 40.5z" />
<glyph unicode="&#x177;" horiz-adv-x="1052" d="M72 930q0 33 26.5 54.5t59.5 21.5q23 0 42 -12.5t27 -37.5l275 -776l399 783q23 45 70 45q31 0 54.5 -20.5t23.5 -51.5q0 -16 -11 -37l-647 -1231q-27 -49 -76 -49q-29 0 -50 18.5t-21 47.5q0 12 10 36l152 289l-328 893q-6 16 -6 27zM326 1180q0 23 14 43l187 278 q33 51 86 51q25 0 45 -13t33 -38l143 -282q8 -16 8 -35q0 -27 -21.5 -46.5t-47.5 -19.5q-39 0 -58 41l-112 262l-152 -264q-24 -39 -61 -39q-25 0 -44.5 18.5t-19.5 43.5z" />
<glyph unicode="&#x178;" horiz-adv-x="1230" d="M90 1378q0 31 25.5 53.5t58.5 22.5q39 0 62 -35l401 -596l491 592q31 39 74 39q29 0 50.5 -20.5t21.5 -47.5q0 -33 -23 -57l-538 -647l-47 -612q-2 -37 -27 -58.5t-59 -21.5q-37 0 -60.5 23.5t-21.5 62.5l47 606l-439 647q-16 23 -16 49zM437 1724q0 43 28.5 71t71.5 28 t72.5 -28t29.5 -71q0 -45 -28.5 -71.5t-73.5 -26.5q-43 0 -71.5 27.5t-28.5 70.5zM787 1724q0 43 29.5 71t72.5 28t72 -28t29 -71t-29 -70.5t-72 -27.5t-72.5 27.5t-29.5 70.5z" />
<glyph unicode="&#x179;" horiz-adv-x="1208" d="M45 68q0 33 25 63l905 1172h-754q-35 0 -54.5 18t-19.5 49q0 74 80 74h897q31 0 49.5 -19.5t18.5 -48.5q0 -35 -23 -63l-905 -1172h776q37 0 56.5 -18.5t19.5 -48.5q0 -35 -20.5 -54.5t-59.5 -19.5h-919q-33 0 -52.5 19.5t-19.5 48.5zM665 1597q0 16 13 35l157 219 q29 41 70 41q29 0 48 -18.5t19 -44.5q0 -31 -28 -60l-191 -190q-27 -23 -47 -23q-16 0 -28.5 12.5t-12.5 28.5z" />
<glyph unicode="&#x17a;" horiz-adv-x="1030" d="M51 63q0 33 27 60l665 743h-538q-33 0 -50.5 16.5t-17.5 47.5t18.5 49t55.5 18h692q31 0 48.5 -19.5t17.5 -47.5q0 -37 -27 -64l-659 -735h573q33 0 51.5 -17.5t18.5 -45.5q0 -31 -19.5 -49.5t-56.5 -18.5h-733q-31 0 -48.5 18.5t-17.5 44.5zM544 1163q0 20 11 33 l249 317q29 41 70 41q31 0 55.5 -21.5t24.5 -51.5q0 -31 -29 -60l-295 -282q-21 -21 -41 -21q-18 0 -31.5 13.5t-13.5 31.5z" />
<glyph unicode="&#x17b;" horiz-adv-x="1208" d="M45 68q0 33 25 63l905 1172h-754q-35 0 -54.5 18t-19.5 49q0 74 80 74h897q31 0 49.5 -19.5t18.5 -48.5q0 -35 -23 -63l-905 -1172h776q37 0 56.5 -18.5t19.5 -48.5q0 -35 -20.5 -54.5t-59.5 -19.5h-919q-33 0 -52.5 19.5t-19.5 48.5zM592 1724q0 47 30.5 75t79.5 28 t80 -27.5t31 -75.5q0 -47 -31 -75.5t-80 -28.5t-79.5 28.5t-30.5 75.5z" />
<glyph unicode="&#x17c;" horiz-adv-x="1030" d="M51 63q0 33 27 60l665 743h-538q-33 0 -50.5 16.5t-17.5 47.5t18.5 49t55.5 18h692q31 0 48.5 -19.5t17.5 -47.5q0 -37 -27 -64l-659 -735h573q33 0 51.5 -17.5t18.5 -45.5q0 -31 -19.5 -49.5t-56.5 -18.5h-733q-31 0 -48.5 18.5t-17.5 44.5zM481 1337q0 45 30.5 74 t79.5 29t80 -29t31 -74q0 -47 -30.5 -75.5t-80.5 -28.5q-49 0 -79.5 28.5t-30.5 75.5z" />
<glyph unicode="&#x17d;" horiz-adv-x="1208" d="M45 68q0 33 25 63l905 1172h-754q-35 0 -54.5 18t-19.5 49q0 74 80 74h897q31 0 49.5 -19.5t18.5 -48.5q0 -35 -23 -63l-905 -1172h776q37 0 56.5 -18.5t19.5 -48.5q0 -35 -20.5 -54.5t-59.5 -19.5h-919q-33 0 -52.5 19.5t-19.5 48.5zM454 1829q0 25 18.5 42t43.5 17 q37 0 61 -39l115 -184l156 195q24 30 57 30q23 0 41 -17.5t18 -39.5q0 -23 -16 -41l-180 -201q-35 -37 -82 -37q-45 0 -74 37l-141 195q-16 23 -17 43z" />
<glyph unicode="&#x17e;" horiz-adv-x="1030" d="M51 63q0 33 27 60l665 743h-538q-33 0 -50.5 16.5t-17.5 47.5t18.5 49t55.5 18h692q31 0 48.5 -19.5t17.5 -47.5q0 -37 -27 -64l-659 -735h573q33 0 51.5 -17.5t18.5 -45.5q0 -31 -19.5 -49.5t-56.5 -18.5h-733q-31 0 -48.5 18.5t-17.5 44.5zM346 1487q0 27 21.5 46 t47.5 19q37 0 56 -41l112 -262l154 264q10 19 26.5 29t32.5 10q25 0 44.5 -18t19.5 -43q0 -23 -15 -43l-184 -279q-37 -51 -88 -51t-78 51l-141 283q-8 16 -8 35z" />
<glyph unicode="&#x192;" d="M4 -317q0 29 22.5 51t59.5 22h43q90 0 148.5 49.5t89.5 157.5l268 918h-203q-27 0 -41 16t-14 43t18.5 43t44.5 16h230l35 119q47 168 152.5 251t256.5 83h41q37 0 56.5 -17.5t19.5 -43.5q0 -29 -22.5 -51.5t-59.5 -22.5h-43q-90 0 -148.5 -49t-89.5 -158l-32 -111h208 q27 0 41.5 -16t14.5 -43t-18.5 -43t-45.5 -16h-235l-271 -926q-47 -168 -153.5 -251t-257.5 -83h-39q-37 0 -56.5 18.5t-19.5 43.5z" />
<glyph unicode="&#x2c6;" horiz-adv-x="614" d="M104 1180q0 23 14 43l187 278q33 51 86 51q25 0 45 -13t33 -38l143 -282q8 -16 8 -35q0 -27 -21.5 -46.5t-47.5 -19.5q-39 0 -58 41l-112 262l-152 -264q-24 -39 -61 -39q-25 0 -44.5 18.5t-19.5 43.5z" />
<glyph unicode="&#x2da;" horiz-adv-x="614" d="M165 1335q0 86 60.5 144.5t146.5 58.5t146.5 -58.5t60.5 -144.5t-60.5 -144t-146.5 -58t-146.5 58t-60.5 144zM274 1335q0 -43 27.5 -72.5t70.5 -29.5t71 29.5t28 72.5t-28 73t-71 30t-70.5 -30t-27.5 -73z" />
<glyph unicode="&#x2dc;" horiz-adv-x="614" d="M45 1274q0 37 26.5 83t71.5 77.5t96 31.5q39 0 74 -18t86 -53q39 -29 65.5 -42.5t51.5 -13.5q35 0 55 18.5t41 51.5q16 23 26.5 34t24.5 11q39 0 39 -51q0 -37 -26.5 -83t-71.5 -78t-96 -32q-39 0 -74 18.5t-86 53.5q-39 29 -65.5 42t-49.5 13q-33 0 -52.5 -17t-45.5 -52 q-27 -45 -49 -45q-18 0 -29.5 14t-11.5 37z" />
<glyph unicode="&#x3a9;" horiz-adv-x="1595" d="M80 70q0 35 20.5 53t59.5 18h313q-133 207 -201.5 337t-97.5 224.5t-29 190.5q0 170 84 299t245 199.5t384 70.5q201 0 349.5 -61.5t228.5 -178t80 -276.5q0 -109 -42 -214t-136.5 -239.5t-272.5 -351.5h309q35 0 54.5 -18.5t19.5 -48.5q0 -35 -20.5 -54.5t-59.5 -19.5 h-397q-39 0 -61.5 21.5t-22.5 54.5q0 37 26 71q172 229 263.5 373t128 240t36.5 180q0 180 -129 278.5t-356 98.5q-262 0 -400.5 -112.5t-138.5 -307.5q0 -129 69 -292t241 -453q18 -33 18 -64q0 -39 -26.5 -63.5t-67.5 -24.5h-395q-37 0 -56.5 19.5t-19.5 50.5z" />
<glyph unicode="&#x3c0;" horiz-adv-x="1187" d="M29 930q0 31 19.5 49t53.5 18h981q33 0 51.5 -17t18.5 -46q0 -31 -18.5 -49.5t-55.5 -18.5h-188l-39 -508l-2 -36q0 -94 49 -142.5t156 -56.5q31 -2 48 -20.5t17 -41.5q0 -29 -24.5 -50t-69.5 -19q-174 10 -258 90t-84 242q0 33 2 51l39 491h-315q-49 -485 -189 -823 q-10 -27 -31.5 -40t-46.5 -13q-33 0 -59.5 21.5t-26.5 54.5q0 14 6 28q139 360 181 772h-146q-33 0 -51 17.5t-18 46.5z" />
<glyph unicode="&#x2000;" horiz-adv-x="981" />
<glyph unicode="&#x2001;" horiz-adv-x="1962" />
<glyph unicode="&#x2002;" horiz-adv-x="981" />
<glyph unicode="&#x2003;" horiz-adv-x="1962" />
<glyph unicode="&#x2004;" horiz-adv-x="654" />
<glyph unicode="&#x2005;" horiz-adv-x="490" />
<glyph unicode="&#x2006;" horiz-adv-x="327" />
<glyph unicode="&#x2007;" horiz-adv-x="327" />
<glyph unicode="&#x2008;" horiz-adv-x="245" />
<glyph unicode="&#x2009;" horiz-adv-x="392" />
<glyph unicode="&#x200a;" horiz-adv-x="109" />
<glyph unicode="&#x2010;" horiz-adv-x="870" d="M137 543q0 33 20.5 52t59.5 19h451q35 0 54 -19.5t19 -47.5q0 -33 -21.5 -51.5t-60.5 -18.5h-448q-37 0 -55.5 17.5t-18.5 48.5z" />
<glyph unicode="&#x2011;" horiz-adv-x="870" d="M137 543q0 33 20.5 52t59.5 19h451q35 0 54 -19.5t19 -47.5q0 -33 -21.5 -51.5t-60.5 -18.5h-448q-37 0 -55.5 17.5t-18.5 48.5z" />
<glyph unicode="&#x2012;" horiz-adv-x="870" d="M137 543q0 33 20.5 52t59.5 19h451q35 0 54 -19.5t19 -47.5q0 -33 -21.5 -51.5t-60.5 -18.5h-448q-37 0 -55.5 17.5t-18.5 48.5z" />
<glyph unicode="&#x2013;" horiz-adv-x="1024" d="M4 545q0 23 19.5 38t50.5 15h893q29 0 45 -15.5t16 -37.5q0 -23 -18.5 -38t-48.5 -15h-893q-29 0 -46.5 15t-17.5 38z" />
<glyph unicode="&#x2014;" horiz-adv-x="2048" d="M4 545q0 23 19.5 38t50.5 15h1917q29 0 45 -15.5t16 -37.5q0 -23 -18.5 -38t-48.5 -15h-1917q-29 0 -46.5 15t-17.5 38z" />
<glyph unicode="&#x2018;" horiz-adv-x="468" d="M174 1139q0 84 34 159.5t91 133.5q23 23 49 22q23 0 37 -13.5t14 -33.5q0 -23 -20 -43q-59 -59 -76 -139q41 -4 67.5 -34t26.5 -75q0 -53 -31.5 -84t-78.5 -31q-51 0 -82 35t-31 103z" />
<glyph unicode="&#x2019;" horiz-adv-x="468" d="M186 1049q0 23 21 43q55 55 76 137q-41 4 -68 34.5t-27 73.5q0 53 32 85t79 32q51 0 82 -36t31 -103q0 -82 -34 -158t-91 -135q-23 -20 -47 -21q-23 0 -38.5 13.5t-15.5 34.5z" />
<glyph unicode="&#x201a;" horiz-adv-x="468" d="M88 -186q0 23 21 43q59 59 75 139q-43 4 -68.5 33.5t-25.5 74.5q0 53 32 85t79 32q51 0 81.5 -35.5t30.5 -103.5q0 -84 -33.5 -160t-93.5 -133q-23 -23 -47 -22q-23 0 -37 13t-14 34z" />
<glyph unicode="&#x201c;" horiz-adv-x="808" d="M174 1139q0 84 34 159.5t91 133.5q23 23 49 22q23 0 37 -13.5t14 -33.5q0 -23 -20 -43q-59 -59 -76 -139q41 -4 67.5 -34t26.5 -75q0 -53 -31.5 -84t-78.5 -31q-51 0 -82 35t-31 103zM514 1139q0 84 34 159.5t91 133.5q23 23 49 22q23 0 37 -13.5t14 -33.5q0 -23 -20 -43 q-59 -59 -76 -139q41 -4 67.5 -34t26.5 -75q0 -53 -31.5 -84t-78.5 -31q-51 0 -82 35t-31 103z" />
<glyph unicode="&#x201d;" horiz-adv-x="808" d="M186 1049q0 23 21 43q55 55 76 137q-41 4 -68 34.5t-27 73.5q0 53 32 85t79 32q51 0 82 -36t31 -103q0 -82 -34 -158t-91 -135q-23 -20 -47 -21q-23 0 -38.5 13.5t-15.5 34.5zM526 1049q0 23 21 43q55 55 76 137q-41 4 -68 34.5t-27 73.5q0 53 32 85t79 32q51 0 82 -36 t31 -103q0 -82 -34 -158t-91 -135q-23 -20 -47 -21q-23 0 -38.5 13.5t-15.5 34.5z" />
<glyph unicode="&#x201e;" horiz-adv-x="808" d="M88 -186q0 23 21 43q59 59 75 139q-43 4 -68.5 33.5t-25.5 74.5q0 53 32 85t79 32q51 0 81.5 -35.5t30.5 -103.5q0 -84 -33.5 -160t-93.5 -133q-23 -23 -47 -22q-23 0 -37 13t-14 34zM428 -186q0 23 21 43q59 59 75 139q-43 4 -68.5 33.5t-25.5 74.5q0 53 32 85t79 32 q51 0 81.5 -35.5t30.5 -103.5q0 -84 -33.5 -160t-93.5 -133q-23 -23 -47 -22q-23 0 -37 13t-14 34z" />
<glyph unicode="&#x2026;" horiz-adv-x="1406" d="M90 104q0 51 33 84t82 33q47 0 78.5 -32.5t31.5 -84.5q0 -51 -31.5 -82.5t-78.5 -31.5q-49 0 -82 31.5t-33 82.5zM559 104q0 51 33 84t82 33q47 0 78.5 -32.5t31.5 -84.5q0 -49 -31.5 -81.5t-78.5 -32.5q-49 0 -82 31.5t-33 82.5zM1028 104q0 51 33 84t80 33t79.5 -32.5 t32.5 -84.5q0 -49 -31.5 -81.5t-80.5 -32.5q-47 0 -80 32.5t-33 81.5z" />
<glyph unicode="&#x202f;" horiz-adv-x="392" />
<glyph unicode="&#x2030;" horiz-adv-x="2717" d="M154 971q0 231 96 361t264 130q164 0 252 -100t88 -293q0 -231 -96 -360t-266 -129q-164 0 -251 101t-87 290zM303 954q0 -133 46 -194.5t145 -61.5q102 0 155 99.5t53 289.5q0 131 -46 193.5t-142 62.5q-104 0 -157.5 -99t-53.5 -290zM449 27q0 23 14 45l901 1368 q27 41 68 41q25 0 44 -18.5t19 -43.5q0 -20 -16 -47l-901 -1368q-27 -41 -66 -41q-27 0 -45 18.5t-18 45.5zM1087 377q0 231 96.5 361t266.5 130q164 0 251 -100t87 -293q0 -231 -95.5 -360t-265.5 -129q-163 0 -251.5 101t-88.5 290zM1239 360q0 -131 46 -193.5t142 -62.5 q105 0 158 99.5t53 290.5q0 131 -46 193.5t-142 62.5q-104 0 -157.5 -99.5t-53.5 -290.5zM1901 377q0 231 95 361t265 130q164 0 251 -100t87 -293q0 -231 -95.5 -360t-265.5 -129q-163 0 -250 101t-87 290zM2050 360q0 -133 46 -194.5t145 -61.5q102 0 155 99.5t53 290.5 q0 131 -46 193.5t-142 62.5q-104 0 -157.5 -99.5t-53.5 -290.5z" />
<glyph unicode="&#x2039;" horiz-adv-x="532" d="M119 541q0 27 18 53l187 276q25 39 71 39q25 0 43.5 -14t18.5 -39q0 -14 -13 -37l-161 -274l112 -277q6 -14 6 -30q0 -27 -19.5 -44.5t-45.5 -17.5q-43 0 -64 41l-141 277q-12 25 -12 47z" />
<glyph unicode="&#x203a;" horiz-adv-x="528" d="M82 229q0 18 12 39l164 275l-117 276q-6 16 -6 29q0 29 20.5 46t47.5 17q43 0 63 -41l144 -276q12 -20 12 -45q0 -27 -21 -55l-188 -279q-27 -39 -68 -39q-27 0 -45 14.5t-18 38.5z" />
<glyph unicode="&#x2044;" horiz-adv-x="354" d="M-328 25q0 18 17 45l899 1374q27 39 65 39q27 0 46.5 -18.5t19.5 -45.5q0 -18 -17 -45l-899 -1374q-26 -39 -65 -39q-27 0 -46.5 18.5t-19.5 45.5z" />
<glyph unicode="&#x205f;" horiz-adv-x="490" />
<glyph unicode="&#x20ac;" d="M25 567q0 27 18 44.5t47 17.5h158v2q0 88 10 186h-154q-25 0 -40 17.5t-15 42.5q0 27 18.5 44t47.5 17h161q53 250 194.5 386t350.5 136q262 0 418 -160q29 -28 29 -65q0 -31 -18.5 -52.5t-47.5 -21.5q-31 0 -61 29q-131 127 -320 127q-141 0 -236.5 -97.5t-135.5 -281.5 h313q27 0 42 -16.5t15 -42.5q0 -27 -18.5 -44.5t-46.5 -17.5h-326q-12 -86 -12 -188h321q27 0 42.5 -16.5t15.5 -43.5t-18.5 -44t-47.5 -17h-309q35 -381 340 -381q80 0 168 39t157 102q25 18 45 19q25 0 41.5 -19.5t16.5 -46.5q0 -39 -33 -69q-76 -72 -188.5 -120 t-210.5 -48q-217 0 -347 136t-155 388h-174q-25 0 -40 17.5t-15 41.5z" />
<glyph unicode="&#x2122;" horiz-adv-x="1873" d="M70 1376q0 68 77 68h609q67 -1 67 -64q0 -33 -20.5 -49t-57.5 -16h-227l-53 -668q-2 -35 -25.5 -55.5t-56.5 -20.5q-35 0 -55.5 20.5t-18.5 55.5l53 668h-223q-70 0 -69 61zM881 647l57 729q2 35 24.5 55.5t53.5 20.5q43 0 67 -53l234 -527l317 527q31 53 76 53 q31 0 51.5 -20.5t18.5 -55.5l-60 -729q-2 -37 -21.5 -56.5t-51.5 -19.5q-31 0 -47.5 19.5t-14.5 56.5l41 516l-244 -409q-33 -49 -75 -49q-23 0 -38.5 11t-27.5 38l-180 397l-41 -504q-6 -76 -76 -76q-33 0 -49 19.5t-14 56.5z" />
<glyph unicode="&#x2202;" d="M109 463q0 182 66.5 320.5t185 213t270.5 74.5q227 0 327 -172q-12 283 -140 407t-322 124h-41q-33 0 -51.5 17t-18.5 42q0 23 15.5 41t39.5 24q35 10 101 11q280 0 433.5 -202t153.5 -570q0 -395 -144 -610.5t-406 -215.5q-217 0 -343 133t-126 363zM276 465 q0 -164 82 -261.5t224 -97.5q104 0 186 59.5t129 170t47 258.5q0 156 -82 247t-219 91q-166 0 -266.5 -125t-100.5 -342z" />
<glyph unicode="&#x2206;" horiz-adv-x="1595" d="M80 70q0 35 20.5 53t59.5 18h313q-133 207 -201.5 337t-97.5 224.5t-29 190.5q0 170 84 299t245 199.5t384 70.5q201 0 349.5 -61.5t228.5 -178t80 -276.5q0 -109 -42 -214t-136.5 -239.5t-272.5 -351.5h309q35 0 54.5 -18.5t19.5 -48.5q0 -35 -20.5 -54.5t-59.5 -19.5 h-397q-39 0 -61.5 21.5t-22.5 54.5q0 37 26 71q172 229 263.5 373t128 240t36.5 180q0 180 -129 278.5t-356 98.5q-262 0 -400.5 -112.5t-138.5 -307.5q0 -129 69 -292t241 -453q18 -33 18 -64q0 -39 -26.5 -63.5t-67.5 -24.5h-395q-37 0 -56.5 19.5t-19.5 50.5z" />
<glyph unicode="&#x220f;" d="M51 -303l133 1671q4 33 26.5 54.5t55.5 21.5h848q33 0 52.5 -21.5t17.5 -54.5l-133 -1671q-2 -33 -27 -54.5t-59 -21.5q-33 0 -52.5 21.5t-17.5 54.5l127 1603h-686l-129 -1603q-2 -33 -26.5 -54.5t-59.5 -21.5q-33 0 -52.5 21.5t-17.5 54.5z" />
<glyph unicode="&#x2211;" horiz-adv-x="1191" d="M8 -303q0 31 25 65l602 781l-479 768q-16 27 -17 51q0 35 24.5 58.5t61.5 23.5h891q37 0 55.5 -18.5t18.5 -51.5t-20.5 -52t-59.5 -19h-764l418 -672q31 -45 31 -84q0 -43 -43 -98l-525 -676h758q37 0 56.5 -18.5t19.5 -49.5q0 -35 -20.5 -54.5t-59.5 -19.5h-895 q-39 0 -58.5 18.5t-19.5 47.5z" />
<glyph unicode="&#x221a;" d="M20 584q0 27 19.5 45t48.5 18h184q20 0 36 -12t20 -33l192 -778l572 1599q8 25 27.5 38.5t41.5 13.5q25 0 42.5 -15.5t17.5 -40.5q0 -18 -4 -28l-615 -1696q-18 -51 -39.5 -70.5t-56.5 -19.5q-64 0 -82 86l-213 827h-129q-27 0 -44.5 18.5t-17.5 47.5z" />
<glyph unicode="&#x221e;" d="M94 559q0 135 77 222t208 87q72 0 141.5 -41t110.5 -122q51 84 120.5 123.5t139.5 39.5q117 0 187.5 -72.5t70.5 -187.5q0 -141 -77 -227t-210 -86q-72 0 -140.5 40t-109.5 122q-51 -82 -120.5 -122t-141.5 -40q-119 0 -187.5 73.5t-68.5 190.5zM215 565q0 -70 41 -114.5 t109 -44.5q57 0 108 38.5t98 139.5q-57 174 -196 174q-76 0 -118 -55.5t-42 -137.5zM670 584q33 -98 86 -138t112 -40q76 0 117 56t41 142q0 66 -40 110t-107 44q-57 0 -109.5 -38t-99.5 -136z" />
<glyph unicode="&#x222b;" d="M182 -309q0 29 21.5 49t50.5 20h35q92 0 142 47.5t58 155.5l91 1155q14 164 109 250t261 86q51 0 76 -15.5t25 -54.5q0 -31 -21.5 -51t-52.5 -20h-33q-94 0 -142 -47t-57 -156l-92 -1155q-10 -162 -106 -248t-264 -86q-52 0 -76.5 16.5t-24.5 53.5z" />
<glyph unicode="&#x2248;" d="M109 336q0 20 14 41q98 143 250 143q66 0 123 -23.5t143 -68.5q63 -35 103 -52.5t77 -17.5q90 0 150 78q27 35 61 35q23 0 37 -14.5t14 -34.5q0 -23 -14 -43q-94 -143 -248 -143q-65 0 -124.5 24.5t-141.5 69.5q-63 35 -103 52t-77 17q-92 0 -148 -80q-27 -35 -63 -34 q-23 0 -38 14t-15 37zM141 745q0 20 15 41q45 70 108.5 107t141.5 37q66 0 122 -22.5t142 -69.5q61 -35 103 -52.5t79 -17.5q90 0 147 78q27 35 62 35q23 0 38 -14.5t15 -37.5q0 -20 -14 -41q-98 -143 -248 -143q-66 0 -125 24.5t-141 69.5q-63 35 -103.5 52.5t-76.5 17.5 q-90 0 -150 -80q-27 -35 -61 -35q-23 0 -38.5 14.5t-15.5 36.5z" />
<glyph unicode="&#x2260;" d="M104 379q0 27 19.5 45t48.5 18h301l137 281h-413q-27 0 -44.5 18.5t-17.5 46.5q0 27 20.5 45.5t49.5 18.5h471l104 213q10 20 27.5 31.5t38.5 11.5q27 0 42 -16.5t15 -40.5q0 -16 -8 -33l-82 -166h260q27 0 44.5 -18.5t17.5 -47.5q0 -27 -20.5 -45t-49.5 -18h-315 l-140 -281h430q27 0 44.5 -18t17.5 -47q0 -27 -19.5 -45.5t-48.5 -18.5h-487l-105 -213q-23 -41 -63 -41q-12 0 -29 7q-14 6 -22.5 20t-8.5 31q0 16 9 33l82 163h-244q-27 0 -44.5 18.5t-17.5 47.5z" />
<glyph unicode="&#x2264;" d="M82 66q0 27 19.5 45t48.5 18h868q26 0 43.5 -19.5t17.5 -46.5t-20.5 -45t-48.5 -18h-869q-27 0 -43 18.5t-16 47.5zM131 670q0 29 17.5 53.5t46.5 34.5l862 299q15 6 33 6q29 0 47 -17.5t16 -41.5q0 -18 -11.5 -34t-29.5 -22l-811 -278l762 -277q16 -6 27.5 -20.5 t11.5 -32.5q0 -29 -19.5 -46.5t-50.5 -17.5q-18 0 -37 7l-809 295q-29 10 -43 34.5t-12 57.5z" />
<glyph unicode="&#x2265;" d="M82 66q0 27 19.5 45t48.5 18h868q26 0 43.5 -19.5t17.5 -46.5t-20.5 -45t-48.5 -18h-869q-27 0 -43 18.5t-16 47.5zM104 336q0 18 11.5 33.5t29.5 21.5l813 279l-763 276q-16 6 -27.5 21.5t-11.5 36.5q2 27 22.5 43t48.5 16q16 0 35 -6l809 -297q27 -8 42 -31.5t15 -52.5 q0 -35 -17 -61.5t-48 -34.5l-862 -297q-18 -6 -33 -7q-29 0 -47.5 16.5t-16.5 43.5z" />
<glyph unicode="&#x25fc;" horiz-adv-x="1013" d="M0 0v1014h1014v-1014h-1014z" />
</font>
</defs>
</svg>
