<?xml version="1.0" standalone="no"?>
<!DOCTYPE svg PUBLIC "-//W3C//DTD SVG 1.1//EN" "http://www.w3.org/Graphics/SVG/1.1/DTD/svg11.dtd" >
<svg xmlns="http://www.w3.org/2000/svg" xmlns:xlink="http://www.w3.org/1999/xlink" version="1.1">
<metadata></metadata>
<defs>
<font id="nunitoextralight" horiz-adv-x="1228" >
<font-face units-per-em="2048" ascent="1638" descent="-410" />
<missing-glyph horiz-adv-x="503" />
<glyph horiz-adv-x="0" />
<glyph unicode="&#xd;" horiz-adv-x="503" />
<glyph horiz-adv-x="0" />
<glyph horiz-adv-x="0" />
<glyph unicode=" "  horiz-adv-x="503" />
<glyph unicode="&#x09;" horiz-adv-x="503" />
<glyph unicode="&#xa0;" horiz-adv-x="503" />
<glyph unicode="!" horiz-adv-x="434" d="M137 72q0 37 22.5 59.5t57.5 22.5q33 0 55.5 -22.5t22.5 -59.5t-22.5 -59.5t-55.5 -22.5q-35 0 -57.5 22.5t-22.5 59.5zM162 1403q0 23 15.5 37t37.5 14q23 0 38 -14.5t15 -36.5l-24 -1047q0 -16 -8.5 -25t-20.5 -9t-20.5 10t-6.5 24z" />
<glyph unicode="&#x22;" horiz-adv-x="808" d="M154 1391q-2 31 14 47t39 16q25 0 40 -16.5t15 -46.5l-24 -467q0 -14 -8.5 -23.5t-20.5 -9.5t-20.5 9t-8.5 24zM549 1391q-2 31 14 47t39 16q25 0 40 -16.5t15 -46.5l-24 -467q0 -14 -8.5 -23.5t-20.5 -9.5t-20.5 9t-8.5 24z" />
<glyph unicode="#" d="M47 436q0 16 12.5 26.5t32.5 10.5h195l100 514h-254q-20 0 -32.5 13.5t-12.5 31.5q0 16 12.5 26.5t32.5 10.5h270l70 356q4 16 16.5 25.5t28.5 9.5q20 0 32.5 -16.5t6.5 -40.5l-65 -334h387l69 356q2 14 14.5 24.5t28.5 10.5q23 0 35 -16.5t6 -40.5l-65 -334h170 q20 0 32.5 -13.5t12.5 -31.5q0 -16 -12.5 -26.5t-32.5 -10.5h-187l-98 -514h244q20 0 32.5 -13.5t12.5 -31.5q0 -16 -12.5 -26.5t-32.5 -10.5h-260l-72 -366q-2 -14 -14.5 -24.5t-28.5 -10.5q-23 0 -35 16.5t-6 40.5l68 344h-388l-71 -366q-2 -14 -14.5 -24.5t-28.5 -10.5 q-23 0 -35 16.5t-6 40.5l67 344h-180q-20 0 -32.5 13.5t-12.5 31.5zM377 473h385l100 514h-387z" />
<glyph unicode="$" d="M113 211q0 18 7 29.5t21 11.5q16 0 37 -16q219 -168 445 -168q182 0 286.5 81.5t104.5 225.5q0 88 -51.5 141t-128 81t-207.5 60q-158 41 -252 79t-161 116t-67 211q0 111 56.5 199t158 140t232.5 58v180q0 23 11 36.5t30 13.5q20 0 31.5 -13.5t11.5 -36.5v-182 q117 -8 224.5 -53t174.5 -125q20 -27 21 -47q0 -16 -9.5 -28.5t-21.5 -12.5q-20 0 -37 16q-98 90 -190 129t-215 39q-182 0 -287 -85t-105 -232q0 -100 56.5 -160.5t138.5 -91.5t219 -66q150 -37 240 -71.5t152.5 -106t62.5 -192.5q0 -105 -53.5 -189t-149.5 -135t-221 -61 v-183q0 -20 -12.5 -34.5t-30.5 -14.5q-20 0 -31.5 13.5t-11.5 35.5v181q-125 6 -252 50t-209 130q-18 23 -18 47z" />
<glyph unicode="%" horiz-adv-x="1878" d="M133 1016q0 221 88 331.5t246 110.5t246 -109.5t88 -330.5t-88 -332t-246 -111t-246 110t-88 331zM225 1018q0 -188 59.5 -277.5t182.5 -89.5t181.5 89t58.5 278q0 184 -59.5 273t-180.5 89q-123 0 -182.5 -89t-59.5 -273zM485 10q0 14 9 29l815 1409q14 29 41 29 q16 0 29.5 -12.5t13.5 -30.5q0 -14 -9 -29l-815 -1409q-14 -29 -41 -29q-16 0 -29.5 12.5t-13.5 30.5zM1077 428q0 221 88 330.5t246 109.5t246 -109.5t88 -330.5t-88 -331.5t-246 -110.5t-246 110.5t-88 331.5zM1169 428q0 -188 59.5 -276.5t182.5 -88.5t181.5 88.5 t58.5 276.5q0 186 -58.5 274.5t-181.5 88.5t-182.5 -88.5t-59.5 -274.5z" />
<glyph unicode="&#x26;" horiz-adv-x="1327" d="M131 348q0 131 81 234.5t249 214.5l33 20q-98 109 -142.5 182.5t-44.5 163.5q0 141 91 218t229 77q133 0 212 -71.5t79 -198.5q0 -111 -70 -193t-232 -192l396 -441q82 172 94 420q2 23 15.5 37.5t29.5 14.5q18 0 29.5 -12.5t11.5 -37.5q-14 -289 -123 -485l225 -250 q11 -14 11 -24q0 -16 -12.5 -28.5t-28.5 -12.5t-31 14l-207 229q-86 -121 -205 -181t-254 -60q-193 0 -314.5 98t-121.5 264zM217 346q0 -133 96.5 -206.5t255.5 -73.5q119 0 223.5 54t178.5 169l-422 467l-31 -21q-174 -113 -237.5 -198.5t-63.5 -190.5zM399 1163 q0 -78 39 -140t125 -159q147 100 206.5 168t59.5 148q0 88 -55 142t-147 54q-100 0 -164 -58t-64 -155z" />
<glyph unicode="'" horiz-adv-x="413" d="M154 1391q-2 31 14 47t39 16q25 0 40 -16.5t15 -46.5l-24 -467q0 -14 -8.5 -23.5t-20.5 -9.5t-20.5 9t-8.5 24z" />
<glyph unicode="(" horiz-adv-x="575" d="M217 539q0 465 209 907q8 20 31 20q18 0 30.5 -15t4.5 -36q-94 -217 -141.5 -440t-47.5 -436t47 -436.5t142 -442.5q4 -12 4 -14q0 -14 -12.5 -24.5t-26.5 -10.5q-23 0 -31 20q-209 441 -209 908z" />
<glyph unicode=")" horiz-adv-x="575" d="M80 -356l4 16q94 219 140 443.5t46 435.5t-46 434t-140 442l-4 17q0 14 11 24t28 10q23 0 31 -20q209 -449 208 -907q0 -461 -208 -908q-8 -20 -31 -20q-16 0 -27.5 9t-11.5 24z" />
<glyph unicode="*" horiz-adv-x="917" d="M63 1106q0 16 14.5 28.5t39.5 10.5l284 -6l-149 243q-10 20 -10 33q0 16 10 27.5t27 11.5q25 0 43 -31l137 -254l135 252q18 33 45 33q14 0 24.5 -11t10.5 -28q0 -18 -10 -35l-150 -241l285 6q26 2 40.5 -11.5t14.5 -29.5t-14.5 -27.5t-40.5 -11.5l-283 6l148 -240 q10 -14 10 -34q0 -16 -10.5 -27.5t-24.5 -11.5q-27 0 -45 33l-135 249l-137 -252q-16 -31 -43 -30q-16 0 -26.5 10t-10.5 27q0 18 10 32l149 244l-284 -6q-25 0 -39.5 12.5t-14.5 28.5z" />
<glyph unicode="+" d="M115 582q0 16 13 27.5t32 11.5h415v415q0 18 11.5 31.5t27.5 13.5t27.5 -13t11.5 -32v-415h416q18 0 31.5 -11.5t13.5 -27.5q0 -18 -13.5 -30.5t-31.5 -12.5h-416v-414q0 -18 -11 -30.5t-28 -12.5q-16 0 -27.5 12t-11.5 31v414h-415q-18 0 -31.5 13t-13.5 30z" />
<glyph unicode="," horiz-adv-x="434" d="M137 72q0 37 21.5 59.5t56.5 22.5q37 0 58.5 -29t21.5 -92q0 -129 -78 -217q-18 -18 -37 -19q-14 0 -24.5 11.5t-10.5 25.5q0 18 13 31q25 27 36 56.5t15 70.5q-31 2 -51.5 23.5t-20.5 56.5z" />
<glyph unicode="-" horiz-adv-x="851" d="M147 543q0 16 11.5 27.5t29.5 11.5h478q18 0 28.5 -11.5t10.5 -27.5t-10.5 -27.5t-28.5 -11.5h-478q-18 0 -29.5 11t-11.5 28z" />
<glyph unicode="." horiz-adv-x="434" d="M137 72q0 37 22.5 59.5t57.5 22.5q33 0 55.5 -22.5t22.5 -59.5t-22.5 -59.5t-55.5 -22.5q-35 0 -57.5 22.5t-22.5 59.5z" />
<glyph unicode="/" horiz-adv-x="524" d="M-31 -66q0 6 4 19l492 1532q12 39 45 39q18 0 31.5 -14.5t13.5 -34.5q0 -6 -4 -19l-494 -1532q-6 -18 -18 -28.5t-25 -10.5q-18 0 -31.5 14.5t-13.5 34.5z" />
<glyph unicode="0" d="M127 721q0 365 124 552t363 187q240 0 364 -186.5t124 -550.5q0 -362 -125 -550.5t-363 -188.5q-237 0 -362 187t-125 550zM219 723q0 -332 97.5 -492.5t297.5 -160.5q201 0 298.5 159.5t97.5 493.5t-96.5 492.5t-299.5 158.5q-201 0 -298 -158.5t-97 -492.5z" />
<glyph unicode="1" d="M289 39q0 16 11 27.5t28 11.5h288v1245l-247 -168q-8 -6 -19 -6q-16 0 -30.5 16.5t-14.5 36.5q0 23 19 35l305 207q14 10 30 10t28.5 -12t12.5 -35v-1329h291q17 0 28 -11.5t11 -27.5q0 -18 -11 -28.5t-28 -10.5h-663q-16 0 -27.5 10t-11.5 29z" />
<glyph unicode="2" d="M156 1233q0 27 20 47q80 82 201 131t250 49q182 0 288.5 -98t106.5 -268q0 -125 -58.5 -245t-191.5 -267l-457 -504h744q16 0 27.5 -11.5t11.5 -27.5q0 -18 -11.5 -28.5t-27.5 -10.5h-828q-20 0 -32.5 11.5t-12.5 29.5q0 16 13 29l516 581q117 133 168 234.5t51 206.5 q0 137 -80 211.5t-227 74.5q-109 0 -207 -39t-201 -131q-16 -14 -35 -14q-12 0 -20 11.5t-8 27.5z" />
<glyph unicode="3" d="M133 213q0 16 8.5 28.5t20.5 12.5q16 0 35 -16q102 -92 201.5 -131t213.5 -39q166 0 258.5 81.5t92.5 233.5q0 154 -96.5 232.5t-282.5 78.5h-103q-23 0 -35 12.5t-12 28.5q0 14 12.5 26.5t34.5 12.5h72q178 0 278.5 87t100.5 243q0 131 -80 202.5t-225 71.5 q-109 0 -207 -39t-201 -131q-18 -16 -35 -16q-12 0 -20 12.5t-8 28.5q0 27 20 47q80 82 201 131t250 49q182 0 288.5 -96t106.5 -262q0 -129 -64.5 -225.5t-179.5 -135.5q135 -34 204 -124.5t69 -227.5q0 -186 -119 -294.5t-322 -108.5q-133 0 -255 49t-201 131 q-20 20 -21 47z" />
<glyph unicode="4" d="M113 379q0 16 12 35l704 1022q12 18 39 18q16 0 28.5 -12t12.5 -35v-987h197q16 0 27.5 -11.5t11.5 -27.5q0 -18 -11.5 -29.5t-27.5 -11.5h-197v-303q0 -20 -11 -33.5t-32 -13.5q-20 0 -31.5 13t-11.5 34v303h-647l-2 -4v4h-16q-20 0 -32.5 11t-12.5 28zM231 420h592v856 z" />
<glyph unicode="5" d="M182 213q0 16 8.5 28.5t20.5 12.5q18 0 37 -16q102 -92 200.5 -131t206.5 -39q166 0 263.5 101t97.5 269q0 166 -96.5 267.5t-260.5 101.5q-109 0 -193.5 -46t-139.5 -134q-8 -18 -23.5 -27.5t-32.5 -9.5q-18 0 -30.5 12t-12.5 35v766q0 16 11.5 28.5t31.5 12.5h756 q16 0 27.5 -11.5t11.5 -29.5q0 -14 -11.5 -26.5t-27.5 -12.5h-715v-635q59 78 147.5 120t192.5 42q140 0 242 -57.5t158.5 -160t56.5 -237.5q0 -129 -57.5 -232.5t-161 -160.5t-236.5 -57q-127 0 -248.5 49t-201.5 131q-20 20 -21 47z" />
<glyph unicode="6" horiz-adv-x="1226" d="M133 678q0 373 139.5 577.5t393.5 204.5q119 0 232.5 -49t193.5 -131q23 -23 22 -47q0 -16 -9 -28.5t-20 -12.5q-18 0 -36 16q-188 170 -385 170q-209 0 -326 -184t-117 -518v-78q45 135 161 213t267 78q135 0 238.5 -56.5t161 -159t57.5 -237.5q0 -129 -57.5 -232.5 t-160 -161.5t-231.5 -58q-252 0 -388 180t-136 514zM274 438q0 -168 104.5 -270t274.5 -102q164 0 262.5 102t98.5 270q0 166 -99.5 267.5t-263.5 101.5q-109 0 -194.5 -47t-134 -131t-48.5 -191z" />
<glyph unicode="7" d="M154 1405q0 18 10 28.5t24 10.5h822l2 4v-4h20q21 0 32 -10.5t11 -26.5t-8 -33l-707 -1362q-10 -25 -38 -24q-16 0 -28.5 11t-12.5 30q0 12 6 24l682 1313h-781q-14 0 -24 11.5t-10 27.5z" />
<glyph unicode="8" d="M117 377q0 133 72.5 229t199.5 133q-111 41 -175 131.5t-64 208.5q0 176 120.5 278.5t343.5 102.5t344 -102.5t121 -278.5q0 -119 -65.5 -209t-175.5 -131q129 -39 201.5 -134t72.5 -228q0 -184 -128 -287.5t-370 -103.5t-369.5 103.5t-127.5 287.5zM209 379 q0 -311 405 -311q406 0 406 311t-406 311t-405 -311zM242 1079q0 -143 95 -224t277 -81t277.5 81t95.5 224q0 141 -95 220t-278 79q-182 0 -277 -78.5t-95 -220.5z" />
<glyph unicode="9" d="M115 211q0 16 9 28.5t19 12.5q18 0 37 -16q188 -170 385 -170q209 0 326 184t117 518v78q-45 -135 -161 -213t-267 -78q-135 0 -238.5 56.5t-161 158.5t-57.5 238q0 129 57.5 232t159.5 161.5t231 58.5q252 0 388.5 -180t136.5 -514q0 -373 -139.5 -577.5t-393.5 -204.5 q-119 0 -232.5 49t-193.5 131q-23 23 -22 47zM215 1006q0 -166 99.5 -267.5t263.5 -101.5q108 0 194 47t134 131t48 191q0 168 -104.5 270t-274.5 102q-164 0 -262 -102t-98 -270z" />
<glyph unicode=":" horiz-adv-x="434" d="M137 72q0 37 22.5 59.5t57.5 22.5q33 0 55.5 -22.5t22.5 -59.5t-22.5 -59.5t-55.5 -22.5q-35 0 -57.5 22.5t-22.5 59.5zM137 932q0 37 22.5 59.5t57.5 22.5q33 0 55.5 -22.5t22.5 -59.5t-22.5 -58.5t-55.5 -21.5q-35 0 -57.5 21.5t-22.5 58.5z" />
<glyph unicode=";" horiz-adv-x="434" d="M137 72q0 37 21.5 59.5t56.5 22.5q37 0 58.5 -29t21.5 -92q0 -129 -78 -217q-18 -18 -37 -19q-14 0 -24.5 11.5t-10.5 25.5q0 18 13 31q25 27 36 56.5t15 70.5q-31 2 -51.5 23.5t-20.5 56.5zM137 932q0 37 22.5 59.5t57.5 22.5q33 0 55.5 -22.5t22.5 -59.5t-22.5 -58.5 t-55.5 -21.5q-35 0 -57.5 21.5t-22.5 58.5z" />
<glyph unicode="&#x3c;" d="M115 582q0 37 35 53l886 420q14 8 33 8q18 0 31.5 -10.5t13.5 -26.5q0 -23 -22 -35l-875 -411l875 -414q22 -12 22 -35q0 -16 -13.5 -26.5t-31.5 -10.5t-33 8l-886 420q-35 16 -35 60z" />
<glyph unicode="=" d="M127 379q0 14 13 25.5t32 11.5h909q18 0 31.5 -12.5t13.5 -33.5q0 -14 -13.5 -25t-31.5 -11h-909q-19 0 -32 13t-13 32zM127 789q0 14 13 25.5t32 11.5h909q18 0 31.5 -12.5t13.5 -33.5q0 -14 -13.5 -25t-31.5 -11h-909q-19 0 -32 13t-13 32z" />
<glyph unicode="&#x3e;" d="M115 131q0 23 22 35l875 414l-875 411q-23 12 -22 35q0 16 13 26.5t32 10.5q18 0 33 -8l886 -420q35 -16 35 -53q0 -43 -35 -60l-886 -420q-14 -8 -33 -8q-18 0 -31.5 10.5t-13.5 26.5z" />
<glyph unicode="?" horiz-adv-x="878" d="M-8 1231q0 27 20 47q80 82 197 131t231 49q168 0 270.5 -83t102.5 -222q0 -109 -44 -189.5t-134 -191.5q-92 -113 -143.5 -205t-61.5 -217q-4 -29 -27 -28q-12 0 -20 9t-8 23q0 139 50 240.5t144 222.5q78 102 116 174t38 160q0 104 -75 164.5t-204 60.5q-106 0 -193 -40 t-196 -128q-4 -6 -15 -12t-20 -6q-12 0 -20 12t-8 29zM324 72q0 35 21.5 58.5t55.5 23.5q35 0 56.5 -24t21.5 -58q0 -35 -21.5 -58.5t-56.5 -23.5q-34 0 -55.5 23.5t-21.5 58.5z" />
<glyph unicode="@" horiz-adv-x="1882" d="M109 567q0 262 111.5 464t306 312.5t434.5 110.5q260 0 443 -110.5t275.5 -282.5t92.5 -352q0 -213 -62.5 -342t-155 -182.5t-188.5 -53.5q-111 0 -169 48t-60 140h-4q-49 -86 -132 -137t-184 -51q-125 0 -208 91t-83 261q0 137 53.5 260t152.5 200t229 77 q104 0 181 -53.5t93 -130.5h2l23 125q2 16 14 26t29 10q20 0 30 -12t8 -35l-96 -553q-6 -37 -6 -65q0 -72 36 -98.5t107 -26.5q70 0 138.5 49t117 161.5t48.5 291.5q0 156 -80 307t-244 250.5t-401 99.5q-217 0 -391.5 -98.5t-274.5 -279.5t-100 -421q0 -238 92 -414 t265 -272t411 -96q176 0 308 53t212 146q27 33 55 32q18 0 29.5 -14t11.5 -33q0 -23 -14 -39q-100 -113 -255 -173t-347 -60q-258 0 -452 108.5t-298 305t-104 456.5zM606 494q0 -141 65.5 -214t162.5 -73q112 0 196 67.5t128 177t44 228.5q0 127 -64.5 194.5t-172.5 67.5 q-109 0 -190 -64.5t-125 -168t-44 -215.5z" />
<glyph unicode="A" horiz-adv-x="1462" d="M76 41l606 1382q12 33 49 33q16 0 29.5 -9t19.5 -24l604 -1382q5 -12 5 -16q0 -16 -11.5 -25.5t-27.5 -9.5q-31 0 -43 28l-166 381h-817l-168 -381q-12 -29 -41 -28q-23 0 -35 14t-4 37zM358 481h746l-373 852z" />
<glyph unicode="B" horiz-adv-x="1361" d="M197 45v1354q0 18 15 31.5t36 13.5h481q219 0 338 -97.5t119 -281.5q0 -119 -60.5 -202t-169.5 -124q125 -30 194 -121.5t69 -226.5q0 -193 -121 -292t-346 -99h-504q-20 0 -35.5 14.5t-15.5 30.5zM283 80h467q192 0 285 73.5t93 227.5t-95 232.5t-283 78.5h-467v-612z M283 774h436q184 0 280.5 78t96.5 225q0 287 -377 287h-436v-590z" />
<glyph unicode="C" horiz-adv-x="1386" d="M137 723q0 227 78 393t223.5 255t343.5 89q137 0 263 -49t210 -135q20 -20 21 -49q0 -16 -8 -27.5t-21 -11.5q-16 0 -35 16q-117 98 -212 135t-222 37q-260 0 -404.5 -172t-144.5 -481q0 -311 143.5 -483t405.5 -172q129 0 223.5 36.5t210.5 135.5q23 16 35 16 t20.5 -11.5t8.5 -27.5q0 -29 -21 -49q-84 -86 -209.5 -135t-263.5 -49q-198 0 -343.5 89t-223.5 256t-78 394z" />
<glyph unicode="D" horiz-adv-x="1484" d="M197 45v1354q0 18 15 31.5t36 13.5h393q338 0 522.5 -185.5t184.5 -535.5q0 -348 -184.5 -535.5t-522.5 -187.5h-393q-21 0 -36 14.5t-15 30.5zM281 78h358q315 0 465.5 166t150.5 479q0 643 -616 643h-358v-1288z" />
<glyph unicode="E" horiz-adv-x="1179" d="M197 45v1354q0 18 15 31.5t36 13.5h788q16 0 26.5 -11.5t10.5 -29.5q0 -16 -10 -27.5t-27 -11.5h-753v-592h712q16 0 26.5 -10t10.5 -29q0 -18 -10 -29.5t-27 -11.5h-712v-612h753q16 0 26.5 -10.5t10.5 -28.5t-10 -29.5t-27 -11.5h-788q-21 0 -36 14.5t-15 30.5z" />
<glyph unicode="F" horiz-adv-x="1122" d="M197 37v1362q0 18 15 31.5t36 13.5h768q16 0 26.5 -11.5t10.5 -27.5q0 -18 -10.5 -29.5t-26.5 -11.5h-735v-592h694q16 0 26.5 -10t10.5 -29q0 -18 -10.5 -28.5t-26.5 -10.5h-694v-657q0 -47 -41 -47q-21 0 -32 13t-11 34z" />
<glyph unicode="G" horiz-adv-x="1466" d="M137 723q0 227 78 393t224.5 255t344.5 89q143 0 270.5 -49t207.5 -135q20 -27 20 -49q0 -16 -8 -27.5t-23 -11.5q-16 0 -34 16q-117 98 -211.5 135t-221.5 37q-264 0 -408.5 -171t-144.5 -482q0 -317 146.5 -487t421.5 -170q113 0 220 20t187 57v502h-360 q-23 0 -35 12.5t-12 28.5q0 18 12 29.5t35 11.5h399q19 0 30 -11t11 -32v-571q0 -10 -7 -20.5t-17 -18.5q-84 -41 -208 -65.5t-255 -24.5q-207 0 -355.5 87t-227.5 254t-79 398z" />
<glyph unicode="H" horiz-adv-x="1538" d="M197 37v1370q0 20 11 33.5t32 13.5q20 0 31.5 -13.5t11.5 -33.5v-635h970v-78h-970v-657q0 -20 -11.5 -33.5t-31.5 -13.5t-31.5 13t-11.5 34zM1255 37v1370q0 20 11.5 33.5t31.5 13.5q21 0 32 -13.5t11 -33.5v-1370q0 -20 -11 -33.5t-32 -13.5q-20 0 -31.5 13t-11.5 34z " />
<glyph unicode="I" horiz-adv-x="477" d="M197 37v1370q0 20 11 33.5t32 13.5q18 0 29.5 -13.5t11.5 -33.5v-1370q0 -20 -11.5 -33.5t-29.5 -13.5q-21 0 -32 13t-11 34z" />
<glyph unicode="J" horiz-adv-x="608" d="M-16 27q0 16 12 27.5t35 13.5l57 4q123 8 181.5 74.5t58.5 220.5v1040q0 18 13 32.5t30 14.5q41 0 41 -47v-1045q0 -182 -77 -270t-237 -98l-59 -4h-10q-23 0 -34 11t-11 26z" />
<glyph unicode="K" horiz-adv-x="1226" d="M197 37v1370q0 20 11 33.5t32 13.5q18 0 29.5 -13.5t11.5 -33.5v-641l794 676q14 10 27 10q16 0 27.5 -11t11.5 -28q0 -18 -17 -31l-762 -649l801 -667q19 -15 19 -35q0 -16 -12.5 -28.5t-28.5 -12.5q-12 0 -21 8l-839 698v-659q0 -20 -11.5 -33.5t-29.5 -13.5 q-20 0 -31.5 13t-11.5 34z" />
<glyph unicode="L" horiz-adv-x="1079" d="M197 39v1368q0 20 11 33.5t32 13.5q41 0 41 -47v-1329h739q14 0 25.5 -10.5t11.5 -28.5q0 -16 -11.5 -27.5t-25.5 -11.5h-778q-17 0 -31 12.5t-14 26.5z" />
<glyph unicode="M" horiz-adv-x="1720" d="M197 39v1368q0 20 11 33.5t34 13.5q12 0 22 -7t21 -28l577 -1112l572 1112q10 20 20 27.5t25 7.5q22 0 33.5 -13.5t11.5 -33.5v-1368q0 -49 -45 -49q-37 0 -37 49v1225l-529 -1022q-8 -16 -21 -25.5t-30 -9.5q-35 0 -51 35l-532 1013v-1216q0 -49 -41 -49t-41 49z" />
<glyph unicode="N" horiz-adv-x="1499" d="M197 37v1370q0 20 11 33.5t34 13.5q14 0 21 -5t20 -19l940 -1283v1260q0 20 11 33.5t30 13.5q39 0 39 -47v-1370q0 -20 -11.5 -33.5t-31.5 -13.5q-14 0 -22.5 6t-18.5 20l-943 1282v-1261q0 -20 -11 -33.5t-29 -13.5q-39 0 -39 47z" />
<glyph unicode="O" horiz-adv-x="1538" d="M137 721q0 227 76 394t218 256t337 89t338 -89t219 -255t76 -393t-77 -394t-219 -256t-337 -89q-193 0 -335 89t-219 256t-77 392zM229 723q0 -311 141.5 -483t397.5 -172q258 0 399.5 172t141.5 483t-140.5 482t-400.5 171q-256 0 -397.5 -171t-141.5 -482z" />
<glyph unicode="P" horiz-adv-x="1294" d="M197 37v1362q0 18 15 31.5t36 13.5h469q223 0 346 -106.5t123 -303.5t-124 -305t-345 -108h-436v-584q0 -23 -10.5 -35t-30.5 -12q-21 0 -32 12t-11 35zM281 702h434q190 0 285.5 84t95.5 248t-95.5 247t-285.5 83h-434v-662z" />
<glyph unicode="Q" horiz-adv-x="1538" d="M137 721q0 227 76 394t218 256t337 89t337 -89t219 -255t77 -393q0 -279 -115 -466t-321 -249q43 -14 76.5 -49t72.5 -98l113 -185q6 -12 6 -22q0 -14 -9.5 -22.5t-23.5 -8.5q-33 0 -57 39l-117 186q-39 66 -106.5 101t-151.5 35q-193 0 -335 89t-219 256t-77 392z M229 723q0 -311 141.5 -483t397.5 -172q258 0 399.5 172t141.5 483t-140.5 482t-400.5 171q-256 0 -397.5 -171t-141.5 -482z" />
<glyph unicode="R" horiz-adv-x="1386" d="M197 37v1362q0 18 15 31.5t36 13.5h506q223 0 345 -101.5t122 -298.5q0 -176 -107.5 -276t-302.5 -115q47 -16 87 -55t81 -104l274 -445q7 -12 7 -22q0 -14 -11.5 -25.5t-27.5 -11.5q-20 0 -35 20l-279 453q-61 102 -129.5 139t-189.5 37h-307v-602q0 -20 -11.5 -33.5 t-29.5 -13.5q-20 0 -31.5 12t-11.5 35zM283 721h473q374 0 374 324q0 162 -92 240.5t-282 78.5h-473v-643z" />
<glyph unicode="S" horiz-adv-x="1224" d="M96 217q0 16 8.5 27.5t20.5 11.5q14 0 37 -16q203 -172 463 -172q199 0 306 80.5t107 230.5q0 86 -53 139t-131 81t-209 58q-178 43 -272 76t-169 112t-75 216q0 119 62.5 210t176 140t261.5 49q141 0 267 -49t204 -135q20 -23 20 -49q0 -16 -9 -27.5t-21 -11.5 q-18 0 -35 16q-117 100 -209 136t-217 36q-195 0 -303.5 -84t-108.5 -235q0 -90 48 -147.5t123 -90.5t187 -61l89 -21q147 -33 239 -66.5t156.5 -105t64.5 -192.5q0 -115 -62.5 -203t-176 -137t-260.5 -49q-150 0 -290 50t-220 134q-18 18 -19 49z" />
<glyph unicode="T" horiz-adv-x="1196" d="M16 1405q0 16 10.5 27.5t26.5 11.5h1088q14 0 26.5 -11.5t12.5 -27.5q0 -18 -12.5 -28.5t-26.5 -10.5h-500v-1329q0 -20 -11.5 -33.5t-31.5 -13.5t-31.5 13t-11.5 34v1329h-502q-16 0 -26.5 10t-10.5 29z" />
<glyph unicode="U" horiz-adv-x="1464" d="M186 547v860q0 23 11.5 35t31.5 12q18 0 29.5 -13.5t11.5 -33.5v-875q0 -464 461 -464h2q227 0 344 116.5t117 347.5v875q0 20 13.5 33.5t29.5 13.5q18 0 30.5 -13.5t12.5 -33.5v-860q0 -279 -139.5 -421t-407.5 -142q-270 0 -408.5 142t-138.5 421z" />
<glyph unicode="V" horiz-adv-x="1372" d="M29 1419q0 16 13 27.5t30 11.5q25 0 37 -26l577 -1321l578 1321q11 26 36 26q20 0 34 -15.5t5 -37.5l-606 -1380q-12 -35 -47 -35q-14 0 -27.5 9t-21.5 26l-604 1380q-4 12 -4 14z" />
<glyph unicode="W" horiz-adv-x="2238" d="M82 1415q0 16 14.5 27.5t30.5 11.5q27 0 35 -24l454 -1307l453 1288q6 18 19.5 27.5t29.5 9.5q35 0 49 -39l453 -1286l455 1307q7 24 34 24q20 0 36 -15.5t7 -33.5l-485 -1380q-12 -35 -47 -35q-14 0 -26.5 9t-18.5 26l-455 1284l-456 -1284q-12 -35 -48 -35q-14 0 -26 9 t-19 26l-487 1380q-2 4 -2 10z" />
<glyph unicode="X" horiz-adv-x="1290" d="M55 31q0 12 11 28l530 682l-500 643q-10 12 -10 29q0 16 12.5 27.5t26.5 11.5q16 0 33 -18l485 -629l487 629q16 18 33 18q16 0 28.5 -11t12.5 -28q0 -12 -10 -29l-500 -643l529 -682q10 -12 10 -28t-12.5 -27.5t-28.5 -11.5q-18 0 -35 18l-514 666l-512 -666 q-14 -18 -35 -18q-16 0 -28.5 11t-12.5 28z" />
<glyph unicode="Y" horiz-adv-x="1189" d="M18 1411q0 16 11.5 28.5t25.5 12.5q18 0 33 -18l508 -662l506 662q17 18 33 18q14 0 25 -12.5t11 -26.5q0 -12 -10 -29l-524 -684v-663q0 -20 -11.5 -33.5t-31.5 -13.5t-31.5 13t-11.5 34v665l-524 682q-8 10 -9 27z" />
<glyph unicode="Z" horiz-adv-x="1185" d="M80 37q0 18 12 37l893 1290h-868q-14 0 -25.5 11t-11.5 30q0 16 11 27.5t26 11.5h923l2 4v-4h11q20 0 32.5 -10.5t12.5 -26.5t-13 -33l-895 -1294h887q17 0 28 -11.5t11 -29.5q0 -16 -11 -27.5t-28 -11.5h-942l-2 -4v4h-10q-20 0 -31.5 10t-11.5 27z" />
<glyph unicode="[" horiz-adv-x="575" d="M229 -195v1465q0 174 168 174h131q23 0 35 -10.5t12 -26.5q0 -18 -12 -28.5t-35 -10.5h-120q-92 0 -93 -94v-1473q0 -94 93 -94h120q23 0 35 -10t12 -29q0 -16 -12 -26.5t-35 -10.5h-131q-168 0 -168 174z" />
<glyph unicode="\" horiz-adv-x="524" d="M-31 1477q0 20 12.5 32.5t30.5 12.5q33 0 45 -37l494 -1532q4 -12 4 -21q0 -20 -12.5 -32.5t-30.5 -12.5q-35 0 -47 37l-492 1532q-4 12 -4 21z" />
<glyph unicode="]" horiz-adv-x="575" d="M0 -332q0 18 12.5 28.5t34.5 10.5h121q92 0 92 94v1473q0 94 -92 94h-121q-23 0 -35 10.5t-12 28.5q0 16 12.5 26.5t34.5 10.5h131q82 0 125 -45t43 -129v-1465q0 -84 -43 -129t-125 -45h-131q-22 0 -34.5 10.5t-12.5 26.5z" />
<glyph unicode="^" d="M131 326q0 14 4 22l428 905q18 33 51 33q14 0 28.5 -9t23.5 -24l428 -905q6 -12 6 -22q0 -18 -12.5 -28.5t-26.5 -10.5q-20 0 -31 18l-416 875l-415 -875q-8 -18 -29 -18q-14 0 -26.5 10t-12.5 29z" />
<glyph unicode="_" horiz-adv-x="1024" d="M0 -35q0 12 11.5 23.5t27.5 11.5h946q18 0 28.5 -11.5t10.5 -23.5t-10 -22.5t-29 -10.5h-946q-19 0 -29 10.5t-10 22.5z" />
<glyph unicode="`" horiz-adv-x="614" d="M-56 1497q0 23 14.5 37t34.5 14q33 0 62 -37l272 -350q8 -8 8 -20q0 -10 -9 -18.5t-19 -8.5q-12 0 -23 10l-311 314q-29 29 -29 59z" />
<glyph unicode="a" horiz-adv-x="1067" d="M141 283q0 111 58.5 171t192.5 86.5t376 26.5h41v86q0 145 -58.5 212t-183.5 67q-98 0 -175 -25.5t-122 -58.5q-8 -6 -33.5 -23.5t-41.5 -17.5q-14 0 -25.5 11t-11.5 28q0 39 71 82q72 43 157 65.5t169 22.5q342 0 342 -367v-610q0 -23 -11.5 -35t-31.5 -12t-32.5 13 t-12.5 34v143q-45 -94 -130 -145t-194 -51q-94 0 -173 38.5t-125 107.5t-46 151zM240 287q0 -94 69.5 -154.5t175.5 -60.5q93 0 166.5 44t115.5 121.5t42 176.5v73h-39q-215 0 -327.5 -17t-157.5 -59t-45 -124z" />
<glyph unicode="b" horiz-adv-x="1157" d="M174 39v1368q0 47 43 47q20 0 31.5 -12t11.5 -35v-604q45 102 134 157.5t214 55.5q131 0 231.5 -63.5t156 -178.5t55.5 -268q0 -156 -55.5 -273.5t-156 -182t-231.5 -64.5q-125 0 -214 55t-134 160v-162q0 -47 -43 -47q-20 0 -31.5 12t-11.5 35zM260 502 q0 -207 90 -319.5t258 -112.5q164 0 256 114.5t92 321.5q0 203 -92 314.5t-258 111.5t-256 -112.5t-90 -317.5z" />
<glyph unicode="c" horiz-adv-x="962" d="M106 498q0 154 56.5 271.5t160 182t236.5 64.5q76 0 147.5 -19.5t127.5 -60.5q39 -31 54 -50.5t15 -41.5q0 -14 -10 -25.5t-25 -11.5q-10 0 -24.5 9t-30.5 22q-55 43 -111.5 69.5t-140.5 26.5q-170 0 -266 -117t-96 -321q0 -201 95 -313.5t265 -112.5q86 0 146.5 26.5 t115.5 69.5q39 29 53 29t24.5 -10.5t10.5 -24.5q0 -20 -14 -37t-55 -49q-53 -39 -131 -63.5t-154 -24.5q-131 0 -233.5 63.5t-159 180t-56.5 268.5z" />
<glyph unicode="d" horiz-adv-x="1157" d="M106 506q0 154 55.5 268.5t156 178t231.5 63.5q125 0 214 -55.5t134 -157.5v604q0 47 43 47q21 0 32 -12t11 -35v-1368q0 -23 -11 -35t-32 -12q-43 0 -43 47v162q-45 -104 -134 -159.5t-214 -55.5q-131 0 -231.5 64.5t-156 182t-55.5 273.5zM199 506q0 -205 93 -320.5 t257 -115.5q166 0 257 112.5t91 319.5q0 205 -90 317.5t-256 112.5t-259 -111.5t-93 -314.5z" />
<glyph unicode="e" horiz-adv-x="1073" d="M106 500q0 154 57.5 270.5t162 181t239.5 64.5q188 0 297 -123t109 -336q0 -37 -14.5 -53.5t-51.5 -16.5h-704q2 -201 101 -309t280 -108q98 0 162.5 26.5t125.5 69.5q43 29 56 29q14 0 24.5 -11.5t10.5 -25.5q0 -20 -15.5 -40t-54.5 -44q-147 -88 -305 -88 q-223 0 -351.5 137t-128.5 377zM203 567h686q-4 178 -88 273.5t-236 95.5q-155 0 -250.5 -97.5t-111.5 -271.5z" />
<glyph unicode="f" horiz-adv-x="618" d="M10 952q0 16 10.5 27.5t24.5 11.5h170v60q0 178 83 278.5t245 112.5l53 4h16q41 0 41 -35q0 -37 -47 -41l-53 -4q-123 -10 -187.5 -78.5t-64.5 -212.5v-84h272q14 0 24.5 -11t10.5 -28q0 -14 -9 -24t-26 -10h-272v-881q0 -20 -12.5 -33.5t-30.5 -13.5q-20 0 -31.5 12 t-11.5 35v881h-170q-14 0 -24.5 10t-10.5 24z" />
<glyph unicode="g" horiz-adv-x="1165" d="M106 524q0 145 56.5 257t158 173.5t232.5 61.5q127 0 217 -55.5t135 -157.5v162q0 47 43 47q19 0 31 -12.5t12 -32.5v-920q0 -213 -100 -321.5t-299 -108.5q-111 0 -195 20.5t-161 67.5q-39 25 -55.5 44.5t-16.5 39.5q0 16 10 26.5t27 10.5q10 0 53 -25 q72 -43 147.5 -71.5t194.5 -28.5q152 0 231.5 85t79.5 249v215q-43 -106 -134 -162.5t-220 -56.5q-131 0 -232.5 61.5t-158 174t-56.5 257.5zM199 524q0 -193 95 -301t259 -108q166 0 259 109.5t93 299.5t-93 299t-259 109q-164 0 -259 -108.5t-95 -299.5z" />
<glyph unicode="h" horiz-adv-x="1132" d="M174 37v1370q0 23 11.5 35t31.5 12t31.5 -12t11.5 -35v-590q45 96 135 147.5t207 51.5q178 0 269.5 -95.5t91.5 -281.5v-602q0 -23 -11.5 -35t-31.5 -12t-31.5 12t-11.5 35v592q0 160 -63.5 232.5t-205.5 72.5q-158 0 -253 -97.5t-95 -258.5v-541q0 -23 -11 -35t-32 -12 q-18 0 -30.5 13t-12.5 34z" />
<glyph unicode="i" horiz-adv-x="434" d="M141 1331q0 35 21.5 55.5t54.5 20.5t54.5 -20.5t21.5 -55.5q0 -33 -22.5 -53.5t-53.5 -20.5t-53.5 20.5t-22.5 53.5zM174 37v930q0 20 11.5 32.5t31.5 12.5t31.5 -12.5t11.5 -32.5v-930q0 -23 -11 -35t-32 -12q-20 0 -31.5 12t-11.5 35z" />
<glyph unicode="j" horiz-adv-x="434" d="M-147 -336q0 35 45 39l55 4q115 8 168 67.5t53 200.5v992q0 20 11.5 32.5t31.5 12.5t31.5 -12.5t11.5 -32.5v-992q0 -172 -70.5 -252.5t-224.5 -91.5l-55 -4h-12q-45 0 -45 37zM141 1331q0 35 21.5 55.5t54.5 20.5t54.5 -20.5t21.5 -55.5q0 -33 -22.5 -53.5t-53.5 -20.5 t-53.5 20.5t-22.5 53.5z" />
<glyph unicode="k" horiz-adv-x="958" d="M174 37v1370q0 23 11.5 35t31.5 12q18 0 30.5 -13.5t12.5 -33.5v-879l533 467q16 12 30 13q16 0 28.5 -12.5t12.5 -28.5q0 -18 -20 -37l-479 -420l520 -440q24 -20 24 -43q0 -14 -10 -25.5t-27 -11.5q-14 0 -32 12l-580 487v-452q0 -20 -12 -33.5t-31 -13.5 q-20 0 -31.5 12t-11.5 35z" />
<glyph unicode="l" horiz-adv-x="434" d="M174 37v1370q0 23 11.5 35t31.5 12q18 0 30.5 -13.5t12.5 -33.5v-1370q0 -20 -12 -33.5t-31 -13.5q-20 0 -31.5 12t-11.5 35z" />
<glyph unicode="m" horiz-adv-x="1708" d="M174 37v928q0 47 43 47q20 0 30.5 -12.5t10.5 -34.5v-148q41 96 122 147.5t191 51.5q240 0 308 -199q41 92 129 145.5t202 53.5q328 0 328 -377v-602q0 -20 -11 -33.5t-32 -13.5q-20 0 -31.5 13t-11.5 34v592q0 160 -57.5 232.5t-182.5 72.5q-143 0 -228 -96.5 t-85 -259.5v-541q0 -20 -11 -33.5t-32 -13.5q-20 0 -31.5 13t-11.5 34v592q0 160 -57.5 232.5t-182.5 72.5q-145 0 -229 -96.5t-84 -259.5v-541q0 -20 -11 -33.5t-32 -13.5q-20 0 -31.5 13t-11.5 34z" />
<glyph unicode="n" horiz-adv-x="1132" d="M174 37v928q0 47 43 47q20 0 30.5 -12.5t10.5 -34.5v-152q45 98 136 150.5t208 52.5q361 0 361 -377v-602q0 -47 -43 -47q-20 0 -31.5 12t-11.5 35v594q0 158 -63.5 230.5t-205.5 72.5q-158 0 -253 -97.5t-95 -258.5v-541q0 -23 -11 -35t-32 -12q-20 0 -31.5 12t-11.5 35 z" />
<glyph unicode="o" horiz-adv-x="1097" d="M106 502q0 154 55.5 270.5t156 180t231.5 63.5t231.5 -63.5t155.5 -180.5t55 -270q0 -156 -55 -272.5t-155.5 -180t-231.5 -63.5t-231.5 63.5t-156 180t-55.5 272.5zM199 502q0 -209 91 -320.5t257 -111.5q170 0 261 111.5t91 320.5q0 203 -93 316.5t-257 113.5 t-257 -113.5t-93 -316.5z" />
<glyph unicode="p" horiz-adv-x="1157" d="M174 -332v1299q0 20 11.5 32.5t31.5 12.5t31.5 -12.5t11.5 -32.5v-162q45 102 134 156.5t214 54.5q131 0 231.5 -64.5t156 -181.5t55.5 -272q0 -154 -55.5 -269.5t-156 -179t-231.5 -63.5q-125 0 -214 55t-134 160v-533q0 -23 -11 -35t-32 -12q-43 0 -43 47zM260 502 q0 -207 90 -319.5t256 -112.5t258 111.5t92 316.5t-92 319.5t-256 114.5q-168 0 -258 -111.5t-90 -318.5z" />
<glyph unicode="q" horiz-adv-x="1157" d="M106 498q0 156 55.5 272.5t156 181t231.5 64.5q125 0 214 -54.5t134 -156.5v162q0 20 11.5 32.5t31.5 12.5q21 0 32 -12.5t11 -32.5v-1299q0 -23 -11 -35t-32 -12q-43 0 -43 47v533q-45 -104 -134 -159.5t-214 -55.5q-131 0 -231.5 63.5t-156 179t-55.5 269.5zM199 498 q0 -203 93 -315.5t259 -112.5t256 112.5t90 319.5t-90 318.5t-258 111.5q-164 0 -257 -115t-93 -319z" />
<glyph unicode="r" horiz-adv-x="667" d="M174 37v928q0 47 43 47q18 0 30.5 -12.5t12.5 -34.5v-148q88 176 320 193l28 2h15q25 0 34 -9.5t9 -27.5q0 -35 -43 -41l-62 -6q-150 -14 -225.5 -110.5t-75.5 -221.5v-559q0 -23 -11 -35t-32 -12q-20 0 -31.5 12t-11.5 35z" />
<glyph unicode="s" horiz-adv-x="974" d="M111 158q0 14 10 25.5t24 11.5q10 0 27.5 -11.5t24.5 -15.5q59 -43 123.5 -70.5t162.5 -27.5q133 0 205 49t72 139q0 53 -25.5 88t-84 60.5t-167.5 50.5q-180 41 -258 104.5t-78 167.5q0 127 99.5 207t257.5 80q76 0 145.5 -20.5t122.5 -57.5q39 -29 56.5 -50.5 t17.5 -43.5q0 -14 -10.5 -25.5t-24.5 -11.5q-16 0 -53 31q-53 41 -111.5 67.5t-146.5 26.5q-115 0 -185.5 -54.5t-70.5 -142.5q0 -53 22.5 -87t76.5 -58.5t155 -46.5q141 -35 217 -71t107.5 -86t31.5 -128q0 -123 -101.5 -197.5t-269.5 -74.5q-80 0 -159.5 23.5t-143.5 64.5 q-41 27 -55 44t-14 40z" />
<glyph unicode="t" horiz-adv-x="643" d="M10 952q0 16 10.5 27.5t24.5 11.5h170v273q0 23 12.5 35t30.5 12t30.5 -12.5t12.5 -34.5v-273h272q14 0 24.5 -11t10.5 -28q0 -14 -9 -24t-26 -10h-272v-576q0 -139 54.5 -198.5t168.5 -69.5l56 -4q45 -4 45 -41q0 -40 -47 -40q-6 0 -13 1l-53 4q-154 10 -225.5 93 t-71.5 257v574h-170q-14 0 -24.5 10t-10.5 24z" />
<glyph unicode="u" horiz-adv-x="1116" d="M170 365v602q0 20 11.5 32.5t31.5 12.5t31.5 -12.5t11.5 -32.5v-594q0 -156 63.5 -229.5t196.5 -73.5q154 0 247 97t93 259v541q0 20 11.5 32.5t31.5 12.5q21 0 32 -12.5t11 -32.5v-930q0 -47 -43 -47q-18 0 -29.5 13t-11.5 34v149q-47 -96 -136 -148t-202 -52 q-172 0 -261 96t-89 283z" />
<glyph unicode="v" horiz-adv-x="1032" d="M41 969q0 18 14.5 31.5t32.5 13.5q27 0 35 -25l393 -889l395 883q12 29 39 29q16 0 28.5 -11.5t12.5 -29.5q0 -6 -4 -19l-416 -917q-18 -37 -57 -37q-18 0 -32.5 9t-22.5 28l-414 917z" />
<glyph unicode="w" horiz-adv-x="1699" d="M78 952q-8 23 9 41.5t40 18.5q27 0 35 -27l315 -866l326 856q8 18 21.5 27.5t27.5 9.5q16 0 29.5 -9.5t19.5 -27.5l322 -854l321 858q12 31 37 31q20 0 34.5 -16.5t6.5 -37.5l-344 -921q-14 -37 -53 -37q-18 0 -32.5 9t-21.5 28l-321 837l-318 -837q-8 -18 -22 -27.5 t-33 -9.5q-18 0 -32.5 9t-22.5 28z" />
<glyph unicode="x" horiz-adv-x="1036" d="M74 37q0 18 14 35l375 436l-363 426q-14 16 -14 35q0 18 12.5 30.5t28.5 12.5q18 0 35 -19l356 -422l356 422q16 18 35 19q16 0 29.5 -12.5t13.5 -30.5t-14 -35l-365 -426l375 -436q15 -17 15 -35t-12.5 -30.5t-28.5 -12.5q-18 0 -35 18l-369 432l-366 -432 q-18 -18 -37 -18q-16 0 -28.5 12t-12.5 31z" />
<glyph unicode="y" horiz-adv-x="1032" d="M41 971q0 18 14.5 30.5t32.5 12.5q23 0 35 -25l395 -891l4 11l389 874q12 29 39 29q16 0 28.5 -11.5t12.5 -29.5q0 -6 -4 -19l-588 -1302q-12 -25 -37 -25q-16 0 -27 10.5t-11 26.5l4 16l147 324l-430 950q-4 12 -4 19z" />
<glyph unicode="z" horiz-adv-x="1015" d="M98 43q0 16 17 39l673 836h-651q-16 0 -26.5 10t-10.5 24q0 16 10.5 27.5t26.5 11.5h723q25 0 38 -11t13 -30q0 -20 -14 -37l-676 -837h672q14 0 24.5 -10.5t10.5 -26.5t-10.5 -27.5t-24.5 -11.5h-743q-25 0 -38.5 12.5t-13.5 30.5z" />
<glyph unicode="{" horiz-adv-x="651" d="M102 539q0 37 48 39q86 4 120.5 44t34.5 123v525q0 174 168 174h131q23 0 35 -10.5t12 -26.5q0 -18 -12 -28.5t-35 -10.5h-121q-92 0 -92 -94v-535q0 -88 -40 -138t-99 -62q59 -12 99 -62.5t40 -138.5v-537q0 -94 92 -94h121q23 0 35 -10t12 -29q0 -16 -12 -26.5 t-35 -10.5h-131q-168 0 -168 174v527q0 86 -34.5 126t-120.5 42q-25 2 -36.5 12t-11.5 27z" />
<glyph unicode="|" horiz-adv-x="501" d="M207 -332v1739q0 20 13 33.5t32 13.5q16 0 29.5 -13.5t13.5 -33.5v-1739q0 -20 -12.5 -33.5t-30.5 -13.5q-19 0 -32 13.5t-13 33.5z" />
<glyph unicode="}" horiz-adv-x="651" d="M0 -332q0 18 12.5 28.5t34.5 10.5h121q92 0 92 94v537q0 88 40 138t99 63q-59 12 -99 62t-40 138v535q0 94 -92 94h-121q-23 0 -35 10.5t-12 28.5q0 16 12.5 26.5t34.5 10.5h131q82 0 125 -45t43 -129v-525q0 -86 35 -124.5t121 -42.5q47 -2 47 -39q0 -14 -12.5 -25.5 t-34.5 -13.5q-86 -2 -119 -42t-33 -126l-4 -527q0 -84 -43 -129t-125 -45h-131q-23 0 -35 10.5t-12 26.5z" />
<glyph unicode="~" d="M129 537q0 12 6 24q80 145 236 146q68 0 133 -27t149 -74q78 -41 119 -58.5t82 -17.5q109 0 168 103q12 27 39 26q8 0 20 -4q18 -6 19 -30q0 -12 -8 -27q-80 -145 -234 -145q-67 0 -133 26.5t-150 73.5q-78 41 -118.5 58.5t-81.5 17.5q-109 0 -168 -103q-12 -27 -39 -26 q-8 0 -21 4q-18 10 -18 33z" />
<glyph unicode="&#xa2;" d="M203 498q0 143 50 255.5t141 180t210 80.5v184q0 20 12.5 34.5t30.5 14.5q20 0 31.5 -13t11.5 -36v-184q145 -6 240 -78q41 -31 55 -50.5t14 -41.5q0 -14 -10 -25.5t-24 -11.5q-16 0 -54 31q-59 45 -113.5 70.5t-140.5 25.5q-170 0 -266 -117t-96 -321q0 -201 95 -313.5 t265 -112.5q86 0 145.5 26.5t117.5 67.5q16 12 30.5 21.5t24.5 9.5q14 0 24.5 -10.5t10.5 -24.5q0 -20 -14.5 -37t-57.5 -49q-47 -35 -112.5 -58.5t-133.5 -27.5v-185q0 -23 -11 -36t-32 -13q-18 0 -30.5 14.5t-12.5 34.5v185q-180 18 -290.5 156.5t-110.5 353.5z" />
<glyph unicode="&#xa3;" d="M96 39q0 16 11.5 27.5t27.5 11.5h199v604h-197q-18 0 -29.5 12.5t-11.5 28.5t11.5 28.5t29.5 12.5h197v311q0 178 95 281.5t267 103.5q244 0 428 -184q20 -20 21 -49q0 -16 -8.5 -27.5t-20.5 -11.5q-14 0 -35 16q-119 102 -203.5 138t-183.5 36q-125 0 -199.5 -73.5 t-74.5 -237.5v-303h358q18 0 29.5 -11.5t11.5 -29.5t-11 -29.5t-30 -11.5h-358v-604h686q16 0 27.5 -11.5t11.5 -27.5t-11.5 -27.5t-27.5 -11.5h-971q-16 0 -27.5 11.5t-11.5 27.5z" />
<glyph unicode="&#xa5;" d="M31 1411q0 16 11 28.5t28 12.5q18 0 32 -18l512 -666h2l510 666q17 18 33 18q14 0 25.5 -11t11.5 -28q0 -14 -8 -29l-473 -616h325q18 0 29.5 -12.5t11.5 -28.5t-11 -28.5t-30 -12.5h-383v-225h383q18 0 29.5 -12.5t11.5 -28.5t-11 -28.5t-30 -12.5h-383v-342 q0 -20 -11 -33.5t-32 -13.5q-20 0 -31.5 13t-11.5 34v342h-383q-18 0 -29.5 12t-11.5 29q0 16 11.5 28.5t29.5 12.5h383v225h-383q-18 0 -29.5 12.5t-11.5 28.5t11.5 28.5t29.5 12.5h328l-475 616q-10 14 -10 27z" />
<glyph unicode="&#xa8;" horiz-adv-x="614" d="M69 1331q0 31 21.5 51.5t52.5 20.5t51.5 -20.5t20.5 -51.5t-21.5 -51t-50.5 -20q-31 0 -52.5 20t-21.5 51zM399 1331q0 31 20.5 51.5t51.5 20.5t52 -20.5t21 -51.5t-21.5 -51t-51.5 -20q-29 0 -50.5 20t-21.5 51z" />
<glyph unicode="&#xa9;" horiz-adv-x="1669" d="M102 723q0 205 96.5 372t264.5 263t373 96t371.5 -96t263 -263t96.5 -372t-96.5 -372t-264.5 -264t-370 -97q-205 0 -373 97t-264.5 264t-96.5 372zM178 723q0 -182 87 -333.5t236.5 -240t334.5 -88.5q182 0 332.5 88.5t236.5 240t86 333.5t-86 333.5t-236.5 238.5 t-332.5 87q-184 0 -335 -87t-237 -238.5t-86 -333.5zM444 723q0 205 109 322.5t291 117.5q150 0 282 -104q18 -12 19 -37q0 -14 -8.5 -26.5t-20.5 -12.5q-8 0 -29 12q-74 51 -123 73t-120 22q-147 0 -227 -97.5t-80 -269.5q0 -174 79.5 -271.5t227.5 -97.5q72 0 121 21.5 t122 73.5q20 12 29 12q12 0 20.5 -12.5t8.5 -26.5q0 -18 -19 -37q-49 -51 -123.5 -77.5t-158.5 -26.5q-182 0 -291 118.5t-109 323.5z" />
<glyph unicode="&#xaa;" horiz-adv-x="665" d="M76 1016q0 68 34.5 105.5t113.5 54t220 16.5h27v41q0 80 -32.5 114.5t-100.5 34.5q-94 0 -170 -47q-8 -4 -23.5 -14t-23.5 -10q-12 0 -20.5 10t-8.5 27q0 33 43 55q96 51 203 51q219 0 219 -229v-342q0 -20 -12.5 -31.5t-30.5 -11.5t-30.5 11t-12.5 32v57 q-27 -47 -75 -73.5t-105 -26.5q-92 0 -153.5 51t-61.5 125zM168 1026q0 -49 37 -82t92 -33q74 0 124 51.5t50 135.5v37h-22q-117 0 -177.5 -11.5t-82 -35t-21.5 -62.5z" />
<glyph unicode="&#xab;" horiz-adv-x="806" d="M117 543q0 10 8 26l170 295q14 27 41 27q14 0 24.5 -9.5t10.5 -23.5q0 -12 -4 -18l-154 -297l154 -299q4 -6 4 -19q0 -14 -10.5 -22t-24.5 -8q-27 0 -41 26l-170 293q-8 20 -8 29zM441 543q0 10 8 26l170 295q14 27 41 27q14 0 24.5 -9.5t10.5 -23.5q0 -12 -4 -18 l-154 -297l154 -299q4 -6 4 -19q0 -14 -10.5 -22t-24.5 -8q-27 0 -41 26l-170 293q-8 20 -8 29z" />
<glyph unicode="&#xac;" d="M115 801q0 14 13 25.5t32 11.5h909q18 0 31.5 -13.5t13.5 -31.5v-426q0 -18 -13.5 -31.5t-31.5 -13.5q-12 0 -20.5 13t-8.5 32v391h-880q-18 0 -31.5 12t-13.5 31z" />
<glyph unicode="&#xad;" horiz-adv-x="851" d="M147 543q0 16 11.5 27.5t29.5 11.5h478q18 0 28.5 -11.5t10.5 -27.5t-10.5 -27.5t-28.5 -11.5h-478q-18 0 -29.5 11t-11.5 28z" />
<glyph unicode="&#xae;" horiz-adv-x="1669" d="M102 723q0 205 96.5 372t264.5 263t373 96q204 0 371 -96t263.5 -263t96.5 -372t-96.5 -372t-264.5 -264t-370 -97q-205 0 -373 97t-264.5 264t-96.5 372zM178 723q0 -182 87 -333.5t236.5 -240t334.5 -88.5q182 0 332.5 88.5t236.5 240t86 333.5t-86 333.5t-236.5 238.5 t-332.5 87q-184 0 -335 -87t-237 -238.5t-86 -333.5zM555 324v784q0 20 13.5 32.5t31.5 12.5h291q129 0 204.5 -62.5t75.5 -183.5q0 -106 -62 -167.5t-169 -71.5q31 -10 54.5 -33t47.5 -62l150 -239q6 -12 6 -25q0 -14 -10 -23.5t-27 -9.5q-31 0 -47 31l-160 258 q-33 53 -69.5 72.5t-102.5 19.5h-141v-333q0 -43 -43 -43q-18 0 -30.5 11t-12.5 32zM641 735h240q100 0 152 40t52 132t-52 132t-152 40h-240v-344z" />
<glyph unicode="&#xb1;" d="M115 659q0 14 13 25.5t32 11.5h415v340q0 18 12.5 31.5t30.5 13.5q14 0 24.5 -13t10.5 -32v-340h416q18 0 31.5 -13t13.5 -32q0 -14 -13.5 -24.5t-31.5 -10.5h-416v-337q0 -20 -12 -34t-31 -14q-14 0 -24.5 12.5t-10.5 30.5v342h-415q-18 0 -31.5 12.5t-13.5 30.5z M127 45q0 14 13.5 25.5t31.5 11.5h909q19 0 32 -12.5t13 -32.5q0 -14 -13 -25.5t-32 -11.5h-909q-18 0 -31.5 13.5t-13.5 31.5z" />
<glyph unicode="&#xb4;" horiz-adv-x="614" d="M278 1143q0 10 8 18l273 350q25 37 61 37q20 0 34.5 -14t14.5 -37q0 -31 -28 -59l-312 -314q-10 -10 -22 -10q-10 0 -19.5 8t-9.5 21z" />
<glyph unicode="&#xb5;" horiz-adv-x="1116" d="M170 -332v1299q0 20 12.5 32.5t30.5 12.5t30.5 -12.5t12.5 -32.5v-594q0 -164 66.5 -233.5t193.5 -69.5q147 0 243.5 93t96.5 263v541q0 20 12.5 32.5t30.5 12.5q19 0 31 -12.5t12 -32.5v-930q0 -47 -43 -47q-18 0 -29.5 12t-11.5 35v149q-47 -96 -136 -148t-202 -52 q-168 0 -264 90v-408q0 -47 -43 -47q-18 0 -30.5 12.5t-12.5 34.5z" />
<glyph unicode="&#xb8;" horiz-adv-x="614" d="M152 -324q0 14 11 23.5t30 9.5q12 0 20 -2q59 -16 115 -16q66 0 97.5 22.5t31.5 61.5q0 29 -18.5 46t-51.5 17q-27 0 -62.5 -11t-45.5 -11q-14 0 -27.5 10t-11.5 27l20 188h86l-14 -135q27 10 59 10q62 0 107 -35t45 -106q0 -72 -59.5 -118t-164.5 -46q-76 0 -135 24 q-16 6 -24 17.5t-8 23.5z" />
<glyph unicode="&#xba;" horiz-adv-x="665" d="M53 1147q0 141 76 224t201 83t202.5 -83t77.5 -224t-77.5 -224t-202.5 -83t-201 83t-76 224zM141 1147q0 -115 48.5 -175.5t140.5 -60.5q190 0 190 236q0 113 -48 174t-142 61q-92 0 -140.5 -62.5t-48.5 -172.5z" />
<glyph unicode="&#xbb;" horiz-adv-x="806" d="M111 860q0 14 10 22.5t24 8.5q27 0 41 -27l172 -295q8 -10 9 -26q0 -14 -9 -29l-172 -293q-14 -24 -41 -24q-14 0 -23 7t-9 21q0 12 4 19l151 299l-151 297q-6 10 -6 20zM435 860q0 14 10 22.5t24 8.5q27 0 41 -27l172 -295q8 -10 9 -26q0 -14 -9 -29l-172 -293 q-14 -24 -41 -24q-14 0 -23 7t-9 21q0 12 4 19l151 299l-151 297q-6 10 -6 20z" />
<glyph unicode="&#xc0;" horiz-adv-x="1462" d="M76 41l606 1382q12 33 49 33q16 0 29.5 -9t19.5 -24l604 -1382q5 -12 5 -16q0 -16 -11.5 -25.5t-27.5 -9.5q-31 0 -43 28l-166 381h-817l-168 -381q-12 -29 -41 -28q-23 0 -35 14t-4 37zM358 481h746l-373 852zM426 1833q0 20 14 34.5t37 14.5q33 0 55 -29l217 -247 q8 -10 8 -23q0 -10 -8 -18.5t-20 -8.5t-21 9l-252 211q-31 29 -30 57z" />
<glyph unicode="&#xc1;" horiz-adv-x="1462" d="M76 41l606 1382q12 33 49 33q16 0 29.5 -9t19.5 -24l604 -1382q5 -12 5 -16q0 -16 -11.5 -25.5t-27.5 -9.5q-31 0 -43 28l-166 381h-817l-168 -381q-12 -29 -41 -28q-23 0 -35 14t-4 37zM358 481h746l-373 852zM704 1585q0 12 8 21l217 247q23 29 54 29q23 0 37 -14.5 t14 -34.5q0 -31 -29 -57l-252 -211q-8 -9 -20 -9t-20.5 8.5t-8.5 20.5z" />
<glyph unicode="&#xc2;" horiz-adv-x="1462" d="M76 41l606 1382q12 33 49 33q16 0 29.5 -9t19.5 -24l604 -1382q5 -12 5 -16q0 -16 -11.5 -25.5t-27.5 -9.5q-31 0 -43 28l-166 381h-817l-168 -381q-12 -29 -41 -28q-23 0 -35 14t-4 37zM358 481h746l-373 852zM465 1602q0 20 14 36l192 215q27 29 60 29q31 0 59 -29 l193 -215q14 -16 14 -36q0 -18 -13.5 -32t-29.5 -14q-18 0 -33 17l-190 223l-191 -223q-14 -17 -32 -17t-30.5 13.5t-12.5 32.5z" />
<glyph unicode="&#xc3;" horiz-adv-x="1462" d="M76 41l606 1382q12 33 49 33q16 0 29.5 -9t19.5 -24l604 -1382q5 -12 5 -16q0 -16 -11.5 -25.5t-27.5 -9.5q-31 0 -43 28l-166 381h-817l-168 -381q-12 -29 -41 -28q-23 0 -35 14t-4 37zM358 481h746l-373 852zM422 1671q0 31 20.5 66t59 57.5t90.5 22.5q35 0 72.5 -14.5 t90.5 -41.5q82 -43 115 -43q41 0 62.5 16.5t42.5 47.5q18 29 30 28q14 0 24.5 -11t10.5 -25q0 -51 -47 -97.5t-123 -46.5q-35 0 -73 14.5t-91 41.5q-82 43 -114 43q-41 0 -62.5 -17.5t-42.5 -48.5q-18 -29 -31 -29q-14 0 -24 11.5t-10 25.5z" />
<glyph unicode="&#xc4;" horiz-adv-x="1462" d="M76 41l606 1382q12 33 49 33q16 0 29.5 -9t19.5 -24l604 -1382q5 -12 5 -16q0 -16 -11.5 -25.5t-27.5 -9.5q-31 0 -43 28l-166 381h-817l-168 -381q-12 -29 -41 -28q-23 0 -35 14t-4 37zM358 481h746l-373 852zM493 1722q0 31 21.5 51.5t52.5 20.5q29 0 50.5 -20.5 t21.5 -51.5t-20.5 -51t-51.5 -20t-52.5 20.5t-21.5 50.5zM823 1722q0 31 21.5 51.5t50.5 20.5q31 0 52 -20.5t21 -51.5t-21.5 -51t-51.5 -20q-31 0 -51.5 20.5t-20.5 50.5z" />
<glyph unicode="&#xc5;" horiz-adv-x="1462" d="M76 41l594 1354q-61 18 -99.5 67t-38.5 115q0 82 58.5 138.5t140.5 56.5t139.5 -56.5t57.5 -138.5q0 -63 -38 -113.5t-97 -68.5l591 -1354q5 -12 5 -14q0 -16 -12.5 -26.5t-28.5 -10.5q-29 0 -41 28l-166 381h-817l-168 -381q-12 -29 -41 -28q-20 0 -33.5 15t-5.5 36z M358 481h746l-373 852zM627 1577q0 -45 29.5 -77t74.5 -32t75 32t30 77q0 47 -30 78t-75 31t-74.5 -31t-29.5 -78z" />
<glyph unicode="&#xc6;" horiz-adv-x="2019" d="M33 20q0 8 6 21l838 1382q10 14 21 17.5t30 3.5h948q16 0 26.5 -11.5t10.5 -29.5t-10.5 -29.5t-26.5 -11.5h-897l125 -590h731q16 0 26.5 -10t10.5 -29q0 -18 -10.5 -29.5t-26.5 -11.5h-715l129 -610h627q16 0 26.5 -11.5t10.5 -29.5t-10.5 -29.5t-26.5 -11.5h-651 q-35 0 -51 57l-72 342h-756l-229 -381q-16 -29 -47 -28q-16 0 -26.5 8t-10.5 22zM395 481h690l-178 848z" />
<glyph unicode="&#xc7;" horiz-adv-x="1386" d="M137 723q0 227 78 393t223.5 255t343.5 89q137 0 263 -49t210 -135q20 -20 21 -49q0 -16 -8 -27.5t-21 -11.5q-16 0 -35 16q-117 98 -212 135t-222 37q-260 0 -404.5 -172t-144.5 -481q0 -311 143.5 -483t405.5 -172q129 0 223.5 36.5t210.5 135.5q23 16 35 16 q13 0 21 -11.5t8 -27.5q0 -29 -21 -49q-80 -84 -199.5 -132t-252.5 -52l-8 -78q27 10 59 10q61 0 106.5 -35t45.5 -106q0 -72 -59.5 -118t-164.5 -46q-76 0 -135 24q-16 6 -24.5 17.5t-8.5 23.5q0 14 11.5 23.5t29.5 9.5q12 0 21 -2q59 -16 115 -16q66 0 97.5 22.5 t31.5 61.5q0 29 -18.5 46t-51.5 17q-27 0 -62.5 -11t-46.5 -11q-14 0 -27.5 10t-11.5 27l15 133q-272 23 -426 217t-154 520z" />
<glyph unicode="&#xc8;" horiz-adv-x="1179" d="M197 45v1354q0 18 15 31.5t36 13.5h788q16 0 26.5 -11.5t10.5 -29.5q0 -16 -10 -27.5t-27 -11.5h-753v-592h712q16 0 26.5 -10t10.5 -29q0 -18 -10 -29.5t-27 -11.5h-712v-612h753q16 0 26.5 -10.5t10.5 -28.5t-10 -29.5t-27 -11.5h-788q-21 0 -36 14.5t-15 30.5z M351 1833q0 20 14 34.5t37 14.5q33 0 55 -29l217 -247q8 -10 8 -23q0 -10 -8 -18.5t-20 -8.5t-21 9l-252 211q-31 29 -30 57z" />
<glyph unicode="&#xc9;" horiz-adv-x="1179" d="M197 45v1354q0 18 15 31.5t36 13.5h788q16 0 26.5 -11.5t10.5 -29.5q0 -16 -10 -27.5t-27 -11.5h-753v-592h712q16 0 26.5 -10t10.5 -29q0 -18 -10 -29.5t-27 -11.5h-712v-612h753q16 0 26.5 -10.5t10.5 -28.5t-10 -29.5t-27 -11.5h-788q-21 0 -36 14.5t-15 30.5z M629 1585q0 12 8 21l217 247q23 29 54 29q23 0 37 -14.5t14 -34.5q0 -31 -29 -57l-252 -211q-8 -9 -20 -9t-20.5 8.5t-8.5 20.5z" />
<glyph unicode="&#xca;" horiz-adv-x="1179" d="M197 45v1354q0 18 15 31.5t36 13.5h788q16 0 26.5 -11.5t10.5 -29.5q0 -16 -10 -27.5t-27 -11.5h-753v-592h712q16 0 26.5 -10t10.5 -29q0 -18 -10 -29.5t-27 -11.5h-712v-612h753q16 0 26.5 -10.5t10.5 -28.5t-10 -29.5t-27 -11.5h-788q-21 0 -36 14.5t-15 30.5z M390 1602q0 20 14 36l192 215q27 29 60 29q31 0 59 -29l193 -215q14 -16 14 -36q0 -18 -13.5 -32t-29.5 -14q-18 0 -33 17l-190 223l-191 -223q-14 -17 -32 -17t-30.5 13.5t-12.5 32.5z" />
<glyph unicode="&#xcb;" horiz-adv-x="1179" d="M197 45v1354q0 18 15 31.5t36 13.5h788q16 0 26.5 -11.5t10.5 -29.5q0 -16 -10 -27.5t-27 -11.5h-753v-592h712q16 0 26.5 -10t10.5 -29q0 -18 -10 -29.5t-27 -11.5h-712v-612h753q16 0 26.5 -10.5t10.5 -28.5t-10 -29.5t-27 -11.5h-788q-21 0 -36 14.5t-15 30.5z M418 1722q0 31 21.5 51.5t52.5 20.5q29 0 50.5 -20.5t21.5 -51.5t-20.5 -51t-51.5 -20t-52.5 20.5t-21.5 50.5zM748 1722q0 31 21.5 51.5t50.5 20.5q31 0 52 -20.5t21 -51.5t-21.5 -51t-51.5 -20q-31 0 -51.5 20.5t-20.5 50.5z" />
<glyph unicode="&#xcc;" horiz-adv-x="477" d="M-65 1833q0 20 14 34.5t37 14.5q33 0 55 -29l217 -247q8 -10 8 -23q0 -10 -8 -18.5t-20 -8.5t-21 9l-252 211q-31 29 -30 57zM197 37v1370q0 20 11 33.5t32 13.5q18 0 29.5 -13.5t11.5 -33.5v-1370q0 -20 -11.5 -33.5t-29.5 -13.5q-21 0 -32 13t-11 34z" />
<glyph unicode="&#xcd;" horiz-adv-x="477" d="M197 37v1370q0 20 11 33.5t32 13.5q18 0 29.5 -13.5t11.5 -33.5v-1370q0 -20 -11.5 -33.5t-29.5 -13.5q-21 0 -32 13t-11 34zM213 1585q0 12 8 21l217 247q23 29 54 29q23 0 37 -14.5t14 -34.5q0 -31 -29 -57l-252 -211q-8 -9 -20 -9t-20.5 8.5t-8.5 20.5z" />
<glyph unicode="&#xce;" horiz-adv-x="477" d="M-26 1602q0 20 14 36l192 215q27 29 60 29q31 0 59 -29l193 -215q14 -16 14 -36q0 -18 -13.5 -32t-29.5 -14q-18 0 -33 17l-190 223l-191 -223q-14 -17 -32 -17t-30.5 13.5t-12.5 32.5zM197 37v1370q0 20 11 33.5t32 13.5q18 0 29.5 -13.5t11.5 -33.5v-1370 q0 -20 -11.5 -33.5t-29.5 -13.5q-21 0 -32 13t-11 34z" />
<glyph unicode="&#xcf;" horiz-adv-x="477" d="M2 1722q0 31 21.5 51.5t52.5 20.5q29 0 50.5 -20.5t21.5 -51.5t-20.5 -51t-51.5 -20t-52.5 20.5t-21.5 50.5zM197 37v1370q0 20 11 33.5t32 13.5q18 0 29.5 -13.5t11.5 -33.5v-1370q0 -20 -11.5 -33.5t-29.5 -13.5q-21 0 -32 13t-11 34zM332 1722q0 31 21.5 51.5 t50.5 20.5q31 0 52 -20.5t21 -51.5t-21.5 -51t-51.5 -20q-31 0 -51.5 20.5t-20.5 50.5z" />
<glyph unicode="&#xd0;" horiz-adv-x="1492" d="M0 733q0 18 11.5 28.5t27.5 10.5h166v627q0 18 15.5 31.5t35.5 13.5h393q338 0 522.5 -185.5t184.5 -535.5q0 -348 -184.5 -535.5t-522.5 -187.5h-393q-20 0 -35.5 14.5t-15.5 30.5v651h-166q-16 0 -27.5 9.5t-11.5 27.5zM289 78h358q316 0 466.5 166t150.5 479 q0 643 -617 643h-358v-594h375q16 0 25 -10t9 -29q0 -37 -34 -37h-375v-618z" />
<glyph unicode="&#xd1;" horiz-adv-x="1499" d="M197 37v1370q0 20 11 33.5t34 13.5q14 0 21 -5t20 -19l940 -1283v1260q0 20 11 33.5t30 13.5q39 0 39 -47v-1370q0 -20 -11.5 -33.5t-31.5 -13.5q-14 0 -22.5 6t-18.5 20l-943 1282v-1261q0 -20 -11 -33.5t-29 -13.5q-39 0 -39 47zM441 1671q0 31 20.5 66t59 57.5 t90.5 22.5q35 0 72.5 -14.5t90.5 -41.5q82 -43 115 -43q41 0 62.5 16.5t42.5 47.5q18 29 30 28q14 0 24.5 -11t10.5 -25q0 -51 -47 -97.5t-123 -46.5q-35 0 -73 14.5t-91 41.5q-82 43 -114 43q-41 0 -62.5 -17.5t-42.5 -48.5q-18 -29 -31 -29q-14 0 -24 11.5t-10 25.5z" />
<glyph unicode="&#xd2;" horiz-adv-x="1538" d="M137 721q0 227 76 394t218 256t337 89t338 -89t219 -255t76 -393t-77 -394t-219 -256t-337 -89q-193 0 -335 89t-219 256t-77 392zM229 723q0 -311 141.5 -483t397.5 -172q258 0 399.5 172t141.5 483t-140.5 482t-400.5 171q-256 0 -397.5 -171t-141.5 -482zM463 1833 q0 20 14 34.5t37 14.5q33 0 55 -29l217 -247q8 -10 8 -23q0 -10 -8 -18.5t-20 -8.5t-21 9l-252 211q-31 29 -30 57z" />
<glyph unicode="&#xd3;" horiz-adv-x="1538" d="M137 721q0 227 76 394t218 256t337 89t338 -89t219 -255t76 -393t-77 -394t-219 -256t-337 -89q-193 0 -335 89t-219 256t-77 392zM229 723q0 -311 141.5 -483t397.5 -172q258 0 399.5 172t141.5 483t-140.5 482t-400.5 171q-256 0 -397.5 -171t-141.5 -482zM741 1585 q0 12 8 21l217 247q23 29 54 29q23 0 37 -14.5t14 -34.5q0 -31 -29 -57l-252 -211q-8 -9 -20 -9t-20.5 8.5t-8.5 20.5z" />
<glyph unicode="&#xd4;" horiz-adv-x="1538" d="M137 721q0 227 76 394t218 256t337 89t338 -89t219 -255t76 -393t-77 -394t-219 -256t-337 -89q-193 0 -335 89t-219 256t-77 392zM229 723q0 -311 141.5 -483t397.5 -172q258 0 399.5 172t141.5 483t-140.5 482t-400.5 171q-256 0 -397.5 -171t-141.5 -482zM502 1602 q0 20 14 36l192 215q27 29 60 29q31 0 59 -29l193 -215q14 -16 14 -36q0 -18 -13.5 -32t-29.5 -14q-18 0 -33 17l-190 223l-191 -223q-14 -17 -32 -17t-30.5 13.5t-12.5 32.5z" />
<glyph unicode="&#xd5;" horiz-adv-x="1538" d="M137 721q0 227 76 394t218 256t337 89t338 -89t219 -255t76 -393t-77 -394t-219 -256t-337 -89q-193 0 -335 89t-219 256t-77 392zM229 723q0 -311 141.5 -483t397.5 -172q258 0 399.5 172t141.5 483t-140.5 482t-400.5 171q-256 0 -397.5 -171t-141.5 -482zM459 1671 q0 31 20.5 66t59 57.5t90.5 22.5q35 0 72.5 -14.5t90.5 -41.5q82 -43 115 -43q41 0 62.5 16.5t42.5 47.5q18 29 30 28q14 0 24.5 -11t10.5 -25q0 -51 -47 -97.5t-123 -46.5q-35 0 -73 14.5t-91 41.5q-82 43 -114 43q-41 0 -62.5 -17.5t-42.5 -48.5q-18 -29 -31 -29 q-14 0 -24 11.5t-10 25.5z" />
<glyph unicode="&#xd6;" horiz-adv-x="1538" d="M137 721q0 227 76 394t218 256t337 89t338 -89t219 -255t76 -393t-77 -394t-219 -256t-337 -89q-193 0 -335 89t-219 256t-77 392zM229 723q0 -311 141.5 -483t397.5 -172q258 0 399.5 172t141.5 483t-140.5 482t-400.5 171q-256 0 -397.5 -171t-141.5 -482zM530 1722 q0 31 21.5 51.5t52.5 20.5q29 0 50.5 -20.5t21.5 -51.5t-20.5 -51t-51.5 -20t-52.5 20.5t-21.5 50.5zM860 1722q0 31 21.5 51.5t50.5 20.5q31 0 52 -20.5t21 -51.5t-21.5 -51t-51.5 -20q-31 0 -51.5 20.5t-20.5 50.5z" />
<glyph unicode="&#xd8;" horiz-adv-x="1538" d="M137 721q0 227 76 394t218 256t337 89q190 0 336 -88l67 117q10 16 31 16q16 0 28.5 -11t12.5 -26q0 -12 -4 -18l-72 -123q113 -94 173.5 -248.5t60.5 -355.5q0 -227 -77 -394t-219 -256t-337 -89q-188 0 -334 88l-65 -113q-12 -20 -33 -20q-16 0 -28.5 11t-12.5 25 q0 10 6 21l72 121q-115 96 -175.5 249.5t-60.5 354.5zM229 723q0 -178 48.5 -312.5t138.5 -217.5l645 1107q-123 76 -293 76q-256 0 -397.5 -171t-141.5 -482zM477 145q121 -78 291 -77q258 0 399.5 172t141.5 483q0 180 -47.5 313t-137.5 215z" />
<glyph unicode="&#xd9;" horiz-adv-x="1464" d="M186 547v860q0 23 11.5 35t31.5 12q18 0 29.5 -13.5t11.5 -33.5v-875q0 -465 463 -464q227 0 344 116.5t117 347.5v875q0 20 13.5 33.5t29.5 13.5q18 0 30.5 -13.5t12.5 -33.5v-860q0 -279 -139.5 -421t-407.5 -142q-270 0 -408.5 142t-138.5 421zM428 1833q0 20 14 34.5 t37 14.5q33 0 55 -29l217 -247q8 -10 8 -23q0 -10 -8 -18.5t-20 -8.5t-21 9l-252 211q-31 29 -30 57z" />
<glyph unicode="&#xda;" horiz-adv-x="1464" d="M186 547v860q0 23 11.5 35t31.5 12q18 0 29.5 -13.5t11.5 -33.5v-875q0 -465 463 -464q227 0 344 116.5t117 347.5v875q0 20 13.5 33.5t29.5 13.5q18 0 30.5 -13.5t12.5 -33.5v-860q0 -279 -139.5 -421t-407.5 -142q-270 0 -408.5 142t-138.5 421zM706 1585q0 12 8 21 l217 247q23 29 54 29q23 0 37 -14.5t14 -34.5q0 -31 -29 -57l-252 -211q-8 -9 -20 -9t-20.5 8.5t-8.5 20.5z" />
<glyph unicode="&#xdb;" horiz-adv-x="1464" d="M186 547v860q0 23 11.5 35t31.5 12q18 0 29.5 -13.5t11.5 -33.5v-875q0 -465 463 -464q227 0 344 116.5t117 347.5v875q0 20 13.5 33.5t29.5 13.5q18 0 30.5 -13.5t12.5 -33.5v-860q0 -279 -139.5 -421t-407.5 -142q-270 0 -408.5 142t-138.5 421zM467 1602q0 20 14 36 l192 215q27 29 60 29q31 0 59 -29l193 -215q14 -16 14 -36q0 -18 -13.5 -32t-29.5 -14q-18 0 -33 17l-190 223l-191 -223q-14 -17 -32 -17t-30.5 13.5t-12.5 32.5z" />
<glyph unicode="&#xdc;" horiz-adv-x="1464" d="M186 547v860q0 23 11.5 35t31.5 12q18 0 29.5 -13.5t11.5 -33.5v-875q0 -465 463 -464q227 0 344 116.5t117 347.5v875q0 20 13.5 33.5t29.5 13.5q18 0 30.5 -13.5t12.5 -33.5v-860q0 -279 -139.5 -421t-407.5 -142q-270 0 -408.5 142t-138.5 421zM495 1722 q0 31 21.5 51.5t52.5 20.5q29 0 50.5 -20.5t21.5 -51.5t-20.5 -51t-51.5 -20t-52.5 20.5t-21.5 50.5zM825 1722q0 31 21.5 51.5t50.5 20.5q31 0 52 -20.5t21 -51.5t-21.5 -51t-51.5 -20q-31 0 -51.5 20.5t-20.5 50.5z" />
<glyph unicode="&#xdd;" horiz-adv-x="1189" d="M18 1411q0 16 11.5 28.5t25.5 12.5q18 0 33 -18l508 -662l506 662q17 18 33 18q14 0 25 -12.5t11 -26.5q0 -12 -10 -29l-524 -684v-663q0 -20 -11.5 -33.5t-31.5 -13.5t-31.5 13t-11.5 34v665l-524 682q-8 10 -9 27zM567 1585q0 12 8 21l217 247q23 29 54 29 q23 0 37 -14.5t14 -34.5q0 -31 -29 -57l-252 -211q-8 -9 -20 -9t-20.5 8.5t-8.5 20.5z" />
<glyph unicode="&#xde;" horiz-adv-x="1294" d="M197 37v1370q0 23 11 35t32 12q18 0 30.5 -13.5t12.5 -33.5v-295h456q215 0 331 -97t116 -278q0 -180 -117 -280.5t-330 -100.5h-456v-319q0 -20 -12.5 -33.5t-30.5 -13.5q-20 0 -31.5 12t-11.5 35zM283 438h456q181 0 269 74t88 225q0 150 -88 222.5t-269 72.5h-456 v-594z" />
<glyph unicode="&#xdf;" horiz-adv-x="1189" d="M174 37v977q0 205 107.5 321.5t298.5 116.5q139 0 220 -67.5t81 -182.5q0 -86 -44 -144.5t-130 -131.5q-66 -55 -96.5 -92t-30.5 -84q0 -55 31.5 -92t78.5 -60t129 -53q96 -35 155.5 -65.5t101.5 -86t42 -139.5q0 -119 -98 -193.5t-254 -74.5q-70 0 -147.5 24.5 t-137.5 63.5q-41 29 -55 46t-14 38q0 14 10 25.5t24 11.5q10 0 30 -12.5t24 -16.5q59 -43 118.5 -69.5t147.5 -26.5q121 0 189.5 50t68.5 138q0 59 -33 98t-82 61.5t-133 51.5q-96 33 -153.5 61.5t-97.5 80t-40 132.5q0 76 41 129.5t119 114.5q76 61 112 107.5t36 111.5 q0 76 -55.5 119t-153.5 43q-156 0 -240 -91t-84 -261v-979q0 -23 -11 -35t-32 -12q-20 0 -31.5 12t-11.5 35z" />
<glyph unicode="&#xe0;" horiz-adv-x="1067" d="M141 283q0 111 58.5 171t192.5 86.5t376 26.5h41v86q0 145 -58.5 212t-183.5 67q-98 0 -175 -25.5t-122 -58.5q-8 -6 -33.5 -23.5t-41.5 -17.5q-14 0 -25.5 11t-11.5 28q0 39 71 82q72 43 157 65.5t169 22.5q342 0 342 -367v-610q0 -23 -11.5 -35t-31.5 -12t-32.5 13 t-12.5 34v143q-45 -94 -130 -145t-194 -51q-94 0 -173 38.5t-125 107.5t-46 151zM192 1497q0 23 14.5 37t34.5 14q33 0 62 -37l272 -350q8 -8 8 -20q0 -10 -9 -18.5t-19 -8.5q-12 0 -23 10l-311 314q-29 29 -29 59zM240 287q0 -94 69.5 -154.5t175.5 -60.5q93 0 166.5 44 t115.5 121.5t42 176.5v73h-39q-215 0 -327.5 -17t-157.5 -59t-45 -124z" />
<glyph unicode="&#xe1;" horiz-adv-x="1067" d="M141 283q0 111 58.5 171t192.5 86.5t376 26.5h41v86q0 145 -58.5 212t-183.5 67q-98 0 -175 -25.5t-122 -58.5q-8 -6 -33.5 -23.5t-41.5 -17.5q-14 0 -25.5 11t-11.5 28q0 39 71 82q72 43 157 65.5t169 22.5q342 0 342 -367v-610q0 -23 -11.5 -35t-31.5 -12t-32.5 13 t-12.5 34v143q-45 -94 -130 -145t-194 -51q-94 0 -173 38.5t-125 107.5t-46 151zM240 287q0 -94 69.5 -154.5t175.5 -60.5q93 0 166.5 44t115.5 121.5t42 176.5v73h-39q-215 0 -327.5 -17t-157.5 -59t-45 -124zM526 1143q0 10 8 18l273 350q25 37 61 37q20 0 34.5 -14 t14.5 -37q0 -31 -28 -59l-312 -314q-10 -10 -22 -10q-10 0 -19.5 8t-9.5 21z" />
<glyph unicode="&#xe2;" horiz-adv-x="1067" d="M141 283q0 111 58.5 171t192.5 86.5t376 26.5h41v86q0 145 -58.5 212t-183.5 67q-98 0 -175 -25.5t-122 -58.5q-8 -6 -33.5 -23.5t-41.5 -17.5q-14 0 -25.5 11t-11.5 28q0 39 71 82q72 43 157 65.5t169 22.5q342 0 342 -367v-610q0 -23 -11.5 -35t-31.5 -12t-32.5 13 t-12.5 34v143q-45 -94 -130 -145t-194 -51q-94 0 -173 38.5t-125 107.5t-46 151zM240 287q0 -94 69.5 -154.5t175.5 -60.5q93 0 166.5 44t115.5 121.5t42 176.5v73h-39q-215 0 -327.5 -17t-157.5 -59t-45 -124zM291 1161q0 12 10 29l196 313q25 39 58 39t57 -39l197 -313 q10 -16 10 -31q0 -18 -14.5 -31.5t-30.5 -13.5q-27 0 -41 27l-178 303l-178 -303q-14 -25 -41 -25q-18 0 -31.5 13.5t-13.5 31.5z" />
<glyph unicode="&#xe3;" horiz-adv-x="1067" d="M141 283q0 111 58.5 171t192.5 86.5t376 26.5h41v86q0 145 -58.5 212t-183.5 67q-98 0 -175 -25.5t-122 -58.5q-8 -6 -33.5 -23.5t-41.5 -17.5q-14 0 -25.5 11t-11.5 28q0 39 71 82q72 43 157 65.5t169 22.5q342 0 342 -367v-610q0 -23 -11.5 -35t-31.5 -12t-32.5 13 t-12.5 34v143q-45 -94 -130 -145t-194 -51q-94 0 -173 38.5t-125 107.5t-46 151zM240 287q0 -94 69.5 -154.5t175.5 -60.5q93 0 166.5 44t115.5 121.5t42 176.5v73h-39q-215 0 -327.5 -17t-157.5 -59t-45 -124zM246 1272q0 33 21.5 73.5t59 70.5t89.5 30q37 0 73.5 -19.5 t87.5 -56.5q45 -31 72 -45t49 -14q37 0 57.5 21.5t36.5 58.5q8 16 17.5 28.5t19.5 12.5q14 0 24.5 -11.5t10.5 -25.5q0 -33 -21.5 -74t-59.5 -70.5t-89 -29.5q-37 0 -74 19.5t-88 55.5q-45 31 -71.5 45.5t-49.5 14.5q-37 0 -57 -21.5t-37 -58.5q-8 -16 -17 -28.5t-20 -12.5 q-14 0 -24 11t-10 26z" />
<glyph unicode="&#xe4;" horiz-adv-x="1067" d="M141 283q0 111 58.5 171t192.5 86.5t376 26.5h41v86q0 145 -58.5 212t-183.5 67q-98 0 -175 -25.5t-122 -58.5q-8 -6 -33.5 -23.5t-41.5 -17.5q-14 0 -25.5 11t-11.5 28q0 39 71 82q72 43 157 65.5t169 22.5q342 0 342 -367v-610q0 -23 -11.5 -35t-31.5 -12t-32.5 13 t-12.5 34v143q-45 -94 -130 -145t-194 -51q-94 0 -173 38.5t-125 107.5t-46 151zM240 287q0 -94 69.5 -154.5t175.5 -60.5q93 0 166.5 44t115.5 121.5t42 176.5v73h-39q-215 0 -327.5 -17t-157.5 -59t-45 -124zM317 1331q0 31 21.5 51.5t52.5 20.5t51.5 -20.5t20.5 -51.5 t-21.5 -51t-50.5 -20q-31 0 -52.5 20t-21.5 51zM647 1331q0 31 20.5 51.5t51.5 20.5t52 -20.5t21 -51.5t-21.5 -51t-51.5 -20q-29 0 -50.5 20t-21.5 51z" />
<glyph unicode="&#xe5;" horiz-adv-x="1067" d="M141 283q0 111 58.5 171t192.5 86.5t376 26.5h41v86q0 145 -58.5 212t-183.5 67q-98 0 -175 -25.5t-122 -58.5q-8 -6 -33.5 -23.5t-41.5 -17.5q-14 0 -25.5 11t-11.5 28q0 39 71 82q72 43 157 65.5t169 22.5q342 0 342 -367v-610q0 -23 -11.5 -35t-31.5 -12t-32.5 13 t-12.5 34v143q-45 -94 -130 -145t-194 -51q-94 0 -173 38.5t-125 107.5t-46 151zM240 287q0 -94 69.5 -154.5t175.5 -60.5q93 0 166.5 44t115.5 121.5t42 176.5v73h-39q-215 0 -327.5 -17t-157.5 -59t-45 -124zM356 1331q0 82 58.5 138.5t140.5 56.5t140 -56.5t58 -138.5 q0 -80 -58 -136t-140 -56t-140.5 56t-58.5 136zM450 1331q0 -45 30 -76.5t75 -31.5t74.5 31.5t29.5 76.5q0 47 -29.5 78t-74.5 31t-75 -31t-30 -78z" />
<glyph unicode="&#xe6;" horiz-adv-x="1765" d="M141 283q0 111 58.5 172t195.5 86.5t383 25.5h41v76q0 152 -57 220.5t-187 68.5q-117 0 -189.5 -27.5t-139.5 -70.5q-39 -27 -53 -27t-24.5 11t-10.5 28q0 41 71 82q150 88 332 88q270 0 332 -219q55 104 151.5 161.5t219.5 57.5q182 0 290.5 -124t108.5 -335 q0 -37 -15.5 -53.5t-50.5 -16.5h-688q2 -201 100.5 -309t274.5 -108q92 0 155.5 26.5t123.5 67.5q41 31 57 31q14 0 24.5 -11.5t10.5 -25.5q0 -43 -70 -84q-147 -88 -297 -88q-158 0 -266.5 75.5t-157.5 217.5q-35 -137 -131 -215t-239 -78q-98 0 -179.5 38.5t-127.5 106.5 t-46 152zM240 287q0 -94 71.5 -154.5t184.5 -60.5q92 0 165.5 45t115.5 125t42 180v65h-39q-219 0 -332.5 -17t-160.5 -59t-47 -124zM911 567h668q-2 178 -85 273.5t-230 95.5q-150 0 -243 -98.5t-110 -270.5z" />
<glyph unicode="&#xe7;" horiz-adv-x="962" d="M106 498q0 154 56.5 271.5t160 182t236.5 64.5q76 0 147.5 -19.5t127.5 -60.5q39 -31 54 -50.5t15 -41.5q0 -14 -10 -25.5t-25 -11.5q-10 0 -24.5 9t-30.5 22q-55 43 -111.5 69.5t-140.5 26.5q-170 0 -266 -117t-96 -321q0 -201 95 -313.5t265 -112.5q86 0 146.5 26.5 t115.5 69.5q39 29 53 29q15 0 25 -10.5t10 -24.5q0 -20 -14 -37t-55 -49q-49 -37 -119 -60.5t-141 -27.5l-9 -80q27 10 60 10q61 0 106 -35t45 -106q0 -72 -59 -118t-164 -46q-76 0 -135 24q-16 6 -24.5 17.5t-8.5 23.5q0 14 11.5 23.5t29.5 9.5q12 0 21 -2q59 -16 114 -16 q66 0 97.5 22.5t31.5 61.5q0 29 -18.5 46t-50.5 17q-27 0 -63 -11t-46 -11q-14 0 -27.5 10t-11.5 27l15 137q-174 23 -281 160t-107 348z" />
<glyph unicode="&#xe8;" horiz-adv-x="1073" d="M106 500q0 154 57.5 270.5t162 181t239.5 64.5q188 0 297 -123t109 -336q0 -37 -14.5 -53.5t-51.5 -16.5h-704q2 -201 101 -309t280 -108q98 0 162.5 26.5t125.5 69.5q43 29 56 29q14 0 24.5 -11.5t10.5 -25.5q0 -20 -15.5 -40t-54.5 -44q-147 -88 -305 -88 q-223 0 -351.5 137t-128.5 377zM202 1497q0 23 14.5 37t34.5 14q33 0 62 -37l272 -350q8 -8 8 -20q0 -10 -9 -18.5t-19 -8.5q-12 0 -23 10l-311 314q-29 29 -29 59zM203 567h686q-4 178 -88 273.5t-236 95.5q-155 0 -250.5 -97.5t-111.5 -271.5z" />
<glyph unicode="&#xe9;" horiz-adv-x="1073" d="M106 500q0 154 57.5 270.5t162 181t239.5 64.5q188 0 297 -123t109 -336q0 -37 -14.5 -53.5t-51.5 -16.5h-704q2 -201 101 -309t280 -108q98 0 162.5 26.5t125.5 69.5q43 29 56 29q14 0 24.5 -11.5t10.5 -25.5q0 -20 -15.5 -40t-54.5 -44q-147 -88 -305 -88 q-223 0 -351.5 137t-128.5 377zM203 567h686q-4 178 -88 273.5t-236 95.5q-155 0 -250.5 -97.5t-111.5 -271.5zM536 1143q0 10 8 18l273 350q25 37 61 37q20 0 34.5 -14t14.5 -37q0 -31 -28 -59l-312 -314q-10 -10 -22 -10q-10 0 -19.5 8t-9.5 21z" />
<glyph unicode="&#xea;" horiz-adv-x="1073" d="M106 500q0 154 57.5 270.5t162 181t239.5 64.5q188 0 297 -123t109 -336q0 -37 -14.5 -53.5t-51.5 -16.5h-704q2 -201 101 -309t280 -108q98 0 162.5 26.5t125.5 69.5q43 29 56 29q14 0 24.5 -11.5t10.5 -25.5q0 -20 -15.5 -40t-54.5 -44q-147 -88 -305 -88 q-223 0 -351.5 137t-128.5 377zM203 567h686q-4 178 -88 273.5t-236 95.5q-155 0 -250.5 -97.5t-111.5 -271.5zM301 1161q0 12 10 29l196 313q25 39 58 39t57 -39l197 -313q10 -16 10 -31q0 -18 -14.5 -31.5t-30.5 -13.5q-27 0 -41 27l-178 303l-178 -303q-14 -25 -41 -25 q-18 0 -31.5 13.5t-13.5 31.5z" />
<glyph unicode="&#xeb;" horiz-adv-x="1073" d="M106 500q0 154 57.5 270.5t162 181t239.5 64.5q188 0 297 -123t109 -336q0 -37 -14.5 -53.5t-51.5 -16.5h-704q2 -201 101 -309t280 -108q98 0 162.5 26.5t125.5 69.5q43 29 56 29q14 0 24.5 -11.5t10.5 -25.5q0 -20 -15.5 -40t-54.5 -44q-147 -88 -305 -88 q-223 0 -351.5 137t-128.5 377zM203 567h686q-4 178 -88 273.5t-236 95.5q-155 0 -250.5 -97.5t-111.5 -271.5zM327 1331q0 31 21.5 51.5t52.5 20.5t51.5 -20.5t20.5 -51.5t-21.5 -51t-50.5 -20q-31 0 -52.5 20t-21.5 51zM657 1331q0 31 20.5 51.5t51.5 20.5t52 -20.5 t21 -51.5t-21.5 -51t-51.5 -20q-29 0 -50.5 20t-21.5 51z" />
<glyph unicode="&#xec;" horiz-adv-x="434" d="M-146 1497q0 23 14.5 37t34.5 14q33 0 62 -37l272 -350q8 -8 8 -20q0 -10 -9 -18.5t-19 -8.5q-12 0 -23 10l-311 314q-29 29 -29 59zM174 37v930q0 20 11.5 32.5t31.5 12.5t31.5 -12.5t11.5 -32.5v-930q0 -23 -11 -35t-32 -12q-20 0 -31.5 12t-11.5 35z" />
<glyph unicode="&#xed;" horiz-adv-x="434" d="M174 37v930q0 20 11.5 32.5t31.5 12.5t31.5 -12.5t11.5 -32.5v-930q0 -23 -11 -35t-32 -12q-20 0 -31.5 12t-11.5 35zM188 1143q0 10 8 18l273 350q25 37 61 37q20 0 34.5 -14t14.5 -37q0 -31 -28 -59l-312 -314q-10 -10 -22 -10q-10 0 -19.5 8t-9.5 21z" />
<glyph unicode="&#xee;" horiz-adv-x="434" d="M-47 1161q0 12 10 29l196 313q25 39 58 39t57 -39l197 -313q10 -16 10 -31q0 -18 -14.5 -31.5t-30.5 -13.5q-27 0 -41 27l-178 303l-178 -303q-14 -25 -41 -25q-18 0 -31.5 13.5t-13.5 31.5zM174 37v930q0 20 11.5 32.5t31.5 12.5t31.5 -12.5t11.5 -32.5v-930 q0 -23 -11 -35t-32 -12q-20 0 -31.5 12t-11.5 35z" />
<glyph unicode="&#xef;" horiz-adv-x="434" d="M-21 1331q0 31 21.5 51.5t52.5 20.5t51.5 -20.5t20.5 -51.5t-21.5 -51t-50.5 -20q-31 0 -52.5 20t-21.5 51zM174 37v930q0 20 11.5 32.5t31.5 12.5t31.5 -12.5t11.5 -32.5v-930q0 -23 -11 -35t-32 -12q-20 0 -31.5 12t-11.5 35zM309 1331q0 31 20.5 51.5t51.5 20.5 t52 -20.5t21 -51.5t-21.5 -51t-51.5 -20q-29 0 -50.5 20t-21.5 51z" />
<glyph unicode="&#xf0;" horiz-adv-x="1103" d="M106 459q0 141 55.5 248.5t158 166t235.5 58.5q236 0 342 -174q-43 244 -217 418l-277 -117q-12 -4 -16 -4q-16 0 -27.5 13t-11.5 30q0 25 25 37l239 100q-98 76 -221 127q-47 18 -47 51q0 16 12.5 26.5t32.5 10.5t39 -8q158 -68 274 -170l232 96q12 4 18 4 q16 0 28.5 -12t12.5 -29q0 -23 -26 -35l-201 -84q231 -252 231 -643q0 -289 -113.5 -436t-334.5 -147q-133 0 -233.5 58t-155 165.5t-54.5 249.5zM199 459q0 -186 91 -287.5t257 -101.5q164 0 258 103t94 288q0 178 -92 282.5t-258 104.5q-164 0 -257 -103.5t-93 -285.5z " />
<glyph unicode="&#xf1;" horiz-adv-x="1132" d="M174 37v928q0 47 43 47q20 0 30.5 -12.5t10.5 -34.5v-152q45 98 136 150.5t208 52.5q361 0 361 -377v-602q0 -47 -43 -47q-20 0 -31.5 12t-11.5 35v594q0 158 -63.5 230.5t-205.5 72.5q-158 0 -253 -97.5t-95 -258.5v-541q0 -23 -11 -35t-32 -12q-20 0 -31.5 12t-11.5 35 zM258 1272q0 33 21.5 73.5t59 70.5t89.5 30q37 0 73.5 -19.5t87.5 -56.5q45 -31 72 -45t49 -14q37 0 57.5 21.5t36.5 58.5q8 16 17.5 28.5t19.5 12.5q14 0 24.5 -11.5t10.5 -25.5q0 -33 -21.5 -74t-59.5 -70.5t-89 -29.5q-37 0 -74 19.5t-88 55.5q-45 31 -71.5 45.5 t-49.5 14.5q-37 0 -57 -21.5t-37 -58.5q-8 -16 -17 -28.5t-20 -12.5q-14 0 -24 11t-10 26z" />
<glyph unicode="&#xf2;" horiz-adv-x="1097" d="M106 502q0 154 55.5 270.5t156 180t231.5 63.5t231.5 -63.5t155.5 -180.5t55 -270q0 -156 -55 -272.5t-155.5 -180t-231.5 -63.5t-231.5 63.5t-156 180t-55.5 272.5zM186 1497q0 23 14.5 37t34.5 14q33 0 62 -37l272 -350q8 -8 8 -20q0 -10 -9 -18.5t-19 -8.5 q-12 0 -23 10l-311 314q-29 29 -29 59zM199 502q0 -209 91 -320.5t257 -111.5q170 0 261 111.5t91 320.5q0 203 -93 316.5t-257 113.5t-257 -113.5t-93 -316.5z" />
<glyph unicode="&#xf3;" horiz-adv-x="1097" d="M106 502q0 154 55.5 270.5t156 180t231.5 63.5t231.5 -63.5t155.5 -180.5t55 -270q0 -156 -55 -272.5t-155.5 -180t-231.5 -63.5t-231.5 63.5t-156 180t-55.5 272.5zM199 502q0 -209 91 -320.5t257 -111.5q170 0 261 111.5t91 320.5q0 203 -93 316.5t-257 113.5 t-257 -113.5t-93 -316.5zM520 1143q0 10 8 18l273 350q25 37 61 37q20 0 34.5 -14t14.5 -37q0 -31 -28 -59l-312 -314q-10 -10 -22 -10q-10 0 -19.5 8t-9.5 21z" />
<glyph unicode="&#xf4;" horiz-adv-x="1097" d="M106 502q0 154 55.5 270.5t156 180t231.5 63.5t231.5 -63.5t155.5 -180.5t55 -270q0 -156 -55 -272.5t-155.5 -180t-231.5 -63.5t-231.5 63.5t-156 180t-55.5 272.5zM199 502q0 -209 91 -320.5t257 -111.5q170 0 261 111.5t91 320.5q0 203 -93 316.5t-257 113.5 t-257 -113.5t-93 -316.5zM285 1161q0 12 10 29l196 313q25 39 58 39t57 -39l197 -313q10 -16 10 -31q0 -18 -14.5 -31.5t-30.5 -13.5q-27 0 -41 27l-178 303l-178 -303q-14 -25 -41 -25q-18 0 -31.5 13.5t-13.5 31.5z" />
<glyph unicode="&#xf5;" horiz-adv-x="1097" d="M106 502q0 154 55.5 270.5t156 180t231.5 63.5t231.5 -63.5t155.5 -180.5t55 -270q0 -156 -55 -272.5t-155.5 -180t-231.5 -63.5t-231.5 63.5t-156 180t-55.5 272.5zM199 502q0 -209 91 -320.5t257 -111.5q170 0 261 111.5t91 320.5q0 203 -93 316.5t-257 113.5 t-257 -113.5t-93 -316.5zM240 1272q0 33 21.5 73.5t59 70.5t89.5 30q37 0 73.5 -19.5t87.5 -56.5q45 -31 72 -45t49 -14q37 0 57.5 21.5t36.5 58.5q8 16 17.5 28.5t19.5 12.5q14 0 24.5 -11.5t10.5 -25.5q0 -33 -21.5 -74t-59.5 -70.5t-89 -29.5q-37 0 -74 19.5t-88 55.5 q-45 31 -71.5 45.5t-49.5 14.5q-37 0 -57 -21.5t-37 -58.5q-8 -16 -17 -28.5t-20 -12.5q-14 0 -24 11t-10 26z" />
<glyph unicode="&#xf6;" horiz-adv-x="1097" d="M106 502q0 154 55.5 270.5t156 180t231.5 63.5t231.5 -63.5t155.5 -180.5t55 -270q0 -156 -55 -272.5t-155.5 -180t-231.5 -63.5t-231.5 63.5t-156 180t-55.5 272.5zM199 502q0 -209 91 -320.5t257 -111.5q170 0 261 111.5t91 320.5q0 203 -93 316.5t-257 113.5 t-257 -113.5t-93 -316.5zM311 1331q0 31 21.5 51.5t52.5 20.5t51.5 -20.5t20.5 -51.5t-21.5 -51t-50.5 -20q-31 0 -52.5 20t-21.5 51zM641 1331q0 31 20.5 51.5t51.5 20.5t52 -20.5t21 -51.5t-21.5 -51t-51.5 -20q-29 0 -50.5 20t-21.5 51z" />
<glyph unicode="&#xf7;" d="M127 584q0 14 13.5 25.5t31.5 11.5h909q18 0 31.5 -12.5t13.5 -33.5q0 -14 -13 -25t-32 -11h-909q-18 0 -31.5 13t-13.5 32zM528 164q0 39 25 63.5t61 24.5q37 0 60.5 -24.5t23.5 -63.5t-23.5 -63.5t-60.5 -24.5q-36 0 -61 24.5t-25 63.5zM528 999q0 39 25 63.5t61 24.5 q37 0 60.5 -24.5t23.5 -63.5q0 -41 -23.5 -65.5t-60.5 -24.5q-36 0 -61 24.5t-25 65.5z" />
<glyph unicode="&#xf8;" horiz-adv-x="1097" d="M106 502q0 154 55.5 270.5t156 180t231.5 63.5q119 0 219 -55l49 83q16 23 37 23q16 0 29.5 -12.5t13.5 -30.5q0 -12 -6 -25l-53 -90q73 -67 113 -171.5t40 -235.5q0 -156 -55 -272.5t-155.5 -180t-231.5 -63.5q-123 0 -219 55l-47 -82q-10 -23 -35 -22q-18 0 -31.5 12 t-13.5 31q0 10 6 22l53 90q-76 68 -116 173.5t-40 236.5zM201 502q0 -221 104 -336l420 721q-72 45 -176 45q-164 0 -256 -113.5t-92 -316.5zM373 113q72 -43 174 -43q170 0 261 111.5t91 320.5q0 219 -106 332z" />
<glyph unicode="&#xf9;" horiz-adv-x="1116" d="M170 365v602q0 20 11.5 32.5t31.5 12.5t31.5 -12.5t11.5 -32.5v-594q0 -156 63.5 -229.5t196.5 -73.5q154 0 247 97t93 259v541q0 20 11.5 32.5t31.5 12.5q21 0 32 -12.5t11 -32.5v-930q0 -47 -43 -47q-18 0 -29.5 13t-11.5 34v149q-47 -96 -136 -148t-202 -52 q-172 0 -261 96t-89 283zM196 1497q0 23 14.5 37t34.5 14q33 0 62 -37l272 -350q8 -8 8 -20q0 -10 -9 -18.5t-19 -8.5q-12 0 -23 10l-311 314q-29 29 -29 59z" />
<glyph unicode="&#xfa;" horiz-adv-x="1116" d="M170 365v602q0 20 11.5 32.5t31.5 12.5t31.5 -12.5t11.5 -32.5v-594q0 -156 63.5 -229.5t196.5 -73.5q154 0 247 97t93 259v541q0 20 11.5 32.5t31.5 12.5q21 0 32 -12.5t11 -32.5v-930q0 -47 -43 -47q-18 0 -29.5 13t-11.5 34v149q-47 -96 -136 -148t-202 -52 q-172 0 -261 96t-89 283zM530 1143q0 10 8 18l273 350q25 37 61 37q20 0 34.5 -14t14.5 -37q0 -31 -28 -59l-312 -314q-10 -10 -22 -10q-10 0 -19.5 8t-9.5 21z" />
<glyph unicode="&#xfb;" horiz-adv-x="1116" d="M170 365v602q0 20 11.5 32.5t31.5 12.5t31.5 -12.5t11.5 -32.5v-594q0 -156 63.5 -229.5t196.5 -73.5q154 0 247 97t93 259v541q0 20 11.5 32.5t31.5 12.5q21 0 32 -12.5t11 -32.5v-930q0 -47 -43 -47q-18 0 -29.5 13t-11.5 34v149q-47 -96 -136 -148t-202 -52 q-172 0 -261 96t-89 283zM295 1161q0 12 10 29l196 313q25 39 58 39t57 -39l197 -313q10 -16 10 -31q0 -18 -14.5 -31.5t-30.5 -13.5q-27 0 -41 27l-178 303l-178 -303q-14 -25 -41 -25q-18 0 -31.5 13.5t-13.5 31.5z" />
<glyph unicode="&#xfc;" horiz-adv-x="1116" d="M170 365v602q0 20 11.5 32.5t31.5 12.5t31.5 -12.5t11.5 -32.5v-594q0 -156 63.5 -229.5t196.5 -73.5q154 0 247 97t93 259v541q0 20 11.5 32.5t31.5 12.5q21 0 32 -12.5t11 -32.5v-930q0 -47 -43 -47q-18 0 -29.5 13t-11.5 34v149q-47 -96 -136 -148t-202 -52 q-172 0 -261 96t-89 283zM321 1331q0 31 21.5 51.5t52.5 20.5t51.5 -20.5t20.5 -51.5t-21.5 -51t-50.5 -20q-31 0 -52.5 20t-21.5 51zM651 1331q0 31 20.5 51.5t51.5 20.5t52 -20.5t21 -51.5t-21.5 -51t-51.5 -20q-29 0 -50.5 20t-21.5 51z" />
<glyph unicode="&#xfd;" horiz-adv-x="1032" d="M41 971q0 18 14.5 30.5t32.5 12.5q23 0 35 -25l395 -891l4 11l389 874q12 29 39 29q16 0 28.5 -11.5t12.5 -29.5q0 -6 -4 -19l-588 -1302q-12 -25 -37 -25q-16 0 -27 10.5t-11 26.5l4 16l147 324l-430 950q-4 12 -4 19zM487 1143q0 10 8 18l273 350q25 37 61 37 q20 0 34.5 -14t14.5 -37q0 -31 -28 -59l-312 -314q-10 -10 -22 -10q-10 0 -19.5 8t-9.5 21z" />
<glyph unicode="&#xfe;" horiz-adv-x="1157" d="M174 -332v1739q0 47 43 47q18 0 30.5 -12t12.5 -35v-602q45 102 134 156.5t214 54.5q127 0 227.5 -61.5t158 -179.5t57.5 -277q0 -160 -57.5 -276t-158 -176t-227.5 -60q-125 0 -214 55t-134 160v-533q0 -23 -12 -35t-31 -12q-43 0 -43 47zM260 502q0 -207 90 -319.5 t256 -112.5q168 0 259 112.5t91 315.5q0 201 -91 317.5t-257 116.5q-168 0 -258 -111.5t-90 -318.5z" />
<glyph unicode="&#xff;" horiz-adv-x="1032" d="M41 971q0 18 14.5 30.5t32.5 12.5q23 0 35 -25l395 -891l4 11l389 874q12 29 39 29q16 0 28.5 -11.5t12.5 -29.5q0 -6 -4 -19l-588 -1302q-12 -25 -37 -25q-16 0 -27 10.5t-11 26.5l4 16l147 324l-430 950q-4 12 -4 19zM278 1331q0 31 21.5 51.5t52.5 20.5t51.5 -20.5 t20.5 -51.5t-21.5 -51t-50.5 -20q-31 0 -52.5 20t-21.5 51zM608 1331q0 31 20.5 51.5t51.5 20.5t52 -20.5t21 -51.5t-21.5 -51t-51.5 -20q-29 0 -50.5 20t-21.5 51z" />
<glyph unicode="&#x100;" horiz-adv-x="1462" d="M76 41l606 1382q12 33 49 33q16 0 29.5 -9t19.5 -24l604 -1382q5 -12 5 -16q0 -16 -11.5 -25.5t-27.5 -9.5q-31 0 -43 28l-166 381h-817l-168 -381q-12 -29 -41 -28q-23 0 -35 14t-4 37zM358 481h746l-373 852zM424 1722q0 43 59 43h496q59 0 59 -43q0 -20 -16.5 -31.5 t-42.5 -11.5h-496q-27 0 -43 11.5t-16 31.5z" />
<glyph unicode="&#x101;" horiz-adv-x="1067" d="M141 283q0 111 58.5 171t192.5 86.5t376 26.5h41v86q0 145 -58.5 212t-183.5 67q-98 0 -175 -25.5t-122 -58.5q-8 -6 -33.5 -23.5t-41.5 -17.5q-14 0 -25.5 11t-11.5 28q0 39 71 82q72 43 157 65.5t169 22.5q342 0 342 -367v-610q0 -23 -11.5 -35t-31.5 -12t-32.5 13 t-12.5 34v143q-45 -94 -130 -145t-194 -51q-94 0 -173 38.5t-125 107.5t-46 151zM240 287q0 -94 69.5 -154.5t175.5 -60.5q93 0 166.5 44t115.5 121.5t42 176.5v73h-39q-215 0 -327.5 -17t-157.5 -59t-45 -124zM248 1331q0 45 59 45h496q59 0 59 -45q0 -20 -16.5 -31.5 t-42.5 -11.5h-496q-27 0 -43 11.5t-16 31.5z" />
<glyph unicode="&#x102;" horiz-adv-x="1462" d="M76 41l606 1382q12 33 49 33q16 0 29.5 -9t19.5 -24l604 -1382q5 -12 5 -16q0 -16 -11.5 -25.5t-27.5 -9.5q-31 0 -43 28l-166 381h-817l-168 -381q-12 -29 -41 -28q-23 0 -35 14t-4 37zM358 481h746l-373 852zM424 1806q0 18 12 29.5t31 11.5q33 0 51 -35 q41 -72 91 -102.5t122 -30.5t122 31t91 102q16 35 51 35q18 0 30.5 -11t12.5 -30q0 -10 -6 -26q-45 -94 -123 -139.5t-178 -45.5q-99 0 -176.5 45.5t-124.5 139.5q-6 16 -6 26z" />
<glyph unicode="&#x103;" horiz-adv-x="1067" d="M141 283q0 111 58.5 171t192.5 86.5t376 26.5h41v86q0 145 -58.5 212t-183.5 67q-98 0 -175 -25.5t-122 -58.5q-8 -6 -33.5 -23.5t-41.5 -17.5q-14 0 -25.5 11t-11.5 28q0 39 71 82q72 43 157 65.5t169 22.5q342 0 342 -367v-610q0 -23 -11.5 -35t-31.5 -12t-32.5 13 t-12.5 34v143q-45 -94 -130 -145t-194 -51q-94 0 -173 38.5t-125 107.5t-46 151zM240 287q0 -94 69.5 -154.5t175.5 -60.5q93 0 166.5 44t115.5 121.5t42 176.5v73h-39q-215 0 -327.5 -17t-157.5 -59t-45 -124zM252 1419q0 20 12 33.5t31 13.5q37 0 55 -41q66 -147 205 -147 t205 147q8 20 23.5 30.5t29.5 10.5q18 0 31.5 -13t13.5 -34q0 -12 -6 -28q-39 -94 -119 -144.5t-178 -50.5q-99 0 -176.5 49t-120.5 146q-6 16 -6 28z" />
<glyph unicode="&#x104;" horiz-adv-x="1462" d="M76 41l606 1382q12 33 49 33q16 0 29.5 -9t19.5 -24l586 -1341l14 2l-8 -14l12 -29q4 -12 5 -16q0 -12 -10.5 -21.5t-22.5 -11.5q-78 -10 -119 -54t-41 -110t39 -102.5t104 -36.5q45 0 99 28q14 9 28 9t22.5 -10.5t8.5 -24.5q0 -33 -27 -47q-59 -33 -137 -33 q-102 0 -164.5 58.5t-62.5 154.5q0 80 47 142.5t135 94.5l-147 338h-817l-168 -381q-12 -29 -41 -28q-23 0 -35 14t-4 37zM358 481h746l-373 852z" />
<glyph unicode="&#x105;" horiz-adv-x="1067" d="M141 283q0 111 58.5 171t192.5 86.5t376 26.5h41v86q0 145 -58.5 212t-183.5 67q-98 0 -175 -25.5t-122 -58.5q-12 -8 -36.5 -24.5t-38.5 -16.5t-25.5 11t-11.5 28q0 39 71 82q72 43 157 65.5t169 22.5q342 0 342 -367v-610q0 -18 -10 -30.5t-27 -12.5q-78 -14 -119 -57 t-41 -111q0 -66 38 -102.5t106 -36.5q45 0 98 28q13 7 25 7q16 0 26.5 -10.5t10.5 -26.5q0 -27 -29 -43q-76 -33 -137 -33q-102 0 -165 57.5t-63 151.5q0 86 52.5 149.5t146.5 91.5v121q-45 -94 -130 -145t-194 -51q-94 0 -173 38.5t-125 107.5t-46 151zM240 287 q0 -94 69.5 -154.5t175.5 -60.5q93 0 166.5 44t115.5 121.5t42 176.5v73h-39q-215 0 -327.5 -17t-157.5 -59t-45 -124z" />
<glyph unicode="&#x106;" horiz-adv-x="1386" d="M137 723q0 227 78 393t223.5 255t343.5 89q137 0 263 -49t210 -135q20 -20 21 -49q0 -16 -8 -27.5t-21 -11.5q-16 0 -35 16q-117 98 -212 135t-222 37q-260 0 -404.5 -172t-144.5 -481q0 -311 143.5 -483t405.5 -172q129 0 223.5 36.5t210.5 135.5q23 16 35 16 t20.5 -11.5t8.5 -27.5q0 -29 -21 -49q-84 -86 -209.5 -135t-263.5 -49q-198 0 -343.5 89t-223.5 256t-78 394zM756 1585q0 12 8 21l217 247q23 29 54 29q23 0 37 -14.5t14 -34.5q0 -31 -29 -57l-252 -211q-8 -9 -20 -9t-20.5 8.5t-8.5 20.5z" />
<glyph unicode="&#x107;" horiz-adv-x="962" d="M106 498q0 154 56.5 271.5t160 182t236.5 64.5q76 0 147.5 -19.5t127.5 -60.5q39 -31 54 -50.5t15 -41.5q0 -14 -10 -25.5t-25 -11.5q-10 0 -24.5 9t-30.5 22q-55 43 -111.5 69.5t-140.5 26.5q-170 0 -266 -117t-96 -321q0 -201 95 -313.5t265 -112.5q86 0 146.5 26.5 t115.5 69.5q39 29 53 29t24.5 -10.5t10.5 -24.5q0 -20 -14 -37t-55 -49q-53 -39 -131 -63.5t-154 -24.5q-131 0 -233.5 63.5t-159 180t-56.5 268.5zM530 1143q0 10 8 18l273 350q25 37 61 37q20 0 34.5 -14t14.5 -37q0 -31 -28 -59l-312 -314q-10 -10 -22 -10q-10 0 -19.5 8 t-9.5 21z" />
<glyph unicode="&#x108;" horiz-adv-x="1386" d="M137 723q0 227 78 393t223.5 255t343.5 89q137 0 263 -49t210 -135q20 -20 21 -49q0 -16 -8 -27.5t-21 -11.5q-16 0 -35 16q-117 98 -212 135t-222 37q-260 0 -404.5 -172t-144.5 -481q0 -311 143.5 -483t405.5 -172q129 0 223.5 36.5t210.5 135.5q23 16 35 16 t20.5 -11.5t8.5 -27.5q0 -29 -21 -49q-84 -86 -209.5 -135t-263.5 -49q-198 0 -343.5 89t-223.5 256t-78 394zM517 1602q0 20 14 36l192 215q27 29 60 29q31 0 59 -29l193 -215q14 -16 14 -36q0 -18 -13.5 -32t-29.5 -14q-18 0 -33 17l-190 223l-191 -223q-14 -17 -32 -17 t-30.5 13.5t-12.5 32.5z" />
<glyph unicode="&#x109;" horiz-adv-x="962" d="M106 498q0 154 56.5 271.5t160 182t236.5 64.5q76 0 147.5 -19.5t127.5 -60.5q39 -31 54 -50.5t15 -41.5q0 -14 -10 -25.5t-25 -11.5q-10 0 -24.5 9t-30.5 22q-55 43 -111.5 69.5t-140.5 26.5q-170 0 -266 -117t-96 -321q0 -201 95 -313.5t265 -112.5q86 0 146.5 26.5 t115.5 69.5q39 29 53 29t24.5 -10.5t10.5 -24.5q0 -20 -14 -37t-55 -49q-53 -39 -131 -63.5t-154 -24.5q-131 0 -233.5 63.5t-159 180t-56.5 268.5zM295 1161q0 12 10 29l196 313q25 39 58 39t57 -39l197 -313q10 -16 10 -31q0 -18 -14.5 -31.5t-30.5 -13.5q-27 0 -41 27 l-178 303l-178 -303q-14 -25 -41 -25q-18 0 -31.5 13.5t-13.5 31.5z" />
<glyph unicode="&#x10a;" horiz-adv-x="1386" d="M137 723q0 227 78 393t223.5 255t343.5 89q137 0 263 -49t210 -135q20 -20 21 -49q0 -16 -8 -27.5t-21 -11.5q-16 0 -35 16q-117 98 -212 135t-222 37q-260 0 -404.5 -172t-144.5 -481q0 -311 143.5 -483t405.5 -172q129 0 223.5 36.5t210.5 135.5q23 16 35 16 t20.5 -11.5t8.5 -27.5q0 -29 -21 -49q-84 -86 -209.5 -135t-263.5 -49q-198 0 -343.5 89t-223.5 256t-78 394zM707 1722q0 33 22.5 53.5t53.5 20.5q33 0 54.5 -20.5t21.5 -53.5q0 -35 -21.5 -55t-54.5 -20t-54.5 20.5t-21.5 54.5z" />
<glyph unicode="&#x10b;" horiz-adv-x="962" d="M106 498q0 154 56.5 271.5t160 182t236.5 64.5q76 0 147.5 -19.5t127.5 -60.5q39 -31 54 -50.5t15 -41.5q0 -14 -10 -25.5t-25 -11.5q-10 0 -24.5 9t-30.5 22q-55 43 -111.5 69.5t-140.5 26.5q-170 0 -266 -117t-96 -321q0 -201 95 -313.5t265 -112.5q86 0 146.5 26.5 t115.5 69.5q39 29 53 29t24.5 -10.5t10.5 -24.5q0 -20 -14 -37t-55 -49q-53 -39 -131 -63.5t-154 -24.5q-131 0 -233.5 63.5t-159 180t-56.5 268.5zM483 1331q0 35 21.5 55.5t54.5 20.5t54.5 -20.5t21.5 -55.5q0 -33 -22.5 -53.5t-53.5 -20.5t-53.5 20.5t-22.5 53.5z" />
<glyph unicode="&#x10c;" horiz-adv-x="1386" d="M137 723q0 227 78 393t223.5 255t343.5 89q137 0 263 -49t210 -135q20 -20 21 -49q0 -16 -8 -27.5t-21 -11.5q-16 0 -35 16q-117 98 -212 135t-222 37q-260 0 -404.5 -172t-144.5 -481q0 -311 143.5 -483t405.5 -172q129 0 223.5 36.5t210.5 135.5q23 16 35 16 t20.5 -11.5t8.5 -27.5q0 -29 -21 -49q-84 -86 -209.5 -135t-263.5 -49q-198 0 -343.5 89t-223.5 256t-78 394zM517 1839q0 18 12 31.5t29 13.5q20 0 34 -18l191 -221l190 221q16 18 35 18q16 0 28.5 -13t12.5 -32q0 -20 -14 -37l-193 -217q-29 -29 -59 -29q-27 0 -60 29 l-192 217q-14 16 -14 37z" />
<glyph unicode="&#x10d;" horiz-adv-x="962" d="M106 498q0 154 56.5 271.5t160 182t236.5 64.5q76 0 147.5 -19.5t127.5 -60.5q39 -31 54 -50.5t15 -41.5q0 -14 -10 -25.5t-25 -11.5q-10 0 -24.5 9t-30.5 22q-55 43 -111.5 69.5t-140.5 26.5q-170 0 -266 -117t-96 -321q0 -201 95 -313.5t265 -112.5q86 0 146.5 26.5 t115.5 69.5q39 29 53 29t24.5 -10.5t10.5 -24.5q0 -20 -14 -37t-55 -49q-53 -39 -131 -63.5t-154 -24.5q-131 0 -233.5 63.5t-159 180t-56.5 268.5zM295 1495q0 18 14 31.5t33 13.5q27 0 41 -24l176 -304l176 304q14 25 41 24q18 0 32.5 -13.5t14.5 -31.5q0 -12 -10 -29 l-197 -313q-25 -39 -57 -39q-33 0 -58 39l-196 313q-10 16 -10 29z" />
<glyph unicode="&#x10e;" horiz-adv-x="1484" d="M197 45v1354q0 18 15 31.5t36 13.5h393q338 0 522.5 -185.5t184.5 -535.5q0 -348 -184.5 -535.5t-522.5 -187.5h-393q-21 0 -36 14.5t-15 30.5zM281 78h358q315 0 465.5 166t150.5 479q0 643 -616 643h-358v-1288zM476 1839q0 18 12 31.5t29 13.5q20 0 34 -18l191 -221 l190 221q16 18 35 18q16 0 28.5 -13t12.5 -32q0 -20 -14 -37l-193 -217q-29 -29 -59 -29q-27 0 -60 29l-192 217q-14 16 -14 37z" />
<glyph unicode="&#x10f;" horiz-adv-x="1157" d="M106 506q0 154 55.5 268.5t156 178t231.5 63.5q125 0 214 -55.5t134 -157.5v604q0 47 43 47q21 0 32 -12t11 -35v-1368q0 -23 -11 -35t-32 -12q-43 0 -43 47v162q-45 -104 -134 -159.5t-214 -55.5q-131 0 -231.5 64.5t-156 182t-55.5 273.5zM199 506q0 -205 93 -320.5 t257 -115.5q166 0 257 112.5t91 319.5q0 205 -90 317.5t-256 112.5t-259 -111.5t-93 -314.5zM1059 1085v306q0 30 16.5 47.5t38.5 17.5q27 0 44.5 -20.5t12.5 -55.5l-45 -299q-2 -12 -11 -20t-21 -8q-14 0 -24.5 9t-10.5 23z" />
<glyph unicode="&#x110;" horiz-adv-x="1492" d="M0 733q0 18 11.5 28.5t27.5 10.5h166v627q0 18 15.5 31.5t35.5 13.5h393q338 0 522.5 -185.5t184.5 -535.5q0 -348 -184.5 -535.5t-522.5 -187.5h-393q-20 0 -35.5 14.5t-15.5 30.5v651h-166q-16 0 -27.5 9.5t-11.5 27.5zM289 78h358q316 0 466.5 166t150.5 479 q0 643 -617 643h-358v-594h375q16 0 25 -10t9 -29q0 -37 -34 -37h-375v-618z" />
<glyph unicode="&#x111;" horiz-adv-x="1157" d="M106 506q0 154 55.5 268.5t156 178t231.5 63.5q125 0 214 -55.5t134 -157.5v358h-373q-16 0 -26.5 10.5t-10.5 26.5t10.5 27.5t26.5 11.5h373v170q0 47 43 47q20 0 31.5 -12t11.5 -35v-170h168q16 0 26.5 -11.5t10.5 -27.5t-10.5 -26.5t-26.5 -10.5h-168v-1122 q0 -23 -11 -35t-32 -12q-43 0 -43 47v162q-45 -104 -134 -159.5t-214 -55.5q-131 0 -231.5 64.5t-156 182t-55.5 273.5zM199 506q0 -205 93 -320.5t257 -115.5q166 0 257 112.5t91 319.5q0 205 -90 317.5t-256 112.5t-259 -111.5t-93 -314.5z" />
<glyph unicode="&#x112;" horiz-adv-x="1179" d="M197 45v1354q0 18 15 31.5t36 13.5h788q16 0 26.5 -11.5t10.5 -29.5q0 -16 -10 -27.5t-27 -11.5h-753v-592h712q16 0 26.5 -10t10.5 -29q0 -18 -10 -29.5t-27 -11.5h-712v-612h753q16 0 26.5 -10.5t10.5 -28.5t-10 -29.5t-27 -11.5h-788q-21 0 -36 14.5t-15 30.5z M349 1722q0 43 59 43h496q59 0 59 -43q0 -20 -16.5 -31.5t-42.5 -11.5h-496q-27 0 -43 11.5t-16 31.5z" />
<glyph unicode="&#x113;" horiz-adv-x="1073" d="M106 500q0 154 57.5 270.5t162 181t239.5 64.5q188 0 297 -123t109 -336q0 -37 -14.5 -53.5t-51.5 -16.5h-704q2 -201 101 -309t280 -108q98 0 162.5 26.5t125.5 69.5q43 29 56 29q14 0 24.5 -11.5t10.5 -25.5q0 -20 -15.5 -40t-54.5 -44q-147 -88 -305 -88 q-223 0 -351.5 137t-128.5 377zM203 567h686q-4 178 -88 273.5t-236 95.5q-155 0 -250.5 -97.5t-111.5 -271.5zM258 1331q0 45 59 45h496q59 0 59 -45q0 -20 -16.5 -31.5t-42.5 -11.5h-496q-27 0 -43 11.5t-16 31.5z" />
<glyph unicode="&#x114;" horiz-adv-x="1179" d="M197 45v1354q0 18 15 31.5t36 13.5h788q16 0 26.5 -11.5t10.5 -29.5q0 -16 -10 -27.5t-27 -11.5h-753v-592h712q16 0 26.5 -10t10.5 -29q0 -18 -10 -29.5t-27 -11.5h-712v-612h753q16 0 26.5 -10.5t10.5 -28.5t-10 -29.5t-27 -11.5h-788q-21 0 -36 14.5t-15 30.5z M349 1806q0 18 12 29.5t31 11.5q33 0 51 -35q41 -72 91 -102.5t122 -30.5t122 31t91 102q16 35 51 35q18 0 30.5 -11t12.5 -30q0 -10 -6 -26q-45 -94 -123 -139.5t-178 -45.5q-99 0 -176.5 45.5t-124.5 139.5q-6 16 -6 26z" />
<glyph unicode="&#x115;" horiz-adv-x="1073" d="M106 500q0 154 57.5 270.5t162 181t239.5 64.5q188 0 297 -123t109 -336q0 -37 -14.5 -53.5t-51.5 -16.5h-704q2 -201 101 -309t280 -108q98 0 162.5 26.5t125.5 69.5q43 29 56 29q14 0 24.5 -11.5t10.5 -25.5q0 -20 -15.5 -40t-54.5 -44q-147 -88 -305 -88 q-223 0 -351.5 137t-128.5 377zM203 567h686q-4 178 -88 273.5t-236 95.5q-155 0 -250.5 -97.5t-111.5 -271.5zM262 1419q0 20 12 33.5t31 13.5q37 0 55 -41q66 -147 205 -147t205 147q8 20 23.5 30.5t29.5 10.5q18 0 31.5 -13t13.5 -34q0 -12 -6 -28q-39 -94 -119 -144.5 t-178 -50.5q-99 0 -176.5 49t-120.5 146q-6 16 -6 28z" />
<glyph unicode="&#x116;" horiz-adv-x="1179" d="M197 45v1354q0 18 15 31.5t36 13.5h788q16 0 26.5 -11.5t10.5 -29.5q0 -16 -10 -27.5t-27 -11.5h-753v-592h712q16 0 26.5 -10t10.5 -29q0 -18 -10 -29.5t-27 -11.5h-712v-612h753q16 0 26.5 -10.5t10.5 -28.5t-10 -29.5t-27 -11.5h-788q-21 0 -36 14.5t-15 30.5z M580 1722q0 33 22.5 53.5t53.5 20.5q33 0 54.5 -20.5t21.5 -53.5q0 -35 -21.5 -55t-54.5 -20t-54.5 20.5t-21.5 54.5z" />
<glyph unicode="&#x117;" horiz-adv-x="1073" d="M106 500q0 154 57.5 270.5t162 181t239.5 64.5q188 0 297 -123t109 -336q0 -37 -14.5 -53.5t-51.5 -16.5h-704q2 -201 101 -309t280 -108q98 0 162.5 26.5t125.5 69.5q43 29 56 29q14 0 24.5 -11.5t10.5 -25.5q0 -20 -15.5 -40t-54.5 -44q-147 -88 -305 -88 q-223 0 -351.5 137t-128.5 377zM203 567h686q-4 178 -88 273.5t-236 95.5q-155 0 -250.5 -97.5t-111.5 -271.5zM489 1331q0 35 21.5 55.5t54.5 20.5t54.5 -20.5t21.5 -55.5q0 -33 -22.5 -53.5t-53.5 -20.5t-53.5 20.5t-22.5 53.5z" />
<glyph unicode="&#x118;" horiz-adv-x="1179" d="M197 45v1354q0 18 15 31.5t36 13.5h788q16 0 26.5 -11.5t10.5 -29.5t-10 -28.5t-27 -10.5h-753v-592h712q16 0 26.5 -10t10.5 -29q0 -18 -10 -29.5t-27 -11.5h-712v-612h753q16 0 26.5 -10.5t10.5 -28.5q0 -41 -43 -41q-98 -6 -147 -52t-49 -120q0 -66 38.5 -102.5 t104.5 -36.5q41 0 98 28q15 9 27 9q14 0 22.5 -10.5t8.5 -24.5q0 -33 -27 -47q-55 -33 -135 -33q-104 0 -167 58.5t-63 150.5q0 109 84 180h-577q-20 0 -35.5 14.5t-15.5 30.5z" />
<glyph unicode="&#x119;" horiz-adv-x="1073" d="M106 500q0 154 57.5 270.5t162 181t239.5 64.5q188 0 297 -123t109 -336q0 -37 -14.5 -53.5t-51.5 -16.5h-704q2 -201 101 -309t280 -108q98 0 162.5 26.5t125.5 69.5q43 29 56 29q14 0 24.5 -11.5t10.5 -25.5q0 -43 -72 -82q-131 -76 -180.5 -129t-49.5 -119t39 -102.5 t105 -36.5q41 0 98 28q14 8 27 9q14 0 22 -10.5t8 -24.5q0 -33 -26 -47q-55 -33 -135 -33q-102 0 -165 58.5t-63 150.5q0 102 76 170q-23 -4 -59 -4q-223 0 -351.5 137t-128.5 377zM203 567h686q-4 178 -88 273.5t-236 95.5q-155 0 -250.5 -97.5t-111.5 -271.5z" />
<glyph unicode="&#x11a;" horiz-adv-x="1179" d="M197 45v1354q0 18 15 31.5t36 13.5h788q16 0 26.5 -11.5t10.5 -29.5q0 -16 -10 -27.5t-27 -11.5h-753v-592h712q16 0 26.5 -10t10.5 -29q0 -18 -10 -29.5t-27 -11.5h-712v-612h753q16 0 26.5 -10.5t10.5 -28.5t-10 -29.5t-27 -11.5h-788q-21 0 -36 14.5t-15 30.5z M390 1839q0 18 12 31.5t29 13.5q20 0 34 -18l191 -221l190 221q16 18 35 18q16 0 28.5 -13t12.5 -32q0 -20 -14 -37l-193 -217q-29 -29 -59 -29q-27 0 -60 29l-192 217q-14 16 -14 37z" />
<glyph unicode="&#x11b;" horiz-adv-x="1073" d="M106 500q0 154 57.5 270.5t162 181t239.5 64.5q188 0 297 -123t109 -336q0 -37 -14.5 -53.5t-51.5 -16.5h-704q2 -201 101 -309t280 -108q98 0 162.5 26.5t125.5 69.5q43 29 56 29q14 0 24.5 -11.5t10.5 -25.5q0 -20 -15.5 -40t-54.5 -44q-147 -88 -305 -88 q-223 0 -351.5 137t-128.5 377zM203 567h686q-4 178 -88 273.5t-236 95.5q-155 0 -250.5 -97.5t-111.5 -271.5zM301 1495q0 18 14 31.5t33 13.5q27 0 41 -24l176 -304l176 304q14 25 41 24q18 0 32.5 -13.5t14.5 -31.5q0 -12 -10 -29l-197 -313q-25 -39 -57 -39 q-33 0 -58 39l-196 313q-10 16 -10 29z" />
<glyph unicode="&#x11c;" horiz-adv-x="1466" d="M137 723q0 227 78 393t224.5 255t344.5 89q143 0 270.5 -49t207.5 -135q20 -27 20 -49q0 -16 -8 -27.5t-23 -11.5q-16 0 -34 16q-117 98 -211.5 135t-221.5 37q-264 0 -408.5 -171t-144.5 -482q0 -317 146.5 -487t421.5 -170q113 0 220 20t187 57v502h-360 q-23 0 -35 12.5t-12 28.5q0 18 12 29.5t35 11.5h399q19 0 30 -11t11 -32v-571q0 -10 -7 -20.5t-17 -18.5q-84 -41 -208 -65.5t-255 -24.5q-207 0 -355.5 87t-227.5 254t-79 398zM519 1602q0 20 14 36l192 215q27 29 60 29q31 0 59 -29l193 -215q14 -16 14 -36 q0 -18 -13.5 -32t-29.5 -14q-18 0 -33 17l-190 223l-191 -223q-14 -17 -32 -17t-30.5 13.5t-12.5 32.5z" />
<glyph unicode="&#x11d;" horiz-adv-x="1165" d="M106 524q0 145 56.5 257t158 173.5t232.5 61.5q127 0 217 -55.5t135 -157.5v162q0 47 43 47q19 0 31 -12.5t12 -32.5v-920q0 -213 -100 -321.5t-299 -108.5q-111 0 -195 20.5t-161 67.5q-39 25 -55.5 44.5t-16.5 39.5q0 16 10 26.5t27 10.5q10 0 53 -25 q72 -43 147.5 -71.5t194.5 -28.5q152 0 231.5 85t79.5 249v215q-43 -106 -134 -162.5t-220 -56.5q-131 0 -232.5 61.5t-158 174t-56.5 257.5zM199 524q0 -193 95 -301t259 -108q166 0 259 109.5t93 299.5t-93 299t-259 109q-164 0 -259 -108.5t-95 -299.5zM324 1161 q0 12 10 29l196 313q25 39 58 39t57 -39l197 -313q10 -16 10 -31q0 -18 -14.5 -31.5t-30.5 -13.5q-27 0 -41 27l-178 303l-178 -303q-14 -25 -41 -25q-18 0 -31.5 13.5t-13.5 31.5z" />
<glyph unicode="&#x11e;" horiz-adv-x="1466" d="M137 723q0 227 78 393t224.5 255t344.5 89q143 0 270.5 -49t207.5 -135q20 -27 20 -49q0 -16 -8 -27.5t-23 -11.5q-16 0 -34 16q-117 98 -211.5 135t-221.5 37q-264 0 -408.5 -171t-144.5 -482q0 -317 146.5 -487t421.5 -170q113 0 220 20t187 57v502h-360 q-23 0 -35 12.5t-12 28.5q0 18 12 29.5t35 11.5h399q19 0 30 -11t11 -32v-571q0 -10 -7 -20.5t-17 -18.5q-84 -41 -208 -65.5t-255 -24.5q-207 0 -355.5 87t-227.5 254t-79 398zM478 1806q0 18 12 29.5t31 11.5q33 0 51 -35q41 -72 91 -102.5t122 -30.5t122 31t91 102 q16 35 51 35q18 0 30.5 -11t12.5 -30q0 -10 -6 -26q-45 -94 -123 -139.5t-178 -45.5q-99 0 -176.5 45.5t-124.5 139.5q-6 16 -6 26z" />
<glyph unicode="&#x11f;" horiz-adv-x="1165" d="M106 524q0 145 56.5 257t158 173.5t232.5 61.5q127 0 217 -55.5t135 -157.5v162q0 47 43 47q19 0 31 -12.5t12 -32.5v-920q0 -213 -100 -321.5t-299 -108.5q-111 0 -195 20.5t-161 67.5q-39 25 -55.5 44.5t-16.5 39.5q0 16 10 26.5t27 10.5q10 0 53 -25 q72 -43 147.5 -71.5t194.5 -28.5q152 0 231.5 85t79.5 249v215q-43 -106 -134 -162.5t-220 -56.5q-131 0 -232.5 61.5t-158 174t-56.5 257.5zM199 524q0 -193 95 -301t259 -108q166 0 259 109.5t93 299.5t-93 299t-259 109q-164 0 -259 -108.5t-95 -299.5zM285 1419 q0 20 12 33.5t31 13.5q37 0 55 -41q66 -147 205 -147t205 147q8 20 23.5 30.5t29.5 10.5q18 0 31.5 -13t13.5 -34q0 -12 -6 -28q-39 -94 -119 -144.5t-178 -50.5q-99 0 -176.5 49t-120.5 146q-6 16 -6 28z" />
<glyph unicode="&#x120;" horiz-adv-x="1466" d="M137 723q0 227 78 393t224.5 255t344.5 89q143 0 270.5 -49t207.5 -135q20 -27 20 -49q0 -16 -8 -27.5t-23 -11.5q-16 0 -34 16q-117 98 -211.5 135t-221.5 37q-264 0 -408.5 -171t-144.5 -482q0 -317 146.5 -487t421.5 -170q113 0 220 20t187 57v502h-360 q-23 0 -35 12.5t-12 28.5q0 18 12 29.5t35 11.5h399q19 0 30 -11t11 -32v-571q0 -10 -7 -20.5t-17 -18.5q-84 -41 -208 -65.5t-255 -24.5q-207 0 -355.5 87t-227.5 254t-79 398zM709 1722q0 33 22.5 53.5t53.5 20.5q33 0 54.5 -20.5t21.5 -53.5q0 -35 -21.5 -55t-54.5 -20 t-54.5 20.5t-21.5 54.5z" />
<glyph unicode="&#x121;" horiz-adv-x="1165" d="M106 524q0 145 56.5 257t158 173.5t232.5 61.5q127 0 217 -55.5t135 -157.5v162q0 47 43 47q19 0 31 -12.5t12 -32.5v-920q0 -213 -100 -321.5t-299 -108.5q-111 0 -195 20.5t-161 67.5q-39 25 -55.5 44.5t-16.5 39.5q0 16 10 26.5t27 10.5q10 0 53 -25 q72 -43 147.5 -71.5t194.5 -28.5q152 0 231.5 85t79.5 249v215q-43 -106 -134 -162.5t-220 -56.5q-131 0 -232.5 61.5t-158 174t-56.5 257.5zM199 524q0 -193 95 -301t259 -108q166 0 259 109.5t93 299.5t-93 299t-259 109q-164 0 -259 -108.5t-95 -299.5zM512 1331 q0 35 21.5 55.5t54.5 20.5t54.5 -20.5t21.5 -55.5q0 -33 -22.5 -53.5t-53.5 -20.5t-53.5 20.5t-22.5 53.5z" />
<glyph unicode="&#x122;" horiz-adv-x="1466" d="M137 723q0 227 78 393t224.5 255t344.5 89q143 0 270.5 -49t207.5 -135q20 -27 20 -49q0 -16 -8 -27.5t-23 -11.5q-16 0 -34 16q-117 98 -211.5 135t-221.5 37q-264 0 -408.5 -171t-144.5 -482q0 -317 146.5 -487t421.5 -170q113 0 220 20t187 57v502h-360 q-23 0 -35 12.5t-12 28.5q0 18 12 29.5t35 11.5h399q19 0 30 -11t11 -32v-571q0 -10 -7 -20.5t-17 -18.5q-84 -41 -208 -65.5t-255 -24.5q-207 0 -355.5 87t-227.5 254t-79 398zM725 -477q0 16 14 33q59 72 66 145q-33 2 -55.5 23.5t-22.5 56.5q0 33 19.5 53.5t52.5 20.5 q88 0 88 -113q0 -131 -92 -231q-16 -18 -37 -19q-14 0 -23.5 8t-9.5 23z" />
<glyph unicode="&#x123;" horiz-adv-x="1165" d="M106 524q0 145 56.5 257t158 173.5t232.5 61.5q127 0 217 -55.5t135 -157.5v162q0 47 43 47q19 0 31 -12.5t12 -32.5v-920q0 -213 -100 -321.5t-299 -108.5q-111 0 -195 20.5t-161 67.5q-39 25 -55.5 44.5t-16.5 39.5q0 16 10 26.5t27 10.5q10 0 53 -25 q72 -43 147.5 -71.5t194.5 -28.5q152 0 231.5 85t79.5 249v215q-43 -106 -134 -162.5t-220 -56.5q-131 0 -232.5 61.5t-158 174t-56.5 257.5zM199 524q0 -193 95 -301t259 -108q166 0 259 109.5t93 299.5t-93 299t-259 109q-164 0 -259 -108.5t-95 -299.5zM500 1288 q0 129 92 232q18 18 37 18q14 0 23.5 -9t9.5 -24q0 -16 -15 -32q-59 -72 -65 -146q34 -2 55.5 -22.5t21.5 -57.5q0 -33 -19 -53t-52 -20q-88 0 -88 114z" />
<glyph unicode="&#x124;" horiz-adv-x="1538" d="M197 37v1370q0 20 11 33.5t32 13.5q20 0 31.5 -13.5t11.5 -33.5v-635h970v-78h-970v-657q0 -20 -11.5 -33.5t-31.5 -13.5t-31.5 13t-11.5 34zM502 1602q0 20 14 36l192 215q27 29 60 29q31 0 59 -29l193 -215q14 -16 14 -36q0 -18 -13.5 -32t-29.5 -14q-18 0 -33 17 l-190 223l-191 -223q-14 -17 -32 -17t-30.5 13.5t-12.5 32.5zM1255 37v1370q0 20 11.5 33.5t31.5 13.5q21 0 32 -13.5t11 -33.5v-1370q0 -20 -11 -33.5t-32 -13.5q-20 0 -31.5 13t-11.5 34z" />
<glyph unicode="&#x125;" horiz-adv-x="1132" d="M-49 1602q0 20 14 36l192 215q27 29 60 29q31 0 59 -29l193 -215q14 -16 14 -36q0 -18 -13.5 -32t-29.5 -14q-18 0 -33 17l-190 223l-191 -223q-14 -17 -32 -17t-30.5 13.5t-12.5 32.5zM174 37v1370q0 23 11.5 35t31.5 12t31.5 -12t11.5 -35v-590q45 96 135 147.5 t207 51.5q178 0 269.5 -95.5t91.5 -281.5v-602q0 -23 -11.5 -35t-31.5 -12t-31.5 12t-11.5 35v592q0 160 -63.5 232.5t-205.5 72.5q-158 0 -253 -97.5t-95 -258.5v-541q0 -23 -11 -35t-32 -12q-18 0 -30.5 13t-12.5 34z" />
<glyph unicode="&#x126;" horiz-adv-x="1554" d="M0 1118q0 18 11.5 28.5t27.5 10.5h166v250q0 20 11 33.5t32 13.5q20 0 31.5 -13.5t11.5 -33.5v-250h973v250q0 20 11 33.5t32 13.5q20 0 31.5 -13.5t11.5 -33.5v-250h170q34 0 34 -39t-34 -39h-170v-1042q0 -20 -11.5 -33.5t-31.5 -13.5t-31.5 13t-11.5 34v1042h-973 v-307h971v-78h-971v-657q0 -20 -11.5 -33.5t-31.5 -13.5t-31.5 13t-11.5 34v1042h-166q-16 0 -27.5 10.5t-11.5 28.5z" />
<glyph unicode="&#x127;" horiz-adv-x="1132" d="M-31 1198q0 16 10.5 27.5t26.5 11.5h168v170q0 23 11.5 35t31.5 12t31.5 -12t11.5 -35v-170h373q16 0 26.5 -11.5t10.5 -27.5t-10.5 -26.5t-26.5 -10.5h-373v-344q45 96 135 147.5t207 51.5q178 0 269.5 -95.5t91.5 -281.5v-602q0 -23 -11.5 -35t-31.5 -12t-31.5 12 t-11.5 35v592q0 160 -63.5 232.5t-205.5 72.5q-158 0 -253 -97.5t-95 -258.5v-541q0 -23 -11 -35t-32 -12q-18 0 -30.5 13t-12.5 34v1124h-168q-16 0 -26.5 10.5t-10.5 26.5z" />
<glyph unicode="&#x128;" horiz-adv-x="477" d="M-69 1671q0 31 20.5 66t59 57.5t90.5 22.5q35 0 72.5 -14.5t90.5 -41.5q82 -43 115 -43q41 0 62.5 16.5t42.5 47.5q18 29 30 28q14 0 24.5 -11t10.5 -25q0 -51 -47 -97.5t-123 -46.5q-35 0 -73 14.5t-91 41.5q-82 43 -114 43q-41 0 -62.5 -17.5t-42.5 -48.5 q-18 -29 -31 -29q-14 0 -24 11.5t-10 25.5zM197 37v1370q0 20 11 33.5t32 13.5q18 0 29.5 -13.5t11.5 -33.5v-1370q0 -20 -11.5 -33.5t-29.5 -13.5q-21 0 -32 13t-11 34z" />
<glyph unicode="&#x129;" horiz-adv-x="434" d="M-92 1272q0 33 21.5 73.5t59 70.5t89.5 30q37 0 73.5 -19.5t87.5 -56.5q45 -31 72 -45t49 -14q37 0 57.5 21.5t36.5 58.5q8 16 17.5 28.5t19.5 12.5q14 0 24.5 -11.5t10.5 -25.5q0 -33 -21.5 -74t-59.5 -70.5t-89 -29.5q-37 0 -74 19.5t-88 55.5q-45 31 -71.5 45.5 t-49.5 14.5q-37 0 -57 -21.5t-37 -58.5q-8 -16 -17 -28.5t-20 -12.5q-14 0 -24 11t-10 26zM174 37v930q0 20 11.5 32.5t31.5 12.5t31.5 -12.5t11.5 -32.5v-930q0 -23 -11 -35t-32 -12q-20 0 -31.5 12t-11.5 35z" />
<glyph unicode="&#x12a;" horiz-adv-x="477" d="M-67 1722q0 43 59 43h496q59 0 59 -43q0 -20 -16.5 -31.5t-42.5 -11.5h-496q-27 0 -43 11.5t-16 31.5zM197 37v1370q0 20 11 33.5t32 13.5q18 0 29.5 -13.5t11.5 -33.5v-1370q0 -20 -11.5 -33.5t-29.5 -13.5q-21 0 -32 13t-11 34z" />
<glyph unicode="&#x12b;" horiz-adv-x="434" d="M-90 1331q0 45 59 45h496q59 0 59 -45q0 -20 -16.5 -31.5t-42.5 -11.5h-496q-27 0 -43 11.5t-16 31.5zM174 37v930q0 20 11.5 32.5t31.5 12.5t31.5 -12.5t11.5 -32.5v-930q0 -23 -11 -35t-32 -12q-20 0 -31.5 12t-11.5 35z" />
<glyph unicode="&#x12c;" horiz-adv-x="477" d="M-67 1806q0 18 12 29.5t31 11.5q33 0 51 -35q41 -72 91 -102.5t122 -30.5t122 31t91 102q16 35 51 35q18 0 30.5 -11t12.5 -30q0 -10 -6 -26q-45 -94 -123 -139.5t-178 -45.5q-99 0 -176.5 45.5t-124.5 139.5q-6 16 -6 26zM197 37v1370q0 20 11 33.5t32 13.5 q18 0 29.5 -13.5t11.5 -33.5v-1370q0 -20 -11.5 -33.5t-29.5 -13.5q-21 0 -32 13t-11 34z" />
<glyph unicode="&#x12d;" horiz-adv-x="434" d="M-86 1419q0 20 12 33.5t31 13.5q37 0 55 -41q66 -147 205 -147t205 147q8 20 23.5 30.5t29.5 10.5q18 0 31.5 -13t13.5 -34q0 -12 -6 -28q-39 -94 -119 -144.5t-178 -50.5q-99 0 -176.5 49t-120.5 146q-6 16 -6 28zM174 37v930q0 20 11.5 32.5t31.5 12.5t31.5 -12.5 t11.5 -32.5v-930q0 -23 -11 -35t-32 -12q-20 0 -31.5 12t-11.5 35z" />
<glyph unicode="&#x12e;" horiz-adv-x="477" d="M-6 -180q0 82 52 146.5t151 94.5v1346q0 20 11 33.5t32 13.5q18 0 29.5 -13.5t11.5 -33.5v-1370q0 -18 -10.5 -29.5t-26.5 -13.5q-76 -10 -118 -55t-42 -111t39 -102.5t104 -36.5q41 0 99 28q14 9 26 9q14 0 22.5 -10.5t8.5 -26.5q0 -31 -25 -45q-57 -33 -137 -33 q-102 0 -164.5 58.5t-62.5 150.5z" />
<glyph unicode="&#x12f;" horiz-adv-x="434" d="M-29 -180q0 82 53.5 147.5t149.5 95.5v904q0 20 11.5 32.5t31.5 12.5t31.5 -12.5t11.5 -32.5v-928q0 -18 -10 -30.5t-27 -14.5q-78 -10 -119 -55t-41 -111t39 -102.5t103 -36.5q45 0 98 28q15 9 29 9t22 -10.5t8 -24.5q0 -33 -26 -47q-59 -33 -135 -33q-102 0 -166 58.5 t-64 150.5zM141 1331q0 35 21.5 55.5t54.5 20.5t54.5 -20.5t21.5 -55.5q0 -33 -22.5 -53.5t-53.5 -20.5q-33 0 -54.5 20.5t-21.5 53.5z" />
<glyph unicode="&#x130;" horiz-adv-x="477" d="M164 1722q0 33 22.5 53.5t53.5 20.5q33 0 54.5 -20.5t21.5 -53.5q0 -35 -21.5 -55t-54.5 -20t-54.5 20.5t-21.5 54.5zM197 37v1370q0 20 11 33.5t32 13.5q18 0 29.5 -13.5t11.5 -33.5v-1370q0 -20 -11.5 -33.5t-29.5 -13.5q-21 0 -32 13t-11 34z" />
<glyph unicode="&#x131;" horiz-adv-x="434" d="M174 37v930q0 20 11.5 32.5t31.5 12.5t31.5 -12.5t11.5 -32.5v-930q0 -23 -11 -35t-32 -12q-20 0 -31.5 12t-11.5 35z" />
<glyph unicode="&#x134;" horiz-adv-x="608" d="M-16 27q0 16 12 27.5t35 13.5l57 4q123 8 181.5 74.5t58.5 220.5v1040q0 18 13 32.5t30 14.5q41 0 41 -47v-1045q0 -182 -77 -270t-237 -98l-59 -4h-10q-23 0 -34 11t-11 26zM105 1602q0 20 14 36l192 215q27 29 60 29q31 0 59 -29l193 -215q14 -16 14 -36 q0 -18 -13.5 -32t-29.5 -14q-18 0 -33 17l-190 223l-191 -223q-14 -17 -32 -17t-30.5 13.5t-12.5 32.5z" />
<glyph unicode="&#x135;" horiz-adv-x="434" d="M-147 -336q0 35 45 39l55 4q115 8 168 67.5t53 200.5v992q0 20 11.5 32.5t31.5 12.5t31.5 -12.5t11.5 -32.5v-992q0 -172 -70.5 -252.5t-224.5 -91.5l-55 -4h-12q-45 0 -45 37zM-47 1161q0 12 10 29l196 313q25 39 58 39t57 -39l197 -313q10 -16 10 -31 q0 -18 -14.5 -31.5t-30.5 -13.5q-27 0 -41 27l-178 303l-178 -303q-14 -25 -41 -25q-18 0 -31.5 13.5t-13.5 31.5z" />
<glyph unicode="&#x136;" horiz-adv-x="1226" d="M197 37v1370q0 20 11 33.5t32 13.5q18 0 29.5 -13.5t11.5 -33.5v-641l794 676q14 10 27 10q16 0 27.5 -11t11.5 -28q0 -18 -17 -31l-762 -649l801 -667q19 -15 19 -35q0 -16 -12.5 -28.5t-28.5 -12.5q-12 0 -21 8l-839 698v-659q0 -20 -11.5 -33.5t-29.5 -13.5 q-20 0 -31.5 13t-11.5 34zM545 -477q0 16 14 33q59 72 66 145q-33 2 -55.5 23.5t-22.5 56.5q0 33 19.5 53.5t52.5 20.5q88 0 88 -113q0 -131 -92 -231q-16 -18 -37 -19q-14 0 -23.5 8t-9.5 23z" />
<glyph unicode="&#x137;" horiz-adv-x="958" d="M174 37v1370q0 23 11.5 35t31.5 12q18 0 30.5 -13.5t12.5 -33.5v-879l533 467q16 12 30 13q16 0 28.5 -12.5t12.5 -28.5q0 -18 -20 -37l-479 -420l520 -440q24 -20 24 -43q0 -14 -10 -25.5t-27 -11.5q-14 0 -32 12l-580 487v-452q0 -20 -12 -33.5t-31 -13.5 q-20 0 -31.5 12t-11.5 35zM405 -477q0 16 14 33q59 72 66 145q-33 2 -55.5 23.5t-22.5 56.5q0 33 19.5 53.5t52.5 20.5q88 0 88 -113q0 -131 -92 -231q-16 -18 -37 -19q-14 0 -23.5 8t-9.5 23z" />
<glyph unicode="&#x138;" horiz-adv-x="958" d="M174 37v930q0 20 11.5 32.5t31.5 12.5q18 0 30.5 -12.5t12.5 -32.5v-439l533 467q16 12 30 13q16 0 28.5 -12.5t12.5 -28.5q0 -18 -20 -37l-479 -420l520 -440q24 -20 24 -43q0 -14 -10 -25.5t-27 -11.5q-14 0 -32 12l-580 487v-452q0 -20 -12 -33.5t-31 -13.5 q-20 0 -31.5 12t-11.5 35z" />
<glyph unicode="&#x139;" horiz-adv-x="1079" d="M197 39v1368q0 20 11 33.5t32 13.5q41 0 41 -47v-1329h739q14 0 25.5 -10.5t11.5 -28.5q0 -16 -11.5 -27.5t-25.5 -11.5h-778q-17 0 -31 12.5t-14 26.5zM213 1585q0 12 8 21l217 247q23 29 54 29q23 0 37 -14.5t14 -34.5q0 -31 -29 -57l-252 -211q-8 -9 -20 -9t-20.5 8.5 t-8.5 20.5z" />
<glyph unicode="&#x13a;" horiz-adv-x="434" d="M174 37v1370q0 23 11.5 35t31.5 12q18 0 30.5 -13.5t12.5 -33.5v-1370q0 -20 -12 -33.5t-31 -13.5q-20 0 -31.5 12t-11.5 35zM190 1585q0 12 8 21l217 247q23 29 54 29q23 0 37 -14.5t14 -34.5q0 -31 -29 -57l-252 -211q-8 -9 -20 -9t-20.5 8.5t-8.5 20.5z" />
<glyph unicode="&#x13b;" horiz-adv-x="1079" d="M197 39v1368q0 20 11 33.5t32 13.5q41 0 41 -47v-1329h739q14 0 25.5 -10.5t11.5 -28.5q0 -16 -11.5 -27.5t-25.5 -11.5h-778q-17 0 -31 12.5t-14 26.5zM553 -477q0 16 14 33q59 72 66 145q-33 2 -55.5 23.5t-22.5 56.5q0 33 19.5 53.5t52.5 20.5q88 0 88 -113 q0 -131 -92 -231q-16 -18 -37 -19q-14 0 -23.5 8t-9.5 23z" />
<glyph unicode="&#x13c;" horiz-adv-x="434" d="M143 -477q0 16 14 33q59 72 66 145q-33 2 -55.5 23.5t-22.5 56.5q0 33 19.5 53.5t52.5 20.5q88 0 88 -113q0 -131 -92 -231q-16 -18 -37 -19q-14 0 -23.5 8t-9.5 23zM174 37v1370q0 23 11.5 35t31.5 12q18 0 30.5 -13.5t12.5 -33.5v-1370q0 -20 -12 -33.5t-31 -13.5 q-20 0 -31.5 12t-11.5 35z" />
<glyph unicode="&#x13d;" horiz-adv-x="1079" d="M197 39v1368q0 20 11 33.5t32 13.5q41 0 41 -47v-1329h739q14 0 25.5 -10.5t11.5 -28.5q0 -16 -11.5 -27.5t-25.5 -11.5h-778q-17 0 -31 12.5t-14 26.5zM451 1085v308q0 31 15.5 47t35.5 16q25 0 41 -19.5t12 -52.5l-41 -303q-1 -28 -30 -28q-12 0 -22.5 9t-10.5 23z" />
<glyph unicode="&#x13e;" horiz-adv-x="434" d="M174 37v1370q0 23 11.5 35t31.5 12q18 0 30.5 -13.5t12.5 -33.5v-1370q0 -20 -12 -33.5t-31 -13.5q-20 0 -31.5 12t-11.5 35zM344 1085v306q0 31 16.5 48t38.5 17q25 0 43.5 -20.5t12.5 -55.5l-45 -299q-2 -12 -10.5 -20t-20.5 -8q-14 0 -24.5 9t-10.5 23z" />
<glyph unicode="&#x13f;" horiz-adv-x="1079" d="M197 39v1368q0 20 11 33.5t32 13.5q41 0 41 -47v-1329h739q14 0 25.5 -10.5t11.5 -28.5q0 -16 -11.5 -27.5t-25.5 -11.5h-778q-17 0 -31 12.5t-14 26.5zM593 723q0 33 22.5 54.5t53.5 21.5q33 0 54.5 -21.5t21.5 -54.5q0 -35 -21.5 -55.5t-54.5 -20.5t-54.5 20.5 t-21.5 55.5z" />
<glyph unicode="&#x140;" horiz-adv-x="407" d="M174 37v1370q0 23 11.5 35t31.5 12q18 0 30.5 -13.5t12.5 -33.5v-1370q0 -20 -12 -33.5t-31 -13.5q-20 0 -31.5 12t-11.5 35zM340 723q0 33 22.5 54.5t53.5 21.5q33 0 54.5 -21.5t21.5 -54.5q0 -35 -21.5 -55.5t-54.5 -20.5t-54.5 20.5t-21.5 55.5z" />
<glyph unicode="&#x141;" horiz-adv-x="1087" d="M0 614q0 20 20 33l185 107v653q0 20 11 33.5t32 13.5q41 0 41 -47v-606l344 198q10 6 18 7q16 0 28.5 -13.5t12.5 -29.5q0 -18 -18 -31l-385 -221v-633h739q16 0 26.5 -10.5t10.5 -28.5q0 -16 -10.5 -27.5t-26.5 -11.5h-778q-16 0 -30.5 12.5t-14.5 26.5v623l-144 -82 q-12 -6 -22 -7q-16 0 -27.5 12.5t-11.5 28.5z" />
<glyph unicode="&#x142;" horiz-adv-x="499" d="M2 614q0 20 21 33l184 107v653q0 23 11 35t32 12q18 0 30.5 -13.5t12.5 -33.5v-604l143 84q13 6 23 6q16 0 27.5 -12.5t11.5 -28.5q0 -20 -21 -35l-184 -106v-674q0 -20 -12.5 -33.5t-30.5 -13.5q-20 0 -31.5 12t-11.5 35v625l-144 -82q-10 -8 -22 -9q-16 0 -27.5 13.5 t-11.5 29.5z" />
<glyph unicode="&#x143;" horiz-adv-x="1499" d="M197 37v1370q0 20 11 33.5t34 13.5q14 0 21 -5t20 -19l940 -1283v1260q0 20 11 33.5t30 13.5q39 0 39 -47v-1370q0 -20 -11.5 -33.5t-31.5 -13.5q-14 0 -22.5 6t-18.5 20l-943 1282v-1261q0 -20 -11 -33.5t-29 -13.5q-39 0 -39 47zM723 1585q0 12 8 21l217 247 q23 29 54 29q23 0 37 -14.5t14 -34.5q0 -31 -29 -57l-252 -211q-8 -9 -20 -9t-20.5 8.5t-8.5 20.5z" />
<glyph unicode="&#x144;" horiz-adv-x="1132" d="M174 37v928q0 47 43 47q20 0 30.5 -12.5t10.5 -34.5v-152q45 98 136 150.5t208 52.5q361 0 361 -377v-602q0 -47 -43 -47q-20 0 -31.5 12t-11.5 35v594q0 158 -63.5 230.5t-205.5 72.5q-158 0 -253 -97.5t-95 -258.5v-541q0 -23 -11 -35t-32 -12q-20 0 -31.5 12t-11.5 35 zM538 1143q0 10 8 18l273 350q25 37 61 37q20 0 34.5 -14t14.5 -37q0 -31 -28 -59l-312 -314q-10 -10 -22 -10q-10 0 -19.5 8t-9.5 21z" />
<glyph unicode="&#x145;" horiz-adv-x="1499" d="M197 37v1370q0 20 11 33.5t34 13.5q14 0 21 -5t20 -19l940 -1283v1260q0 20 11 33.5t30 13.5q39 0 39 -47v-1370q0 -20 -11.5 -33.5t-31.5 -13.5q-14 0 -22.5 6t-18.5 20l-943 1282v-1261q0 -20 -11 -33.5t-29 -13.5q-39 0 -39 47zM676 -477q0 16 14 33q59 72 66 145 q-33 2 -55.5 23.5t-22.5 56.5q0 33 19.5 53.5t52.5 20.5q88 0 88 -113q0 -131 -92 -231q-16 -18 -37 -19q-14 0 -23.5 8t-9.5 23z" />
<glyph unicode="&#x146;" horiz-adv-x="1132" d="M174 37v928q0 47 43 47q20 0 30.5 -12.5t10.5 -34.5v-152q45 98 136 150.5t208 52.5q361 0 361 -377v-602q0 -47 -43 -47q-20 0 -31.5 12t-11.5 35v594q0 158 -63.5 230.5t-205.5 72.5q-158 0 -253 -97.5t-95 -258.5v-541q0 -23 -11 -35t-32 -12q-20 0 -31.5 12t-11.5 35 zM493 -477q0 16 14 33q59 72 66 145q-33 2 -55.5 23.5t-22.5 56.5q0 33 19.5 53.5t52.5 20.5q88 0 88 -113q0 -131 -92 -231q-16 -18 -37 -19q-14 0 -23.5 8t-9.5 23z" />
<glyph unicode="&#x147;" horiz-adv-x="1499" d="M197 37v1370q0 20 11 33.5t34 13.5q14 0 21 -5t20 -19l940 -1283v1260q0 20 11 33.5t30 13.5q39 0 39 -47v-1370q0 -20 -11.5 -33.5t-31.5 -13.5q-14 0 -22.5 6t-18.5 20l-943 1282v-1261q0 -20 -11 -33.5t-29 -13.5q-39 0 -39 47zM484 1839q0 18 12 31.5t29 13.5 q20 0 34 -18l191 -221l190 221q16 18 35 18q16 0 28.5 -13t12.5 -32q0 -20 -14 -37l-193 -217q-29 -29 -59 -29q-27 0 -60 29l-192 217q-14 16 -14 37z" />
<glyph unicode="&#x148;" horiz-adv-x="1132" d="M174 37v928q0 47 43 47q20 0 30.5 -12.5t10.5 -34.5v-152q45 98 136 150.5t208 52.5q361 0 361 -377v-602q0 -47 -43 -47q-20 0 -31.5 12t-11.5 35v594q0 158 -63.5 230.5t-205.5 72.5q-158 0 -253 -97.5t-95 -258.5v-541q0 -23 -11 -35t-32 -12q-20 0 -31.5 12t-11.5 35 zM303 1495q0 18 14 31.5t33 13.5q27 0 41 -24l176 -304l176 304q14 25 41 24q18 0 32.5 -13.5t14.5 -31.5q0 -12 -10 -29l-197 -313q-25 -39 -57 -39q-33 0 -58 39l-196 313q-10 16 -10 29z" />
<glyph unicode="&#x149;" horiz-adv-x="1132" d="M174 37v928q0 47 43 47q20 0 30.5 -12.5t10.5 -34.5v-152q45 98 136 150.5t208 52.5q361 0 361 -377v-602q0 -47 -43 -47q-20 0 -31.5 12t-11.5 35v594q0 158 -63.5 230.5t-205.5 72.5q-158 0 -253 -97.5t-95 -258.5v-541q0 -23 -11 -35t-32 -12q-20 0 -31.5 12t-11.5 35 zM217 1219q0 16 14 32q59 72 66 146q-35 2 -56.5 22.5t-21.5 57.5q0 33 19.5 52t52.5 19q88 1 88 -112q0 -129 -92 -232q-18 -18 -37 -18q-14 0 -23.5 9t-9.5 24z" />
<glyph unicode="&#x14a;" horiz-adv-x="1499" d="M197 37v1370q0 20 11 33.5t34 13.5t41 -24l940 -1283v1260q0 20 11 33.5t30 13.5q39 0 39 -47v-1415q0 -182 -77 -269.5t-237 -97.5l-61 -4h-8q-23 0 -35.5 11.5t-12.5 25.5q0 16 12.5 28.5t35.5 12.5l59 4q125 10 184.5 75.5t59.5 221.5v12l-947 1286v-1261 q0 -20 -11 -33.5t-29 -13.5q-39 0 -39 47z" />
<glyph unicode="&#x14b;" horiz-adv-x="1132" d="M174 37v928q0 47 43 47q20 0 30.5 -12.5t10.5 -34.5v-152q45 98 135 150.5t209 52.5q361 0 361 -377v-664q0 -172 -70 -252.5t-223 -91.5l-56 -4h-14q-43 0 -43 37t45 39l53 4q119 8 170.5 69.5t51.5 198.5v654q0 160 -63.5 232.5t-205.5 72.5q-158 0 -253 -97.5 t-95 -258.5v-541q0 -23 -11 -35t-32 -12q-20 0 -31.5 12t-11.5 35z" />
<glyph unicode="&#x14c;" horiz-adv-x="1538" d="M137 721q0 227 76 394t218 256t337 89t338 -89t219 -255t76 -393t-77 -394t-219 -256t-337 -89q-193 0 -335 89t-219 256t-77 392zM229 723q0 -311 141.5 -483t397.5 -172q258 0 399.5 172t141.5 483t-140.5 482t-400.5 171q-256 0 -397.5 -171t-141.5 -482zM461 1722 q0 43 59 43h496q59 0 59 -43q0 -20 -16.5 -31.5t-42.5 -11.5h-496q-27 0 -43 11.5t-16 31.5z" />
<glyph unicode="&#x14d;" horiz-adv-x="1097" d="M106 502q0 154 55.5 270.5t156 180t231.5 63.5t231.5 -63.5t155.5 -180.5t55 -270q0 -156 -55 -272.5t-155.5 -180t-231.5 -63.5t-231.5 63.5t-156 180t-55.5 272.5zM199 502q0 -209 91 -320.5t257 -111.5q170 0 261 111.5t91 320.5q0 203 -93 316.5t-257 113.5 t-257 -113.5t-93 -316.5zM242 1331q0 45 59 45h496q59 0 59 -45q0 -20 -16.5 -31.5t-42.5 -11.5h-496q-27 0 -43 11.5t-16 31.5z" />
<glyph unicode="&#x14e;" horiz-adv-x="1538" d="M137 721q0 227 76 394t218 256t337 89t338 -89t219 -255t76 -393t-77 -394t-219 -256t-337 -89q-193 0 -335 89t-219 256t-77 392zM229 723q0 -311 141.5 -483t397.5 -172q258 0 399.5 172t141.5 483t-140.5 482t-400.5 171q-256 0 -397.5 -171t-141.5 -482zM461 1806 q0 18 12 29.5t31 11.5q33 0 51 -35q41 -72 91 -102.5t122 -30.5t122 31t91 102q16 35 51 35q18 0 30.5 -11t12.5 -30q0 -10 -6 -26q-45 -94 -123 -139.5t-178 -45.5q-99 0 -176.5 45.5t-124.5 139.5q-6 16 -6 26z" />
<glyph unicode="&#x14f;" horiz-adv-x="1097" d="M106 502q0 154 55.5 270.5t156 180t231.5 63.5t231.5 -63.5t155.5 -180.5t55 -270q0 -156 -55 -272.5t-155.5 -180t-231.5 -63.5t-231.5 63.5t-156 180t-55.5 272.5zM199 502q0 -209 91 -320.5t257 -111.5q170 0 261 111.5t91 320.5q0 203 -93 316.5t-257 113.5 t-257 -113.5t-93 -316.5zM246 1419q0 20 12 33.5t31 13.5q37 0 55 -41q66 -147 205 -147t205 147q8 20 23.5 30.5t29.5 10.5q18 0 31.5 -13t13.5 -34q0 -12 -6 -28q-39 -94 -119 -144.5t-178 -50.5q-99 0 -176.5 49t-120.5 146q-6 16 -6 28z" />
<glyph unicode="&#x150;" horiz-adv-x="1538" d="M137 721q0 227 76 394t218 256t337 89t338 -89t219 -255t76 -393t-77 -394t-219 -256t-337 -89q-193 0 -335 89t-219 256t-77 392zM229 723q0 -311 141.5 -483t397.5 -172q258 0 399.5 172t141.5 483t-140.5 482t-400.5 171q-256 0 -397.5 -171t-141.5 -482zM636 1567.5 q-7 11.5 1 23.5l129 250q20 43 53 43q16 0 27.5 -12t11.5 -31q0 -20 -19 -49l-161 -223q-9 -13 -23 -13q-12 0 -19 11.5zM861 1567.5q-7 11.5 1 23.5l127 250q23 43 55 43q16 0 27.5 -12t11.5 -31q0 -20 -18 -49l-162 -223q-9 -13 -23 -13q-12 0 -19 11.5z" />
<glyph unicode="&#x151;" horiz-adv-x="1097" d="M106 502q0 154 55.5 270.5t156 180t231.5 63.5t231.5 -63.5t155.5 -180.5t55 -270q0 -156 -55 -272.5t-155.5 -180t-231.5 -63.5t-231.5 63.5t-156 180t-55.5 272.5zM199 502q0 -209 91 -320.5t257 -111.5q170 0 261 111.5t91 320.5q0 203 -93 316.5t-257 113.5 t-257 -113.5t-93 -316.5zM414 1147l114 352q18 47 58 47q18 0 30.5 -13t12.5 -34q0 -18 -9 -35l-163 -336q-7 -16 -23 -16q-12 0 -19.5 10.5t-0.5 24.5zM641 1147l115 352q18 47 57 47q18 0 30.5 -13t12.5 -34q0 -18 -8 -35l-164 -336q-7 -16 -23 -16q-12 0 -19 10.5 t-1 24.5z" />
<glyph unicode="&#x152;" horiz-adv-x="2142" d="M137 723q0 350 182.5 535.5t522.5 185.5h1155q18 0 28.5 -10.5t10.5 -30.5q0 -18 -10.5 -28.5t-26.5 -10.5h-756v-592h715q16 0 26.5 -10t10.5 -29q0 -18 -10.5 -29.5t-26.5 -11.5h-715v-612h756q16 0 26.5 -10.5t10.5 -28.5t-10.5 -29.5t-26.5 -11.5h-1157 q-338 0 -521.5 187.5t-183.5 535.5zM229 723q0 -309 150.5 -476t466.5 -167h313v1284h-313q-616 0 -617 -641z" />
<glyph unicode="&#x153;" horiz-adv-x="1857" d="M106 502q0 154 55.5 270.5t156 180t233.5 63.5q141 0 243.5 -77t149.5 -214q49 135 155.5 213t252.5 78q186 0 294.5 -124t108.5 -335q0 -37 -15.5 -53.5t-49.5 -16.5h-697q4 -201 101.5 -309t277.5 -108q94 0 158.5 26.5t126.5 69.5q4 2 23.5 15.5t31.5 13.5 q14 0 24.5 -11.5t10.5 -25.5q0 -43 -70 -84q-152 -88 -301 -88q-160 0 -270.5 76.5t-157.5 222.5q-47 -143 -149.5 -221t-247.5 -78q-133 0 -233.5 63.5t-156 180t-55.5 272.5zM199 502q0 -209 91 -320.5t257 -111.5q170 0 261 111.5t91 320.5q0 203 -93 316.5t-257 113.5 t-257 -113.5t-93 -316.5zM995 567h678q-4 178 -88 273.5t-233 95.5q-154 0 -247 -97.5t-110 -271.5z" />
<glyph unicode="&#x154;" horiz-adv-x="1386" d="M197 37v1362q0 18 15 31.5t36 13.5h506q223 0 345 -101.5t122 -298.5q0 -176 -107.5 -276t-302.5 -115q47 -16 87 -55t81 -104l274 -445q7 -12 7 -22q0 -14 -11.5 -25.5t-27.5 -11.5q-20 0 -35 20l-279 453q-61 102 -129.5 139t-189.5 37h-307v-602q0 -20 -11.5 -33.5 t-29.5 -13.5q-20 0 -31.5 12t-11.5 35zM283 721h473q375 0 374 326q0 160 -92 238.5t-282 78.5h-473v-643zM657 1585q0 12 8 21l217 247q23 29 54 29q23 0 37 -14.5t14 -34.5q0 -31 -29 -57l-252 -211q-8 -9 -20 -9t-20.5 8.5t-8.5 20.5z" />
<glyph unicode="&#x155;" horiz-adv-x="667" d="M174 37v928q0 47 43 47q18 0 30.5 -12.5t12.5 -34.5v-148q88 176 320 193l28 2h15q25 0 34 -9.5t9 -27.5q0 -35 -43 -41l-62 -6q-150 -14 -225.5 -110.5t-75.5 -221.5v-559q0 -23 -11 -35t-32 -12q-20 0 -31.5 12t-11.5 35zM389 1143q0 10 8 18l273 350q25 37 61 37 q20 0 34.5 -14t14.5 -37q0 -31 -28 -59l-312 -314q-10 -10 -22 -10q-10 0 -19.5 8t-9.5 21z" />
<glyph unicode="&#x156;" horiz-adv-x="1386" d="M197 37v1362q0 18 15 31.5t36 13.5h506q223 0 345 -101.5t122 -298.5q0 -176 -107.5 -276t-302.5 -115q47 -16 87 -55t81 -104l274 -445q7 -12 7 -22q0 -14 -11.5 -25.5t-27.5 -11.5q-20 0 -35 20l-279 453q-61 102 -129.5 139t-189.5 37h-307v-602q0 -20 -11.5 -33.5 t-29.5 -13.5q-20 0 -31.5 12t-11.5 35zM283 721h473q375 0 374 326q0 160 -92 238.5t-282 78.5h-473v-643zM610 -477q0 16 14 33q59 72 66 145q-33 2 -55.5 23.5t-22.5 56.5q0 33 19.5 53.5t52.5 20.5q88 0 88 -113q0 -131 -92 -231q-16 -18 -37 -19q-14 0 -23.5 8t-9.5 23z " />
<glyph unicode="&#x157;" horiz-adv-x="667" d="M143 -477q0 16 14 33q59 72 66 145q-33 2 -55.5 23.5t-22.5 56.5q0 33 19.5 53.5t52.5 20.5q88 0 88 -113q0 -131 -92 -231q-16 -18 -37 -19q-14 0 -23.5 8t-9.5 23zM174 37v928q0 47 43 47q18 0 30.5 -12.5t12.5 -34.5v-148q88 176 320 193l28 2h15q25 0 34 -9.5 t9 -27.5q0 -35 -43 -41l-62 -6q-150 -14 -225.5 -110.5t-75.5 -221.5v-559q0 -23 -11 -35t-32 -12q-20 0 -31.5 12t-11.5 35z" />
<glyph unicode="&#x158;" horiz-adv-x="1386" d="M197 37v1362q0 18 15 31.5t36 13.5h506q223 0 345 -101.5t122 -298.5q0 -176 -107.5 -276t-302.5 -115q47 -16 87 -55t81 -104l274 -445q7 -12 7 -22q0 -14 -11.5 -25.5t-27.5 -11.5q-20 0 -35 20l-279 453q-61 102 -129.5 139t-189.5 37h-307v-602q0 -20 -11.5 -33.5 t-29.5 -13.5q-20 0 -31.5 12t-11.5 35zM283 721h473q375 0 374 326q0 160 -92 238.5t-282 78.5h-473v-643zM418 1839q0 18 12 31.5t29 13.5q20 0 34 -18l191 -221l190 221q16 18 35 18q16 0 28.5 -13t12.5 -32q0 -20 -14 -37l-193 -217q-29 -29 -59 -29q-27 0 -60 29 l-192 217q-14 16 -14 37z" />
<glyph unicode="&#x159;" horiz-adv-x="667" d="M154 1495q0 18 14 31.5t33 13.5q27 0 41 -24l176 -304l176 304q14 25 41 24q18 0 32.5 -13.5t14.5 -31.5q0 -12 -10 -29l-197 -313q-25 -39 -57 -39q-33 0 -58 39l-196 313q-10 16 -10 29zM174 37v928q0 47 43 47q18 0 30.5 -12.5t12.5 -34.5v-148q88 176 320 193l28 2 h15q25 0 34 -9.5t9 -27.5q0 -35 -43 -41l-62 -6q-150 -14 -225.5 -110.5t-75.5 -221.5v-559q0 -23 -11 -35t-32 -12q-20 0 -31.5 12t-11.5 35z" />
<glyph unicode="&#x15a;" horiz-adv-x="1224" d="M96 217q0 16 8.5 27.5t20.5 11.5q14 0 37 -16q203 -172 463 -172q199 0 306 80.5t107 230.5q0 86 -53 139t-131 81t-209 58q-178 43 -272 76t-169 112t-75 216q0 119 62.5 210t176 140t261.5 49q141 0 267 -49t204 -135q20 -23 20 -49q0 -16 -9 -27.5t-21 -11.5 q-18 0 -35 16q-117 100 -209 136t-217 36q-195 0 -303.5 -84t-108.5 -235q0 -90 48 -147.5t123 -90.5t187 -61l89 -21q147 -33 239 -66.5t156.5 -105t64.5 -192.5q0 -115 -62.5 -203t-176 -137t-260.5 -49q-150 0 -290 50t-220 134q-18 18 -19 49zM586 1585q0 12 8 21 l217 247q23 29 54 29q23 0 37 -14.5t14 -34.5q0 -31 -29 -57l-252 -211q-8 -9 -20 -9t-20.5 8.5t-8.5 20.5z" />
<glyph unicode="&#x15b;" horiz-adv-x="974" d="M111 158q0 14 10 25.5t24 11.5q10 0 27.5 -11.5t24.5 -15.5q59 -43 123.5 -70.5t162.5 -27.5q133 0 205 49t72 139q0 53 -25.5 88t-84 60.5t-167.5 50.5q-180 41 -258 104.5t-78 167.5q0 127 99.5 207t257.5 80q76 0 145.5 -20.5t122.5 -57.5q39 -29 56.5 -50.5 t17.5 -43.5q0 -14 -10.5 -25.5t-24.5 -11.5q-16 0 -53 31q-53 41 -111.5 67.5t-146.5 26.5q-115 0 -185.5 -54.5t-70.5 -142.5q0 -53 22.5 -87t76.5 -58.5t155 -46.5q141 -35 217 -71t107.5 -86t31.5 -128q0 -123 -101.5 -197.5t-269.5 -74.5q-80 0 -159.5 23.5t-143.5 64.5 q-41 27 -55 44t-14 40zM475 1143q0 10 8 18l273 350q25 37 61 37q20 0 34.5 -14t14.5 -37q0 -31 -28 -59l-312 -314q-10 -10 -22 -10q-10 0 -19.5 8t-9.5 21z" />
<glyph unicode="&#x15c;" horiz-adv-x="1224" d="M96 217q0 16 8.5 27.5t20.5 11.5q14 0 37 -16q203 -172 463 -172q199 0 306 80.5t107 230.5q0 86 -53 139t-131 81t-209 58q-178 43 -272 76t-169 112t-75 216q0 119 62.5 210t176 140t261.5 49q141 0 267 -49t204 -135q20 -23 20 -49q0 -16 -9 -27.5t-21 -11.5 q-18 0 -35 16q-117 100 -209 136t-217 36q-195 0 -303.5 -84t-108.5 -235q0 -90 48 -147.5t123 -90.5t187 -61l89 -21q147 -33 239 -66.5t156.5 -105t64.5 -192.5q0 -115 -62.5 -203t-176 -137t-260.5 -49q-150 0 -290 50t-220 134q-18 18 -19 49zM347 1602q0 20 14 36 l192 215q27 29 60 29q31 0 59 -29l193 -215q14 -16 14 -36q0 -18 -13.5 -32t-29.5 -14q-18 0 -33 17l-190 223l-191 -223q-14 -17 -32 -17t-30.5 13.5t-12.5 32.5z" />
<glyph unicode="&#x15d;" horiz-adv-x="974" d="M111 158q0 14 10 25.5t24 11.5q10 0 27.5 -11.5t24.5 -15.5q59 -43 123.5 -70.5t162.5 -27.5q133 0 205 49t72 139q0 53 -25.5 88t-84 60.5t-167.5 50.5q-180 41 -258 104.5t-78 167.5q0 127 99.5 207t257.5 80q76 0 145.5 -20.5t122.5 -57.5q39 -29 56.5 -50.5 t17.5 -43.5q0 -14 -10.5 -25.5t-24.5 -11.5q-16 0 -53 31q-53 41 -111.5 67.5t-146.5 26.5q-115 0 -185.5 -54.5t-70.5 -142.5q0 -53 22.5 -87t76.5 -58.5t155 -46.5q141 -35 217 -71t107.5 -86t31.5 -128q0 -123 -101.5 -197.5t-269.5 -74.5q-80 0 -159.5 23.5t-143.5 64.5 q-41 27 -55 44t-14 40zM240 1161q0 12 10 29l196 313q25 39 58 39t57 -39l197 -313q10 -16 10 -31q0 -18 -14.5 -31.5t-30.5 -13.5q-27 0 -41 27l-178 303l-178 -303q-14 -25 -41 -25q-18 0 -31.5 13.5t-13.5 31.5z" />
<glyph unicode="&#x15e;" horiz-adv-x="1224" d="M96 217q0 16 8.5 27.5t20.5 11.5q14 0 37 -16q203 -172 463 -172q199 0 306 80.5t107 230.5q0 86 -53 139t-131 81t-209 58q-178 43 -272 76t-169 112t-75 216q0 119 62.5 210t176 140t261.5 49q141 0 267 -49t204 -135q20 -23 20 -49q0 -16 -9 -27.5t-21 -11.5 q-18 0 -35 16q-117 100 -209 136t-217 36q-195 0 -303.5 -84t-108.5 -235q0 -90 48 -147.5t123 -90.5t187 -61l89 -21q147 -33 239 -66.5t156.5 -105t64.5 -192.5q0 -111 -59 -198t-166.5 -137t-249.5 -54l-8 -78q27 10 59 10q61 0 106.5 -35t45.5 -106q0 -72 -59.5 -118 t-163.5 -46q-76 0 -135 24q-16 6 -24.5 17.5t-8.5 23.5q0 14 11 23.5t30 9.5q12 0 20 -2q59 -16 115 -16q66 0 97.5 22.5t31.5 61.5q0 29 -18.5 46t-51.5 17q-27 0 -62.5 -11t-45.5 -11q-14 0 -27.5 10t-11.5 27l14 133q-135 10 -256 58t-192 124q-18 18 -19 49z" />
<glyph unicode="&#x15f;" horiz-adv-x="974" d="M111 158q0 14 10 25.5t24 11.5q10 0 27.5 -11.5t24.5 -15.5q59 -43 123.5 -70.5t162.5 -27.5q133 0 205 49t72 139q0 53 -25.5 88t-84 60.5t-167.5 50.5q-180 41 -258 104.5t-78 167.5q0 127 99.5 207t257.5 80q76 0 145.5 -20.5t122.5 -57.5q39 -29 56.5 -50.5 t17.5 -43.5q0 -14 -10.5 -25.5t-24.5 -11.5q-16 0 -53 31q-53 41 -111.5 67.5t-146.5 26.5q-115 0 -185.5 -54.5t-70.5 -142.5q0 -53 22.5 -87t76.5 -58.5t155 -46.5q141 -35 217 -71t107.5 -86t31.5 -128q0 -119 -94 -192.5t-252 -79.5l-8 -80q27 10 59 10q61 0 106.5 -35 t45.5 -106q0 -72 -59.5 -118t-164.5 -46q-76 0 -135 24q-16 6 -24.5 17.5t-8.5 23.5q0 14 11.5 23.5t29.5 9.5q12 0 21 -2q59 -16 115 -16q66 0 97.5 22.5t31.5 61.5q0 29 -18.5 46t-51.5 17q-27 0 -62.5 -11t-46.5 -11q-14 0 -27 10t-11 27l14 137q-63 6 -127 27.5 t-115 56.5q-41 27 -55 44t-14 40z" />
<glyph unicode="&#x160;" horiz-adv-x="1224" d="M96 217q0 16 8.5 27.5t20.5 11.5q14 0 37 -16q203 -172 463 -172q199 0 306 80.5t107 230.5q0 86 -53 139t-131 81t-209 58q-178 43 -272 76t-169 112t-75 216q0 119 62.5 210t176 140t261.5 49q141 0 267 -49t204 -135q20 -23 20 -49q0 -16 -9 -27.5t-21 -11.5 q-18 0 -35 16q-117 100 -209 136t-217 36q-195 0 -303.5 -84t-108.5 -235q0 -90 48 -147.5t123 -90.5t187 -61l89 -21q147 -33 239 -66.5t156.5 -105t64.5 -192.5q0 -115 -62.5 -203t-176 -137t-260.5 -49q-150 0 -290 50t-220 134q-18 18 -19 49zM347 1839q0 18 12 31.5 t29 13.5q20 0 34 -18l191 -221l190 221q16 18 35 18q16 0 28.5 -13t12.5 -32q0 -20 -14 -37l-193 -217q-29 -29 -59 -29q-27 0 -60 29l-192 217q-14 16 -14 37z" />
<glyph unicode="&#x161;" horiz-adv-x="974" d="M111 158q0 14 10 25.5t24 11.5q10 0 27.5 -11.5t24.5 -15.5q59 -43 123.5 -70.5t162.5 -27.5q133 0 205 49t72 139q0 53 -25.5 88t-84 60.5t-167.5 50.5q-180 41 -258 104.5t-78 167.5q0 127 99.5 207t257.5 80q76 0 145.5 -20.5t122.5 -57.5q39 -29 56.5 -50.5 t17.5 -43.5q0 -14 -10.5 -25.5t-24.5 -11.5q-16 0 -53 31q-53 41 -111.5 67.5t-146.5 26.5q-115 0 -185.5 -54.5t-70.5 -142.5q0 -53 22.5 -87t76.5 -58.5t155 -46.5q141 -35 217 -71t107.5 -86t31.5 -128q0 -123 -101.5 -197.5t-269.5 -74.5q-80 0 -159.5 23.5t-143.5 64.5 q-41 27 -55 44t-14 40zM240 1495q0 18 14 31.5t33 13.5q27 0 41 -24l176 -304l176 304q14 25 41 24q18 0 32.5 -13.5t14.5 -31.5q0 -12 -10 -29l-197 -313q-25 -39 -57 -39q-33 0 -58 39l-196 313q-10 16 -10 29z" />
<glyph unicode="&#x162;" horiz-adv-x="1196" d="M16 1405q0 16 10.5 27.5t26.5 11.5h1088q14 0 26.5 -11.5t12.5 -27.5q0 -18 -12.5 -28.5t-26.5 -10.5h-500v-1329q0 -27 -16 -39l-11 -92q27 10 60 10q61 0 106 -35t45 -106q0 -72 -59 -118t-164 -46q-76 0 -135 24q-16 6 -24.5 17.5t-8.5 23.5q0 14 11.5 23.5t29.5 9.5 q12 0 21 -2q59 -16 114 -16q66 0 97.5 22.5t31.5 61.5q0 29 -18.5 46t-50.5 17q-27 0 -63 -11t-46 -11q-14 0 -27.5 10t-11.5 27l21 188h12v1325h-502q-16 0 -26.5 10t-10.5 29z" />
<glyph unicode="&#x163;" horiz-adv-x="643" d="M10 952q0 16 10.5 27.5t24.5 11.5h170v273q0 23 12.5 35t30.5 12t30.5 -12.5t12.5 -34.5v-273h272q14 0 24.5 -11t10.5 -28q0 -14 -9 -24t-26 -10h-272v-576q0 -139 54.5 -198.5t168.5 -69.5l56 -4q45 -4 45 -41q0 -45 -60 -39l-53 4q-45 4 -66 8l-10 -96q27 10 60 10 q61 0 106 -35t45 -106q0 -72 -59.5 -118t-163.5 -46q-76 0 -135 24q-16 6 -24.5 17.5t-8.5 23.5q0 14 11.5 23.5t29.5 9.5q12 0 20 -2q59 -16 115 -16q66 0 97.5 22.5t31.5 61.5q0 29 -18.5 46t-50.5 17q-27 0 -63 -11t-46 -11q-14 0 -27.5 10t-11.5 27l18 176 q-74 37 -110.5 113.5t-36.5 201.5v574h-170q-14 0 -24.5 10t-10.5 24z" />
<glyph unicode="&#x164;" horiz-adv-x="1196" d="M16 1405q0 16 10.5 27.5t26.5 11.5h1088q14 0 26.5 -11.5t12.5 -27.5q0 -18 -12.5 -28.5t-26.5 -10.5h-500v-1329q0 -20 -11.5 -33.5t-31.5 -13.5t-31.5 13t-11.5 34v1329h-502q-16 0 -26.5 10t-10.5 29zM332 1839q0 18 12 31.5t29 13.5q20 0 34 -18l191 -221l190 221 q16 18 35 18q16 0 28.5 -13t12.5 -32q0 -20 -14 -37l-193 -217q-29 -29 -59 -29q-27 0 -60 29l-192 217q-14 16 -14 37z" />
<glyph unicode="&#x165;" horiz-adv-x="643" d="M10 952q0 16 10.5 27.5t24.5 11.5h170v273q0 23 12.5 35t30.5 12t30.5 -12.5t12.5 -34.5v-273h272q14 0 24.5 -11t10.5 -28q0 -14 -9 -24t-26 -10h-272v-576q0 -139 54.5 -198.5t168.5 -69.5l56 -4q45 -4 45 -41q0 -45 -60 -39l-53 4q-154 10 -225.5 93t-71.5 257v574 h-170q-14 0 -24.5 10t-10.5 24zM420 1122v277q0 29 15.5 43t35.5 14q25 0 40 -17.5t11 -47.5l-39 -273q-2 -12 -10 -19t-20 -7t-22.5 9t-10.5 21z" />
<glyph unicode="&#x166;" horiz-adv-x="1196" d="M16 1405q0 16 10.5 27.5t26.5 11.5h1088q14 0 26.5 -11.5t12.5 -27.5q0 -18 -12.5 -28.5t-26.5 -10.5h-500v-594h270q16 0 26.5 -10t10.5 -29q0 -37 -37 -37h-270v-659q0 -20 -11.5 -33.5t-31.5 -13.5t-31.5 13t-11.5 34v659h-266q-18 0 -29.5 9.5t-11.5 27.5t11 28.5 t30 10.5h266v594h-502q-16 0 -26.5 10t-10.5 29z" />
<glyph unicode="&#x167;" horiz-adv-x="663" d="M20 952q0 16 10.5 27.5t24.5 11.5h170v273q0 23 12.5 35t30.5 12t30.5 -12.5t12.5 -34.5v-273h273q14 0 24 -11t10 -28q0 -14 -9 -24t-25 -10h-273v-306h230q16 0 26.5 -11t10.5 -28q0 -16 -10.5 -26t-26.5 -10h-230v-195q0 -139 54.5 -198.5t169.5 -69.5l55 -4 q45 -4 45 -41q0 -45 -60 -39l-53 4q-154 10 -225.5 93t-71.5 257v193h-127q-16 0 -26.5 10t-10.5 26t10.5 27.5t26.5 11.5h127v306h-170q-14 0 -24.5 10t-10.5 24z" />
<glyph unicode="&#x168;" horiz-adv-x="1464" d="M186 547v860q0 23 11.5 35t31.5 12q18 0 29.5 -13.5t11.5 -33.5v-875q0 -465 463 -464q227 0 344 116.5t117 347.5v875q0 20 13.5 33.5t29.5 13.5q18 0 30.5 -13.5t12.5 -33.5v-860q0 -279 -139.5 -421t-407.5 -142q-270 0 -408.5 142t-138.5 421zM424 1671q0 31 20.5 66 t59 57.5t90.5 22.5q35 0 72.5 -14.5t90.5 -41.5q82 -43 115 -43q41 0 62.5 16.5t42.5 47.5q18 29 30 28q14 0 24.5 -11t10.5 -25q0 -51 -47 -97.5t-123 -46.5q-35 0 -73 14.5t-91 41.5q-82 43 -114 43q-41 0 -62.5 -17.5t-42.5 -48.5q-18 -29 -31 -29q-14 0 -24 11.5 t-10 25.5z" />
<glyph unicode="&#x169;" horiz-adv-x="1116" d="M170 365v602q0 20 11.5 32.5t31.5 12.5t31.5 -12.5t11.5 -32.5v-594q0 -156 63.5 -229.5t196.5 -73.5q154 0 247 97t93 259v541q0 20 11.5 32.5t31.5 12.5q21 0 32 -12.5t11 -32.5v-930q0 -47 -43 -47q-18 0 -29.5 13t-11.5 34v149q-47 -96 -136 -148t-202 -52 q-172 0 -261 96t-89 283zM250 1272q0 33 21.5 73.5t59 70.5t89.5 30q37 0 73.5 -19.5t87.5 -56.5q45 -31 72 -45t49 -14q37 0 57.5 21.5t36.5 58.5q8 16 17.5 28.5t19.5 12.5q14 0 24.5 -11.5t10.5 -25.5q0 -33 -21.5 -74t-59.5 -70.5t-89 -29.5q-37 0 -74 19.5t-88 55.5 q-45 31 -71.5 45.5t-49.5 14.5q-37 0 -57 -21.5t-37 -58.5q-8 -16 -17 -28.5t-20 -12.5q-14 0 -24 11t-10 26z" />
<glyph unicode="&#x16a;" horiz-adv-x="1464" d="M186 547v860q0 23 11.5 35t31.5 12q18 0 29.5 -13.5t11.5 -33.5v-875q0 -465 463 -464q227 0 344 116.5t117 347.5v875q0 20 13.5 33.5t29.5 13.5q18 0 30.5 -13.5t12.5 -33.5v-860q0 -279 -139.5 -421t-407.5 -142q-270 0 -408.5 142t-138.5 421zM426 1722q0 43 59 43 h496q59 0 59 -43q0 -20 -16.5 -31.5t-42.5 -11.5h-496q-27 0 -43 11.5t-16 31.5z" />
<glyph unicode="&#x16b;" horiz-adv-x="1116" d="M170 365v602q0 20 11.5 32.5t31.5 12.5t31.5 -12.5t11.5 -32.5v-594q0 -156 63.5 -229.5t196.5 -73.5q154 0 247 97t93 259v541q0 20 11.5 32.5t31.5 12.5q21 0 32 -12.5t11 -32.5v-930q0 -47 -43 -47q-18 0 -29.5 13t-11.5 34v149q-47 -96 -136 -148t-202 -52 q-172 0 -261 96t-89 283zM252 1331q0 45 59 45h496q59 0 59 -45q0 -20 -16.5 -31.5t-42.5 -11.5h-496q-27 0 -43 11.5t-16 31.5z" />
<glyph unicode="&#x16c;" horiz-adv-x="1464" d="M186 547v860q0 23 11.5 35t31.5 12q18 0 29.5 -13.5t11.5 -33.5v-875q0 -465 463 -464q227 0 344 116.5t117 347.5v875q0 20 13.5 33.5t29.5 13.5q18 0 30.5 -13.5t12.5 -33.5v-860q0 -279 -139.5 -421t-407.5 -142q-270 0 -408.5 142t-138.5 421zM426 1806q0 18 12 29.5 t31 11.5q33 0 51 -35q41 -72 91 -102.5t122 -30.5t122 31t91 102q16 35 51 35q18 0 30.5 -11t12.5 -30q0 -10 -6 -26q-45 -94 -123 -139.5t-178 -45.5q-99 0 -176.5 45.5t-124.5 139.5q-6 16 -6 26z" />
<glyph unicode="&#x16d;" horiz-adv-x="1116" d="M170 365v602q0 20 11.5 32.5t31.5 12.5t31.5 -12.5t11.5 -32.5v-594q0 -156 63.5 -229.5t196.5 -73.5q154 0 247 97t93 259v541q0 20 11.5 32.5t31.5 12.5q21 0 32 -12.5t11 -32.5v-930q0 -47 -43 -47q-18 0 -29.5 13t-11.5 34v149q-47 -96 -136 -148t-202 -52 q-172 0 -261 96t-89 283zM256 1419q0 20 12 33.5t31 13.5q37 0 55 -41q66 -147 205 -147t205 147q8 20 23.5 30.5t29.5 10.5q18 0 31.5 -13t13.5 -34q0 -12 -6 -28q-39 -94 -119 -144.5t-178 -50.5q-99 0 -176.5 49t-120.5 146q-6 16 -6 28z" />
<glyph unicode="&#x16e;" horiz-adv-x="1464" d="M186 547v860q0 23 11.5 35t31.5 12q18 0 29.5 -13.5t11.5 -33.5v-875q0 -465 463 -464q227 0 344 116.5t117 347.5v875q0 20 13.5 33.5t29.5 13.5q18 0 30.5 -13.5t12.5 -33.5v-860q0 -279 -139.5 -421t-407.5 -142q-270 0 -408.5 142t-138.5 421zM534 1751 q0 80 58.5 136.5t140.5 56.5t140 -56.5t58 -136.5q0 -82 -58 -138.5t-140 -56.5t-140.5 56.5t-58.5 138.5zM628 1751q0 -47 30 -78t75 -31t74.5 31t29.5 78q0 45 -29.5 76t-74.5 31t-75 -31t-30 -76z" />
<glyph unicode="&#x16f;" horiz-adv-x="1116" d="M170 365v602q0 20 11.5 32.5t31.5 12.5t31.5 -12.5t11.5 -32.5v-594q0 -156 63.5 -229.5t196.5 -73.5q154 0 247 97t93 259v541q0 20 11.5 32.5t31.5 12.5q21 0 32 -12.5t11 -32.5v-930q0 -47 -43 -47q-18 0 -29.5 13t-11.5 34v149q-47 -96 -136 -148t-202 -52 q-172 0 -261 96t-89 283zM360 1331q0 82 58.5 138.5t140.5 56.5t140 -56.5t58 -138.5q0 -80 -58 -136t-140 -56t-140.5 56t-58.5 136zM454 1331q0 -45 30 -76.5t75 -31.5t74.5 31.5t29.5 76.5q0 47 -29.5 78t-74.5 31t-75 -31t-30 -78z" />
<glyph unicode="&#x170;" horiz-adv-x="1464" d="M186 547v860q0 23 11.5 35t31.5 12q18 0 29.5 -13.5t11.5 -33.5v-875q0 -465 463 -464q227 0 344 116.5t117 347.5v875q0 20 13.5 33.5t29.5 13.5q18 0 30.5 -13.5t12.5 -33.5v-860q0 -279 -139.5 -421t-407.5 -142q-270 0 -408.5 142t-138.5 421zM601 1567.5 q-7 11.5 1 23.5l129 250q20 43 53 43q16 0 27.5 -12t11.5 -31q0 -20 -19 -49l-161 -223q-9 -13 -23 -13q-12 0 -19 11.5zM826 1567.5q-7 11.5 1 23.5l127 250q23 43 55 43q16 0 27.5 -12t11.5 -31q0 -20 -18 -49l-162 -223q-9 -13 -23 -13q-12 0 -19 11.5z" />
<glyph unicode="&#x171;" horiz-adv-x="1116" d="M170 365v602q0 20 11.5 32.5t31.5 12.5t31.5 -12.5t11.5 -32.5v-594q0 -156 63.5 -229.5t196.5 -73.5q154 0 247 97t93 259v541q0 20 11.5 32.5t31.5 12.5q21 0 32 -12.5t11 -32.5v-930q0 -47 -43 -47q-18 0 -29.5 13t-11.5 34v149q-47 -96 -136 -148t-202 -52 q-172 0 -261 96t-89 283zM424 1147l114 352q18 47 58 47q18 0 30.5 -13t12.5 -34q0 -18 -9 -35l-163 -336q-7 -16 -23 -16q-12 0 -19.5 10.5t-0.5 24.5zM651 1147l115 352q18 47 57 47q18 0 30.5 -13t12.5 -34q0 -18 -8 -35l-164 -336q-7 -16 -23 -16q-12 0 -19 10.5 t-1 24.5z" />
<glyph unicode="&#x172;" horiz-adv-x="1464" d="M186 547v860q0 23 11.5 35t31.5 12q18 0 29.5 -13.5t11.5 -33.5v-875q0 -465 463 -464q227 0 344 116.5t117 347.5v875q0 20 13.5 33.5t29.5 13.5q18 0 30.5 -13.5t12.5 -33.5v-860q0 -428 -326 -533q-96 -31 -142 -75.5t-46 -110.5t38 -102.5t105 -36.5q41 0 99 28 q12 6 24 7q16 0 25.5 -10.5t9.5 -26.5q0 -27 -29 -43q-66 -33 -135 -33q-102 0 -164.5 57.5t-62.5 151.5q0 106 76 164h-19q-270 0 -408.5 142t-138.5 421z" />
<glyph unicode="&#x173;" horiz-adv-x="1116" d="M170 365v602q0 20 11.5 32.5t31.5 12.5t31.5 -12.5t11.5 -32.5v-594q0 -156 63.5 -229.5t196.5 -73.5q154 0 247 97t93 259v541q0 20 11.5 32.5t31.5 12.5t31.5 -12.5t11.5 -32.5v-932q0 -18 -10 -30.5t-27 -14.5q-76 -10 -118 -52t-42 -110q0 -66 38 -102.5t106 -36.5 q41 0 98 28q13 7 25 7q16 0 26.5 -10.5t10.5 -26.5q0 -27 -29 -43q-70 -33 -137 -33q-102 0 -165 57.5t-63 151.5q0 86 53.5 148.5t149.5 90.5v127q-47 -96 -136 -148t-202 -52q-172 0 -261 96t-89 283z" />
<glyph unicode="&#x174;" horiz-adv-x="2238" d="M82 1415q0 16 14.5 27.5t30.5 11.5q27 0 35 -24l454 -1307l453 1288q6 18 19.5 27.5t29.5 9.5q35 0 49 -39l453 -1286l455 1307q7 24 34 24q20 0 36 -15.5t7 -33.5l-485 -1380q-12 -35 -47 -35q-14 0 -26.5 9t-18.5 26l-455 1284l-456 -1284q-12 -35 -48 -35q-14 0 -26 9 t-19 26l-487 1380q-2 4 -2 10zM852 1602q0 20 14 36l192 215q27 29 60 29q31 0 59 -29l193 -215q14 -16 14 -36q0 -18 -13.5 -32t-29.5 -14q-18 0 -33 17l-190 223l-191 -223q-14 -17 -32 -17t-30.5 13.5t-12.5 32.5z" />
<glyph unicode="&#x175;" horiz-adv-x="1699" d="M78 952q-8 23 9 41.5t40 18.5q27 0 35 -27l315 -866l326 856q8 18 21.5 27.5t27.5 9.5q16 0 29.5 -9.5t19.5 -27.5l322 -854l321 858q12 31 37 31q20 0 34.5 -16.5t6.5 -37.5l-344 -921q-14 -37 -53 -37q-18 0 -32.5 9t-21.5 28l-321 837l-318 -837q-8 -18 -22 -27.5 t-33 -9.5q-18 0 -32.5 9t-22.5 28zM586 1161q0 12 10 29l196 313q25 39 58 39t57 -39l197 -313q10 -16 10 -31q0 -18 -14.5 -31.5t-30.5 -13.5q-27 0 -41 27l-178 303l-178 -303q-14 -25 -41 -25q-18 0 -31.5 13.5t-13.5 31.5z" />
<glyph unicode="&#x176;" horiz-adv-x="1189" d="M18 1411q0 16 11.5 28.5t25.5 12.5q18 0 33 -18l508 -662l506 662q17 18 33 18q14 0 25 -12.5t11 -26.5q0 -12 -10 -29l-524 -684v-663q0 -20 -11.5 -33.5t-31.5 -13.5t-31.5 13t-11.5 34v665l-524 682q-8 10 -9 27zM328 1602q0 20 14 36l192 215q27 29 60 29 q31 0 59 -29l193 -215q14 -16 14 -36q0 -18 -13.5 -32t-29.5 -14q-18 0 -33 17l-190 223l-191 -223q-14 -17 -32 -17t-30.5 13.5t-12.5 32.5z" />
<glyph unicode="&#x177;" horiz-adv-x="1032" d="M41 971q0 18 14.5 30.5t32.5 12.5q23 0 35 -25l395 -891l4 11l389 874q12 29 39 29q16 0 28.5 -11.5t12.5 -29.5q0 -6 -4 -19l-588 -1302q-12 -25 -37 -25q-16 0 -27 10.5t-11 26.5l4 16l147 324l-430 950q-4 12 -4 19zM252 1161q0 12 10 29l196 313q25 39 58 39t57 -39 l197 -313q10 -16 10 -31q0 -18 -14.5 -31.5t-30.5 -13.5q-27 0 -41 27l-178 303l-178 -303q-14 -25 -41 -25q-18 0 -31.5 13.5t-13.5 31.5z" />
<glyph unicode="&#x178;" horiz-adv-x="1189" d="M18 1411q0 16 11.5 28.5t25.5 12.5q18 0 33 -18l508 -662l506 662q17 18 33 18q14 0 25 -12.5t11 -26.5q0 -12 -10 -29l-524 -684v-663q0 -20 -11.5 -33.5t-31.5 -13.5t-31.5 13t-11.5 34v665l-524 682q-8 10 -9 27zM356 1722q0 31 21.5 51.5t52.5 20.5q29 0 50.5 -20.5 t21.5 -51.5t-20.5 -51t-51.5 -20t-52.5 20.5t-21.5 50.5zM686 1722q0 31 21.5 51.5t50.5 20.5q31 0 52 -20.5t21 -51.5t-21.5 -51t-51.5 -20q-31 0 -51.5 20.5t-20.5 50.5z" />
<glyph unicode="&#x179;" horiz-adv-x="1185" d="M80 37q0 18 12 37l893 1290h-868q-14 0 -25.5 11t-11.5 30q0 16 11 27.5t26 11.5h923l2 4v-4h11q20 0 32.5 -10.5t12.5 -26.5t-13 -33l-895 -1294h887q17 0 28 -11.5t11 -29.5q0 -16 -11 -27.5t-28 -11.5h-942l-2 -4v4h-10q-20 0 -31.5 10t-11.5 27zM563 1585q0 12 8 21 l217 247q23 29 54 29q23 0 37 -14.5t14 -34.5q0 -31 -29 -57l-252 -211q-8 -9 -20 -9t-20.5 8.5t-8.5 20.5z" />
<glyph unicode="&#x17a;" horiz-adv-x="1015" d="M98 43q0 16 17 39l673 836h-651q-16 0 -26.5 10t-10.5 24q0 16 10.5 27.5t26.5 11.5h723q25 0 38 -11t13 -30q0 -20 -14 -37l-676 -837h672q14 0 24.5 -10.5t10.5 -26.5t-10.5 -27.5t-24.5 -11.5h-743q-25 0 -38.5 12.5t-13.5 30.5zM483 1143q0 10 8 18l273 350 q25 37 61 37q20 0 34.5 -14t14.5 -37q0 -31 -28 -59l-312 -314q-10 -10 -22 -10q-10 0 -19.5 8t-9.5 21z" />
<glyph unicode="&#x17b;" horiz-adv-x="1185" d="M80 37q0 18 12 37l893 1290h-868q-14 0 -25.5 11t-11.5 30q0 16 11 27.5t26 11.5h923l2 4v-4h11q20 0 32.5 -10.5t12.5 -26.5t-13 -33l-895 -1294h887q17 0 28 -11.5t11 -29.5q0 -16 -11 -27.5t-28 -11.5h-942l-2 -4v4h-10q-20 0 -31.5 10t-11.5 27zM514 1722 q0 33 22.5 53.5t53.5 20.5q33 0 54.5 -20.5t21.5 -53.5q0 -35 -21.5 -55t-54.5 -20t-54.5 20.5t-21.5 54.5z" />
<glyph unicode="&#x17c;" horiz-adv-x="1015" d="M98 43q0 16 17 39l673 836h-651q-16 0 -26.5 10t-10.5 24q0 16 10.5 27.5t26.5 11.5h723q25 0 38 -11t13 -30q0 -20 -14 -37l-676 -837h672q14 0 24.5 -10.5t10.5 -26.5t-10.5 -27.5t-24.5 -11.5h-743q-25 0 -38.5 12.5t-13.5 30.5zM436 1331q0 35 21.5 55.5t54.5 20.5 t54.5 -20.5t21.5 -55.5q0 -33 -22.5 -53.5t-53.5 -20.5t-53.5 20.5t-22.5 53.5z" />
<glyph unicode="&#x17d;" horiz-adv-x="1185" d="M80 37q0 18 12 37l893 1290h-868q-14 0 -25.5 11t-11.5 30q0 16 11 27.5t26 11.5h923l2 4v-4h11q20 0 32.5 -10.5t12.5 -26.5t-13 -33l-895 -1294h887q17 0 28 -11.5t11 -29.5q0 -16 -11 -27.5t-28 -11.5h-942l-2 -4v4h-10q-20 0 -31.5 10t-11.5 27zM324 1839 q0 18 12 31.5t29 13.5q20 0 34 -18l191 -221l190 221q16 18 35 18q16 0 28.5 -13t12.5 -32q0 -20 -14 -37l-193 -217q-29 -29 -59 -29q-27 0 -60 29l-192 217q-14 16 -14 37z" />
<glyph unicode="&#x17e;" horiz-adv-x="1015" d="M98 43q0 16 17 39l673 836h-651q-16 0 -26.5 10t-10.5 24q0 16 10.5 27.5t26.5 11.5h723q25 0 38 -11t13 -30q0 -20 -14 -37l-676 -837h672q14 0 24.5 -10.5t10.5 -26.5t-10.5 -27.5t-24.5 -11.5h-743q-25 0 -38.5 12.5t-13.5 30.5zM248 1495q0 18 14 31.5t33 13.5 q27 0 41 -24l176 -304l176 304q14 25 41 24q18 0 32.5 -13.5t14.5 -31.5q0 -12 -10 -29l-197 -313q-25 -39 -57 -39q-33 0 -58 39l-196 313q-10 16 -10 29z" />
<glyph unicode="&#x192;" d="M92 -342q0 14 14.5 26.5t36.5 12.5h37q106 0 170 53t90 180l209 977h-233q-18 0 -29.5 12.5t-11.5 28.5q0 18 11 30.5t30 12.5h250l34 160q33 147 116 224t231 77h40q23 0 35.5 -10t12.5 -25q0 -16 -14.5 -28.5t-39.5 -12.5h-34q-109 0 -171.5 -53t-89.5 -180l-32 -152 h237q18 0 29.5 -12t11.5 -31q0 -18 -11 -29.5t-30 -11.5h-256l-209 -985q-31 -147 -115.5 -224t-230.5 -77h-39q-23 0 -36 11.5t-13 25.5z" />
<glyph unicode="&#x2c6;" horiz-adv-x="614" d="M43 1161q0 12 10 29l196 313q25 39 58 39t57 -39l197 -313q10 -16 10 -31q0 -18 -14.5 -31.5t-30.5 -13.5q-27 0 -41 27l-178 303l-178 -303q-14 -25 -41 -25q-18 0 -31.5 13.5t-13.5 31.5z" />
<glyph unicode="&#x2da;" horiz-adv-x="614" d="M108 1331q0 82 58.5 138.5t140.5 56.5t140 -56.5t58 -138.5q0 -80 -58 -136t-140 -56t-140.5 56t-58.5 136zM202 1331q0 -45 30 -76.5t75 -31.5t74.5 31.5t29.5 76.5q0 47 -29.5 78t-74.5 31t-75 -31t-30 -78z" />
<glyph unicode="&#x2dc;" horiz-adv-x="614" d="M-2 1272q0 33 21.5 73.5t59 70.5t89.5 30q37 0 73.5 -19.5t87.5 -56.5q45 -31 72 -45t49 -14q37 0 57.5 21.5t36.5 58.5q8 16 17.5 28.5t19.5 12.5q14 0 24.5 -11.5t10.5 -25.5q0 -33 -21.5 -74t-59.5 -70.5t-89 -29.5q-37 0 -74 19.5t-88 55.5q-45 31 -71.5 45.5 t-49.5 14.5q-37 0 -57 -21.5t-37 -58.5q-8 -16 -17 -28.5t-20 -12.5q-14 0 -24 11t-10 26z" />
<glyph unicode="&#x3a9;" horiz-adv-x="1556" d="M125 39q0 14 13.5 26.5t25.5 12.5h375q-176 252 -262.5 394t-119 241.5t-32.5 206.5q0 162 81 283.5t228.5 189t343.5 67.5q197 0 345.5 -66.5t229.5 -189.5t81 -284q0 -111 -37 -219.5t-125 -253t-252 -369.5h375q12 0 25.5 -12.5t13.5 -26.5q0 -12 -13.5 -25.5 t-25.5 -13.5h-439q-20 0 -31.5 10t-11.5 27q0 18 13 37q162 233 250 383.5t126.5 259t38.5 203.5q0 139 -68.5 242.5t-195.5 158.5t-299 55t-299 -55t-195.5 -158.5t-68.5 -242.5q0 -141 90 -325.5t326 -520.5q14 -16 14 -37q0 -16 -12 -26.5t-33 -10.5h-436 q-14 0 -26.5 13.5t-12.5 25.5z" />
<glyph unicode="&#x3c0;" horiz-adv-x="1146" d="M10 952q0 16 10.5 27.5t24.5 11.5h991q14 0 24.5 -11t10.5 -28q0 -14 -9 -24t-26 -10h-231v-576q0 -139 54 -198.5t169 -69.5l53 -4q45 -4 45 -41q0 -43 -57 -39l-55 4q-152 10 -223.5 93t-71.5 257v574h-410q-8 -553 -135 -900q-14 -39 -51 -38q-18 0 -30.5 11t-12.5 32 q0 8 8 32q66 170 97.5 398.5t35.5 464.5h-176q-14 0 -24.5 10t-10.5 24z" />
<glyph unicode="&#x2000;" horiz-adv-x="972" />
<glyph unicode="&#x2001;" horiz-adv-x="1944" />
<glyph unicode="&#x2002;" horiz-adv-x="972" />
<glyph unicode="&#x2003;" horiz-adv-x="1944" />
<glyph unicode="&#x2004;" horiz-adv-x="648" />
<glyph unicode="&#x2005;" horiz-adv-x="486" />
<glyph unicode="&#x2006;" horiz-adv-x="324" />
<glyph unicode="&#x2007;" horiz-adv-x="324" />
<glyph unicode="&#x2008;" horiz-adv-x="243" />
<glyph unicode="&#x2009;" horiz-adv-x="388" />
<glyph unicode="&#x200a;" horiz-adv-x="108" />
<glyph unicode="&#x2010;" horiz-adv-x="851" d="M147 543q0 16 11.5 27.5t29.5 11.5h478q18 0 28.5 -11.5t10.5 -27.5t-10.5 -27.5t-28.5 -11.5h-478q-18 0 -29.5 11t-11.5 28z" />
<glyph unicode="&#x2011;" horiz-adv-x="851" d="M147 543q0 16 11.5 27.5t29.5 11.5h478q18 0 28.5 -11.5t10.5 -27.5t-10.5 -27.5t-28.5 -11.5h-478q-18 0 -29.5 11t-11.5 28z" />
<glyph unicode="&#x2012;" horiz-adv-x="851" d="M147 543q0 16 11.5 27.5t29.5 11.5h478q18 0 28.5 -11.5t10.5 -27.5t-10.5 -27.5t-28.5 -11.5h-478q-18 0 -29.5 11t-11.5 28z" />
<glyph unicode="&#x2013;" horiz-adv-x="1024" d="M0 543q0 14 11.5 24.5t27.5 10.5h946q18 0 28.5 -10.5t10.5 -24.5q0 -12 -10 -22.5t-29 -10.5h-946q-19 0 -29 10t-10 23z" />
<glyph unicode="&#x2014;" horiz-adv-x="2048" d="M0 543q0 14 11.5 24.5t27.5 10.5h1970q18 0 28.5 -10.5t10.5 -24.5q0 -12 -10 -22.5t-29 -10.5h-1970q-19 0 -29 10t-10 23z" />
<glyph unicode="&#x2018;" horiz-adv-x="434" d="M137 1221q0 125 78 217q18 18 37 18q16 0 26.5 -10t10.5 -27q0 -18 -13 -30q-27 -29 -38 -57.5t-15 -69.5q31 -2 51.5 -23.5t20.5 -56.5q0 -37 -21.5 -59.5t-54.5 -22.5q-82 0 -82 121z" />
<glyph unicode="&#x2019;" horiz-adv-x="434" d="M137 1372q0 37 21.5 59.5t56.5 22.5q37 0 58.5 -28.5t21.5 -92.5q0 -129 -78 -217q-18 -18 -37 -18q-14 0 -24.5 11t-10.5 26q0 18 13 30q25 27 36 56.5t15 70.5q-31 2 -51.5 23.5t-20.5 56.5z" />
<glyph unicode="&#x201a;" horiz-adv-x="434" d="M137 72q0 37 21.5 59.5t56.5 22.5q37 0 58.5 -29t21.5 -92q0 -129 -78 -217q-18 -18 -37 -19q-14 0 -24.5 11.5t-10.5 25.5q0 18 13 31q25 27 36 56.5t15 70.5q-31 2 -51.5 23.5t-20.5 56.5z" />
<glyph unicode="&#x201c;" horiz-adv-x="727" d="M137 1221q0 125 78 217q18 18 37 18q16 0 26.5 -10t10.5 -27q0 -18 -13 -30q-27 -29 -38 -57.5t-15 -69.5q31 -2 51.5 -23.5t20.5 -56.5q0 -37 -21.5 -59.5t-54.5 -22.5q-82 0 -82 121zM430 1221q0 125 78 217q18 18 37 18q16 0 26.5 -10t10.5 -27q0 -18 -13 -30 q-27 -29 -38 -57.5t-15 -69.5q31 -2 51.5 -23.5t20.5 -56.5q0 -37 -21.5 -59.5t-54.5 -22.5q-82 0 -82 121z" />
<glyph unicode="&#x201d;" horiz-adv-x="727" d="M137 1372q0 37 21.5 59.5t56.5 22.5q37 0 58.5 -28.5t21.5 -92.5q0 -129 -78 -217q-18 -18 -37 -18q-14 0 -24.5 11t-10.5 26q0 18 13 30q25 27 36 56.5t15 70.5q-31 2 -51.5 23.5t-20.5 56.5zM430 1372q0 37 21.5 59.5t56.5 22.5q37 0 58.5 -28.5t21.5 -92.5 q0 -129 -78 -217q-18 -18 -37 -18q-14 0 -24.5 11t-10.5 26q0 18 13 30q25 27 36 56.5t15 70.5q-31 2 -51.5 23.5t-20.5 56.5z" />
<glyph unicode="&#x201e;" horiz-adv-x="727" d="M137 72q0 37 21.5 59.5t56.5 22.5q37 0 58.5 -29t21.5 -92q0 -129 -78 -217q-18 -18 -37 -19q-14 0 -24.5 11.5t-10.5 25.5q0 18 13 31q25 27 36 56.5t15 70.5q-31 2 -51.5 23.5t-20.5 56.5zM430 72q0 37 21.5 59.5t56.5 22.5q37 0 58.5 -29t21.5 -92q0 -129 -78 -217 q-18 -18 -37 -19q-14 0 -24.5 11.5t-10.5 25.5q0 18 13 31q25 27 36 56.5t15 70.5q-31 2 -51.5 23.5t-20.5 56.5z" />
<glyph unicode="&#x2026;" horiz-adv-x="1300" d="M137 72q0 37 22.5 59.5t57.5 22.5q33 0 55.5 -22.5t22.5 -59.5t-22.5 -59.5t-55.5 -22.5q-35 0 -57.5 22.5t-22.5 59.5zM571 72q0 37 22.5 59.5t57.5 22.5q33 0 55.5 -22.5t22.5 -59.5t-22.5 -59.5t-55.5 -22.5q-35 0 -57.5 22.5t-22.5 59.5zM1006 72q0 37 22.5 59.5 t56.5 22.5q33 0 55.5 -22.5t22.5 -59.5t-22.5 -59.5t-55.5 -22.5q-34 0 -56.5 22.5t-22.5 59.5z" />
<glyph unicode="&#x202f;" horiz-adv-x="388" />
<glyph unicode="&#x2030;" horiz-adv-x="2684" d="M133 1016q0 221 88 331.5t246 110.5t246 -109.5t88 -330.5t-88 -332t-246 -111t-246 110t-88 331zM225 1018q0 -188 59.5 -277.5t182.5 -89.5t181.5 89t58.5 278q0 184 -59.5 273t-180.5 89q-123 0 -182.5 -89t-59.5 -273zM485 10q0 14 9 29l815 1409q14 29 41 29 q16 0 29.5 -12.5t13.5 -30.5q0 -14 -9 -29l-815 -1409q-14 -29 -41 -29q-16 0 -29.5 12.5t-13.5 30.5zM1077 428q0 221 88 330.5t246 109.5t246 -109.5t88 -330.5t-88 -331.5t-246 -110.5t-246 110.5t-88 331.5zM1169 428q0 -188 59.5 -276.5t182.5 -88.5t181.5 88.5 t58.5 276.5q0 186 -58.5 274.5t-181.5 88.5t-182.5 -88.5t-59.5 -274.5zM1886 428q0 221 87 330.5t245 109.5t246 -109.5t88 -330.5t-88 -331.5t-246 -110.5q-156 0 -244 110.5t-88 331.5zM1978 428q0 -188 58.5 -276.5t181.5 -88.5t182.5 88.5t59.5 276.5 q0 186 -59.5 274.5t-182.5 88.5t-181.5 -88.5t-58.5 -274.5z" />
<glyph unicode="&#x2039;" horiz-adv-x="483" d="M117 543q0 10 8 26l170 295q14 27 41 27q14 0 24.5 -9.5t10.5 -23.5q0 -12 -4 -18l-154 -297l154 -299q4 -6 4 -19q0 -14 -10.5 -22t-24.5 -8q-27 0 -41 26l-170 293q-8 20 -8 29z" />
<glyph unicode="&#x203a;" horiz-adv-x="483" d="M111 860q0 14 10 22.5t24 8.5q27 0 41 -27l172 -295q8 -10 9 -26q0 -14 -9 -29l-172 -293q-14 -24 -41 -24q-14 0 -23 7t-9 21q0 12 4 19l151 299l-151 297q-6 10 -6 20z" />
<glyph unicode="&#x2044;" horiz-adv-x="323" d="M-291 10q0 14 8 29l813 1409q14 29 43 29q16 0 29.5 -12.5t13.5 -30.5q0 -14 -8 -29l-815 -1409q-14 -29 -43 -29q-16 0 -28.5 12.5t-12.5 30.5z" />
<glyph unicode="&#x205f;" horiz-adv-x="486" />
<glyph unicode="&#x20ac;" d="M20 569q0 18 11.5 29.5t29.5 11.5h195q-4 74 -4 113t4 113h-195q-16 0 -28.5 11t-12.5 30q0 18 12.5 29.5t28.5 11.5h203q35 262 167 402t345 140q106 0 222 -46t192 -134q20 -27 20 -47q0 -16 -9 -28.5t-19 -12.5q-23 0 -37 16q-92 94 -180 132t-193 38 q-174 0 -281.5 -117.5t-138.5 -342.5h350q20 0 30.5 -11.5t10.5 -29.5t-10 -29.5t-31 -11.5h-358q-4 -74 -4 -113q0 -43 4 -113h358q41 0 41 -41q0 -18 -11 -29.5t-30 -11.5h-350q29 -229 135.5 -345.5t284.5 -116.5q92 0 174 40.5t199 129.5q20 16 37 16q14 0 21 -11.5 t7 -29.5q0 -27 -20 -47q-90 -84 -204 -132t-210 -48q-213 0 -345 140t-167 404h-203q-16 0 -28.5 12.5t-12.5 28.5z" />
<glyph unicode="&#x2122;" horiz-adv-x="1841" d="M0 1405q0 18 11.5 28.5t29.5 10.5h637q18 0 29.5 -10.5t11.5 -28.5t-11.5 -27.5t-29.5 -9.5h-277v-754q0 -18 -11 -30.5t-30 -12.5q-20 0 -32.5 12.5t-12.5 30.5v754h-274q-41 0 -41 37zM848 614v793q0 18 11 30.5t32 12.5q25 0 43 -33l323 -616l320 616q16 33 41 33 q20 0 31.5 -12.5t11.5 -30.5v-793q0 -43 -41 -43q-39 0 -39 43v658l-281 -539q-14 -31 -45 -31q-27 0 -43 31l-282 529v-648q0 -43 -41 -43t-41 43z" />
<glyph unicode="&#x2202;" d="M141 532q0 180 66.5 307.5t178.5 192t247 64.5q115 0 205 -45t155 -156q-49 324 -196.5 455t-337.5 131h-47q-18 0 -31.5 10t-13.5 22q0 14 9 24.5t23 14.5q49 4 76 4q156 0 295 -81.5t233.5 -292.5t94.5 -574q0 -330 -131 -484.5t-336 -154.5q-139 0 -251 65.5 t-175.5 192.5t-63.5 305zM227 518q0 -147 52.5 -253.5t142.5 -162t201 -55.5q116 0 205.5 61.5t139.5 180.5t50 286q0 143 -53.5 244t-142.5 151t-195 50q-113 0 -204 -57.5t-143.5 -170t-52.5 -274.5z" />
<glyph unicode="&#x2206;" horiz-adv-x="1556" d="M125 39q0 14 13.5 26.5t25.5 12.5h375q-176 252 -262.5 394t-119 241.5t-32.5 206.5q0 162 81 283.5t228.5 189t343.5 67.5q197 0 345.5 -66.5t229.5 -189.5t81 -284q0 -111 -37 -219.5t-125 -253t-252 -369.5h375q12 0 25.5 -12.5t13.5 -26.5q0 -12 -13.5 -25.5 t-25.5 -13.5h-439q-20 0 -31.5 10t-11.5 27q0 18 13 37q162 233 250 383.5t126.5 259t38.5 203.5q0 139 -68.5 242.5t-195.5 158.5t-299 55t-299 -55t-195.5 -158.5t-68.5 -242.5q0 -141 90 -325.5t326 -520.5q14 -16 14 -37q0 -16 -12 -26.5t-33 -10.5h-436 q-14 0 -26.5 13.5t-12.5 25.5z" />
<glyph unicode="&#x220f;" d="M115 -340v1745q0 16 12 27.5t27 11.5h921q16 0 27.5 -11.5t11.5 -27.5v-1745q0 -16 -12 -27.5t-33 -11.5q-16 0 -27.5 11.5t-11.5 27.5v1700h-831v-1700q0 -16 -12.5 -27.5t-32.5 -11.5q-15 0 -27 11.5t-12 27.5z" />
<glyph unicode="&#x2211;" horiz-adv-x="1165" d="M72 -332q0 16 12 33l575 838l-575 835q-12 16 -12 33q0 16 12 26.5t33 10.5h14v4l2 -4h920q14 0 25.5 -11.5t11.5 -29.5t-11.5 -30.5t-25.5 -12.5h-860l516 -748l2 2v-6l10 -14q23 -35 22 -55q0 -20 -22 -56l-10 -14v-6l-2 2l-516 -750h860q14 0 25.5 -12t11.5 -31 q0 -18 -11.5 -29.5t-25.5 -11.5h-920l-2 -4v4h-14q-20 0 -32.5 10.5t-12.5 26.5z" />
<glyph unicode="&#x221a;" d="M12 584q0 14 13.5 25.5t31.5 11.5h174q12 0 23.5 -8.5t15.5 -18.5l297 -838l502 1686q10 29 41 28q45 0 45 -34q0 -12 -6 -31l-531 -1745q-8 -29 -20 -38t-31 -9q-35 0 -49 45l-319 881h-142q-18 0 -31.5 13t-13.5 32z" />
<glyph unicode="&#x221e;" d="M102 582q0 104 68 178t182 74q72 0 144.5 -43t117.5 -125q45 82 118 125t145 43q114 0 181.5 -74t67.5 -178t-67.5 -178t-181.5 -74q-72 0 -145 43t-118 125q-45 -82 -117.5 -125t-144.5 -43q-115 0 -182.5 73.5t-67.5 178.5zM184 582q0 -76 45 -127.5t121 -51.5 q66 0 122 37t106 144q-49 104 -105.5 140t-122.5 36q-76 0 -121 -51.5t-45 -126.5zM651 584q49 -106 105.5 -143.5t122.5 -37.5q75 0 120 51.5t45 127.5t-45 127t-120 51q-66 0 -122.5 -36t-105.5 -140z" />
<glyph unicode="&#x222b;" d="M281 -336q0 14 13 25.5t32 11.5h34q106 0 157.5 51t51.5 178v1221q0 145 77 224t222 79l41 -2q14 0 25.5 -12.5t11.5 -28.5t-13 -27.5t-32 -11.5h-35q-109 0 -159 -51t-50 -178v-1221q0 -143 -76.5 -222t-222.5 -79h-39q-14 0 -26 13.5t-12 29.5z" />
<glyph unicode="&#x2248;" d="M141 332q0 12 6 24q80 145 236 146q68 0 133 -27t149 -74q78 -41 119 -58.5t82 -17.5q109 0 168 103q12 27 39 26q8 0 20 -4q18 -6 19 -30q0 -12 -8 -27q-80 -145 -234 -145q-67 0 -133 26.5t-150 73.5q-78 41 -118.5 58.5t-81.5 17.5q-109 0 -168 -103q-12 -27 -39 -26 q-8 0 -21 4q-18 10 -18 33zM141 742q0 12 6 24q80 145 236 146q68 0 133 -27t149 -74q78 -41 119 -58.5t82 -17.5q109 0 168 103q12 27 39 26q8 0 20 -4q18 -6 19 -30q0 -12 -8 -27q-80 -145 -234 -145q-67 0 -133 26.5t-150 73.5q-78 41 -118.5 58.5t-81.5 17.5 q-109 0 -168 -103q-12 -27 -39 -26q-8 0 -21 4q-18 10 -18 33z" />
<glyph unicode="&#x2260;" d="M127 379q0 14 13.5 25.5t31.5 11.5h328l137 327h-465q-18 0 -31.5 13.5t-13.5 31.5q0 14 13.5 25.5t31.5 11.5h498l100 240q14 29 43 29q12 0 18 -4q16 -10 17 -31q0 -14 -4 -23l-88 -211h325q18 0 31.5 -12t13.5 -33q0 -14 -13 -25.5t-32 -11.5h-358l-135 -327h493 q19 0 32 -12.5t13 -32.5q0 -14 -13 -25.5t-32 -11.5h-528l-98 -238q-12 -29 -41 -28q-8 0 -21 4q-18 10 -18 34q0 4 4 21l86 207h-293q-18 0 -31.5 13t-13.5 32z" />
<glyph unicode="&#x2264;" d="M115 657q0 18 9 34t26 22l886 340q14 6 31 6q20 0 33.5 -9.5t13.5 -25.5q0 -25 -22 -35l-865 -334l865 -329q23 -6 22 -35q0 -33 -43 -33q-16 0 -35 6l-886 334q-17 6 -26 22.5t-9 36.5zM127 45q0 14 13.5 25.5t31.5 11.5h909q19 0 32 -12.5t13 -32.5q0 -14 -13 -25.5 t-32 -11.5h-909q-18 0 -31.5 13.5t-13.5 31.5z" />
<glyph unicode="&#x2265;" d="M115 291q0 29 22 35l864 329l-864 334q-23 10 -22 35q0 16 13 25.5t34 9.5q16 0 31 -6l886 -340q16 -6 25.5 -21.5t9.5 -34.5q0 -20 -9 -36.5t-26 -22.5l-886 -334q-19 -6 -35 -6q-43 0 -43 33zM127 45q0 14 13.5 25.5t31.5 11.5h909q19 0 32 -12.5t13 -32.5 q0 -14 -13 -25.5t-32 -11.5h-909q-18 0 -31.5 13.5t-13.5 31.5z" />
<glyph unicode="&#x25fc;" horiz-adv-x="1013" d="M0 0v1014h1014v-1014h-1014z" />
</font>
</defs>
</svg>
