<?xml version="1.0" standalone="no"?>
<!DOCTYPE svg PUBLIC "-//W3C//DTD SVG 1.1//EN" "http://www.w3.org/Graphics/SVG/1.1/DTD/svg11.dtd" >
<svg xmlns="http://www.w3.org/2000/svg" xmlns:xlink="http://www.w3.org/1999/xlink" version="1.1">
<metadata></metadata>
<defs>
<font id="nunitoblack_italic" horiz-adv-x="1228" >
<font-face units-per-em="2048" ascent="1638" descent="-410" />
<missing-glyph horiz-adv-x="585" />
<glyph horiz-adv-x="0" />
<glyph unicode="&#xd;" horiz-adv-x="585" />
<glyph horiz-adv-x="0" />
<glyph horiz-adv-x="0" />
<glyph unicode=" "  horiz-adv-x="585" />
<glyph unicode="&#x09;" horiz-adv-x="585" />
<glyph unicode="&#xa0;" horiz-adv-x="585" />
<glyph unicode="!" horiz-adv-x="557" d="M55 186q0 84 56.5 141.5t140.5 57.5q86 0 142.5 -57.5t56.5 -141.5t-56.5 -141t-142.5 -57q-84 0 -140.5 57t-56.5 141zM121 1225q-8 119 57.5 174t173.5 55q90 0 149.5 -48t59.5 -132q0 -23 -6 -51l-160 -635q-10 -53 -41.5 -82t-74.5 -29t-71 29t-32 82z" />
<glyph unicode="&#x22;" horiz-adv-x="997" d="M143 1272q0 88 54.5 135t146.5 47q82 0 131 -43t49 -121q0 -41 -10 -78l-82 -297q-16 -57 -46 -83.5t-79 -26.5q-51 0 -84 29.5t-35 80.5l-43 322q-2 12 -2 35zM592 1272q0 88 54.5 135t146.5 47q82 0 131 -43t49 -121q0 -41 -10 -78l-82 -297q-16 -57 -46 -83.5 t-79 -26.5q-51 0 -84 29.5t-35 80.5l-43 322q-2 12 -2 35z" />
<glyph unicode="#" d="M74 100q0 18 2 29l43 219q-20 14 -31.5 38t-11.5 50q0 39 22.5 66.5t57.5 38.5l73 374h-2q-47 0 -78.5 33t-31.5 80q0 45 31.5 76t78.5 31h45l47 241q6 37 35 60.5t70 23.5q53 0 86 -32.5t33 -84.5q0 -18 -2 -26l-37 -182h379l47 241q8 37 36.5 60.5t69.5 23.5 q51 0 85 -31.5t34 -78.5q0 -18 -2 -29l-43 -215q35 -31 35 -82q0 -35 -19.5 -62.5t-50.5 -39.5l-74 -377q45 -4 74 -36t29 -77t-32 -75.5t-79 -30.5h-35l-49 -252q-6 -37 -34.5 -60.5t-71.5 -23.5q-53 0 -86 31.5t-33 80.5q0 18 2 27l39 197h-383l-51 -252q-6 -37 -35 -60.5 t-66 -23.5q-51 0 -83.5 31.5t-32.5 78.5zM385 545h383l72 370h-379z" />
<glyph unicode="$" d="M27 205q0 63 37.5 110t97.5 47q35 0 74 -18q86 -35 168.5 -54.5t191.5 -19.5q111 0 165 35t54 107q0 57 -59.5 88.5t-190.5 72.5q-141 43 -233 86t-160 127t-68 215q0 117 58.5 213.5t163 159t241.5 80.5l6 94q6 63 47.5 102.5t102.5 39.5q66 0 104.5 -40t32.5 -102 l-6 -96q207 -29 328 -111q55 -41 55 -108q0 -61 -43 -110.5t-107 -49.5q-37 0 -75 21q-98 39 -172 59.5t-160 20.5q-92 0 -145.5 -36t-53.5 -100q0 -65 63.5 -101t200.5 -77q139 -43 228.5 -85t154 -123t64.5 -210q0 -182 -124 -303t-333 -149l-8 -94q-4 -66 -43 -104 t-102 -38q-66 0 -106 41t-36 101l9 92q-215 18 -347 84q-39 20 -57 56t-18 77z" />
<glyph unicode="%" horiz-adv-x="1974" d="M100 991q0 223 105.5 351t288.5 128q180 0 279 -105t99 -298q0 -229 -102 -354t-289 -125q-182 0 -281.5 104.5t-99.5 298.5zM393 961q0 -80 19.5 -116t64.5 -36q103 0 103 289q0 78 -19.5 113.5t-64.5 35.5q-55 0 -79 -71.5t-24 -214.5zM446 70q0 39 27 77l846 1283 q45 68 115 67q51 0 90 -36t39 -85q0 -41 -27 -80l-844 -1282q-44 -67 -114 -67q-51 0 -91.5 35.5t-40.5 87.5zM1135 391q0 221 105.5 349t287.5 128q180 0 279.5 -105.5t99.5 -297.5q0 -229 -102.5 -354t-288.5 -125q-183 0 -282 105.5t-99 299.5zM1427 358 q0 -80 19.5 -115.5t64.5 -35.5q103 0 103 289q0 78 -19.5 114.5t-64.5 36.5q-55 0 -79 -72.5t-24 -216.5z" />
<glyph unicode="&#x26;" horiz-adv-x="1437" d="M39 391q0 150 79 253.5t220 172.5q-96 123 -96 266q0 111 55 195t154.5 131t224.5 47q184 0 297.5 -91t113.5 -239q0 -246 -272 -378l193 -197q55 100 86 229q12 68 60 106t106 38q55 0 93 -34t38 -95q0 -20 -2 -33q-45 -236 -175 -422l101 -102q43 -45 43 -101 q0 -61 -50.5 -109t-113.5 -48t-111 49l-86 90q-197 -135 -428 -135q-152 0 -273.5 52t-189 145t-67.5 210zM391 420q0 -74 53.5 -119t141.5 -45q119 0 219 66l-289 305q-125 -74 -125 -207zM561 1085q0 -35 16.5 -68.5t59.5 -84.5q90 37 127 80t37 102q0 47 -30 77t-79 30 q-57 0 -94 -36t-37 -100z" />
<glyph unicode="'" horiz-adv-x="548" d="M143 1272q0 88 54.5 135t146.5 47q82 0 131 -43t49 -121q0 -41 -10 -78l-82 -297q-16 -57 -46 -83.5t-79 -26.5q-51 0 -84 29.5t-35 80.5l-43 322q-2 12 -2 35z" />
<glyph unicode="(" horiz-adv-x="815" d="M199 406q0 272 78.5 513.5t244.5 469.5q25 35 64 54t78 19q53 0 88.5 -28.5t35.5 -79.5q0 -33 -18 -76q-102 -219 -151.5 -440.5t-49.5 -431.5q0 -176 19.5 -315.5t60.5 -287.5q8 -31 8 -59q0 -59 -37.5 -95t-91.5 -36q-45 0 -87 25.5t-68 76.5q-84 156 -129 331t-45 360 z" />
<glyph unicode=")" horiz-adv-x="815" d="M31 -279q0 33 18 76q203 428 203 873q0 178 -18.5 317t-61.5 285q-8 27 -8 59q0 59 38 95t91 36q45 0 87 -26.5t66 -77.5q84 -156 130.5 -331t46.5 -357q0 -272 -79 -514t-245 -469q-27 -35 -65.5 -54.5t-77.5 -19.5q-53 0 -89 28.5t-36 79.5z" />
<glyph unicode="*" horiz-adv-x="931" d="M80 1063q0 51 27.5 86t78.5 33l140 -11l-78 113q-18 29 -19 55q0 45 42 80t91 35q59 0 87 -53l61 -127l61 127q29 55 88 55q49 0 90.5 -36t41.5 -83q0 -29 -17 -53l-78 -113l140 11q49 2 76.5 -33t27.5 -84q0 -51 -27.5 -86t-76.5 -31l-142 10l80 -116q16 -25 17 -54 q0 -47 -43 -81.5t-93 -34.5q-27 0 -49 13t-35 40l-61 127l-61 -127q-12 -27 -35 -40t-49 -13q-49 0 -92.5 34.5t-43.5 81.5q0 27 19 54l80 116l-142 -10q-51 -2 -78.5 32t-27.5 83z" />
<glyph unicode="+" d="M123 582q0 55 38 92t93 37h256l20 258q4 51 42 86t90 35q51 0 83.5 -35t28.5 -86l-20 -258h258q49 0 79.5 -34t30.5 -83q0 -55 -37.5 -91t-93.5 -36h-256l-20 -256q-4 -51 -42 -86t-91 -35t-84 35t-27 86l21 256h-256q-47 0 -80 34t-33 81z" />
<glyph unicode="," horiz-adv-x="557" d="M55 184q0 98 57.5 149.5t141.5 51.5q92 0 142 -58.5t50 -172.5q0 -119 -55 -231.5t-149 -203.5q-31 -31 -74 -30q-37 0 -64.5 25.5t-27.5 60.5q0 33 30 63q78 82 109 164q-76 10 -118 59.5t-42 122.5z" />
<glyph unicode="-" horiz-adv-x="913" d="M98 541q0 152 183 151h385q76 0 116.5 -35.5t40.5 -95.5q0 -154 -182 -153h-385q-76 0 -117 36.5t-41 96.5z" />
<glyph unicode="." horiz-adv-x="557" d="M55 186q0 84 56.5 141.5t140.5 57.5q86 0 142.5 -57.5t56.5 -141.5t-56.5 -141t-142.5 -57q-84 0 -140.5 57t-56.5 141z" />
<glyph unicode="/" horiz-adv-x="714" d="M-68 -53q0 20 11 47l602 1501q16 43 51 63.5t76 20.5q57 0 100 -34t43 -85q0 -20 -10 -47l-602 -1499q-17 -43 -51.5 -63.5t-75.5 -20.5q-55 0 -99.5 33t-44.5 84z" />
<glyph unicode="0" d="M78 633q0 258 69.5 444.5t201.5 284.5t315 98q256 0 390 -167t134 -482q0 -258 -69.5 -444.5t-202 -284.5t-316.5 -98q-254 0 -388 165.5t-134 483.5zM440 582q0 -164 41 -239t127 -75q105 0 161 151.5t56 442.5q0 164 -41 239t-127 75q-104 0 -160.5 -154t-56.5 -440z " />
<glyph unicode="1" d="M133 139q0 82 46 121t145 39h165l58 719l-135 -72q-39 -23 -84 -22q-61 0 -103.5 48t-42.5 109q0 39 18.5 72t55.5 55l344 191q94 51 178 51q80 0 126 -48t38 -136l-76 -967h166q166 0 166 -141q0 -82 -45 -120t-145 -38h-709q-166 0 -166 139z" />
<glyph unicode="2" horiz-adv-x="1230" d="M59 139q0 94 84 176l471 451q158 154 158 272q0 133 -162 133q-125 0 -266 -75q-49 -29 -94 -29q-55 0 -90 38t-35 93q0 43 23.5 84t72.5 74q84 53 196.5 79.5t233.5 26.5q229 0 360.5 -112.5t131.5 -309.5q0 -115 -59.5 -217t-200.5 -235l-305 -289h401q82 0 125 -34 t43 -99q0 -88 -46 -127t-145 -39h-745q-72 0 -112 39t-40 100z" />
<glyph unicode="3" d="M27 219q0 61 38.5 107.5t100.5 46.5q33 0 72 -19q96 -41 167.5 -60.5t153.5 -19.5q106 0 160.5 41t54.5 119q0 80 -51 115t-162 35h-117q-55 0 -88.5 39t-33.5 104q0 66 45 106.5t112 40.5h70q117 0 173 39t56 119q0 139 -180 139q-113 0 -254 -75q-49 -29 -94 -29 q-55 0 -90 38t-35 93q0 43 23.5 84t72.5 74q84 53 195.5 79.5t232.5 26.5q143 0 255 -46t175.5 -131t63.5 -195q0 -127 -64.5 -216.5t-187.5 -136.5q108 -37 171.5 -114.5t63.5 -190.5q0 -129 -66.5 -230.5t-195.5 -159.5t-309 -58q-145 0 -267 31.5t-186 70.5 q-39 23 -57 58.5t-18 74.5z" />
<glyph unicode="4" d="M18 387q0 78 58 154l647 831q31 41 76 61.5t94 20.5q78 0 132 -49t46 -137l-57 -738h45q90 0 128 -34.5t38 -106.5t-48.5 -108.5t-142.5 -36.5h-43l-6 -68q-8 -92 -62.5 -140t-136.5 -48t-129 47t-39 139l7 70h-461q-70 0 -108 41t-38 102zM406 530h241l27 349z" />
<glyph unicode="5" d="M55 246q0 59 45 103t111 44q49 0 96 -26q92 -49 157.5 -71t123.5 -22q109 0 169 52.5t60 146.5q0 90 -56 138t-161 48q-61 0 -99 -7t-116 -40q-49 -25 -96 -24q-57 0 -94 33.5t-33 87.5l45 561q8 84 56 129t132 45h637q84 0 125 -32t41 -99q0 -72 -51 -113t-139 -41h-445 l-16 -244q74 29 178 29q131 0 232.5 -54t157.5 -151.5t56 -222.5q0 -250 -155.5 -391t-429.5 -141q-131 0 -254 37.5t-211 103.5q-66 53 -66 121z" />
<glyph unicode="6" d="M74 631q0 256 81 443.5t233.5 287.5t365.5 100q121 0 236.5 -30.5t160.5 -67.5q39 -25 58.5 -62.5t19.5 -78.5q0 -61 -35 -104.5t-92 -43.5q-37 0 -78 21q-156 76 -274 75q-121 0 -195 -90t-98 -266q49 59 124.5 94t161.5 35q121 0 217.5 -56.5t150.5 -157.5t54 -228 q0 -150 -65.5 -268.5t-181 -185t-263.5 -66.5q-279 0 -430 168.5t-151 480.5zM463 457q0 -84 49 -135.5t129 -51.5q78 0 125 57.5t47 151.5q0 84 -45 132t-125 48q-82 0 -131 -55t-49 -147z" />
<glyph unicode="7" d="M109 1286q0 78 47 118t137 40h813q70 0 104.5 -37t34.5 -96q0 -76 -49 -160l-637 -1053q-35 -59 -83 -87.5t-99 -28.5q-66 0 -113 43t-47 110q0 57 35 115l543 895h-523q-90 0 -126.5 34.5t-36.5 106.5z" />
<glyph unicode="8" d="M35 389q0 133 75.5 227.5t206.5 131.5q-92 45 -141 122.5t-49 180.5q0 190 145.5 300.5t397.5 110.5q250 0 386 -99t136 -286q0 -113 -66.5 -205t-175.5 -131q228 -77 228 -323q0 -129 -73 -227.5t-206 -152.5t-305 -54q-258 0 -408.5 109.5t-150.5 295.5zM385 422 q0 -72 56.5 -113t158.5 -41q113 0 171 43t58 129q0 147 -206 148q-119 0 -178.5 -43t-59.5 -123zM477 1022q0 -72 47 -111t129 -39q92 0 140.5 40t48.5 120q0 76 -42 111t-130 35q-193 0 -193 -156z" />
<glyph unicode="9" d="M35 221q0 61 34.5 105.5t92.5 44.5q33 0 78 -23q156 -76 274 -76q123 0 196.5 91.5t96.5 267.5q-49 -61 -125 -96t-162 -35q-121 0 -217 56t-150.5 157.5t-54.5 228.5q0 150 65.5 268.5t181.5 185t263 66.5q279 0 430.5 -169t151.5 -480q0 -256 -81 -443.5t-234.5 -287.5 t-366.5 -100q-117 0 -233.5 31.5t-163.5 66.5q-39 25 -57.5 61.5t-18.5 79.5zM451 965q0 -84 45 -132.5t122 -48.5q82 0 132.5 55.5t50.5 147.5q0 84 -49.5 135.5t-128.5 51.5q-78 0 -125 -57.5t-47 -151.5z" />
<glyph unicode=":" horiz-adv-x="557" d="M55 186q0 84 56.5 141.5t140.5 57.5q86 0 142.5 -57.5t56.5 -141.5t-56.5 -141t-142.5 -57q-84 0 -140.5 57t-56.5 141zM109 829q0 84 56 141.5t140 57.5q86 0 142.5 -57.5t56.5 -141.5t-56.5 -141t-142.5 -57q-84 0 -140 57t-56 141z" />
<glyph unicode=";" horiz-adv-x="557" d="M55 184q0 98 57.5 149.5t141.5 51.5q92 0 142 -58.5t50 -172.5q0 -119 -55 -231.5t-149 -203.5q-31 -31 -74 -30q-37 0 -64.5 25.5t-27.5 60.5q0 33 30 63q78 82 109 164q-76 10 -118 59.5t-42 122.5zM109 829q0 84 56 141.5t140 57.5q86 0 142.5 -57.5t56.5 -141.5 t-56.5 -141t-142.5 -57q-84 0 -140 57t-56 141z" />
<glyph unicode="&#x3c;" d="M121 580q0 66 40 119t103 77l703 264q35 14 67 15q51 0 82 -34t31 -91q0 -35 -21.5 -64.5t-56.5 -42.5l-627 -233l590 -234q31 -12 47.5 -41.5t16.5 -66.5q0 -55 -39 -89t-94 -34q-37 0 -68 14l-662 264q-113 45 -112 177z" />
<glyph unicode="=" d="M104 377q0 55 38 92t94 37h757q49 0 80 -33t31 -82q0 -55 -38 -92t-93 -37h-756q-47 0 -80 34t-33 81zM137 786q0 55 38 92t93 37h758q49 0 80 -32.5t31 -81.5q0 -55 -38 -92t-91 -37h-758q-47 0 -80 33.5t-33 80.5z" />
<glyph unicode="&#x3e;" d="M96 248q0 35 21.5 64.5t56.5 43.5l627 234l-590 233q-31 12 -47.5 42t-16.5 65q2 55 40 90t94 35q37 0 67 -15l662 -264q112 -49 112 -176q0 -66 -40 -120t-103 -77l-703 -264q-35 -14 -67 -14q-51 0 -82 32.5t-31 90.5z" />
<glyph unicode="?" horiz-adv-x="978" d="M35 1204q0 39 19.5 76t58.5 63q94 61 203.5 90t244.5 29q207 0 333 -93t126 -249q0 -80 -34 -143.5t-81 -107.5t-125 -105q-78 -59 -120 -101t-54 -92q-10 -45 -42 -69.5t-72 -24.5q-58 0 -86.5 35t-24.5 98q8 94 49 156.5t113 134.5q55 55 79.5 90t24.5 80t-37 72.5 t-100 27.5q-117 0 -281 -86q-39 -20 -71 -20q-53 0 -88 42t-35 97zM264 186q0 84 56.5 141.5t140.5 57.5q86 0 142 -57.5t56 -141.5t-56 -141t-142 -57q-84 0 -140.5 57t-56.5 141z" />
<glyph unicode="@" horiz-adv-x="1933" d="M86 535q0 291 118 498.5t325.5 316t474.5 108.5q270 0 464.5 -97t297 -269t102.5 -398q0 -170 -52.5 -298t-149.5 -197.5t-228 -69.5q-106 0 -177 46t-92 122h-4q-57 -80 -121.5 -124t-169.5 -44q-160 0 -244.5 103.5t-84.5 271.5q0 147 55 266t152.5 186.5t220.5 67.5 q80 0 139 -29.5t90 -91.5h6v4q18 94 129 94q55 0 87 -31.5t32 -84.5q0 -10 -4 -35l-53 -297q-10 -68 -10 -109q0 -57 21.5 -85.5t72.5 -28.5q33 0 66.5 36.5t57 118.5t23.5 209q0 266 -160.5 409.5t-465.5 143.5q-193 0 -343.5 -83t-234.5 -243.5t-84 -385.5 q0 -197 78 -343.5t226.5 -227.5t350.5 -81q123 0 212 21.5t184 70.5q35 18 63 19q45 0 78 -33t33 -76q0 -57 -58 -98q-80 -47 -215 -82t-297 -35q-276 0 -483 109.5t-317.5 306.5t-110.5 449zM805 502q0 -76 32.5 -124t94.5 -48q108 0 168.5 97t60.5 226q0 84 -37 127 t-102 43q-102 0 -159.5 -98t-57.5 -223z" />
<glyph unicode="A" horiz-adv-x="1558" d="M16 143q0 41 25 86l608 1112q31 57 86.5 87t118.5 30t114.5 -29.5t71.5 -85.5l443 -1130q12 -30 12 -59q0 -70 -57.5 -118t-128.5 -48q-47 0 -86 25.5t-58 76.5l-73 209h-641l-105 -207q-27 -51 -68.5 -75.5t-89.5 -24.5q-68 0 -120 43t-52 108zM594 582h399l-164 465z " />
<glyph unicode="B" horiz-adv-x="1423" d="M104 172l89 1098q8 84 56 129t132 45h502q238 0 363.5 -101.5t125.5 -263.5q0 -236 -248 -334q111 -32 171.5 -124.5t60.5 -210.5q0 -197 -146.5 -303.5t-394.5 -106.5h-551q-84 0 -125 44q-36 38 -36 107q0 10 1 21zM481 285h301q117 0 171.5 34.5t54.5 120.5 q0 76 -48.5 114t-152.5 38h-301zM528 877h263q118 0 168.5 31.5t50.5 111.5q0 70 -46 104.5t-149 34.5h-264z" />
<glyph unicode="C" horiz-adv-x="1388" d="M111 678q0 236 96 414t271 274t407 96q129 0 238.5 -29.5t183.5 -66.5q94 -57 94 -154q0 -59 -40 -103t-99 -44q-43 0 -88 27q-145 71 -268 71h-3q-197 0 -303 -129t-106 -356q0 -195 84 -296t247 -101q74 0 133.5 19t157.5 58q45 23 82 23q55 0 90 -40t35 -95 q0 -41 -19.5 -80t-60.5 -70q-61 -45 -179 -79.5t-249 -34.5q-217 0 -375.5 85t-243.5 241.5t-85 369.5z" />
<glyph unicode="D" horiz-adv-x="1583" d="M104 172l89 1098q8 84 56 129t132 45h412q217 0 377.5 -83t248.5 -235.5t88 -359.5q0 -242 -96 -414t-277.5 -262t-435.5 -90h-434q-84 0 -125 44q-36 38 -36 107q0 10 1 21zM492 303h172q240 0 354.5 111.5t114.5 353.5q0 182 -100.5 277.5t-291.5 95.5h-184z" />
<glyph unicode="E" horiz-adv-x="1222" d="M106 174l87 1096q8 84 57 129t131 45h711q82 0 123.5 -36t41.5 -97q0 -158 -190 -158h-516l-23 -274h476q82 0 123.5 -35t41.5 -99q0 -80 -46 -117.5t-142 -37.5h-475l-25 -299h518q82 0 124 -37t42 -100q0 -154 -190 -154h-709q-84 0 -126 45q-35 38 -35 103q0 13 1 26z " />
<glyph unicode="F" horiz-adv-x="1183" d="M106 174l87 1096q8 84 57 129t131 45h690q166 0 166 -139q0 -82 -46 -119t-144 -37h-492l-20 -266h452q162 0 162 -135q0 -86 -45 -123t-146 -37h-446l-33 -412q-8 -86 -62.5 -137t-137.5 -51q-85 0 -133 51q-42 44 -41 112q0 11 1 23z" />
<glyph unicode="G" horiz-adv-x="1523" d="M111 682q0 236 96 412t273 272t415 96q145 0 262 -29.5t189 -68.5q47 -29 70.5 -68t23.5 -82q0 -59 -41 -104t-101 -45q-43 0 -90 29q-70 35 -137 53t-172 18q-193 0 -300 -130t-107 -355q0 -201 94 -306.5t286 -105.5q86 0 185 25l20 264h-135q-143 0 -143 125 q0 61 42 97t109 36h342q66 0 100 -36q31 -32 31 -86v-13l-28 -358q-8 -102 -27.5 -156.5t-61.5 -85.5t-126 -55q-80 -20 -177.5 -31.5t-185.5 -11.5q-217 0 -375.5 85t-244.5 243.5t-86 371.5z" />
<glyph unicode="H" horiz-adv-x="1589" d="M106 174l87 1094q8 86 61 136t137 50q86 0 132 -50q39 -43 39 -110q0 -12 -1 -24l-31 -387h588l31 385q8 86 61.5 136t137.5 50q86 0 132 -50q39 -43 39 -110q0 -12 -1 -24l-86 -1094q-8 -86 -61.5 -137t-137.5 -51t-131 50q-40 43 -40 112q0 12 1 24l33 410h-588 l-33 -408q-8 -86 -61.5 -137t-137.5 -51q-86 0 -132 50q-39 43 -39 111q0 12 1 25z" />
<glyph unicode="I" horiz-adv-x="638" d="M106 174l87 1094q8 86 62 136t140 50q87 0 135 -50q40 -42 41 -108q0 -13 -2 -26l-86 -1094q-8 -86 -62 -137t-142 -51q-89 0 -135 50q-39 43 -39 111q0 12 1 25z" />
<glyph unicode="J" horiz-adv-x="813" d="M-63 133q0 76 38.5 112t120.5 40l68 4q125 10 133 143l68 838q8 84 63 134t141 50t135 -50q40 -42 40 -109q0 -12 -1 -25l-63 -832q-16 -207 -133 -320.5t-330 -125.5l-63 -4l-37 -2q-94 0 -137 36.5t-43 110.5z" />
<glyph unicode="K" horiz-adv-x="1429" d="M106 174l87 1094q8 86 61 136t141 50q87 0 135 -50q40 -42 40 -108q0 -13 -1 -26l-34 -449l544 576q59 61 127 61q63 0 107.5 -46t44.5 -112q0 -76 -66 -141l-403 -420l393 -483q33 -39 33 -88q0 -68 -53.5 -122t-122.5 -54q-74 0 -131 67l-488 590l-37 -473 q-8 -88 -62 -138t-142 -50q-89 0 -135 49q-40 42 -39 112q0 12 1 25z" />
<glyph unicode="L" horiz-adv-x="1171" d="M106 174l87 1094q8 86 61 136t139 50q89 0 137 -50q41 -42 40 -109q0 -12 -1 -25l-77 -965h471q82 0 124.5 -36t42.5 -103q0 -88 -47 -127t-145 -39h-672q-84 0 -126 45q-35 38 -35 103q0 13 1 26z" />
<glyph unicode="M" horiz-adv-x="1724" d="M109 156l88 1114q8 82 61 133t131 51q113 0 168 -123l313 -694l430 692q39 61 86.5 93t100.5 32q78 0 124 -52q39 -44 39 -112q0 -12 -1 -24l-88 -1108q-8 -78 -54.5 -124t-122.5 -46q-72 0 -116 46q-37 39 -36 99q0 11 1 23l47 602l-264 -432q-41 -66 -82 -94.5 t-94 -28.5t-90 28.5t-68 94.5l-199 409l-47 -577q-4 -76 -53 -123t-125 -47q-72 0 -114 45q-36 39 -36 101q0 11 1 22z" />
<glyph unicode="N" horiz-adv-x="1550" d="M106 174l87 1096q8 82 61 133t131 51q92 0 133 -59l557 -766l51 639q6 84 58.5 135t130.5 51q80 0 126 -51q39 -43 39 -109q0 -11 -1 -24l-86 -1096q-8 -84 -60.5 -135t-130.5 -51q-98 0 -137 59l-557 764l-51 -635q-6 -86 -57.5 -137t-133.5 -51q-78 0 -123 51 q-38 43 -38 110q0 12 1 25z" />
<glyph unicode="O" horiz-adv-x="1630" d="M111 678q0 233 90 412.5t256 276.5t385 97q217 0 378.5 -85t248.5 -242.5t87 -370.5q0 -233 -91 -411.5t-257 -276.5t-383 -98t-378.5 85t-248.5 241.5t-87 371.5zM485 678q0 -197 87 -302.5t249 -105.5q166 0 262.5 131t96.5 365q0 195 -88 301.5t-246 106.5 q-168 0 -264.5 -132.5t-96.5 -363.5z" />
<glyph unicode="P" horiz-adv-x="1386" d="M106 174l87 1096q8 84 57 129t131 45h500q231 0 361 -116t130 -316q0 -236 -137 -363t-395 -127h-330l-27 -346q-8 -88 -62 -138t-142 -50q-85 0 -133 50q-41 43 -41 112q0 12 1 24zM532 805h271q219 0 219 186q0 86 -48 127t-147 41h-266z" />
<glyph unicode="Q" horiz-adv-x="1630" d="M111 678q0 233 90 412.5t256 276.5t385 97q221 0 381.5 -84t246.5 -240.5t86 -373.5q0 -246 -97 -427t-277 -280q86 -20 137 -116l39 -68q26 -45 26 -89q0 -75 -58 -121t-134 -46q-49 0 -92 23.5t-68 68.5l-106 201q-33 66 -138 70q-207 2 -359.5 89t-235 243.5 t-82.5 363.5zM485 678q0 -197 87 -302.5t249 -105.5q168 0 263.5 132.5t95.5 363.5q0 195 -87 301.5t-247 106.5q-168 0 -264.5 -132.5t-96.5 -363.5z" />
<glyph unicode="R" horiz-adv-x="1447" d="M106 174l87 1096q8 84 56 129t132 45h526q227 0 354.5 -116t127.5 -308q0 -193 -89.5 -304.5t-277.5 -146.5q55 -14 93 -49t71 -100l92 -195q18 -39 18 -75q0 -72 -59 -122.5t-133 -50.5q-51 0 -94 27t-70 80l-176 377q-37 80 -129 80h-131l-27 -365q-6 -86 -59 -137 t-139 -51q-85 0 -133 50q-41 43 -41 112q0 12 1 24zM526 823h305q100 0 152.5 45t52.5 129q0 82 -44 122t-136 40h-305z" />
<glyph unicode="S" horiz-adv-x="1359" d="M47 240q0 57 35 100t92 43q47 0 96 -29q66 -33 169.5 -58.5t219.5 -25.5q117 0 178.5 31t61.5 90q0 63 -67.5 99t-208.5 77q-152 45 -248 88t-166 128t-70 221q0 137 77 241.5t218 160.5t330 56q154 0 284 -33.5t203 -91.5q61 -47 62 -125q0 -59 -38 -103t-97 -44 q-51 0 -99 31q-63 31 -149 54.5t-176 23.5q-111 0 -175.5 -36t-64.5 -100q0 -66 66.5 -100.5t212.5 -77.5q150 -45 245 -87t164.5 -124t69.5 -215q0 -217 -164 -334.5t-465 -117.5q-158 0 -293 30.5t-219 77.5q-41 27 -62.5 67t-21.5 83z" />
<glyph unicode="T" horiz-adv-x="1294" d="M53 1278q0 88 47 127t144 39h958q166 0 166 -141q0 -88 -46 -126t-144 -38h-289l-78 -963q-6 -84 -61.5 -135t-143.5 -51q-86 0 -134 50q-41 43 -41 111q0 11 1 23l78 965h-291q-166 0 -166 139z" />
<glyph unicode="U" horiz-adv-x="1525" d="M127 547q0 29 4 86l51 635q8 86 61.5 136t137.5 50q86 0 132 -50q39 -43 39 -110q0 -12 -1 -24l-49 -652q-2 -23 -2 -63q0 -145 67.5 -215t208.5 -70q115 0 181.5 69t78.5 234l56 695q8 86 61 136t139 50q84 0 130 -50q41 -44 41 -115q0 -9 -1 -19l-53 -672 q-25 -305 -188.5 -460.5t-462.5 -155.5q-631 0 -631 565z" />
<glyph unicode="V" horiz-adv-x="1521" d="M100 1278q0 74 64.5 127t142.5 53q49 0 86 -24.5t56 -75.5l313 -889l450 887q27 51 69 76.5t89 25.5q70 0 123 -45t53 -110q0 -45 -22 -84l-602 -1119q-29 -55 -86.5 -84.5t-120.5 -29.5q-61 0 -110.5 28.5t-69.5 83.5l-422 1121q-12 31 -13 59z" />
<glyph unicode="W" horiz-adv-x="2295" d="M152 1278q0 82 59 132t135 50q55 0 99 -30.5t59 -88.5l203 -813l350 811q25 57 74 88t102 31q55 0 98 -30.5t58 -90.5l206 -823l340 825q25 60 73 90.5t103 30.5q66 0 112 -40t46 -107q0 -47 -22 -94l-488 -1117q-25 -57 -80 -88.5t-116 -31.5q-63 0 -112.5 31.5 t-64.5 86.5l-210 766l-330 -764q-25 -59 -79 -89.5t-118 -30.5q-61 0 -110.5 30.5t-65.5 87.5l-313 1117q-8 31 -8 61z" />
<glyph unicode="X" horiz-adv-x="1404" d="M45 147q0 68 49 125l408 463l-324 436q-33 45 -33 97q0 74 58.5 132t130.5 58q70 0 117 -63l292 -400l355 400q55 63 127 63q66 0 113.5 -48t47.5 -116q0 -66 -51 -123l-395 -444l352 -455q35 -47 35 -100q0 -74 -58.5 -130t-127.5 -56q-68 0 -115 61l-326 432l-368 -432 q-55 -63 -127 -63q-66 0 -113 48t-47 115z" />
<glyph unicode="Y" horiz-adv-x="1331" d="M80 1268q0 72 58.5 130t129.5 58q76 0 125 -72l301 -440l381 453q55 63 127 63q68 0 118 -50t50 -120q0 -66 -47 -119l-457 -532l-37 -463q-8 -92 -64 -140t-138 -48q-84 0 -133 48q-42 41 -42 111q0 13 1 27l36 467l-380 541q-29 41 -29 86z" />
<glyph unicode="Z" horiz-adv-x="1263" d="M43 141q0 80 59 152l686 856h-485q-166 0 -166 131q0 88 46 126t145 38h786q72 0 112 -40t40 -101q0 -80 -60 -152l-688 -856h520q166 0 166 -137q0 -84 -47 -121t-145 -37h-817q-72 0 -112 40t-40 101z" />
<glyph unicode="[" horiz-adv-x="811" d="M164 -72l98 1219q10 139 96 218t226 79h164q53 0 89.5 -33t36.5 -90q0 -76 -40.5 -110.5t-100.5 -34.5h-31q-41 0 -63.5 -19.5t-28.5 -69.5l-86 -1099q-2 -49 16.5 -68.5t59.5 -19.5h31q49 0 85 -32t36 -89q0 -78 -42 -113t-108 -35h-162q-139 0 -212.5 79t-63.5 218z " />
<glyph unicode="\" horiz-adv-x="712" d="M51 1440q0 57 49.5 95t108.5 38q45 0 79 -24.5t46 -73.5l354 -1485q4 -20 4 -27q0 -55 -49 -92t-108 -37q-45 0 -80 25.5t-47 74.5l-355 1479q-2 10 -2 27z" />
<glyph unicode="]" horiz-adv-x="811" d="M-59 -246q0 76 42 111t101 35h29q43 0 65.5 19.5t26.5 68.5l88 1099q4 49 -16.5 69t-61.5 20h-31q-49 0 -85 31.5t-36 88.5q0 78 42 113t108 35h164q131 0 203.5 -68.5t72.5 -191.5q0 -25 -2 -37l-96 -1219q-12 -139 -97 -218t-225 -79h-163q-53 0 -91 32t-38 91z" />
<glyph unicode="^" d="M137 408q0 27 13 53l333 706q29 59 80 93t115 34q63 0 110.5 -33.5t65.5 -93.5l225 -733q4 -20 4 -28q0 -47 -44 -81t-97 -34q-35 0 -61.5 17.5t-38.5 53.5l-187 611l-280 -611q-16 -35 -45 -52t-64 -17q-51 0 -90 32.5t-39 82.5z" />
<glyph unicode="_" horiz-adv-x="1024" d="M-47 -102q0 47 40 74.5t105 27.5h750q59 0 93 -26.5t36 -69.5q0 -51 -39 -81t-107 -30h-749q-59 0 -94 30t-35 75z" />
<glyph unicode="`" horiz-adv-x="614" d="M67 1448q0 53 40 89t93 36q41 0 76 -23.5t53 -72.5l82 -209q8 -23 8 -45q0 -39 -28.5 -64.5t-67.5 -25.5q-29 0 -56.5 14t-45.5 43l-123 168q-31 45 -31 90z" />
<glyph unicode="a" horiz-adv-x="1130" d="M49 283q0 117 57.5 187.5t182.5 103t332 32.5h73l2 15v13q0 132 -161 132q-82 0 -230 -53q-35 -14 -69 -15q-51 0 -84 35t-33 82q0 37 21.5 73t66.5 60q152 84 375 84q229 0 342.5 -100.5t113.5 -302.5q0 -43 -2 -68l-32 -405q-6 -80 -55.5 -124t-129.5 -44 q-68 0 -110.5 37.5t-46.5 99.5q-37 -68 -105 -104.5t-156 -36.5q-98 0 -179 38.5t-127 107.5t-46 153zM399 324q0 -43 30 -70t79 -27q70 0 118 52.5t54 136.5l2 22h-55q-123 0 -175.5 -25.5t-52.5 -88.5z" />
<glyph unicode="b" horiz-adv-x="1280" d="M78 156l90 1132q4 74 59.5 120t141.5 46q80 0 124 -44q40 -40 40 -100q0 -7 -1 -14l-30 -391q49 61 122.5 94t168.5 33q127 0 224 -58.5t150.5 -167t53.5 -257.5q0 -164 -60.5 -293t-170 -200.5t-253.5 -71.5q-195 0 -303 141q-14 -61 -63 -99t-123 -38q-84 0 -129 46 q-41 42 -41 110v12zM465 498q0 -121 50 -183.5t142 -62.5q95 0 149 73.5t54 196.5q0 117 -51 179.5t-145 62.5q-90 0 -144.5 -74t-54.5 -192z" />
<glyph unicode="c" horiz-adv-x="1024" d="M59 477q0 170 71 296t203 192.5t310 66.5q98 0 182 -18.5t142 -48.5q33 -18 49 -51t16 -70q0 -57 -31.5 -101.5t-80.5 -44.5q-29 0 -58 15q-102 45 -196 45q-111 0 -171.5 -71t-60.5 -202q0 -106 53.5 -166.5t149.5 -60.5q53 0 96 9t94 30q33 16 64 16q45 0 70.5 -33.5 t25.5 -82.5q0 -43 -19.5 -83t-58.5 -63q-53 -29 -135 -48t-162 -19q-166 0 -290.5 60t-193.5 172t-69 261z" />
<glyph unicode="d" horiz-adv-x="1280" d="M59 467q0 164 61.5 293t171 200.5t253.5 71.5q186 0 293 -129l30 393q4 70 56.5 114t132.5 44q84 0 132 -46q44 -42 44 -109v-11l-88 -1132q-6 -76 -57.5 -122t-133.5 -46q-72 0 -114.5 35.5t-51.5 95.5q-49 -66 -125.5 -100.5t-173.5 -34.5q-127 0 -224 58t-151.5 166.5 t-54.5 258.5zM420 492q0 -115 51 -177.5t145 -62.5q93 0 146 73.5t53 192.5q0 121 -49 183.5t-141 62.5q-94 0 -149.5 -74t-55.5 -198z" />
<glyph unicode="e" horiz-adv-x="1095" d="M59 479q0 158 67 284t185.5 197.5t266.5 71.5q219 0 340.5 -132t121.5 -370q0 -45 -25.5 -70.5t-70.5 -25.5h-534q25 -184 223 -184q59 0 98 11t103 38q37 16 63 16q45 0 70.5 -34.5t25.5 -83.5q0 -43 -18.5 -82t-56.5 -62q-53 -31 -136.5 -50t-175.5 -19 q-162 0 -285.5 61t-192.5 173t-69 261zM414 606h325q-2 88 -39.5 134t-109.5 46q-74 0 -118 -44t-58 -136z" />
<glyph unicode="f" horiz-adv-x="806" d="M0 864q0 74 44 109t134 35h60q20 193 141 305t311 129l58 4q18 2 53 2q70 0 108.5 -26.5t38.5 -90.5q0 -72 -39 -105.5t-110 -37.5l-54 -4q-129 -11 -143 -150l-2 -26h113q151 0 151 -123q0 -76 -42 -111t-132 -35h-110l-48 -579q-8 -84 -62 -127t-132 -43t-128 43 q-43 37 -43 105q0 10 1 22l47 579h-59q-78 0 -117 33t-39 92z" />
<glyph unicode="g" horiz-adv-x="1288" d="M61 492q0 152 61.5 275.5t173.5 194t255 70.5q195 0 305 -139q16 61 66.5 98t124.5 37q81 0 125 -46q39 -40 39 -102q0 -10 -1 -20l-57 -737q-20 -250 -181 -379t-454 -129q-98 0 -196.5 19.5t-171.5 54.5q-80 43 -80 125q0 55 36.5 97t90.5 42q20 0 47 -10 q184 -61 286 -62q123 0 187.5 52.5t73.5 162.5l4 51q-101 -118 -298 -118h-3q-127 0 -225.5 57t-153 161.5t-54.5 244.5zM422 510q0 -98 53 -153.5t146 -55.5q94 0 150 65.5t56 174.5q0 113 -51 168t-147 55t-151.5 -67.5t-55.5 -186.5z" />
<glyph unicode="h" horiz-adv-x="1239" d="M78 156l90 1132q4 74 58.5 120t140.5 46q80 0 125 -44q40 -40 40 -100v-14l-30 -385q53 57 133 89t176 32q168 0 254 -95t86 -280q0 -45 -2 -69l-35 -432q-8 -78 -59 -123t-135 -45t-132 46q-40 39 -39 99q0 11 1 23l34 419q1 13 1 25q-1 68 -29 108q-34 46 -105 46 q-80 0 -124 -52.5t-50 -140.5l-35 -405q-4 -78 -56 -123t-136 -45q-86 0 -132 45q-41 40 -41 105q0 9 1 18z" />
<glyph unicode="i" horiz-adv-x="575" d="M78 156l57 702q8 84 63.5 127t133.5 43t127 -43q42 -37 42 -104q0 -11 -1 -23l-58 -702q-6 -82 -60 -125t-132 -43t-128 43q-45 38 -45 108q0 8 1 17zM156 1348q0 80 54 127t146 47q90 0 145.5 -47.5t55.5 -126.5q0 -80 -54 -128.5t-147 -48.5q-92 0 -146 48.5t-54 128.5 z" />
<glyph unicode="j" horiz-adv-x="575" d="M-225 -238q6 59 40.5 89t108.5 36l60 4q33 2 55 25t24 61l72 881q6 84 62.5 127t134.5 43t126 -43q43 -38 43 -109q0 -9 -1 -18l-70 -854q-10 -166 -107.5 -262t-277.5 -111l-61 -4q-16 -1 -31 -1q-82 0 -128 28q-50 31 -50 98v10zM152 1348q0 80 54 127t146 47 q90 0 145.5 -47.5t55.5 -126.5q0 -80 -54 -128.5t-147 -48.5q-92 0 -146 48.5t-54 128.5z" />
<glyph unicode="k" horiz-adv-x="1187" d="M78 158l90 1126q6 84 60.5 127t131.5 43q78 0 128 -42q44 -37 45 -106q0 -10 -1 -20l-55 -692l371 383q51 53 121 53q66 0 116 -48t50 -112q0 -63 -52 -112l-237 -240l213 -258q37 -43 37 -94q0 -70 -58.5 -126t-130.5 -56q-70 0 -119 57l-325 387l-21 -268 q-6 -84 -61 -127t-133 -43t-127 42q-44 37 -44 108q0 9 1 18z" />
<glyph unicode="l" horiz-adv-x="575" d="M78 156l90 1126q6 86 60.5 129t131.5 43q78 0 128 -43q44 -38 44 -109v-20l-90 -1126q-6 -82 -60 -125t-132 -43t-128 43q-45 38 -45 108q0 8 1 17z" />
<glyph unicode="m" horiz-adv-x="1837" d="M78 156l57 706q8 80 65.5 123t133.5 43q63 0 106 -31.5t49 -89.5q59 63 134 94t172 31q98 0 170.5 -41t111.5 -117q66 78 154 118t190 40q160 0 244 -94t84 -279q0 -45 -2 -67l-37 -436q-6 -84 -59.5 -126t-132.5 -42q-78 0 -128 43q-44 38 -45 106q0 9 1 19l36 428 q1 14 1 27q1 62 -23 99q-28 44 -88 44q-74 0 -114 -50.5t-50 -164.5l-31 -383q-8 -84 -62 -126t-132 -42t-128 43q-43 37 -43 103q0 11 1 22l35 424q1 15 1 30q0 144 -112 144q-74 0 -114 -51.5t-50 -163.5l-31 -383q-6 -82 -60 -125t-132 -43t-128 43q-45 38 -45 108 q0 8 1 17z" />
<glyph unicode="n" horiz-adv-x="1239" d="M78 156l57 706q4 74 59.5 120t139.5 46q70 0 110.5 -35t44.5 -94q53 61 137.5 97t184.5 36q168 0 254 -95t86 -280q0 -45 -2 -69l-35 -432q-8 -78 -59 -123t-135 -45t-132 46q-40 39 -39 99q0 11 1 23l34 419q1 13 1 25q-1 68 -29 108q-34 46 -105 46q-80 0 -124 -52.5 t-50 -140.5l-35 -405q-6 -78 -57 -123t-135 -45q-86 0 -131 45q-41 41 -41 110v13z" />
<glyph unicode="o" d="M59 483q0 170 70 294t196 189.5t293 65.5q168 0 293 -61.5t192.5 -174t67.5 -261.5q0 -172 -69.5 -296t-195.5 -189.5t-294 -65.5t-292.5 61t-192.5 175t-68 263zM420 477q0 -115 46 -170t140 -55q109 0 157 82t48 209q0 113 -46 167t-140 54q-109 0 -157 -81t-48 -206z " />
<glyph unicode="p" horiz-adv-x="1280" d="M47 -221l86 1081q4 76 55.5 122t133.5 46q72 0 115.5 -35t49.5 -96q49 66 126 100.5t175 34.5q127 0 224.5 -58.5t151 -167t53.5 -257.5q0 -164 -61.5 -293t-171.5 -200.5t-253 -71.5q-182 0 -293 129l-26 -340q-4 -72 -56.5 -116t-132.5 -44q-84 0 -132 46 q-44 42 -44 109v11zM461 498q0 -121 49 -183.5t141 -62.5q97 0 151 73.5t54 198.5q0 115 -51 177.5t-146 62.5q-92 0 -145 -74t-53 -192z" />
<glyph unicode="q" horiz-adv-x="1280" d="M61 467q0 164 60.5 293t170 200.5t253.5 71.5q195 0 303 -141q14 63 63.5 100t122.5 37q82 0 128 -46q41 -41 41 -105q0 -8 -1 -17l-84 -1081q-4 -72 -60.5 -119t-139.5 -47q-80 0 -124 44q-40 40 -40 104v12l26 338q-49 -61 -123.5 -94t-167.5 -33q-127 0 -224 58 t-150.5 166.5t-53.5 258.5zM422 494q0 -117 50 -179.5t144 -62.5q93 0 147 73.5t54 192.5q0 121 -49 183.5t-143 62.5t-148.5 -74t-54.5 -196z" />
<glyph unicode="r" horiz-adv-x="858" d="M78 156l57 706q8 80 64.5 123t130.5 43q72 0 114 -40q40 -38 39 -107v-7q57 68 136 108t153 44l25 2h12q56 0 91 -33q31 -31 31 -86q0 -12 -1 -24q-8 -82 -49 -119t-144 -47l-55 -6q-115 -14 -158 -58.5t-53 -148.5l-29 -350q-6 -82 -60 -125t-132 -43t-128 43 q-45 38 -45 108q0 8 1 17z" />
<glyph unicode="s" horiz-adv-x="1003" d="M16 188q0 53 34 93.5t85 40.5q31 0 68 -19q66 -31 146.5 -49t152.5 -18q59 0 91 14t32 43q0 33 -41 51t-133 45q-109 29 -182.5 59.5t-128 91t-54.5 158.5t58.5 174t168 118t256.5 42q66 0 152 -17.5t143 -41.5q43 -23 64.5 -59.5t21.5 -77.5q0 -51 -31.5 -89t-78.5 -38 q-31 0 -60 14q-117 57 -243 57q-63 0 -97 -15t-34 -42q0 -33 41.5 -53.5t134.5 -44.5q111 -31 183.5 -62t126.5 -91t54 -159q0 -156 -124 -242.5t-353 -86.5q-190 0 -350 63q-51 23 -77 60.5t-26 80.5z" />
<glyph unicode="t" horiz-adv-x="829" d="M0 866q0 141 178 142h60l10 133q6 80 59 125t137 45t129 -45q40 -40 40 -105q0 -9 -1 -18l-10 -135h111q72 0 111.5 -33t39.5 -92q0 -74 -42 -109t-132 -35h-110l-27 -331q-2 -12 -2 -33q0 -129 113 -129l41 2q33 4 45 4q34 0 56.5 -31t22.5 -80q0 -88 -56 -122.5 t-195 -34.5q-190 0 -291 93t-101 271q0 41 2 62l27 329h-59q-74 0 -115 33t-41 94z" />
<glyph unicode="u" d="M88 348q0 23 4 72l35 440q6 78 59.5 123t139.5 45q84 0 128 -45q39 -40 39 -105q0 -9 -1 -18l-35 -420l-2 -30q0 -72 32.5 -110t96.5 -38q76 0 118.5 52.5t49.5 140.5l32 405q8 78 61.5 123t137.5 45q86 0 130 -45q37 -38 37 -100q0 -11 -1 -23l-55 -706 q-6 -74 -58.5 -120t-136.5 -46q-70 0 -113 34.5t-47 94.5q-53 -61 -136 -97t-179 -36q-164 0 -250 93t-86 271z" />
<glyph unicode="v" horiz-adv-x="1107" d="M61 864q0 68 61.5 118t135.5 50q47 0 84 -25.5t55 -76.5l158 -488l231 486q25 51 66 76.5t88 25.5q66 0 117 -42t51 -103q0 -33 -18 -70l-369 -702q-33 -63 -90.5 -97t-118.5 -34t-113.5 34.5t-74.5 96.5l-254 708q-8 18 -9 43z" />
<glyph unicode="w" horiz-adv-x="1785" d="M74 862q0 74 59.5 122t132.5 48q49 0 88 -26.5t56 -77.5l147 -492l229 490q23 49 65 75.5t89 26.5q45 0 83 -26.5t52 -75.5l148 -492l227 492q23 51 67 77.5t93 26.5q66 0 116 -41t50 -104q0 -39 -21 -80l-366 -715q-25 -49 -79.5 -76.5t-115.5 -27.5t-109.5 26.5 t-62.5 75.5l-133 410l-191 -408q-25 -51 -77 -77.5t-115 -26.5q-61 0 -110.5 26.5t-65.5 75.5l-246 717q-10 35 -10 57z" />
<glyph unicode="x" horiz-adv-x="1124" d="M14 135q0 70 62 129l270 252l-213 232q-45 51 -45 110q0 68 54.5 120t121.5 52q72 0 125 -61l195 -224l231 220q61 61 133 61q61 0 105.5 -43t44.5 -102q0 -70 -62 -125l-252 -238l228 -250q41 -49 41 -106q0 -70 -54.5 -123t-121.5 -53q-68 0 -121 61l-209 244 l-256 -248q-57 -57 -127 -57q-61 0 -105.5 45t-44.5 104z" />
<glyph unicode="y" horiz-adv-x="1107" d="M61 864q0 68 61.5 118t135.5 50q47 0 84 -25.5t55 -76.5l158 -488l231 486q25 51 66 76.5t88 25.5q66 0 117 -42t51 -103q0 -33 -18 -70l-576 -1096q-29 -53 -67.5 -77.5t-84.5 -24.5q-59 0 -103 42t-44 103q0 43 21 84l106 213l-272 762q-8 18 -9 43z" />
<glyph unicode="z" horiz-adv-x="1062" d="M43 141q0 80 59 140l453 458h-324q-78 0 -116.5 32t-38.5 89q0 76 44 112t134 36h620q68 0 108 -41t40 -101q0 -78 -59 -137l-459 -461h350q78 0 116 -31.5t38 -89.5q0 -76 -43 -111.5t-134 -35.5h-641q-70 0 -108.5 41t-38.5 100z" />
<glyph unicode="{" horiz-adv-x="886" d="M43 528q0 63 36 102.5t105 45.5q66 6 94.5 41t34.5 114l25 316q10 143 84 220t209 77h198q49 0 85 -33t36 -90q0 -76 -42 -110.5t-101 -34.5h-29q-41 0 -63.5 -19.5t-26.5 -69.5l-24 -301q-9 -94 -67 -161.5t-130 -83.5q68 -18 116 -89t40 -165l-23 -299 q-2 -49 16.5 -68.5t59.5 -19.5h31q49 0 84.5 -32t35.5 -89q0 -76 -41 -112t-100 -36h-149q-139 0 -223.5 80t-73.5 217l26 314l2 32q0 59 -24.5 88t-81.5 35q-59 4 -89 39t-30 92z" />
<glyph unicode="|" horiz-adv-x="616" d="M84 -213l121 1501q6 72 56 119t124 47q72 0 116 -47t40 -119l-121 -1501q-4 -72 -56.5 -119t-123.5 -47q-72 0 -116 47t-40 119z" />
<glyph unicode="}" horiz-adv-x="886" d="M-57 -246q0 76 41 111t100 35h31q41 0 63.5 19.5t26.5 68.5l22 301q8 94 66.5 161.5t130.5 84.5q-68 18 -116 88.5t-40 164.5l25 299q4 49 -16.5 69t-61.5 20h-31q-49 0 -85 31.5t-36 88.5q0 76 42 112t102 36h149q131 0 214 -72t83 -194l-2 -31l-26 -313l-2 -33 q0 -59 24.5 -88t81.5 -35q59 -4 89 -39t30 -92q0 -63 -36 -101t-105 -47q-66 -6 -94.5 -40.5t-34.5 -114.5l-23 -316q-10 -143 -84 -220t-211 -77h-199q-49 0 -83.5 33t-34.5 90z" />
<glyph unicode="~" d="M139 557q0 37 27 72q47 68 115.5 104.5t140.5 36.5q57 0 109.5 -18.5t130.5 -57.5q55 -27 87.5 -40t61.5 -13q53 0 76 21q55 53 114 53q43 0 72 -28t29 -69q0 -39 -27 -71q-51 -66 -118.5 -101.5t-139.5 -35.5q-59 0 -112.5 20.5t-126.5 56.5q-55 27 -88 40.5t-62 13.5 q-51 0 -78 -23q-55 -53 -112 -53q-41 0 -70 26.5t-29 65.5z" />
<glyph unicode="&#xa2;" d="M143 477q0 209 105.5 348.5t294.5 186.5l8 108q6 63 48 102.5t106 39.5q66 0 102.5 -39t30.5 -103l-7 -94q129 -14 220 -61q33 -18 49 -51t16 -70q0 -57 -31.5 -101.5t-80.5 -44.5q-29 0 -58 15q-102 45 -196 45q-111 0 -171.5 -71t-60.5 -202q0 -106 53.5 -166.5 t149.5 -60.5q53 0 96 9t94 30q33 16 64 16q45 0 70.5 -34.5t25.5 -83.5q0 -43 -18.5 -82t-57.5 -62q-45 -25 -112.5 -43t-134.5 -22l-9 -90q-4 -63 -44 -102.5t-101 -39.5q-63 0 -104 40t-37 102l10 124q-150 53 -235 172t-85 285z" />
<glyph unicode="&#xa3;" d="M18 143q0 76 42 114t133 42l24 317h-51q-45 0 -74 29t-29 74q0 47 35 78.5t86 31.5h52l16 222q14 186 153.5 298.5t370.5 112.5q256 0 434 -114q68 -47 68 -119q0 -59 -45 -105.5t-109 -46.5q-51 0 -102 31q-59 31 -122.5 47t-119.5 16q-69 0 -110 -37.5t-45 -109.5 l-17 -195h240q43 0 72.5 -28.5t29.5 -73.5q0 -47 -34.5 -79t-86.5 -32h-237l-27 -317h449q82 0 125 -34t43 -99q0 -86 -45 -126t-146 -40h-807q-166 0 -166 143z" />
<glyph unicode="&#xa5;" d="M88 410q0 51 36 81.5t85 30.5h219l8 103h-219q-43 0 -73.5 29.5t-30.5 72.5q0 51 35.5 82t84.5 31h125l-219 368q-25 43 -24 84q0 70 57 119t129 49q43 0 80 -20.5t59 -63.5l205 -383l287 393q57 76 143 76q68 0 120 -45t52 -106q0 -47 -35 -94l-290 -377h129 q41 0 71.5 -29t30.5 -72q0 -53 -35 -83.5t-84 -30.5h-221l-8 -103h221q43 0 72.5 -28.5t29.5 -73.5q0 -51 -35.5 -82t-84.5 -31h-222l-10 -133q-6 -90 -63.5 -138t-137.5 -48q-82 0 -132 47t-44 139l11 133h-220q-43 0 -72.5 29t-29.5 74z" />
<glyph unicode="&#xa8;" horiz-adv-x="614" d="M0 1348q0 74 47 117.5t125 43.5t126 -44t48 -117q0 -74 -48.5 -119t-125.5 -45q-78 0 -125 45t-47 119zM405 1348q0 74 47 117.5t125 43.5q76 0 124 -44t48 -117q0 -74 -47 -119t-125 -45t-125 45t-47 119z" />
<glyph unicode="&#xa9;" horiz-adv-x="1669" d="M121 723q0 205 96 372t264 263t373 96t372 -96t263 -263t96 -372t-96 -372t-264 -264t-371 -97q-205 0 -373 97t-264 264t-96 372zM270 723q0 -168 75 -303t208 -213t301 -78q166 0 299 78t208 213t75 303t-75 303t-208 212t-299 77q-168 0 -301 -77t-208 -212t-75 -303z M430 723q0 131 56.5 230.5t157.5 154.5t235 55q90 0 153.5 -15t108.5 -50q31 -25 41 -47.5t10 -57.5q0 -45 -28.5 -86t-78.5 -41q-23 0 -45 7.5t-47 19.5q-6 2 -35.5 11t-56.5 9q-74 0 -108.5 -41t-34.5 -149q0 -109 34.5 -151t108.5 -42q27 0 56.5 9.5t35.5 11.5 q25 12 47.5 19.5t44.5 7.5q49 0 78 -41t29 -86q0 -39 -10.5 -62.5t-40.5 -42.5q-66 -33 -124.5 -49t-137.5 -16q-134 0 -235 55t-157.5 155.5t-56.5 231.5z" />
<glyph unicode="&#xaa;" horiz-adv-x="702" d="M63 1010q0 94 76 138t242 44h68l2 16q2 20 -15.5 27.5t-64.5 7.5q-57 0 -140 -16q-20 -4 -28 -4q-39 0 -62.5 27.5t-23.5 66.5q0 29 16.5 56.5t48.5 41.5q86 39 248 39q156 0 226.5 -67.5t70.5 -212.5l-2 -46l-12 -167q-6 -66 -44 -105t-96 -39q-66 0 -101.5 33t-35.5 88 q-29 -63 -73 -92t-107 -29q-78 0 -135.5 57.5t-57.5 135.5zM326 1032q0 -31 45 -31q26 0 44.5 16.5t22.5 41.5v8h-82q-10 0 -20 -11.5t-10 -23.5zM434 963l2 -5v3z" />
<glyph unicode="&#xab;" horiz-adv-x="1142" d="M109 537q0 59 45 118l172 234q27 37 62.5 55.5t72.5 18.5q53 0 90 -32t37 -83q0 -35 -25 -82l-121 -219l82 -217q12 -33 13 -64q0 -59 -42 -97t-98 -38q-37 0 -69.5 18.5t-55.5 57.5l-135 233q-29 51 -28 97zM596 537q0 59 45 118l172 234q27 37 62.5 55.5t72.5 18.5 q53 0 90 -32t37 -83q0 -35 -25 -82l-121 -219l82 -217q12 -33 13 -64q0 -59 -42 -97t-98 -38q-37 0 -69.5 18.5t-55.5 57.5l-135 233q-29 51 -28 97z" />
<glyph unicode="&#xac;" d="M139 786q0 55 38 91t93 36h756q51 0 84 -34.5t29 -85.5l-33 -406q-4 -53 -42 -88t-89 -35q-60 0 -92.5 36t-28.5 87l25 283h-627q-47 0 -80 34.5t-33 81.5z" />
<glyph unicode="&#xad;" horiz-adv-x="913" d="M98 541q0 152 183 151h385q76 0 116.5 -35.5t40.5 -95.5q0 -154 -182 -153h-385q-76 0 -117 36.5t-41 96.5z" />
<glyph unicode="&#xae;" horiz-adv-x="1669" d="M121 723q0 205 96 372t264 263t373 96t372 -96t263 -263t96 -372t-96 -372t-264 -264t-371 -97q-205 0 -372 97t-264 264t-97 372zM270 723q0 -170 76 -305t209 -212t299 -77t298 78t208 213t76 303t-76 303t-208 212t-298 77t-299 -77t-209 -212t-76 -303zM455 440 l47 570q4 74 44 110.5t111 36.5h267q164 0 251 -70.5t87 -195.5q0 -107 -55.5 -180.5t-153.5 -102.5q43 -6 74.5 -25.5t64.5 -62.5l25 -18q31 -37 30 -80q0 -57 -56 -98t-124 -41q-82 0 -123 63l-145 223q-8 16 -17 17l-12 -146q-4 -78 -51 -118.5t-113 -40.5 q-72 0 -113.5 40.5t-37.5 118.5zM797 801h88q39 0 56 16.5t17 52.5q0 27 -18 38.5t-59 11.5h-76z" />
<glyph unicode="&#xb1;" d="M84 113q0 57 38 94t93 37h758q49 0 80.5 -34t31.5 -83q0 -53 -38.5 -90t-92.5 -37h-757q-47 0 -80 33t-33 80zM131 690q0 57 38 94t93 37h258l10 148q4 51 42 86t90 35q51 0 83.5 -35t28.5 -86l-10 -148h256q47 0 78.5 -34.5t31.5 -84.5q3 -55 -36 -91t-93 -36h-258 l-10 -147q-6 -51 -44 -86t-89 -35q-53 0 -85 35t-26 86l11 147h-256q-47 0 -80 34t-33 81z" />
<glyph unicode="&#xb4;" horiz-adv-x="614" d="M309 1212q0 29 14 58l86 217q23 43 56.5 64.5t70.5 21.5q53 0 96 -37t43 -90q0 -49 -43 -98l-135 -164q-47 -54 -104 -54q-37 0 -60.5 23t-23.5 59z" />
<glyph unicode="&#xb5;" d="M43 -221l86 1081q6 78 58.5 123t138.5 45q84 0 129 -45t39 -123l-37 -420l-2 -26q0 -68 33.5 -110t95.5 -42q74 0 119 53.5t51 139.5l34 405q6 78 58.5 123t136.5 45q86 0 131 -45t39 -123l-57 -706q-4 -74 -58.5 -120t-138.5 -46q-70 0 -112 35.5t-46 97.5 q-53 -66 -133 -101.5t-172 -35.5h-12l-16 -197q-4 -74 -59.5 -120t-141.5 -46q-82 0 -126 43t-38 115z" />
<glyph unicode="&#xb8;" horiz-adv-x="614" d="M14 -326q0 33 20.5 57.5t49.5 16.5t61.5 -12t49.5 -4q90 0 90 45q0 35 -54 35q-18 0 -39.5 -5.5t-33.5 -5.5q-23 0 -33 12.5t-4 30.5l41 197h186l-29 -123h5q82 0 129 -38t47 -101q0 -84 -79 -134.5t-208 -50.5q-94 0 -152 17q-23 6 -35 23.5t-12 39.5z" />
<glyph unicode="&#xba;" horiz-adv-x="790" d="M76 1110q0 162 105.5 253t283.5 91q164 0 258 -80t94 -215q0 -158 -107.5 -250t-281.5 -92q-162 0 -257 81t-95 212zM369 1128q0 -35 20.5 -58t52.5 -23q41 0 64.5 27.5t23.5 72.5q0 37 -21.5 58.5t-55.5 21.5q-41 0 -62.5 -25.5t-21.5 -73.5z" />
<glyph unicode="&#xbb;" horiz-adv-x="1126" d="M74 244q0 43 22 82l123 219l-84 219q-12 35 -12 63q0 59 43 97.5t98 38.5q37 0 70 -18.5t55 -57.5l135 -236q27 -47 27 -94q0 -57 -43 -119l-174 -233q-27 -37 -62.5 -55.5t-72.5 -18.5q-53 0 -89 31t-36 82zM561 244q0 43 22 82l123 219l-84 219q-12 35 -12 63 q0 59 43 97.5t98 38.5q37 0 70 -18.5t55 -57.5l135 -236q27 -47 27 -94q0 -57 -43 -119l-174 -233q-27 -37 -62.5 -55.5t-72.5 -18.5q-53 0 -89 31t-36 82z" />
<glyph unicode="&#xc0;" horiz-adv-x="1558" d="M16 143q0 41 25 86l608 1112q31 57 86.5 87t118.5 30t114.5 -29.5t71.5 -85.5l443 -1130q12 -30 12 -59q0 -70 -57.5 -118t-128.5 -48q-47 0 -86 25.5t-58 76.5l-73 209h-641l-105 -207q-27 -51 -68.5 -75.5t-89.5 -24.5q-68 0 -120 43t-52 108zM583 1790q0 45 39 78 t86 33q66 0 96 -58l93 -162q12 -20 12 -43q0 -35 -27.5 -58.5t-64.5 -23.5q-43 0 -80 37l-121 125q-33 35 -33 72zM594 582h399l-164 465z" />
<glyph unicode="&#xc1;" horiz-adv-x="1558" d="M16 143q0 41 25 86l608 1112q31 57 86.5 87t118.5 30t114.5 -29.5t71.5 -85.5l443 -1130q12 -30 12 -59q0 -70 -57.5 -118t-128.5 -48q-47 0 -86 25.5t-58 76.5l-73 209h-641l-105 -207q-27 -51 -68.5 -75.5t-89.5 -24.5q-68 0 -120 43t-52 108zM594 582h399l-164 465z M829 1636q0 31 20 60l105 153q37 53 94 54q47 0 84 -35t37 -80q0 -43 -41 -82l-137 -117q-33 -30 -78 -30q-35 0 -59.5 22.5t-24.5 54.5z" />
<glyph unicode="&#xc2;" horiz-adv-x="1558" d="M16 143q0 41 25 86l608 1112q31 57 86.5 87t118.5 30t114.5 -29.5t71.5 -85.5l443 -1130q12 -30 12 -59q0 -70 -57.5 -118t-128.5 -48q-47 0 -86 25.5t-58 76.5l-73 209h-641l-105 -207q-27 -51 -68.5 -75.5t-89.5 -24.5q-68 0 -120 43t-52 108zM583 1634q0 37 37 76 l135 143q47 47 133 48q39 0 72 -12.5t51 -35.5l115 -143q23 -29 22 -59q0 -39 -32.5 -67t-73.5 -28q-61 0 -96 60l-64 110l-98 -108q-50 -57 -113 -57q-37 0 -62.5 20.5t-25.5 52.5zM594 582h399l-164 465z" />
<glyph unicode="&#xc3;" horiz-adv-x="1558" d="M16 143q0 41 25 86l608 1112q31 57 86.5 87t118.5 30t114.5 -29.5t71.5 -85.5l443 -1130q12 -30 12 -59q0 -70 -57.5 -118t-128.5 -48q-47 0 -86 25.5t-58 76.5l-73 209h-641l-105 -207q-27 -51 -68.5 -75.5t-89.5 -24.5q-68 0 -120 43t-52 108zM512 1663 q0 53 25.5 105.5t75.5 86t118 33.5q37 0 73.5 -12t85.5 -37q45 -20 76 -31.5t60 -11.5q27 0 43 10.5t36 30.5q18 18 34 27.5t38 9.5q35 0 49.5 -19.5t14.5 -58.5q0 -53 -26 -105.5t-76 -86t-117 -33.5q-37 0 -74 12t-86 37q-45 20 -76 31.5t-59 11.5q-27 0 -43.5 -10.5 t-34.5 -30.5q-16 -18 -32.5 -28.5t-39.5 -10.5q-66 0 -65 80zM594 582h399l-164 465z" />
<glyph unicode="&#xc4;" horiz-adv-x="1558" d="M16 143q0 41 25 86l608 1112q31 57 86.5 87t118.5 30t114.5 -29.5t71.5 -85.5l443 -1130q12 -30 12 -59q0 -70 -57.5 -118t-128.5 -48q-47 0 -86 25.5t-58 76.5l-73 209h-641l-105 -207q-27 -51 -68.5 -75.5t-89.5 -24.5q-68 0 -120 43t-52 108zM501 1731 q0 74 47.5 117.5t124.5 43.5q78 0 126 -44t48 -117q0 -76 -48 -121t-126 -45q-77 0 -124.5 45t-47.5 121zM594 582h399l-164 465zM907 1731q0 74 47 117.5t125 43.5q76 0 124 -44t48 -117q0 -76 -47 -121t-125 -45t-125 45t-47 121z" />
<glyph unicode="&#xc5;" horiz-adv-x="1558" d="M16 141q0 43 25 88l659 1211q-63 68 -63 157q0 94 67.5 160t163.5 66t163 -65.5t67 -160.5q0 -53 -22.5 -100t-61.5 -78l469 -1206q12 -30 12 -59q0 -70 -57.5 -118t-128.5 -48q-47 0 -86 25.5t-58 76.5l-73 209h-641l-105 -207q-27 -51 -68.5 -76.5t-91.5 -25.5 q-68 0 -119 43t-51 108zM594 582h399l-164 465zM782 1597q0 -39 23.5 -64.5t62.5 -25.5q37 0 60.5 26t23.5 64q0 37 -23.5 63t-60.5 26t-61.5 -26t-24.5 -63z" />
<glyph unicode="&#xc6;" horiz-adv-x="2056" d="M8 123q0 66 53 139l773 1079q35 49 93 76t126 27h870q82 0 124 -35t42 -98q0 -156 -191 -156h-616l41 -276h514q82 0 124 -35t42 -99q0 -80 -47 -117.5t-141 -37.5h-449l43 -301h424q80 0 122 -36t42 -99q0 -80 -47 -117t-144 -37h-555q-63 0 -105 26.5t-48 73.5l-29 199 h-580l-137 -207q-39 -57 -88 -84.5t-102 -27.5q-63 0 -108.5 39.5t-45.5 103.5zM680 582h346l-61 426z" />
<glyph unicode="&#xc7;" horiz-adv-x="1388" d="M111 678q0 236 96 414t271 274t407 96q129 0 238.5 -29.5t183.5 -66.5q94 -57 94 -154q0 -59 -40 -103t-99 -44q-43 0 -88 27q-147 72 -271 71q-196 0 -302.5 -129t-106.5 -356q0 -195 84 -296t247 -101q74 0 133.5 19t157.5 58q45 23 82 23q55 0 90 -40t35 -95 q0 -41 -19.5 -80t-60.5 -70q-57 -41 -166.5 -75.5t-232.5 -38.5l-15 -64h5q82 0 129 -38t47 -101q0 -84 -79 -134.5t-208 -50.5q-94 0 -152 17q-23 6 -35 23.5t-12 39.5q0 33 20.5 57.5t49.5 16.5t61.5 -12t49.5 -4q90 0 90 45q0 35 -54 35q-18 0 -39.5 -5.5t-33.5 -5.5 q-23 0 -33 12.5t-4 30.5l31 150q-260 41 -405.5 222t-145.5 462z" />
<glyph unicode="&#xc8;" horiz-adv-x="1222" d="M106 174l87 1096q8 84 57 129t131 45h711q82 0 123.5 -36t41.5 -97q0 -158 -190 -158h-516l-23 -274h476q82 0 123.5 -35t41.5 -99q0 -80 -46 -117.5t-142 -37.5h-475l-25 -299h518q82 0 124 -37t42 -100q0 -154 -190 -154h-709q-84 0 -126 45t-34 129zM487 1790 q0 45 39 78t86 33q66 0 96 -58l93 -162q12 -20 12 -43q0 -35 -27.5 -58.5t-64.5 -23.5q-43 0 -80 37l-121 125q-33 35 -33 72z" />
<glyph unicode="&#xc9;" horiz-adv-x="1222" d="M106 174l87 1096q8 84 57 129t131 45h711q82 0 123.5 -36t41.5 -97q0 -158 -190 -158h-516l-23 -274h476q82 0 123.5 -35t41.5 -99q0 -80 -46 -117.5t-142 -37.5h-475l-25 -299h518q82 0 124 -37t42 -100q0 -154 -190 -154h-709q-84 0 -126 45t-34 129zM733 1636 q0 31 20 60l105 153q37 53 94 54q47 0 84 -35t37 -80q0 -43 -41 -82l-137 -117q-33 -30 -78 -30q-35 0 -59.5 22.5t-24.5 54.5z" />
<glyph unicode="&#xca;" horiz-adv-x="1222" d="M106 174l87 1096q8 84 57 129t131 45h711q82 0 123.5 -36t41.5 -97q0 -158 -190 -158h-516l-23 -274h476q82 0 123.5 -35t41.5 -99q0 -80 -46 -117.5t-142 -37.5h-475l-25 -299h518q82 0 124 -37t42 -100q0 -154 -190 -154h-709q-84 0 -126 45t-34 129zM487 1634 q0 37 37 76l135 143q47 47 133 48q39 0 72 -12.5t51 -35.5l115 -143q23 -29 22 -59q0 -39 -32.5 -67t-73.5 -28q-61 0 -96 60l-64 110l-98 -108q-50 -57 -113 -57q-37 0 -62.5 20.5t-25.5 52.5z" />
<glyph unicode="&#xcb;" horiz-adv-x="1222" d="M106 174l87 1096q8 84 57 129t131 45h711q82 0 123.5 -36t41.5 -97q0 -158 -190 -158h-516l-23 -274h476q82 0 123.5 -35t41.5 -99q0 -80 -46 -117.5t-142 -37.5h-475l-25 -299h518q82 0 124 -37t42 -100q0 -154 -190 -154h-709q-84 0 -126 45t-34 129zM405 1731 q0 74 47.5 117.5t124.5 43.5q78 0 126 -44t48 -117q0 -76 -48 -121t-126 -45q-77 0 -124.5 45t-47.5 121zM811 1731q0 74 47 117.5t125 43.5q76 0 124 -44t48 -117q0 -76 -47 -121t-125 -45t-125 45t-47 121z" />
<glyph unicode="&#xcc;" horiz-adv-x="638" d="M106 174l87 1094q8 86 62 136t140 50q88 0 135.5 -50t38.5 -134l-86 -1094q-8 -86 -62 -137t-142 -51q-89 0 -135 50t-38 136zM125 1790q0 45 39 78t86 33q66 0 96 -58l93 -162q12 -20 12 -43q0 -35 -27.5 -58.5t-64.5 -23.5q-43 0 -80 37l-121 125q-33 35 -33 72z" />
<glyph unicode="&#xcd;" horiz-adv-x="638" d="M106 174l87 1094q8 86 62 136t140 50q88 0 135.5 -50t38.5 -134l-86 -1094q-8 -86 -62 -137t-142 -51q-89 0 -135 50t-38 136zM371 1636q0 31 20 60l105 153q37 53 94 54q47 0 84 -35t37 -80q0 -43 -41 -82l-137 -117q-33 -30 -78 -30q-35 0 -59.5 22.5t-24.5 54.5z" />
<glyph unicode="&#xce;" horiz-adv-x="638" d="M106 174l87 1094q8 86 62 136t140 50q88 0 135.5 -50t38.5 -134l-86 -1094q-8 -86 -62 -137t-142 -51q-89 0 -135 50t-38 136zM125 1634q0 37 37 76l135 143q47 47 133 48q39 0 72 -12.5t51 -35.5l115 -143q23 -29 22 -59q0 -39 -32.5 -67t-73.5 -28q-61 0 -96 60 l-64 110l-98 -108q-50 -57 -113 -57q-37 0 -62.5 20.5t-25.5 52.5z" />
<glyph unicode="&#xcf;" horiz-adv-x="638" d="M43 1731q0 74 47.5 117.5t124.5 43.5q78 0 126 -44t48 -117q0 -76 -48 -121t-126 -45q-77 0 -124.5 45t-47.5 121zM106 174l87 1094q8 86 62 136t140 50q88 0 135.5 -50t38.5 -134l-86 -1094q-8 -86 -62 -137t-142 -51q-89 0 -135 50t-38 136zM449 1731q0 74 47 117.5 t125 43.5q76 0 124 -44t48 -117q0 -76 -47 -121t-125 -45t-125 45t-47 121z" />
<glyph unicode="&#xd0;" horiz-adv-x="1656" d="M18 721q0 74 47.5 111.5t133.5 37.5h32l33 400q8 84 56.5 129t132.5 45h411q217 0 378 -83t249 -235.5t88 -359.5q0 -242 -96.5 -414t-277.5 -262t-435 -90h-434q-84 0 -125 44t-35 128l33 414h-37q-74 0 -114 36.5t-40 98.5zM563 303h172q240 0 354.5 111.5t114.5 353.5 q0 182 -100 277.5t-291 95.5h-184l-21 -271h248q74 0 114 -36.5t40 -98.5q0 -74 -47.5 -111.5t-133.5 -37.5h-243z" />
<glyph unicode="&#xd1;" horiz-adv-x="1550" d="M106 174l87 1096q8 82 61 133t131 51q92 0 133 -59l557 -766l51 639q6 84 58.5 135t130.5 51q80 0 126 -51t38 -133l-86 -1096q-8 -84 -60.5 -135t-130.5 -51q-98 0 -137 59l-557 764l-51 -635q-6 -86 -57.5 -137t-133.5 -51q-78 0 -123 51t-37 135zM508 1663 q0 53 25.5 105.5t75.5 86t118 33.5q37 0 73.5 -12t85.5 -37q45 -20 76 -31.5t60 -11.5q27 0 43 10.5t36 30.5q18 18 34 27.5t38 9.5q35 0 49.5 -19.5t14.5 -58.5q0 -53 -26 -105.5t-76 -86t-117 -33.5q-37 0 -74 12t-86 37q-45 20 -76 31.5t-59 11.5q-27 0 -43.5 -10.5 t-34.5 -30.5q-16 -18 -32.5 -28.5t-39.5 -10.5q-66 0 -65 80z" />
<glyph unicode="&#xd2;" horiz-adv-x="1630" d="M111 678q0 233 90 412.5t256 276.5t385 97q217 0 378.5 -85t248.5 -242.5t87 -370.5q0 -233 -91 -411.5t-257 -276.5t-383 -98t-378.5 85t-248.5 241.5t-87 371.5zM485 678q0 -197 87 -302.5t249 -105.5q166 0 262.5 131t96.5 365q0 195 -88 301.5t-246 106.5 q-168 0 -264.5 -132.5t-96.5 -363.5zM620 1790q0 45 39 78t86 33q66 0 96 -58l93 -162q12 -20 12 -43q0 -35 -27.5 -58.5t-64.5 -23.5q-43 0 -80 37l-121 125q-33 35 -33 72z" />
<glyph unicode="&#xd3;" horiz-adv-x="1630" d="M111 678q0 233 90 412.5t256 276.5t385 97q217 0 378.5 -85t248.5 -242.5t87 -370.5q0 -233 -91 -411.5t-257 -276.5t-383 -98t-378.5 85t-248.5 241.5t-87 371.5zM485 678q0 -197 87 -302.5t249 -105.5q166 0 262.5 131t96.5 365q0 195 -88 301.5t-246 106.5 q-168 0 -264.5 -132.5t-96.5 -363.5zM866 1636q0 31 20 60l105 153q37 53 94 54q47 0 84 -35t37 -80q0 -43 -41 -82l-137 -117q-33 -30 -78 -30q-35 0 -59.5 22.5t-24.5 54.5z" />
<glyph unicode="&#xd4;" horiz-adv-x="1630" d="M111 678q0 233 90 412.5t256 276.5t385 97q217 0 378.5 -85t248.5 -242.5t87 -370.5q0 -233 -91 -411.5t-257 -276.5t-383 -98t-378.5 85t-248.5 241.5t-87 371.5zM485 678q0 -197 87 -302.5t249 -105.5q166 0 262.5 131t96.5 365q0 195 -88 301.5t-246 106.5 q-168 0 -264.5 -132.5t-96.5 -363.5zM620 1634q0 37 37 76l135 143q47 47 133 48q39 0 72 -12.5t51 -35.5l115 -143q23 -29 22 -59q0 -39 -32.5 -67t-73.5 -28q-61 0 -96 60l-64 110l-98 -108q-50 -57 -113 -57q-37 0 -62.5 20.5t-25.5 52.5z" />
<glyph unicode="&#xd5;" horiz-adv-x="1630" d="M111 678q0 233 90 412.5t256 276.5t385 97q217 0 378.5 -85t248.5 -242.5t87 -370.5q0 -233 -91 -411.5t-257 -276.5t-383 -98t-378.5 85t-248.5 241.5t-87 371.5zM485 678q0 -197 87 -302.5t249 -105.5q166 0 262.5 131t96.5 365q0 195 -88 301.5t-246 106.5 q-168 0 -264.5 -132.5t-96.5 -363.5zM549 1663q0 53 25.5 105.5t75.5 86t118 33.5q37 0 73.5 -12t85.5 -37q45 -20 76 -31.5t60 -11.5q27 0 43 10.5t36 30.5q18 18 34 27.5t38 9.5q35 0 49.5 -19.5t14.5 -58.5q0 -53 -26 -105.5t-76 -86t-117 -33.5q-37 0 -74 12t-86 37 q-45 20 -76 31.5t-59 11.5q-27 0 -43.5 -10.5t-34.5 -30.5q-16 -18 -32.5 -28.5t-39.5 -10.5q-66 0 -65 80z" />
<glyph unicode="&#xd6;" horiz-adv-x="1630" d="M111 678q0 233 90 412.5t256 276.5t385 97q217 0 378.5 -85t248.5 -242.5t87 -370.5q0 -233 -91 -411.5t-257 -276.5t-383 -98t-378.5 85t-248.5 241.5t-87 371.5zM485 678q0 -197 87 -302.5t249 -105.5q166 0 262.5 131t96.5 365q0 195 -88 301.5t-246 106.5 q-168 0 -264.5 -132.5t-96.5 -363.5zM538 1731q0 74 47.5 117.5t124.5 43.5q78 0 126 -44t48 -117q0 -76 -48 -121t-126 -45q-77 0 -124.5 45t-47.5 121zM944 1731q0 74 47 117.5t125 43.5q76 0 124 -44t48 -117q0 -76 -47 -121t-125 -45t-125 45t-47 121z" />
<glyph unicode="&#xd8;" horiz-adv-x="1630" d="M111 678q0 233 90 412.5t256 276.5t385 97q162 0 293 -47l61 92q49 74 123 74q53 0 92 -36t39 -89q0 -43 -27 -84l-63 -94q96 -92 146 -222t50 -292q0 -233 -91 -411.5t-257 -276.5t-383 -98q-162 0 -293 47l-61 -93q-49 -74 -123 -73q-53 0 -92 35.5t-39 89.5 q0 43 27 84l63 94q-96 92 -146 222t-50 292zM485 678q0 -113 31 -199l447 676q-53 18 -117 19q-168 0 -264.5 -132.5t-96.5 -363.5zM705 287q55 -16 116 -17q166 0 262.5 131t96.5 365q0 109 -29 195z" />
<glyph unicode="&#xd9;" horiz-adv-x="1525" d="M127 547q0 29 4 86l51 635q8 86 61.5 136t137.5 50q86 0 132 -50t38 -134l-49 -652q-2 -23 -2 -63q0 -145 67.5 -215t208.5 -70q115 0 181.5 69t78.5 234l56 695q8 86 61 136t139 50q84 0 130 -50t40 -134l-53 -672q-25 -305 -188.5 -460.5t-462.5 -155.5 q-631 0 -631 565zM567 1790q0 45 39 78t86 33q66 0 96 -58l93 -162q12 -20 12 -43q0 -35 -27.5 -58.5t-64.5 -23.5q-43 0 -80 37l-121 125q-33 35 -33 72z" />
<glyph unicode="&#xda;" horiz-adv-x="1525" d="M127 547q0 29 4 86l51 635q8 86 61.5 136t137.5 50q86 0 132 -50t38 -134l-49 -652q-2 -23 -2 -63q0 -145 67.5 -215t208.5 -70q115 0 181.5 69t78.5 234l56 695q8 86 61 136t139 50q84 0 130 -50t40 -134l-53 -672q-25 -305 -188.5 -460.5t-462.5 -155.5 q-631 0 -631 565zM813 1636q0 31 20 60l105 153q37 53 94 54q47 0 84 -35t37 -80q0 -43 -41 -82l-137 -117q-33 -30 -78 -30q-35 0 -59.5 22.5t-24.5 54.5z" />
<glyph unicode="&#xdb;" horiz-adv-x="1525" d="M127 547q0 29 4 86l51 635q8 86 61.5 136t137.5 50q86 0 132 -50t38 -134l-49 -652q-2 -23 -2 -63q0 -145 67.5 -215t208.5 -70q115 0 181.5 69t78.5 234l56 695q8 86 61 136t139 50q84 0 130 -50t40 -134l-53 -672q-25 -305 -188.5 -460.5t-462.5 -155.5 q-631 0 -631 565zM567 1634q0 37 37 76l135 143q47 47 133 48q39 0 72 -12.5t51 -35.5l115 -143q23 -29 22 -59q0 -39 -32.5 -67t-73.5 -28q-61 0 -96 60l-64 110l-98 -108q-50 -57 -113 -57q-37 0 -62.5 20.5t-25.5 52.5z" />
<glyph unicode="&#xdc;" horiz-adv-x="1525" d="M127 547q0 29 4 86l51 635q8 86 61.5 136t137.5 50q86 0 132 -50t38 -134l-49 -652q-2 -23 -2 -63q0 -145 67.5 -215t208.5 -70q115 0 181.5 69t78.5 234l56 695q8 86 61 136t139 50q84 0 130 -50t40 -134l-53 -672q-25 -305 -188.5 -460.5t-462.5 -155.5 q-631 0 -631 565zM485 1731q0 74 47.5 117.5t124.5 43.5q78 0 126 -44t48 -117q0 -76 -48 -121t-126 -45q-77 0 -124.5 45t-47.5 121zM891 1731q0 74 47 117.5t125 43.5q76 0 124 -44t48 -117q0 -76 -47 -121t-125 -45t-125 45t-47 121z" />
<glyph unicode="&#xdd;" horiz-adv-x="1331" d="M80 1268q0 72 58.5 130t129.5 58q76 0 125 -72l301 -440l381 453q55 63 127 63q68 0 118 -50t50 -120q0 -66 -47 -119l-457 -532l-37 -463q-8 -92 -64 -140t-138 -48q-84 0 -133.5 48t-40.5 138l36 467l-380 541q-29 41 -29 86zM717 1636q0 31 20 60l105 153q37 53 94 54 q47 0 84 -35t37 -80q0 -43 -41 -82l-137 -117q-33 -30 -78 -30q-35 0 -59.5 22.5t-24.5 54.5z" />
<glyph unicode="&#xde;" horiz-adv-x="1390" d="M106 174l87 1094q8 86 61 136t137 50q86 0 132 -50t38 -134l-8 -107h342q213 0 336 -107.5t123 -295.5q0 -221 -129 -339t-367 -118h-373l-10 -127q-8 -86 -61.5 -137t-137.5 -51q-86 0 -132 50t-38 136zM508 586h319q177 -1 177 153q0 72 -37 106t-117 34h-320z" />
<glyph unicode="&#xdf;" horiz-adv-x="1439" d="M78 156l59 725q20 289 179 435t446 146q215 0 336 -77.5t121 -213.5q0 -86 -41 -150.5t-115 -137.5q-47 -49 -69.5 -81t-22.5 -63t30.5 -47t102.5 -41q88 -29 145.5 -58.5t100.5 -89t43 -157.5q0 -168 -127 -265t-344 -97q-199 -1 -328 79q-63 37 -64 113q0 55 36 97 t91 42q35 0 74 -20q59 -31 108.5 -40t116.5 -9q53 0 81 16.5t28 46.5q0 33 -33 51.5t-110 45.5q-86 27 -144.5 55t-100.5 82.5t-42 142.5t39 149.5t112 137.5q47 47 69 75.5t22 59.5q0 51 -32 74.5t-102 23.5q-217 0 -237 -262l-64 -788q-6 -78 -57 -123t-135 -45t-131 45 t-41 123z" />
<glyph unicode="&#xe0;" horiz-adv-x="1130" d="M49 283q0 117 57.5 187.5t182.5 103t332 32.5h73l2 15q8 145 -161 145q-82 0 -230 -53q-35 -14 -69 -15q-51 0 -84 35t-33 82q0 37 21.5 73t66.5 60q152 84 375 84q229 0 342.5 -100.5t113.5 -302.5q0 -43 -2 -68l-32 -405q-6 -80 -55.5 -124t-129.5 -44 q-68 0 -110.5 37.5t-46.5 99.5q-37 -68 -105 -104.5t-156 -36.5q-98 0 -179 38.5t-127 107.5t-46 153zM336 1448q0 53 40 89t93 36q41 0 76 -23.5t53 -72.5l82 -209q8 -23 8 -45q0 -39 -28.5 -64.5t-67.5 -25.5q-29 0 -56.5 14t-45.5 43l-123 168q-31 45 -31 90zM399 324 q0 -43 30 -70t79 -27q70 0 118 52.5t54 136.5l2 22h-55q-123 0 -175.5 -25.5t-52.5 -88.5z" />
<glyph unicode="&#xe1;" horiz-adv-x="1130" d="M49 283q0 117 57.5 187.5t182.5 103t332 32.5h73l2 15q8 145 -161 145q-82 0 -230 -53q-35 -14 -69 -15q-51 0 -84 35t-33 82q0 37 21.5 73t66.5 60q152 84 375 84q229 0 342.5 -100.5t113.5 -302.5q0 -43 -2 -68l-32 -405q-6 -80 -55.5 -124t-129.5 -44 q-68 0 -110.5 37.5t-46.5 99.5q-37 -68 -105 -104.5t-156 -36.5q-98 0 -179 38.5t-127 107.5t-46 153zM399 324q0 -43 30 -70t79 -27q70 0 118 52.5t54 136.5l2 22h-55q-123 0 -175.5 -25.5t-52.5 -88.5zM578 1212q0 29 14 58l86 217q23 43 56.5 64.5t70.5 21.5q53 0 96 -37 t43 -90q0 -49 -43 -98l-135 -164q-47 -54 -104 -54q-37 0 -60.5 23t-23.5 59z" />
<glyph unicode="&#xe2;" horiz-adv-x="1130" d="M49 283q0 117 57.5 187.5t182.5 103t332 32.5h73l2 15q8 145 -161 145q-82 0 -230 -53q-35 -14 -69 -15q-51 0 -84 35t-33 82q0 37 21.5 73t66.5 60q152 84 375 84q229 0 342.5 -100.5t113.5 -302.5q0 -43 -2 -68l-32 -405q-6 -80 -55.5 -124t-129.5 -44 q-68 0 -110.5 37.5t-46.5 99.5q-37 -68 -105 -104.5t-156 -36.5q-98 0 -179 38.5t-127 107.5t-46 153zM334 1229q0 37 27 71l143 191q29 39 71 59.5t89 20.5q45 0 83 -20.5t60 -59.5l121 -209q16 -27 16 -55q0 -41 -33.5 -69t-78.5 -28q-37 0 -71 20.5t-52 63.5l-66 142 l-82 -154q-40 -72 -114 -72q-45 0 -79 29t-34 70zM399 324q0 -43 30 -70t79 -27q70 0 118 52.5t54 136.5l2 22h-55q-123 0 -175.5 -25.5t-52.5 -88.5z" />
<glyph unicode="&#xe3;" horiz-adv-x="1130" d="M49 283q0 117 57.5 187.5t182.5 103t332 32.5h73l2 15q8 145 -161 145q-82 0 -230 -53q-35 -14 -69 -15q-51 0 -84 35t-33 82q0 37 21.5 73t66.5 60q152 84 375 84q229 0 342.5 -100.5t113.5 -302.5q0 -43 -2 -68l-32 -405q-6 -80 -55.5 -124t-129.5 -44 q-68 0 -110.5 37.5t-46.5 99.5q-37 -68 -105 -104.5t-156 -36.5q-98 0 -179 38.5t-127 107.5t-46 153zM277 1280q0 55 30.5 110.5t82 91.5t108.5 36q49 0 86 -15.5t90 -46.5q43 -23 65.5 -33t47.5 -10q27 0 45 13.5t39 39.5q23 27 39 39.5t41 12.5q59 0 59 -91 q0 -55 -32 -110t-83 -91t-108 -36q-47 0 -86 15.5t-88 43.5q-39 23 -62.5 33t-48.5 10q-27 0 -45 -13t-41 -40t-39 -39t-41 -12q-31 0 -45 24.5t-14 67.5zM399 324q0 -43 30 -70t79 -27q70 0 118 52.5t54 136.5l2 22h-55q-123 0 -175.5 -25.5t-52.5 -88.5z" />
<glyph unicode="&#xe4;" horiz-adv-x="1130" d="M49 283q0 117 57.5 187.5t182.5 103t332 32.5h73l2 15q8 145 -161 145q-82 0 -230 -53q-35 -14 -69 -15q-51 0 -84 35t-33 82q0 37 21.5 73t66.5 60q152 84 375 84q229 0 342.5 -100.5t113.5 -302.5q0 -43 -2 -68l-32 -405q-6 -80 -55.5 -124t-129.5 -44 q-68 0 -110.5 37.5t-46.5 99.5q-37 -68 -105 -104.5t-156 -36.5q-98 0 -179 38.5t-127 107.5t-46 153zM269 1348q0 74 47 117.5t125 43.5t126 -44t48 -117q0 -74 -48.5 -119t-125.5 -45q-78 0 -125 45t-47 119zM399 324q0 -43 30 -70t79 -27q70 0 118 52.5t54 136.5l2 22 h-55q-123 0 -175.5 -25.5t-52.5 -88.5zM674 1348q0 74 47 117.5t125 43.5q76 0 124 -44t48 -117q0 -74 -47 -119t-125 -45t-125 45t-47 119z" />
<glyph unicode="&#xe5;" horiz-adv-x="1130" d="M49 283q0 117 57.5 187.5t182.5 103t332 32.5h73l2 15q8 145 -161 145q-82 0 -230 -53q-35 -14 -69 -15q-51 0 -84 35t-33 82q0 37 21.5 73t66.5 60q152 84 375 84q229 0 342.5 -100.5t113.5 -302.5q0 -43 -2 -68l-32 -405q-6 -80 -55.5 -124t-129.5 -44 q-68 0 -110.5 37.5t-46.5 99.5q-37 -68 -105 -104.5t-156 -36.5q-98 0 -179 38.5t-127 107.5t-46 153zM399 324q0 -43 30 -70t79 -27q70 0 118 52.5t54 136.5l2 22h-55q-123 0 -175.5 -25.5t-52.5 -88.5zM414 1352q0 94 66.5 159.5t162.5 65.5t164 -65.5t68 -159.5 q0 -96 -67.5 -162t-164.5 -66q-96 0 -162.5 65.5t-66.5 162.5zM559 1352q0 -37 24 -63.5t60 -26.5q37 0 61.5 26.5t24.5 63.5t-24.5 62.5t-61.5 25.5t-60.5 -25.5t-23.5 -62.5z" />
<glyph unicode="&#xe6;" horiz-adv-x="1701" d="M49 283q0 117 57.5 187.5t182.5 103t332 32.5h67l2 15q4 76 -34 110.5t-128 34.5q-76 0 -223 -53q-35 -14 -69 -15q-51 0 -84 35t-33 82q0 37 21.5 73t66.5 60q152 84 399 84q205 0 303 -110q127 111 305 110q197 0 314 -134t117 -368q0 -45 -26 -70.5t-71 -25.5h-520 q25 -184 219 -184q53 0 89 11t102 38q37 16 63 16q45 0 70.5 -34.5t25.5 -83.5q0 -43 -18 -82t-57 -62q-53 -31 -135 -50t-170 -19q-137 0 -240 49t-166 139q-61 -90 -159.5 -139t-217.5 -49q-115 0 -203 38.5t-135 106.5t-47 154zM399 315q0 -39 30 -63.5t79 -24.5 q65 0 112.5 51.5t53.5 133.5l2 26h-49q-121 0 -174.5 -27.5t-53.5 -95.5zM1032 606h311q-2 88 -37.5 134t-101.5 46q-69 0 -112 -43t-60 -137z" />
<glyph unicode="&#xe7;" horiz-adv-x="1024" d="M59 477q0 170 71 296t203 192.5t310 66.5q98 0 182 -18.5t142 -48.5q33 -18 49 -51t16 -70q0 -57 -31.5 -101.5t-80.5 -44.5q-29 0 -58 15q-102 45 -196 45q-111 0 -171.5 -71t-60.5 -202q0 -106 53.5 -166.5t149.5 -60.5q53 0 96 9t94 30q33 16 64 16q45 0 70.5 -33.5 t25.5 -82.5q0 -43 -19.5 -83t-58.5 -63q-51 -29 -131 -47t-157 -20l-15 -66h4q82 0 129 -38t47 -101q0 -84 -78.5 -134.5t-207.5 -50.5q-94 0 -152 17q-23 6 -35 23.5t-12 39.5q0 33 20.5 57.5t49.5 16.5t61.5 -12t48.5 -4q90 0 90 45q0 35 -53 35q-18 0 -39.5 -5.5 t-34.5 -5.5q-23 0 -33 12.5t-3 30.5l32 158q-178 41 -279.5 167t-101.5 308z" />
<glyph unicode="&#xe8;" horiz-adv-x="1095" d="M59 479q0 158 67 284t185.5 197.5t266.5 71.5q219 0 340.5 -132t121.5 -370q0 -45 -25.5 -70.5t-70.5 -25.5h-534q25 -184 223 -184q59 0 98 11t103 38q37 16 63 16q45 0 70.5 -34.5t25.5 -83.5q0 -43 -18.5 -82t-56.5 -62q-53 -31 -136.5 -50t-175.5 -19 q-162 0 -285.5 61t-192.5 173t-69 261zM325 1448q0 53 40 89t93 36q41 0 76 -23.5t53 -72.5l82 -209q8 -23 8 -45q0 -39 -28.5 -64.5t-67.5 -25.5q-29 0 -56.5 14t-45.5 43l-123 168q-31 45 -31 90zM414 606h325q-2 88 -39.5 134t-109.5 46q-74 0 -118 -44t-58 -136z" />
<glyph unicode="&#xe9;" horiz-adv-x="1095" d="M59 479q0 158 67 284t185.5 197.5t266.5 71.5q219 0 340.5 -132t121.5 -370q0 -45 -25.5 -70.5t-70.5 -25.5h-534q25 -184 223 -184q59 0 98 11t103 38q37 16 63 16q45 0 70.5 -34.5t25.5 -83.5q0 -43 -18.5 -82t-56.5 -62q-53 -31 -136.5 -50t-175.5 -19 q-162 0 -285.5 61t-192.5 173t-69 261zM414 606h325q-2 88 -39.5 134t-109.5 46q-74 0 -118 -44t-58 -136zM567 1212q0 29 14 58l86 217q23 43 56.5 64.5t70.5 21.5q53 0 96 -37t43 -90q0 -49 -43 -98l-135 -164q-47 -54 -104 -54q-37 0 -60.5 23t-23.5 59z" />
<glyph unicode="&#xea;" horiz-adv-x="1095" d="M59 479q0 158 67 284t185.5 197.5t266.5 71.5q219 0 340.5 -132t121.5 -370q0 -45 -25.5 -70.5t-70.5 -25.5h-534q25 -184 223 -184q59 0 98 11t103 38q37 16 63 16q45 0 70.5 -34.5t25.5 -83.5q0 -43 -18.5 -82t-56.5 -62q-53 -31 -136.5 -50t-175.5 -19 q-162 0 -285.5 61t-192.5 173t-69 261zM323 1229q0 37 27 71l143 191q29 39 71 59.5t89 20.5q45 0 83 -20.5t60 -59.5l121 -209q16 -27 16 -55q0 -41 -33.5 -69t-78.5 -28q-37 0 -71 20.5t-52 63.5l-66 142l-82 -154q-40 -72 -114 -72q-45 0 -79 29t-34 70zM414 606h325 q-2 88 -39.5 134t-109.5 46q-74 0 -118 -44t-58 -136z" />
<glyph unicode="&#xeb;" horiz-adv-x="1095" d="M59 479q0 158 67 284t185.5 197.5t266.5 71.5q219 0 340.5 -132t121.5 -370q0 -45 -25.5 -70.5t-70.5 -25.5h-534q25 -184 223 -184q59 0 98 11t103 38q37 16 63 16q45 0 70.5 -34.5t25.5 -83.5q0 -43 -18.5 -82t-56.5 -62q-53 -31 -136.5 -50t-175.5 -19 q-162 0 -285.5 61t-192.5 173t-69 261zM258 1348q0 74 47 117.5t125 43.5t126 -44t48 -117q0 -74 -48.5 -119t-125.5 -45q-78 0 -125 45t-47 119zM414 606h325q-2 88 -39.5 134t-109.5 46q-74 0 -118 -44t-58 -136zM663 1348q0 74 47 117.5t125 43.5q76 0 124 -44t48 -117 q0 -74 -47 -119t-125 -45t-125 45t-47 119z" />
<glyph unicode="&#xec;" horiz-adv-x="575" d="M49 1448q0 53 40 89t93 36q41 0 76 -23.5t53 -72.5l82 -209q8 -23 8 -45q0 -39 -28.5 -64.5t-67.5 -25.5q-29 0 -56.5 14t-45.5 43l-123 168q-31 45 -31 90zM78 156l57 702q8 84 63.5 127t133.5 43t127 -43t41 -127l-58 -702q-6 -82 -60 -125t-132 -43t-128 43t-44 125z " />
<glyph unicode="&#xed;" horiz-adv-x="575" d="M78 156l57 702q8 84 63.5 127t133.5 43t127 -43t41 -127l-58 -702q-6 -82 -60 -125t-132 -43t-128 43t-44 125zM291 1212q0 29 14 58l86 217q23 43 56.5 64.5t70.5 21.5q53 0 96 -37t43 -90q0 -49 -43 -98l-135 -164q-47 -54 -104 -54q-37 0 -60.5 23t-23.5 59z" />
<glyph unicode="&#xee;" horiz-adv-x="575" d="M47 1229q0 37 27 71l143 191q29 39 71 59.5t89 20.5q45 0 83 -20.5t60 -59.5l121 -209q16 -27 16 -55q0 -41 -33.5 -69t-78.5 -28q-37 0 -71 20.5t-52 63.5l-66 142l-82 -154q-40 -72 -114 -72q-45 0 -79 29t-34 70zM78 156l57 702q8 84 63.5 127t133.5 43t127 -43 t41 -127l-58 -702q-6 -82 -60 -125t-132 -43t-128 43t-44 125z" />
<glyph unicode="&#xef;" horiz-adv-x="575" d="M-18 1348q0 74 47 117.5t125 43.5t126 -44t48 -117q0 -74 -48.5 -119t-125.5 -45q-78 0 -125 45t-47 119zM78 156l57 702q8 84 63.5 127t133.5 43t127 -43t41 -127l-58 -702q-6 -82 -60 -125t-132 -43t-128 43t-44 125zM387 1348q0 74 47 117.5t125 43.5q76 0 124 -44 t48 -117q0 -74 -47 -119t-125 -45t-125 45t-47 119z" />
<glyph unicode="&#xf0;" horiz-adv-x="1245" d="M55 440q0 150 70 261.5t189.5 171t265.5 59.5q172 0 264 -80q-27 100 -94 176l-293 -70q-12 -4 -35 -4q-41 0 -64.5 26t-23.5 60q0 31 18.5 56.5t53.5 33.5l159 37q-74 35 -141 47q-51 12 -78 45t-27 76q0 51 40 89t112 38q12 0 45 -4q244 -37 424 -201l174 41q12 5 35 5 q41 0 64.5 -26t23.5 -60q0 -29 -19.5 -54.5t-56.5 -34.5l-96 -22q63 -100 97 -217t34 -240q0 -342 -159.5 -503.5t-428.5 -161.5q-168 0 -293 56t-192.5 158.5t-67.5 241.5zM416 446q0 -82 48 -136t138 -54q109 0 157 63.5t48 161.5q0 84 -47 135.5t-139 51.5 q-106 0 -155.5 -64.5t-49.5 -157.5z" />
<glyph unicode="&#xf1;" horiz-adv-x="1239" d="M78 156l57 706q4 74 59.5 120t139.5 46q70 0 110.5 -35t44.5 -94q53 61 137.5 97t184.5 36q168 0 254 -95t86 -280q0 -45 -2 -69l-35 -432q-8 -78 -59 -123t-135 -45t-131.5 46t-38.5 122l34 419q6 86 -27.5 132.5t-105.5 46.5q-80 0 -124 -52.5t-50 -140.5l-35 -405 q-6 -78 -57 -123t-135 -45q-86 0 -131 45t-41 123zM326 1280q0 55 30.5 110.5t82 91.5t108.5 36q49 0 86 -15.5t90 -46.5q43 -23 65.5 -33t47.5 -10q27 0 45 13.5t39 39.5q23 27 39 39.5t41 12.5q59 0 59 -91q0 -55 -32 -110t-83 -91t-108 -36q-47 0 -86 15.5t-88 43.5 q-39 23 -62.5 33t-48.5 10q-27 0 -45 -13t-41 -40t-39 -39t-41 -12q-31 0 -45 24.5t-14 67.5z" />
<glyph unicode="&#xf2;" d="M59 483q0 170 70 294t196 189.5t293 65.5q168 0 293 -61.5t192.5 -174t67.5 -261.5q0 -172 -69.5 -296t-195.5 -189.5t-294 -65.5t-292.5 61t-192.5 175t-68 263zM375 1448q0 53 40 89t93 36q41 0 76 -23.5t53 -72.5l82 -209q8 -23 8 -45q0 -39 -28.5 -64.5t-67.5 -25.5 q-29 0 -56.5 14t-45.5 43l-123 168q-31 45 -31 90zM420 477q0 -115 46 -170t140 -55q109 0 157 82t48 209q0 113 -46 167t-140 54q-109 0 -157 -81t-48 -206z" />
<glyph unicode="&#xf3;" d="M59 483q0 170 70 294t196 189.5t293 65.5q168 0 293 -61.5t192.5 -174t67.5 -261.5q0 -172 -69.5 -296t-195.5 -189.5t-294 -65.5t-292.5 61t-192.5 175t-68 263zM420 477q0 -115 46 -170t140 -55q109 0 157 82t48 209q0 113 -46 167t-140 54q-109 0 -157 -81t-48 -206z M617 1212q0 29 14 58l86 217q23 43 56.5 64.5t70.5 21.5q53 0 96 -37t43 -90q0 -49 -43 -98l-135 -164q-47 -54 -104 -54q-37 0 -60.5 23t-23.5 59z" />
<glyph unicode="&#xf4;" d="M59 483q0 170 70 294t196 189.5t293 65.5q168 0 293 -61.5t192.5 -174t67.5 -261.5q0 -172 -69.5 -296t-195.5 -189.5t-294 -65.5t-292.5 61t-192.5 175t-68 263zM373 1229q0 37 27 71l143 191q29 39 71 59.5t89 20.5q45 0 83 -20.5t60 -59.5l121 -209q16 -27 16 -55 q0 -41 -33.5 -69t-78.5 -28q-37 0 -71 20.5t-52 63.5l-66 142l-82 -154q-40 -72 -114 -72q-45 0 -79 29t-34 70zM420 477q0 -115 46 -170t140 -55q109 0 157 82t48 209q0 113 -46 167t-140 54q-109 0 -157 -81t-48 -206z" />
<glyph unicode="&#xf5;" d="M59 483q0 170 70 294t196 189.5t293 65.5q168 0 293 -61.5t192.5 -174t67.5 -261.5q0 -172 -69.5 -296t-195.5 -189.5t-294 -65.5t-292.5 61t-192.5 175t-68 263zM316 1280q0 55 30.5 110.5t82 91.5t108.5 36q49 0 86 -15.5t90 -46.5q43 -23 65.5 -33t47.5 -10 q27 0 45 13.5t39 39.5q23 27 39 39.5t41 12.5q59 0 59 -91q0 -55 -32 -110t-83 -91t-108 -36q-47 0 -86 15.5t-88 43.5q-39 23 -62.5 33t-48.5 10q-27 0 -45 -13t-41 -40t-39 -39t-41 -12q-31 0 -45 24.5t-14 67.5zM420 477q0 -115 46 -170t140 -55q109 0 157 82t48 209 q0 113 -46 167t-140 54q-109 0 -157 -81t-48 -206z" />
<glyph unicode="&#xf6;" d="M59 483q0 170 70 294t196 189.5t293 65.5q168 0 293 -61.5t192.5 -174t67.5 -261.5q0 -172 -69.5 -296t-195.5 -189.5t-294 -65.5t-292.5 61t-192.5 175t-68 263zM308 1348q0 74 47 117.5t125 43.5t126 -44t48 -117q0 -74 -48.5 -119t-125.5 -45q-78 0 -125 45t-47 119z M420 477q0 -115 46 -170t140 -55q109 0 157 82t48 209q0 113 -46 167t-140 54q-109 0 -157 -81t-48 -206zM713 1348q0 74 47 117.5t125 43.5q76 0 124 -44t48 -117q0 -74 -47 -119t-125 -45t-125 45t-47 119z" />
<glyph unicode="&#xf7;" d="M121 582q0 55 38 92t93 37h756q49 0 80.5 -33t31.5 -82q0 -55 -38 -92t-93 -37h-758q-47 0 -78.5 34t-31.5 81zM434 14q0 55 37 94t92 39t93 -38.5t38 -94.5q0 -53 -38 -92t-93 -39t-92 38t-37 93zM524 1163q0 55 38 94t93 39t93 -38.5t38 -94.5q0 -53 -37.5 -92 t-93.5 -39q-55 0 -93 39t-38 92z" />
<glyph unicode="&#xf8;" d="M59 483q0 170 70 294t196 189.5t293 65.5q119 0 216 -31l51 78q33 49 90 49q37 0 64.5 -22.5t27.5 -54.5q0 -27 -16 -52l-54 -81q84 -66 129 -164.5t45 -218.5q0 -172 -69.5 -296t-195.5 -189.5t-294 -65.5q-119 0 -215 30l-53 -80q-29 -47 -86 -47q-37 0 -65.5 22.5 t-28.5 55.5q0 23 16 49l56 84q-86 68 -131.5 166t-45.5 219zM414 477q0 -49 10 -94l252 379q-33 4 -51 4q-113 0 -162 -81t-49 -208zM555 254q33 -4 51 -4q115 0 165 82t50 211q0 49 -10 96z" />
<glyph unicode="&#xf9;" d="M88 348q0 23 4 72l35 440q6 78 59.5 123t139.5 45q84 0 128 -45t38 -123l-35 -420l-2 -30q0 -72 32.5 -110t96.5 -38q76 0 118.5 52.5t49.5 140.5l32 405q8 78 61.5 123t137.5 45q86 0 130 -45t36 -123l-55 -706q-6 -74 -58.5 -120t-136.5 -46q-70 0 -113 34.5t-47 94.5 q-53 -61 -136 -97t-179 -36q-164 0 -250 93t-86 271zM371 1448q0 53 40 89t93 36q41 0 76 -23.5t53 -72.5l82 -209q8 -23 8 -45q0 -39 -28.5 -64.5t-67.5 -25.5q-29 0 -56.5 14t-45.5 43l-123 168q-31 45 -31 90z" />
<glyph unicode="&#xfa;" d="M88 348q0 23 4 72l35 440q6 78 59.5 123t139.5 45q84 0 128 -45t38 -123l-35 -420l-2 -30q0 -72 32.5 -110t96.5 -38q76 0 118.5 52.5t49.5 140.5l32 405q8 78 61.5 123t137.5 45q86 0 130 -45t36 -123l-55 -706q-6 -74 -58.5 -120t-136.5 -46q-70 0 -113 34.5t-47 94.5 q-53 -61 -136 -97t-179 -36q-164 0 -250 93t-86 271zM613 1212q0 29 14 58l86 217q23 43 56.5 64.5t70.5 21.5q53 0 96 -37t43 -90q0 -49 -43 -98l-135 -164q-47 -54 -104 -54q-37 0 -60.5 23t-23.5 59z" />
<glyph unicode="&#xfb;" d="M88 348q0 23 4 72l35 440q6 78 59.5 123t139.5 45q84 0 128 -45t38 -123l-35 -420l-2 -30q0 -72 32.5 -110t96.5 -38q76 0 118.5 52.5t49.5 140.5l32 405q8 78 61.5 123t137.5 45q86 0 130 -45t36 -123l-55 -706q-6 -74 -58.5 -120t-136.5 -46q-70 0 -113 34.5t-47 94.5 q-53 -61 -136 -97t-179 -36q-164 0 -250 93t-86 271zM369 1229q0 37 27 71l143 191q29 39 71 59.5t89 20.5q45 0 83 -20.5t60 -59.5l121 -209q16 -27 16 -55q0 -41 -33.5 -69t-78.5 -28q-37 0 -71 20.5t-52 63.5l-66 142l-82 -154q-40 -72 -114 -72q-45 0 -79 29t-34 70z " />
<glyph unicode="&#xfc;" d="M88 348q0 23 4 72l35 440q6 78 59.5 123t139.5 45q84 0 128 -45t38 -123l-35 -420l-2 -30q0 -72 32.5 -110t96.5 -38q76 0 118.5 52.5t49.5 140.5l32 405q8 78 61.5 123t137.5 45q86 0 130 -45t36 -123l-55 -706q-6 -74 -58.5 -120t-136.5 -46q-70 0 -113 34.5t-47 94.5 q-53 -61 -136 -97t-179 -36q-164 0 -250 93t-86 271zM304 1348q0 74 47 117.5t125 43.5t126 -44t48 -117q0 -74 -48.5 -119t-125.5 -45q-78 0 -125 45t-47 119zM709 1348q0 74 47 117.5t125 43.5q76 0 124 -44t48 -117q0 -74 -47 -119t-125 -45t-125 45t-47 119z" />
<glyph unicode="&#xfd;" horiz-adv-x="1107" d="M61 864q0 68 61.5 118t135.5 50q47 0 84 -25.5t55 -76.5l158 -488l231 486q25 51 66 76.5t88 25.5q66 0 117 -42t51 -103q0 -33 -18 -70l-576 -1096q-29 -53 -67.5 -77.5t-84.5 -24.5q-59 0 -103 42t-44 103q0 43 21 84l106 213l-272 762q-8 18 -9 43zM557 1212 q0 29 14 58l86 217q23 43 56.5 64.5t70.5 21.5q53 0 96 -37t43 -90q0 -49 -43 -98l-135 -164q-47 -54 -104 -54q-37 0 -60.5 23t-23.5 59z" />
<glyph unicode="&#xfe;" horiz-adv-x="1280" d="M47 -221l121 1513q4 76 56 123t136 47q86 0 132.5 -47t39.5 -123l-30 -377q49 55 122.5 86t163.5 31q127 0 224.5 -58.5t151 -167t53.5 -257.5q0 -164 -61.5 -293t-171.5 -200.5t-253 -71.5q-182 0 -293 129l-26 -340q-4 -72 -56.5 -116t-132.5 -44q-84 0 -132 46 t-44 120zM461 498q0 -121 49 -183.5t141 -62.5q97 0 151 73.5t54 198.5q0 115 -51 177.5t-146 62.5q-92 0 -145 -74t-53 -192z" />
<glyph unicode="&#xff;" horiz-adv-x="1107" d="M61 864q0 68 61.5 118t135.5 50q47 0 84 -25.5t55 -76.5l158 -488l231 486q25 51 66 76.5t88 25.5q66 0 117 -42t51 -103q0 -33 -18 -70l-576 -1096q-29 -53 -67.5 -77.5t-84.5 -24.5q-59 0 -103 42t-44 103q0 43 21 84l106 213l-272 762q-8 18 -9 43zM248 1348 q0 74 47 117.5t125 43.5t126 -44t48 -117q0 -74 -48.5 -119t-125.5 -45q-78 0 -125 45t-47 119zM653 1348q0 74 47 117.5t125 43.5q76 0 124 -44t48 -117q0 -74 -47 -119t-125 -45t-125 45t-47 119z" />
<glyph unicode="&#x100;" horiz-adv-x="1558" d="M16 143q0 41 25 86l608 1112q31 57 86.5 87t118.5 30t114.5 -29.5t71.5 -85.5l443 -1130q12 -30 12 -59q0 -70 -57.5 -118t-128.5 -48q-47 0 -86 25.5t-58 76.5l-73 209h-641l-105 -207q-27 -51 -68.5 -75.5t-89.5 -24.5q-68 0 -120 43t-52 108zM516 1720q0 57 33.5 87 t89.5 30h493q47 0 76 -29.5t29 -76.5q0 -55 -35 -84t-88 -29h-494q-45 0 -74.5 28.5t-29.5 73.5zM594 582h399l-164 465z" />
<glyph unicode="&#x101;" horiz-adv-x="1130" d="M49 283q0 117 57.5 187.5t182.5 103t332 32.5h73l2 15q8 145 -161 145q-82 0 -230 -53q-35 -14 -69 -15q-51 0 -84 35t-33 82q0 37 21.5 73t66.5 60q152 84 375 84q229 0 342.5 -100.5t113.5 -302.5q0 -43 -2 -68l-32 -405q-6 -80 -55.5 -124t-129.5 -44 q-68 0 -110.5 37.5t-46.5 99.5q-37 -68 -105 -104.5t-156 -36.5q-98 0 -179 38.5t-127 107.5t-46 153zM283 1341q0 55 35 84t88 29h493q45 0 75 -27.5t30 -70.5q0 -57 -34 -88t-89 -31h-494q-47 0 -75.5 27.5t-28.5 76.5zM399 324q0 -43 30 -70t79 -27q70 0 118 52.5 t54 136.5l2 22h-55q-123 0 -175.5 -25.5t-52.5 -88.5z" />
<glyph unicode="&#x102;" horiz-adv-x="1558" d="M16 143q0 41 25 86l608 1112q31 57 86.5 87t118.5 30t114.5 -29.5t71.5 -85.5l443 -1130q12 -30 12 -59q0 -70 -57.5 -118t-128.5 -48q-47 0 -86 25.5t-58 76.5l-73 209h-641l-105 -207q-27 -51 -68.5 -75.5t-89.5 -24.5q-68 0 -120 43t-52 108zM520 1790q0 37 27.5 59.5 t66.5 22.5q43 0 80 -31q35 -23 84 -37t106 -14q51 0 103.5 14.5t85.5 36.5q41 33 86 33q35 0 57.5 -19.5t22.5 -52.5q0 -31 -29 -71q-51 -66 -136 -107t-196 -41q-117 0 -203 40t-135 108q-20 29 -20 59zM594 582h399l-164 465z" />
<glyph unicode="&#x103;" horiz-adv-x="1130" d="M49 283q0 117 57.5 187.5t182.5 103t332 32.5h73l2 15q8 145 -161 145q-82 0 -230 -53q-35 -14 -69 -15q-51 0 -84 35t-33 82q0 37 21.5 73t66.5 60q152 84 375 84q229 0 342.5 -100.5t113.5 -302.5q0 -43 -2 -68l-32 -405q-6 -80 -55.5 -124t-129.5 -44 q-68 0 -110.5 37.5t-46.5 99.5q-37 -68 -105 -104.5t-156 -36.5q-98 0 -179 38.5t-127 107.5t-46 153zM271 1456q0 39 31.5 65.5t70.5 26.5q49 0 80 -45t85 -73.5t120 -28.5t112.5 26.5t85.5 75.5q35 47 88 47q37 0 63 -23.5t26 -62.5q0 -27 -11 -47q-45 -104 -146.5 -170.5 t-232.5 -66.5q-129 0 -224 65.5t-140 171.5q-8 18 -8 39zM399 324q0 -43 30 -70t79 -27q70 0 118 52.5t54 136.5l2 22h-55q-123 0 -175.5 -25.5t-52.5 -88.5z" />
<glyph unicode="&#x104;" horiz-adv-x="1558" d="M18 145q0 41 23 84l608 1112q31 57 86.5 87t118.5 30t114.5 -29.5t71.5 -85.5l433 -1114q14 -37 14 -73q0 -47 -24.5 -85t-65.5 -59q-8 -4 -45 -27.5t-57.5 -52t-20.5 -61.5q0 -45 27.5 -70.5t70.5 -25.5q45 0 92 14q7 2 19 2q25 0 40 -20.5t15 -46.5q0 -23 -12.5 -45.5 t-34.5 -34.5q-88 -49 -176 -50q-123 0 -195.5 61.5t-72.5 160.5q0 141 137 225l-90 258h-641l-105 -207q-27 -51 -68.5 -75.5t-89.5 -24.5q-68 0 -120 44t-52 109zM596 582h397l-164 462z" />
<glyph unicode="&#x105;" horiz-adv-x="1130" d="M49 283q0 117 57.5 187.5t182.5 103t332 32.5h73l2 15q10 145 -161 145q-96 0 -230 -53q-35 -14 -69 -15q-51 0 -84 35t-33 82q0 37 21.5 73t66.5 60q152 84 375 84q229 0 342.5 -100.5t113.5 -302.5q0 -43 -2 -68l-32 -405q-6 -106 -95 -152q-61 -35 -88.5 -65.5 t-27.5 -67.5q0 -45 28.5 -70.5t75.5 -25.5q33 0 86 14q33 8 52.5 -13.5t19.5 -54.5q0 -23 -11.5 -44t-33.5 -33q-84 -49 -176 -50q-121 0 -195 60.5t-74 161.5q0 68 35 124t96 95q-33 39 -34 92q-37 -70 -107 -106.5t-164 -36.5q-96 0 -174 38.5t-123 107.5t-45 153z M399 315q0 -39 30 -63.5t79 -24.5q70 0 118 53.5t54 135.5l2 22h-55q-119 0 -173.5 -27.5t-54.5 -95.5z" />
<glyph unicode="&#x106;" horiz-adv-x="1388" d="M111 678q0 236 96 414t271 274t407 96q129 0 238.5 -29.5t183.5 -66.5q94 -57 94 -154q0 -59 -40 -103t-99 -44q-43 0 -88 27q-147 72 -271 71q-197 0 -303 -129t-106 -356q0 -195 84 -296t247 -101q74 0 133.5 19t157.5 58q45 23 82 23q55 0 90 -40t35 -95 q0 -41 -19.5 -80t-60.5 -70q-61 -45 -179 -79.5t-249 -34.5q-217 0 -375.5 85t-243.5 241.5t-85 369.5zM866 1636q0 31 20 60l105 153q37 53 94 54q47 0 84 -35t37 -80q0 -43 -41 -82l-137 -117q-33 -30 -78 -30q-35 0 -59.5 22.5t-24.5 54.5z" />
<glyph unicode="&#x107;" horiz-adv-x="1024" d="M59 477q0 170 71 296t203 192.5t310 66.5q98 0 182 -18.5t142 -48.5q33 -18 49 -51t16 -70q0 -57 -31.5 -101.5t-80.5 -44.5q-29 0 -58 15q-102 45 -196 45q-111 0 -171.5 -71t-60.5 -202q0 -106 53.5 -166.5t149.5 -60.5q53 0 96 9t94 30q33 16 64 16q45 0 70.5 -33.5 t25.5 -82.5q0 -43 -19.5 -83t-58.5 -63q-53 -29 -135 -48t-162 -19q-166 0 -290.5 60t-193.5 172t-69 261zM615 1212q0 29 14 58l86 217q23 43 56.5 64.5t70.5 21.5q53 0 96 -37t43 -90q0 -49 -43 -98l-135 -164q-47 -54 -104 -54q-37 0 -60.5 23t-23.5 59z" />
<glyph unicode="&#x108;" horiz-adv-x="1388" d="M111 678q0 236 96 414t271 274t407 96q129 0 238.5 -29.5t183.5 -66.5q94 -57 94 -154q0 -59 -40 -103t-99 -44q-43 0 -88 27q-147 72 -271 71q-197 0 -303 -129t-106 -356q0 -195 84 -296t247 -101q74 0 133.5 19t157.5 58q45 23 82 23q55 0 90 -40t35 -95 q0 -41 -19.5 -80t-60.5 -70q-61 -45 -179 -79.5t-249 -34.5q-217 0 -375.5 85t-243.5 241.5t-85 369.5zM620 1634q0 37 37 76l135 143q47 47 133 48q39 0 72 -12.5t51 -35.5l115 -143q23 -29 22 -59q0 -39 -32.5 -67t-73.5 -28q-61 0 -96 60l-64 110l-98 -108 q-50 -57 -113 -57q-37 0 -62.5 20.5t-25.5 52.5z" />
<glyph unicode="&#x109;" horiz-adv-x="1024" d="M59 477q0 170 71 296t203 192.5t310 66.5q98 0 182 -18.5t142 -48.5q33 -18 49 -51t16 -70q0 -57 -31.5 -101.5t-80.5 -44.5q-29 0 -58 15q-102 45 -196 45q-111 0 -171.5 -71t-60.5 -202q0 -106 53.5 -166.5t149.5 -60.5q53 0 96 9t94 30q33 16 64 16q45 0 70.5 -33.5 t25.5 -82.5q0 -43 -19.5 -83t-58.5 -63q-53 -29 -135 -48t-162 -19q-166 0 -290.5 60t-193.5 172t-69 261zM371 1229q0 37 27 71l143 191q29 39 71 59.5t89 20.5q45 0 83 -20.5t60 -59.5l121 -209q16 -27 16 -55q0 -41 -33.5 -69t-78.5 -28q-37 0 -71 20.5t-52 63.5l-66 142 l-82 -154q-40 -72 -114 -72q-45 0 -79 29t-34 70z" />
<glyph unicode="&#x10a;" horiz-adv-x="1388" d="M111 678q0 236 96 414t271 274t407 96q129 0 238.5 -29.5t183.5 -66.5q94 -57 94 -154q0 -59 -40 -103t-99 -44q-43 0 -88 27q-147 72 -271 71q-197 0 -303 -129t-106 -356q0 -195 84 -296t247 -101q74 0 133.5 19t157.5 58q45 23 82 23q55 0 90 -40t35 -95 q0 -41 -19.5 -80t-60.5 -70q-61 -45 -179 -79.5t-249 -34.5q-217 0 -375.5 85t-243.5 241.5t-85 369.5zM712 1731q0 78 54.5 125t146.5 47q90 0 145.5 -47.5t55.5 -124.5q0 -80 -54.5 -128.5t-146.5 -48.5t-146.5 48.5t-54.5 128.5z" />
<glyph unicode="&#x10b;" horiz-adv-x="1024" d="M59 477q0 170 71 296t203 192.5t310 66.5q98 0 182 -18.5t142 -48.5q33 -18 49 -51t16 -70q0 -57 -31.5 -101.5t-80.5 -44.5q-29 0 -58 15q-102 45 -196 45q-111 0 -171.5 -71t-60.5 -202q0 -106 53.5 -166.5t149.5 -60.5q53 0 96 9t94 30q33 16 64 16q45 0 70.5 -33.5 t25.5 -82.5q0 -43 -19.5 -83t-58.5 -63q-53 -29 -135 -48t-162 -19q-166 0 -290.5 60t-193.5 172t-69 261zM480 1348q0 80 54 127t146 47q90 0 145.5 -47.5t55.5 -126.5q0 -80 -54 -128.5t-147 -48.5q-92 0 -146 48.5t-54 128.5z" />
<glyph unicode="&#x10c;" horiz-adv-x="1388" d="M111 678q0 236 96 414t271 274t407 96q129 0 238.5 -29.5t183.5 -66.5q94 -57 94 -154q0 -59 -40 -103t-99 -44q-43 0 -88 27q-147 72 -271 71q-197 0 -303 -129t-106 -356q0 -195 84 -296t247 -101q74 0 133.5 19t157.5 58q45 23 82 23q55 0 90 -40t35 -95 q0 -41 -19.5 -80t-60.5 -70q-61 -45 -179 -79.5t-249 -34.5q-217 0 -375.5 85t-243.5 241.5t-85 369.5zM635 1804q0 39 32.5 66.5t75.5 27.5q27 0 52.5 -15t43.5 -44l64 -110l98 110q50 57 111 57q37 0 62.5 -21.5t25.5 -53.5q0 -39 -35 -76l-135 -143q-49 -49 -131 -50 q-39 0 -73 13.5t-54 36.5l-115 143q-23 29 -22 59z" />
<glyph unicode="&#x10d;" horiz-adv-x="1024" d="M59 477q0 170 71 296t203 192.5t310 66.5q98 0 182 -18.5t142 -48.5q33 -18 49 -51t16 -70q0 -57 -31.5 -101.5t-80.5 -44.5q-29 0 -58 15q-102 45 -196 45q-111 0 -171.5 -71t-60.5 -202q0 -106 53.5 -166.5t149.5 -60.5q53 0 96 9t94 30q33 16 64 16q45 0 70.5 -33.5 t25.5 -82.5q0 -43 -19.5 -83t-58.5 -63q-53 -29 -135 -48t-162 -19q-166 0 -290.5 60t-193.5 172t-69 261zM379 1473q0 41 34 68.5t79 27.5q37 0 70.5 -20.5t52.5 -63.5l65 -139l82 151q21 37 51.5 54.5t63.5 17.5q45 0 79 -28t34 -68q0 -33 -27 -72l-143 -193 q-29 -39 -71 -59.5t-87 -20.5t-83 20.5t-60 59.5l-123 209q-16 27 -17 56z" />
<glyph unicode="&#x10e;" horiz-adv-x="1583" d="M104 172l89 1098q8 84 56 129t132 45h412q217 0 377.5 -83t248.5 -235.5t88 -359.5q0 -242 -96 -414t-277.5 -262t-435.5 -90h-434q-84 0 -125 44t-35 128zM492 303h172q240 0 354.5 111.5t114.5 353.5q0 182 -100.5 277.5t-291.5 95.5h-184zM611 1804q0 39 32.5 66.5 t75.5 27.5q27 0 52.5 -15t43.5 -44l64 -110l98 110q50 57 111 57q37 0 62.5 -21.5t25.5 -53.5q0 -39 -35 -76l-135 -143q-49 -49 -131 -50q-39 0 -73 13.5t-54 36.5l-115 143q-23 29 -22 59z" />
<glyph unicode="&#x10f;" horiz-adv-x="1280" d="M59 467q0 164 61.5 293t171 200.5t253.5 71.5q186 0 293 -129l30 393q4 70 56.5 114t132.5 44q84 0 132 -46t44 -120l-88 -1132q-6 -76 -57.5 -122t-133.5 -46q-72 0 -114.5 35.5t-51.5 95.5q-49 -66 -125.5 -100.5t-173.5 -34.5q-127 0 -224 58t-151.5 166.5 t-54.5 258.5zM420 492q0 -115 51 -177.5t145 -62.5q93 0 146 73.5t53 192.5q0 121 -49 183.5t-141 62.5q-94 0 -149.5 -74t-55.5 -198zM1266 1075l20 287q4 45 32 69.5t60 24.5q29 0 49.5 -19.5t20.5 -52.5q0 -16 -2 -26l-62 -293q-8 -31 -26.5 -47.5t-38.5 -16.5 q-25 0 -40 20.5t-13 53.5z" />
<glyph unicode="&#x110;" horiz-adv-x="1656" d="M18 721q0 74 47.5 111.5t133.5 37.5h32l33 400q8 84 56.5 129t132.5 45h411q217 0 378 -83t249 -235.5t88 -359.5q0 -242 -96.5 -414t-277.5 -262t-435 -90h-434q-84 0 -125 44t-35 128l33 414h-37q-74 0 -114 36.5t-40 98.5zM563 303h172q240 0 354.5 111.5t114.5 353.5 q0 182 -100 277.5t-291 95.5h-184l-21 -271h248q74 0 114 -36.5t40 -98.5q0 -74 -47.5 -111.5t-133.5 -37.5h-243z" />
<glyph unicode="&#x111;" horiz-adv-x="1280" d="M59 467q0 164 61.5 293t171 200.5t253.5 71.5q190 0 297 -135l12 176h-258q-70 0 -105.5 31t-35.5 86q0 61 43 97t120 36h256q14 59 63.5 95t121.5 36q74 0 121 -36t55 -95h59q70 0 105 -30.5t35 -84.5q0 -63 -41 -99t-121 -36h-53l-74 -917q-8 -76 -58.5 -122 t-132.5 -46q-72 0 -114.5 35.5t-51.5 95.5q-49 -66 -125.5 -100.5t-173.5 -34.5q-127 0 -224 58t-151.5 166.5t-54.5 258.5zM420 492q0 -115 51 -177.5t145 -62.5q93 0 146 73.5t53 192.5q0 121 -49 183.5t-141 62.5q-94 0 -149.5 -74t-55.5 -198z" />
<glyph unicode="&#x112;" horiz-adv-x="1222" d="M106 174l87 1096q8 84 57 129t131 45h711q82 0 123.5 -36t41.5 -97q0 -158 -190 -158h-516l-23 -274h476q82 0 123.5 -35t41.5 -99q0 -80 -46 -117.5t-142 -37.5h-475l-25 -299h518q82 0 124 -37t42 -100q0 -154 -190 -154h-709q-84 0 -126 45t-34 129zM420 1720 q0 57 33.5 87t89.5 30h493q47 0 76 -29.5t29 -76.5q0 -55 -35 -84t-88 -29h-494q-45 0 -74.5 28.5t-29.5 73.5z" />
<glyph unicode="&#x113;" horiz-adv-x="1095" d="M59 479q0 158 67 284t185.5 197.5t266.5 71.5q219 0 340.5 -132t121.5 -370q0 -45 -25.5 -70.5t-70.5 -25.5h-534q25 -184 223 -184q59 0 98 11t103 38q37 16 63 16q45 0 70.5 -34.5t25.5 -83.5q0 -43 -18.5 -82t-56.5 -62q-53 -31 -136.5 -50t-175.5 -19 q-162 0 -285.5 61t-192.5 173t-69 261zM272 1341q0 55 35 84t88 29h493q45 0 75 -27.5t30 -70.5q0 -57 -34 -88t-89 -31h-494q-47 0 -75.5 27.5t-28.5 76.5zM414 606h325q-2 88 -39.5 134t-109.5 46q-74 0 -118 -44t-58 -136z" />
<glyph unicode="&#x114;" horiz-adv-x="1222" d="M106 174l87 1096q8 84 57 129t131 45h711q82 0 123.5 -36t41.5 -97q0 -158 -190 -158h-516l-23 -274h476q82 0 123.5 -35t41.5 -99q0 -80 -46 -117.5t-142 -37.5h-475l-25 -299h518q82 0 124 -37t42 -100q0 -154 -190 -154h-709q-84 0 -126 45t-34 129zM424 1790 q0 37 27.5 59.5t66.5 22.5q43 0 80 -31q35 -23 84 -37t106 -14q51 0 103.5 14.5t85.5 36.5q41 33 86 33q35 0 57.5 -19.5t22.5 -52.5q0 -31 -29 -71q-51 -66 -136 -107t-196 -41q-117 0 -203 40t-135 108q-20 29 -20 59z" />
<glyph unicode="&#x115;" horiz-adv-x="1095" d="M59 479q0 158 67 284t185.5 197.5t266.5 71.5q219 0 340.5 -132t121.5 -370q0 -45 -25.5 -70.5t-70.5 -25.5h-534q25 -184 223 -184q59 0 98 11t103 38q37 16 63 16q45 0 70.5 -34.5t25.5 -83.5q0 -43 -18.5 -82t-56.5 -62q-53 -31 -136.5 -50t-175.5 -19 q-162 0 -285.5 61t-192.5 173t-69 261zM260 1456q0 39 31.5 65.5t70.5 26.5q49 0 80 -45t85 -73.5t120 -28.5t112.5 26.5t85.5 75.5q35 47 88 47q37 0 63 -23.5t26 -62.5q0 -27 -11 -47q-45 -104 -146.5 -170.5t-232.5 -66.5q-129 0 -224 65.5t-140 171.5q-8 18 -8 39z M414 606h325q-2 88 -39.5 134t-109.5 46q-74 0 -118 -44t-58 -136z" />
<glyph unicode="&#x116;" horiz-adv-x="1222" d="M106 174l87 1096q8 84 57 129t131 45h711q82 0 123.5 -36t41.5 -97q0 -158 -190 -158h-516l-23 -274h476q82 0 123.5 -35t41.5 -99q0 -80 -46 -117.5t-142 -37.5h-475l-25 -299h518q82 0 124 -37t42 -100q0 -154 -190 -154h-709q-84 0 -126 45t-34 129zM579 1731 q0 78 54.5 125t146.5 47q90 0 145.5 -47.5t55.5 -124.5q0 -80 -54.5 -128.5t-146.5 -48.5t-146.5 48.5t-54.5 128.5z" />
<glyph unicode="&#x117;" horiz-adv-x="1095" d="M59 479q0 158 67 284t185.5 197.5t266.5 71.5q219 0 340.5 -132t121.5 -370q0 -45 -25.5 -70.5t-70.5 -25.5h-534q25 -184 223 -184q59 0 98 11t103 38q37 16 63 16q45 0 70.5 -34.5t25.5 -83.5q0 -43 -18.5 -82t-56.5 -62q-53 -31 -136.5 -50t-175.5 -19 q-162 0 -285.5 61t-192.5 173t-69 261zM414 606h325q-2 88 -39.5 134t-109.5 46q-74 0 -118 -44t-58 -136zM432 1348q0 80 54 127t146 47q90 0 145.5 -47.5t55.5 -126.5q0 -80 -54 -128.5t-147 -48.5q-92 0 -146 48.5t-54 128.5z" />
<glyph unicode="&#x118;" horiz-adv-x="1222" d="M106 174l87 1096q8 84 57 129t131 45h711q82 0 123.5 -36t41.5 -97q0 -158 -190 -158h-516l-23 -274h476q82 0 123.5 -35t41.5 -99q0 -80 -46 -117.5t-142 -37.5h-475l-25 -299h518q82 0 124 -37t42 -100q0 -68 -32.5 -102t-106.5 -52q-41 -16 -67.5 -50t-26.5 -79 t26.5 -70.5t65.5 -25.5h25.5t72.5 14q31 8 51.5 -13.5t20.5 -56.5q0 -49 -45 -75q-86 -49 -178 -50q-121 0 -195 61.5t-74 160.5q0 115 91 184h-527q-84 0 -126 45t-34 129z" />
<glyph unicode="&#x119;" horiz-adv-x="1095" d="M59 479q0 158 67 284t185.5 197.5t266.5 71.5q219 0 340.5 -132t121.5 -370q0 -45 -25.5 -70.5t-70.5 -25.5h-534q25 -184 223 -184q59 0 98 11t103 38q37 16 63 16q45 0 70.5 -34.5t25.5 -83.5q0 -43 -18.5 -82t-56.5 -62q-27 -16 -95 -41q-55 -20 -84.5 -59t-29.5 -90 q0 -39 25.5 -63.5t66.5 -24.5q33 0 50 2t48 12q6 2 16 2q25 0 39.5 -21.5t14.5 -48.5q0 -55 -43 -77q-86 -49 -197 -50q-113 0 -181.5 57.5t-68.5 155.5q0 104 80 179q-150 8 -262.5 71.5t-175 172t-62.5 249.5zM414 606h325q-2 88 -39.5 134t-109.5 46q-74 0 -118 -44 t-58 -136z" />
<glyph unicode="&#x11a;" horiz-adv-x="1222" d="M106 174l87 1096q8 84 57 129t131 45h711q82 0 123.5 -36t41.5 -97q0 -158 -190 -158h-516l-23 -274h476q82 0 123.5 -35t41.5 -99q0 -80 -46 -117.5t-142 -37.5h-475l-25 -299h518q82 0 124 -37t42 -100q0 -154 -190 -154h-709q-84 0 -126 45t-34 129zM502 1804 q0 39 32.5 66.5t75.5 27.5q27 0 52.5 -15t43.5 -44l64 -110l98 110q50 57 111 57q37 0 62.5 -21.5t25.5 -53.5q0 -39 -35 -76l-135 -143q-49 -49 -131 -50q-39 0 -73 13.5t-54 36.5l-115 143q-23 29 -22 59z" />
<glyph unicode="&#x11b;" horiz-adv-x="1095" d="M59 479q0 158 67 284t185.5 197.5t266.5 71.5q219 0 340.5 -132t121.5 -370q0 -45 -25.5 -70.5t-70.5 -25.5h-534q25 -184 223 -184q59 0 98 11t103 38q37 16 63 16q45 0 70.5 -34.5t25.5 -83.5q0 -43 -18.5 -82t-56.5 -62q-53 -31 -136.5 -50t-175.5 -19 q-162 0 -285.5 61t-192.5 173t-69 261zM331 1473q0 41 34 68.5t79 27.5q37 0 70.5 -20.5t52.5 -63.5l65 -139l82 151q21 37 51.5 54.5t63.5 17.5q45 0 79 -28t34 -68q0 -33 -27 -72l-143 -193q-29 -39 -71 -59.5t-87 -20.5t-83 20.5t-60 59.5l-123 209q-16 27 -17 56z M414 606h325q-2 88 -39.5 134t-109.5 46q-74 0 -118 -44t-58 -136z" />
<glyph unicode="&#x11c;" horiz-adv-x="1523" d="M111 682q0 236 96 412t273 272t415 96q145 0 262 -29.5t189 -68.5q47 -29 70.5 -68t23.5 -82q0 -59 -41 -104t-101 -45q-43 0 -90 29q-70 35 -137 53t-172 18q-193 0 -300 -130t-107 -355q0 -201 94 -306.5t286 -105.5q86 0 185 25l20 264h-135q-143 0 -143 125 q0 61 42 97t109 36h342q66 0 100.5 -36t30.5 -99l-28 -358q-8 -102 -27.5 -156.5t-61.5 -85.5t-126 -55q-80 -20 -177.5 -31.5t-185.5 -11.5q-217 0 -375.5 85t-244.5 243.5t-86 371.5zM651 1634q0 37 37 76l135 143q47 47 133 48q39 0 72 -12.5t51 -35.5l115 -143 q23 -29 22 -59q0 -39 -32.5 -67t-73.5 -28q-61 0 -96 60l-64 110l-98 -108q-50 -57 -113 -57q-37 0 -62.5 20.5t-25.5 52.5z" />
<glyph unicode="&#x11d;" horiz-adv-x="1288" d="M61 492q0 152 61.5 275.5t173.5 194t255 70.5q195 0 305 -139q16 61 66.5 98t124.5 37q81 0 125.5 -46t37.5 -122l-57 -737q-20 -250 -181 -379t-454 -129q-98 0 -196.5 19.5t-171.5 54.5q-80 43 -80 125q0 55 36.5 97t90.5 42q20 0 47 -10q184 -61 286 -62 q123 0 187.5 52.5t73.5 162.5l4 51q-102 -119 -301 -118q-127 0 -225.5 57t-153 161.5t-54.5 244.5zM403 1229q0 37 27 71l143 191q29 39 71 59.5t89 20.5q45 0 83 -20.5t60 -59.5l121 -209q16 -27 16 -55q0 -41 -33.5 -69t-78.5 -28q-37 0 -71 20.5t-52 63.5l-66 142 l-82 -154q-40 -72 -114 -72q-45 0 -79 29t-34 70zM422 510q0 -98 53 -153.5t146 -55.5q94 0 150 65.5t56 174.5q0 113 -51 168t-147 55t-151.5 -67.5t-55.5 -186.5z" />
<glyph unicode="&#x11e;" horiz-adv-x="1523" d="M111 682q0 236 96 412t273 272t415 96q145 0 262 -29.5t189 -68.5q47 -29 70.5 -68t23.5 -82q0 -59 -41 -104t-101 -45q-43 0 -90 29q-70 35 -137 53t-172 18q-193 0 -300 -130t-107 -355q0 -201 94 -306.5t286 -105.5q86 0 185 25l20 264h-135q-143 0 -143 125 q0 61 42 97t109 36h342q66 0 100.5 -36t30.5 -99l-28 -358q-8 -102 -27.5 -156.5t-61.5 -85.5t-126 -55q-80 -20 -177.5 -31.5t-185.5 -11.5q-217 0 -375.5 85t-244.5 243.5t-86 371.5zM588 1790q0 37 27.5 59.5t66.5 22.5q43 0 80 -31q35 -23 84 -37t106 -14 q51 0 103.5 14.5t85.5 36.5q41 33 86 33q35 0 57.5 -19.5t22.5 -52.5q0 -31 -29 -71q-51 -66 -136 -107t-196 -41q-117 0 -203 40t-135 108q-20 29 -20 59z" />
<glyph unicode="&#x11f;" horiz-adv-x="1288" d="M61 492q0 152 61.5 275.5t173.5 194t255 70.5q195 0 305 -139q16 61 66.5 98t124.5 37q81 0 125.5 -46t37.5 -122l-57 -737q-20 -250 -181 -379t-454 -129q-98 0 -196.5 19.5t-171.5 54.5q-80 43 -80 125q0 55 36.5 97t90.5 42q20 0 47 -10q184 -61 286 -62 q123 0 187.5 52.5t73.5 162.5l4 51q-102 -119 -301 -118q-127 0 -225.5 57t-153 161.5t-54.5 244.5zM340 1456q0 39 31.5 65.5t70.5 26.5q49 0 80 -45t85 -73.5t120 -28.5t112.5 26.5t85.5 75.5q35 47 88 47q37 0 63 -23.5t26 -62.5q0 -27 -11 -47q-45 -104 -146.5 -170.5 t-232.5 -66.5q-129 0 -224 65.5t-140 171.5q-8 18 -8 39zM422 510q0 -98 53 -153.5t146 -55.5q94 0 150 65.5t56 174.5q0 113 -51 168t-147 55t-151.5 -67.5t-55.5 -186.5z" />
<glyph unicode="&#x120;" horiz-adv-x="1523" d="M111 682q0 236 96 412t273 272t415 96q145 0 262 -29.5t189 -68.5q47 -29 70.5 -68t23.5 -82q0 -59 -41 -104t-101 -45q-43 0 -90 29q-70 35 -137 53t-172 18q-193 0 -300 -130t-107 -355q0 -201 94 -306.5t286 -105.5q86 0 185 25l20 264h-135q-143 0 -143 125 q0 61 42 97t109 36h342q66 0 100.5 -36t30.5 -99l-28 -358q-8 -102 -27.5 -156.5t-61.5 -85.5t-126 -55q-80 -20 -177.5 -31.5t-185.5 -11.5q-217 0 -375.5 85t-244.5 243.5t-86 371.5zM743 1731q0 78 54.5 125t146.5 47q90 0 145.5 -47.5t55.5 -124.5q0 -80 -54.5 -128.5 t-146.5 -48.5t-146.5 48.5t-54.5 128.5z" />
<glyph unicode="&#x121;" horiz-adv-x="1288" d="M61 492q0 152 61.5 275.5t173.5 194t255 70.5q195 0 305 -139q16 61 66.5 98t124.5 37q81 0 125.5 -46t37.5 -122l-57 -737q-20 -250 -181 -379t-454 -129q-98 0 -196.5 19.5t-171.5 54.5q-80 43 -80 125q0 55 36.5 97t90.5 42q20 0 47 -10q184 -61 286 -62 q123 0 187.5 52.5t73.5 162.5l4 51q-102 -119 -301 -118q-127 0 -225.5 57t-153 161.5t-54.5 244.5zM422 510q0 -98 53 -153.5t146 -55.5q94 0 150 65.5t56 174.5q0 113 -51 168t-147 55t-151.5 -67.5t-55.5 -186.5zM512 1348q0 80 54 127t146 47q90 0 145.5 -47.5 t55.5 -126.5q0 -80 -54 -128.5t-147 -48.5q-92 0 -146 48.5t-54 128.5z" />
<glyph unicode="&#x122;" horiz-adv-x="1523" d="M111 682q0 236 96 412t273 272t415 96q145 0 262 -29.5t189 -68.5q47 -29 70.5 -68t23.5 -82q0 -59 -41 -104t-101 -45q-43 0 -90 29q-70 35 -137 53t-172 18q-193 0 -300 -130t-107 -355q0 -201 94 -306.5t286 -105.5q86 0 185 25l20 264h-135q-143 0 -143 125 q0 61 42 97t109 36h342q66 0 100.5 -36t30.5 -99l-28 -358q-8 -102 -27.5 -156.5t-61.5 -85.5t-126 -55q-80 -20 -177.5 -31.5t-185.5 -11.5q-217 0 -375.5 85t-244.5 243.5t-86 371.5zM626 -270q0 66 49.5 108.5t114.5 42.5q90 0 140.5 -50t50.5 -126q0 -72 -26 -131 t-62 -102q-37 -43 -95 -43q-33 0 -54 15t-21 40q0 23 18 47q23 29 41 70h-12q-59 0 -101.5 32.5t-42.5 96.5z" />
<glyph unicode="&#x123;" horiz-adv-x="1288" d="M61 492q0 152 61.5 275.5t173.5 194t255 70.5q195 0 305 -139q16 61 66.5 98t124.5 37q81 0 125.5 -46t37.5 -122l-57 -737q-20 -250 -181 -379t-454 -129q-98 0 -196.5 19.5t-171.5 54.5q-80 43 -80 125q0 55 36.5 97t90.5 42q20 0 47 -10q184 -61 286 -62 q123 0 187.5 52.5t73.5 162.5l4 51q-102 -119 -301 -118q-127 0 -225.5 57t-153 161.5t-54.5 244.5zM422 510q0 -98 53 -153.5t146 -55.5q94 0 150 65.5t56 174.5q0 113 -51 168t-147 55t-151.5 -67.5t-55.5 -186.5zM534 1366q0 127 90 231q18 23 43 34t52 11q33 0 54 -15 t21 -40q0 -20 -18 -49q-31 -39 -41 -70h12q60 0 102 -32.5t42 -94.5q0 -68 -50.5 -110.5t-117.5 -42.5q-88 0 -138.5 51t-50.5 127z" />
<glyph unicode="&#x124;" horiz-adv-x="1589" d="M106 174l87 1094q8 86 61 136t137 50q86 0 132 -50t38 -134l-31 -387h588l31 385q8 86 61.5 136t137.5 50q86 0 132 -50t38 -134l-86 -1094q-8 -86 -61.5 -137t-137.5 -51t-131 50t-39 136l33 410h-588l-33 -408q-8 -86 -61.5 -137t-137.5 -51q-86 0 -132 50t-38 136z M600 1634q0 37 37 76l135 143q47 47 133 48q39 0 72 -12.5t51 -35.5l115 -143q23 -29 22 -59q0 -39 -32.5 -67t-73.5 -28q-61 0 -96 60l-64 110l-98 -108q-50 -57 -113 -57q-37 0 -62.5 20.5t-25.5 52.5z" />
<glyph unicode="&#x125;" horiz-adv-x="1239" d="M78 156l90 1132q4 74 58.5 120t140.5 46q80 0 125 -44t40 -114l-30 -385q53 57 133 89t176 32q168 0 254 -95t86 -280q0 -45 -2 -69l-35 -432q-8 -78 -59 -123t-135 -45t-131.5 46t-38.5 122l34 419q6 86 -27.5 132.5t-105.5 46.5q-80 0 -124 -52.5t-50 -140.5l-35 -405 q-4 -78 -56 -123t-136 -45q-86 0 -132 45t-40 123zM98 1634q0 37 37 76l135 143q47 47 133 48q39 0 72 -12.5t51 -35.5l115 -143q23 -29 22 -59q0 -39 -32.5 -67t-73.5 -28q-61 0 -96 60l-64 110l-98 -108q-50 -57 -113 -57q-37 0 -62.5 20.5t-25.5 52.5z" />
<glyph unicode="&#x126;" horiz-adv-x="1736" d="M53 1155q0 68 45 105.5t135 37.5h37q16 72 67.5 114t127.5 42q78 0 123 -42t47 -114h592q16 72 67.5 114t126.5 42q78 0 123 -42t47 -114h41q78 0 119 -35.5t41 -93.5q0 -68 -46 -105.5t-136 -37.5h-37l-68 -850q-8 -86 -61 -137t-137 -51q-86 0 -132.5 50t-37.5 136 l32 410h-587l-33 -408q-8 -86 -61.5 -137t-137.5 -51q-86 0 -132 50t-38 136l68 852h-37q-78 0 -118 36t-40 93zM604 883h588l12 143h-588z" />
<glyph unicode="&#x127;" horiz-adv-x="1239" d="M-43 1196q0 61 42 94t122 33h53q16 59 67.5 95t125.5 36q72 0 116.5 -36t48.5 -95h265q68 0 103.5 -31.5t35.5 -85.5q0 -133 -162 -133h-260l-12 -162q53 57 133 89t176 32q168 0 254 -95t86 -280q0 -45 -2 -69l-35 -432q-8 -78 -59 -123t-135 -45t-131.5 46t-38.5 122 l34 419q6 86 -27.5 132.5t-105.5 46.5q-80 0 -124 -52.5t-50 -140.5l-35 -405q-4 -78 -56 -123t-136 -45q-86 0 -132 45t-40 123l74 917h-54q-70 0 -105.5 34t-35.5 89z" />
<glyph unicode="&#x128;" horiz-adv-x="638" d="M54 1663q0 53 25.5 105.5t75.5 86t118 33.5q37 0 73.5 -12t85.5 -37q45 -20 76 -31.5t60 -11.5q27 0 43 10.5t36 30.5q18 18 34 27.5t38 9.5q35 0 49.5 -19.5t14.5 -58.5q0 -53 -26 -105.5t-76 -86t-117 -33.5q-37 0 -74 12t-86 37q-45 20 -76 31.5t-59 11.5 q-27 0 -43.5 -10.5t-34.5 -30.5q-16 -18 -32.5 -28.5t-39.5 -10.5q-66 0 -65 80zM106 174l87 1094q8 86 62 136t140 50q88 0 135.5 -50t38.5 -134l-86 -1094q-8 -86 -62 -137t-142 -51q-89 0 -135 50t-38 136z" />
<glyph unicode="&#x129;" horiz-adv-x="575" d="M-10 1280q0 55 30.5 110.5t82 91.5t108.5 36q49 0 86 -15.5t90 -46.5q43 -23 65.5 -33t47.5 -10q27 0 45 13.5t39 39.5q23 27 39 39.5t41 12.5q59 0 59 -91q0 -55 -32 -110t-83 -91t-108 -36q-47 0 -86 15.5t-88 43.5q-39 23 -62.5 33t-48.5 10q-27 0 -45 -13t-41 -40 t-39 -39t-41 -12q-31 0 -45 24.5t-14 67.5zM78 156l57 702q8 84 63.5 127t133.5 43t127 -43t41 -127l-58 -702q-6 -82 -60 -125t-132 -43t-128 43t-44 125z" />
<glyph unicode="&#x12a;" horiz-adv-x="638" d="M58 1720q0 57 33.5 87t89.5 30h493q47 0 76 -29.5t29 -76.5q0 -55 -35 -84t-88 -29h-494q-45 0 -74.5 28.5t-29.5 73.5zM106 174l87 1094q8 86 62 136t140 50q88 0 135.5 -50t38.5 -134l-86 -1094q-8 -86 -62 -137t-142 -51q-89 0 -135 50t-38 136z" />
<glyph unicode="&#x12b;" horiz-adv-x="575" d="M-4 1341q0 55 35 84t88 29h493q45 0 75 -27.5t30 -70.5q0 -57 -34 -88t-89 -31h-494q-47 0 -75.5 27.5t-28.5 76.5zM78 156l57 702q8 84 63.5 127t133.5 43t127 -43t41 -127l-58 -702q-6 -82 -60 -125t-132 -43t-128 43t-44 125z" />
<glyph unicode="&#x12c;" horiz-adv-x="638" d="M62 1790q0 37 27.5 59.5t66.5 22.5q43 0 80 -31q35 -23 84 -37t106 -14q51 0 103.5 14.5t85.5 36.5q41 33 86 33q35 0 57.5 -19.5t22.5 -52.5q0 -31 -29 -71q-51 -66 -136 -107t-196 -41q-117 0 -203 40t-135 108q-20 29 -20 59zM106 174l87 1094q8 86 62 136t140 50 q88 0 135.5 -50t38.5 -134l-86 -1094q-8 -86 -62 -137t-142 -51q-89 0 -135 50t-38 136z" />
<glyph unicode="&#x12d;" horiz-adv-x="575" d="M-16 1456q0 39 31.5 65.5t70.5 26.5q49 0 80 -45t85 -73.5t120 -28.5t112.5 26.5t85.5 75.5q35 47 88 47q37 0 63 -23.5t26 -62.5q0 -27 -11 -47q-45 -104 -146.5 -170.5t-232.5 -66.5q-129 0 -224 65.5t-140 171.5q-8 18 -8 39zM78 156l57 702q8 84 63.5 127t133.5 43 t127 -43t41 -127l-58 -702q-6 -82 -60 -125t-132 -43t-128 43t-44 125z" />
<glyph unicode="&#x12e;" horiz-adv-x="638" d="M29 -180q0 70 30.5 121t92.5 92q-47 43 -48 114l2 25l87 1096q8 86 62 136t140 50q88 0 135.5 -50t38.5 -134l-86 -1094q-6 -55 -30.5 -98t-61.5 -62q-72 -41 -102.5 -68.5t-30.5 -76.5q0 -45 27.5 -70.5t76.5 -25.5q31 0 48.5 3t50.5 11q6 2 16 2q25 0 39 -19.5 t14 -45.5q0 -23 -11 -45.5t-32 -36.5q-78 -49 -186 -50q-125 0 -198.5 62.5t-73.5 163.5z" />
<glyph unicode="&#x12f;" horiz-adv-x="575" d="M4 -190q0 59 29.5 114.5t89.5 102.5q-51 51 -45 129l57 702q8 84 63.5 127t133.5 43t127 -43t41 -127l-58 -702q-8 -104 -88 -144q-8 -6 -44 -27.5t-56.5 -52t-20.5 -69.5q0 -41 27 -64.5t66 -23.5q23 0 44 2t52 12q6 2 16 2q25 0 41.5 -21.5t16.5 -50.5q0 -23 -12.5 -43 t-34.5 -32q-84 -49 -195 -50q-111 0 -180.5 58.5t-69.5 157.5zM156 1348q0 80 54 127t146 47q90 0 145.5 -47.5t55.5 -126.5q0 -80 -54 -128.5t-147 -48.5q-92 0 -146 48.5t-54 128.5z" />
<glyph unicode="&#x130;" horiz-adv-x="638" d="M106 174l87 1094q8 86 62 136t140 50q88 0 135.5 -50t38.5 -134l-86 -1094q-8 -86 -62 -137t-142 -51q-89 0 -135 50t-38 136zM217 1731q0 78 54.5 125t146.5 47q90 0 145.5 -47.5t55.5 -124.5q0 -80 -54.5 -128.5t-146.5 -48.5t-146.5 48.5t-54.5 128.5z" />
<glyph unicode="&#x131;" horiz-adv-x="575" d="M78 156l57 702q8 84 63.5 127t133.5 43t127 -43t41 -127l-58 -702q-6 -82 -60 -125t-132 -43t-128 43t-44 125z" />
<glyph unicode="&#x134;" horiz-adv-x="813" d="M-63 133q0 76 38.5 112t120.5 40l68 4q125 10 133 143l68 838q8 84 63 134t141 50t134.5 -50t39.5 -134l-63 -832q-16 -207 -133 -320.5t-330 -125.5l-63 -4l-37 -2q-94 0 -137 36.5t-43 110.5zM299 1634q0 37 37 76l135 143q47 47 133 48q39 0 72 -12.5t51 -35.5 l115 -143q23 -29 22 -59q0 -39 -32.5 -67t-73.5 -28q-61 0 -96 60l-64 110l-98 -108q-50 -57 -113 -57q-37 0 -62.5 20.5t-25.5 52.5z" />
<glyph unicode="&#x135;" horiz-adv-x="575" d="M-225 -238q6 59 40.5 89t108.5 36l60 4q33 2 55 25t24 61l72 881q6 84 62.5 127t134.5 43t126 -43t42 -127l-70 -854q-10 -166 -107.5 -262t-277.5 -111l-61 -4q-105 -6 -159 27t-50 108zM43 1229q0 37 27 71l143 191q29 39 71 59.5t89 20.5q45 0 83 -20.5t60 -59.5 l121 -209q16 -27 16 -55q0 -41 -33.5 -69t-78.5 -28q-37 0 -71 20.5t-52 63.5l-66 142l-82 -154q-40 -72 -114 -72q-45 0 -79 29t-34 70z" />
<glyph unicode="&#x136;" horiz-adv-x="1429" d="M106 174l87 1094q8 86 61 136t141 50t135.5 -50t38.5 -134l-34 -449l544 576q59 61 127 61q63 0 107.5 -46t44.5 -112q0 -76 -66 -141l-403 -420l393 -483q33 -39 33 -88q0 -68 -53.5 -122t-122.5 -54q-74 0 -131 67l-488 590l-37 -473q-8 -88 -62 -138t-142 -50 t-134.5 49t-38.5 137zM485 -270q0 66 49.5 108.5t114.5 42.5q90 0 140.5 -50t50.5 -126q0 -72 -26 -131t-62 -102q-37 -43 -95 -43q-33 0 -54 15t-21 40q0 23 18 47q23 29 41 70h-12q-59 0 -101.5 32.5t-42.5 96.5z" />
<glyph unicode="&#x137;" horiz-adv-x="1187" d="M78 158l90 1126q6 84 60.5 127t131.5 43q78 0 128.5 -42t43.5 -126l-55 -692l371 383q51 53 121 53q66 0 116 -48t50 -112q0 -63 -52 -112l-237 -240l213 -258q37 -43 37 -94q0 -70 -58.5 -126t-130.5 -56q-70 0 -119 57l-325 387l-21 -268q-6 -84 -61 -127t-133 -43 t-127 42t-43 126zM360 -270q0 66 49.5 108.5t114.5 42.5q90 0 140.5 -50t50.5 -126q0 -72 -26 -131t-62 -102q-37 -43 -95 -43q-33 0 -54 15t-21 40q0 23 18 47q23 29 41 70h-12q-59 0 -101.5 32.5t-42.5 96.5z" />
<glyph unicode="&#x138;" horiz-adv-x="1187" d="M78 160l57 698q8 84 63.5 127t133.5 43t127 -43t41 -127l-23 -262l371 381q51 53 121 53q66 0 116 -48t50 -112q0 -63 -52 -112l-237 -240l213 -258q37 -43 37 -94q0 -70 -58.5 -126t-130.5 -56q-70 0 -119 57l-323 387l-23 -268q-6 -84 -60 -127t-132 -43t-128 43 t-44 127z" />
<glyph unicode="&#x139;" horiz-adv-x="1171" d="M106 174l87 1094q8 86 61 136t139 50q88 0 136.5 -50t39.5 -134l-77 -965h471q82 0 124.5 -36t42.5 -103q0 -88 -47 -127t-145 -39h-672q-84 0 -126 45t-34 129zM369 1636q0 31 20 60l105 153q37 53 94 54q47 0 84 -35t37 -80q0 -43 -41 -82l-137 -117q-33 -30 -78 -30 q-35 0 -59.5 22.5t-24.5 54.5z" />
<glyph unicode="&#x13a;" horiz-adv-x="575" d="M78 156l90 1126q6 86 60.5 129t131.5 43q78 0 128.5 -43t43.5 -129l-90 -1126q-6 -82 -60 -125t-132 -43t-128 43t-44 125zM340 1636q0 31 20 60l105 153q37 53 94 54q47 0 84 -35t37 -80q0 -43 -41 -82l-137 -117q-33 -30 -78 -30q-35 0 -59.5 22.5t-24.5 54.5z" />
<glyph unicode="&#x13b;" horiz-adv-x="1171" d="M106 174l87 1094q8 86 61 136t139 50q88 0 136.5 -50t39.5 -134l-77 -965h471q82 0 124.5 -36t42.5 -103q0 -88 -47 -127t-145 -39h-672q-84 0 -126 45t-34 129zM409 -270q0 66 49.5 108.5t114.5 42.5q90 0 140.5 -50t50.5 -126q0 -72 -26 -131t-62 -102q-37 -43 -95 -43 q-33 0 -54 15t-21 40q0 23 18 47q23 29 41 70h-12q-59 0 -101.5 32.5t-42.5 96.5z" />
<glyph unicode="&#x13c;" horiz-adv-x="575" d="M55 -270q0 66 49.5 108.5t114.5 42.5q90 0 140.5 -50t50.5 -126q0 -72 -26 -131t-62 -102q-37 -43 -95 -43q-33 0 -54 15t-21 40q0 23 18 47q23 29 41 70h-12q-59 0 -101.5 32.5t-42.5 96.5zM78 156l90 1126q6 86 60.5 129t131.5 43q78 0 128.5 -43t43.5 -129l-90 -1126 q-6 -82 -60 -125t-132 -43t-128 43t-44 125z" />
<glyph unicode="&#x13d;" horiz-adv-x="1171" d="M106 174l87 1094q8 86 61 136t139 50q88 0 136.5 -50t39.5 -134l-77 -965h471q82 0 124.5 -36t42.5 -103q0 -88 -47 -127t-145 -39h-672q-84 0 -126 45t-34 129zM735 1081l22 295q2 41 33 64.5t72 23.5q43 0 72.5 -23.5t29.5 -64.5q0 -16 -2 -24l-63 -281q-8 -33 -32 -49 t-52 -16q-33 0 -57.5 21.5t-22.5 53.5z" />
<glyph unicode="&#x13e;" horiz-adv-x="575" d="M78 156l90 1126q6 86 60.5 129t131.5 43q78 0 128.5 -43t43.5 -129l-90 -1126q-6 -82 -60 -125t-132 -43t-128 43t-44 125zM559 1075l23 287q2 45 29.5 69.5t62.5 24.5q31 0 51 -18.5t20 -51.5q0 -8 -4 -28l-67 -293q-8 -31 -25.5 -47.5t-38.5 -16.5q-23 0 -38 20.5 t-13 53.5z" />
<glyph unicode="&#x13f;" horiz-adv-x="1171" d="M106 174l87 1094q8 86 61 136t139 50q88 0 136.5 -50t39.5 -134l-77 -965h471q82 0 124.5 -36t42.5 -103q0 -88 -47 -127t-145 -39h-672q-84 0 -126 45t-34 129zM652 725q0 80 54 127t146 47q90 0 145.5 -47t55.5 -127t-54.5 -128t-146.5 -48t-146 48t-54 128z" />
<glyph unicode="&#x140;" horiz-adv-x="854" d="M78 156l90 1126q6 86 60.5 129t131.5 43q78 0 128.5 -43t43.5 -129l-90 -1126q-6 -82 -60 -125t-132 -43t-128 43t-44 125zM519 723q0 80 54 127t146 47q90 0 145.5 -47t55.5 -127t-54.5 -128t-146.5 -48t-146 48t-54 128z" />
<glyph unicode="&#x141;" horiz-adv-x="1247" d="M2 567q0 37 20.5 72t61.5 57l143 80l39 492q8 86 62.5 136t140.5 50q88 0 135 -50t39 -134l-22 -279l202 113q39 20 74 20q53 0 88 -37.5t35 -89.5q0 -80 -82 -127l-342 -190l-31 -375h473q82 0 124 -36t42 -103q0 -88 -47 -127t-143 -39h-674q-84 0 -126 45t-34 129 l23 289l-4 -2q-37 -23 -76 -23q-53 0 -87 38t-34 91z" />
<glyph unicode="&#x142;" horiz-adv-x="774" d="M0 567q0 39 20.5 73t61.5 58l143 80l41 504q6 86 60.5 129t132.5 43t128 -43t44 -129l-25 -295l4 2q37 23 78 23q51 0 86 -39t35 -92q0 -37 -20.5 -71t-61.5 -56l-145 -80l-41 -518q-6 -82 -60.5 -125t-132.5 -43t-128 43t-44 125l25 305q-39 -23 -80 -23q-53 0 -87 38 t-34 91z" />
<glyph unicode="&#x143;" horiz-adv-x="1550" d="M106 174l87 1096q8 82 61 133t131 51q92 0 133 -59l557 -766l51 639q6 84 58.5 135t130.5 51q80 0 126 -51t38 -133l-86 -1096q-8 -84 -60.5 -135t-130.5 -51q-98 0 -137 59l-557 764l-51 -635q-6 -86 -57.5 -137t-133.5 -51q-78 0 -123 51t-37 135zM825 1636q0 31 20 60 l105 153q37 53 94 54q47 0 84 -35t37 -80q0 -43 -41 -82l-137 -117q-33 -30 -78 -30q-35 0 -59.5 22.5t-24.5 54.5z" />
<glyph unicode="&#x144;" horiz-adv-x="1239" d="M78 156l57 706q4 74 59.5 120t139.5 46q70 0 110.5 -35t44.5 -94q53 61 137.5 97t184.5 36q168 0 254 -95t86 -280q0 -45 -2 -69l-35 -432q-8 -78 -59 -123t-135 -45t-131.5 46t-38.5 122l34 419q6 86 -27.5 132.5t-105.5 46.5q-80 0 -124 -52.5t-50 -140.5l-35 -405 q-6 -78 -57 -123t-135 -45q-86 0 -131 45t-41 123zM627 1212q0 29 14 58l86 217q23 43 56.5 64.5t70.5 21.5q53 0 96 -37t43 -90q0 -49 -43 -98l-135 -164q-47 -54 -104 -54q-37 0 -60.5 23t-23.5 59z" />
<glyph unicode="&#x145;" horiz-adv-x="1550" d="M106 174l87 1096q8 82 61 133t131 51q92 0 133 -59l557 -766l51 639q6 84 58.5 135t130.5 51q80 0 126 -51t38 -133l-86 -1096q-8 -84 -60.5 -135t-130.5 -51q-98 0 -137 59l-557 764l-51 -635q-6 -86 -57.5 -137t-133.5 -51q-78 0 -123 51t-37 135zM542 -270 q0 66 49.5 108.5t114.5 42.5q90 0 140.5 -50t50.5 -126q0 -72 -26 -131t-62 -102q-37 -43 -95 -43q-33 0 -54 15t-21 40q0 23 18 47q23 29 41 70h-12q-59 0 -101.5 32.5t-42.5 96.5z" />
<glyph unicode="&#x146;" horiz-adv-x="1239" d="M78 156l57 706q4 74 59.5 120t139.5 46q70 0 110.5 -35t44.5 -94q53 61 137.5 97t184.5 36q168 0 254 -95t86 -280q0 -45 -2 -69l-35 -432q-8 -78 -59 -123t-135 -45t-131.5 46t-38.5 122l34 419q6 86 -27.5 132.5t-105.5 46.5q-80 0 -124 -52.5t-50 -140.5l-35 -405 q-6 -78 -57 -123t-135 -45q-86 0 -131 45t-41 123zM391 -270q0 66 49.5 108.5t114.5 42.5q90 0 140.5 -50t50.5 -126q0 -72 -26 -131t-62 -102q-37 -43 -95 -43q-33 0 -54 15t-21 40q0 23 18 47q23 29 41 70h-12q-59 0 -101.5 32.5t-42.5 96.5z" />
<glyph unicode="&#x147;" horiz-adv-x="1550" d="M106 174l87 1096q8 82 61 133t131 51q92 0 133 -59l557 -766l51 639q6 84 58.5 135t130.5 51q80 0 126 -51t38 -133l-86 -1096q-8 -84 -60.5 -135t-130.5 -51q-98 0 -137 59l-557 764l-51 -635q-6 -86 -57.5 -137t-133.5 -51q-78 0 -123 51t-37 135zM594 1804 q0 39 32.5 66.5t75.5 27.5q27 0 52.5 -15t43.5 -44l64 -110l98 110q50 57 111 57q37 0 62.5 -21.5t25.5 -53.5q0 -39 -35 -76l-135 -143q-49 -49 -131 -50q-39 0 -73 13.5t-54 36.5l-115 143q-23 29 -22 59z" />
<glyph unicode="&#x148;" horiz-adv-x="1239" d="M78 156l57 706q4 74 59.5 120t139.5 46q70 0 110.5 -35t44.5 -94q53 61 137.5 97t184.5 36q168 0 254 -95t86 -280q0 -45 -2 -69l-35 -432q-8 -78 -59 -123t-135 -45t-131.5 46t-38.5 122l34 419q6 86 -27.5 132.5t-105.5 46.5q-80 0 -124 -52.5t-50 -140.5l-35 -405 q-6 -78 -57 -123t-135 -45q-86 0 -131 45t-41 123zM391 1473q0 41 34 68.5t79 27.5q37 0 70.5 -20.5t52.5 -63.5l65 -139l82 151q21 37 51.5 54.5t63.5 17.5q45 0 79 -28t34 -68q0 -33 -27 -72l-143 -193q-29 -39 -71 -59.5t-87 -20.5t-83 20.5t-60 59.5l-123 209 q-16 27 -17 56z" />
<glyph unicode="&#x149;" horiz-adv-x="1239" d="M78 156l57 706q4 74 59.5 120t139.5 46q70 0 110.5 -35t44.5 -94q53 61 137.5 97t184.5 36q168 0 254 -95t86 -280q0 -45 -2 -69l-35 -432q-8 -78 -59 -123t-135 -45t-131.5 46t-38.5 122l34 419q6 86 -27.5 132.5t-105.5 46.5q-80 0 -124 -52.5t-50 -140.5l-35 -405 q-6 -78 -57 -123t-135 -45q-86 0 -131 45t-41 123zM195 1415q0 70 49 109t127 39q82 0 131 -46.5t49 -136.5q0 -70 -26.5 -129t-63.5 -98q-41 -43 -92 -43q-33 0 -55.5 16.5t-22.5 40.5q0 23 20 45q31 45 39 70h-12q-59 0 -101 36t-42 97z" />
<glyph unicode="&#x14a;" horiz-adv-x="1550" d="M106 174l87 1096q8 82 61 133t131 51q90 0 133 -59l557 -766l51 639q6 84 58.5 135t130.5 51q80 0 126 -51t38 -133l-93 -1196q-35 -416 -460 -447l-66 -4q-217 -12 -217 141q0 125 160 138l63 4q72 4 116 43t48 100l2 41l-524 721l-51 -635q-6 -84 -58.5 -136 t-132.5 -52q-78 0 -123 51t-37 135z" />
<glyph unicode="&#x14b;" horiz-adv-x="1239" d="M78 156l57 706q4 74 59.5 120t139.5 46q70 0 110.5 -35t44.5 -94q53 61 137.5 97t184.5 36q166 0 253 -96t87 -283q0 -43 -2 -65l-47 -584q-14 -168 -112.5 -263t-274.5 -110l-62 -4q-100 -6 -153.5 25t-53.5 96q0 68 36 100.5t112 38.5l59 4q35 2 57.5 25t24.5 61 l49 598q6 86 -27.5 132.5t-105.5 46.5q-80 0 -124 -52.5t-50 -140.5l-35 -405q-6 -78 -57 -123t-135 -45q-86 0 -131 45t-41 123z" />
<glyph unicode="&#x14c;" horiz-adv-x="1630" d="M111 678q0 233 90 412.5t256 276.5t385 97q217 0 378.5 -85t248.5 -242.5t87 -370.5q0 -233 -91 -411.5t-257 -276.5t-383 -98t-378.5 85t-248.5 241.5t-87 371.5zM485 678q0 -197 87 -302.5t249 -105.5q166 0 262.5 131t96.5 365q0 195 -88 301.5t-246 106.5 q-168 0 -264.5 -132.5t-96.5 -363.5zM553 1720q0 57 33.5 87t89.5 30h493q47 0 76 -29.5t29 -76.5q0 -55 -35 -84t-88 -29h-494q-45 0 -74.5 28.5t-29.5 73.5z" />
<glyph unicode="&#x14d;" d="M59 483q0 170 70 294t196 189.5t293 65.5q168 0 293 -61.5t192.5 -174t67.5 -261.5q0 -172 -69.5 -296t-195.5 -189.5t-294 -65.5t-292.5 61t-192.5 175t-68 263zM322 1341q0 55 35 84t88 29h493q45 0 75 -27.5t30 -70.5q0 -57 -34 -88t-89 -31h-494q-47 0 -75.5 27.5 t-28.5 76.5zM420 477q0 -115 46 -170t140 -55q109 0 157 82t48 209q0 113 -46 167t-140 54q-109 0 -157 -81t-48 -206z" />
<glyph unicode="&#x14e;" horiz-adv-x="1630" d="M111 678q0 233 90 412.5t256 276.5t385 97q217 0 378.5 -85t248.5 -242.5t87 -370.5q0 -233 -91 -411.5t-257 -276.5t-383 -98t-378.5 85t-248.5 241.5t-87 371.5zM485 678q0 -197 87 -302.5t249 -105.5q166 0 262.5 131t96.5 365q0 195 -88 301.5t-246 106.5 q-168 0 -264.5 -132.5t-96.5 -363.5zM557 1790q0 37 27.5 59.5t66.5 22.5q43 0 80 -31q35 -23 84 -37t106 -14q51 0 103.5 14.5t85.5 36.5q41 33 86 33q35 0 57.5 -19.5t22.5 -52.5q0 -31 -29 -71q-51 -66 -136 -107t-196 -41q-117 0 -203 40t-135 108q-20 29 -20 59z" />
<glyph unicode="&#x14f;" d="M59 483q0 170 70 294t196 189.5t293 65.5q168 0 293 -61.5t192.5 -174t67.5 -261.5q0 -172 -69.5 -296t-195.5 -189.5t-294 -65.5t-292.5 61t-192.5 175t-68 263zM310 1456q0 39 31.5 65.5t70.5 26.5q49 0 80 -45t85 -73.5t120 -28.5t112.5 26.5t85.5 75.5q35 47 88 47 q37 0 63 -23.5t26 -62.5q0 -27 -11 -47q-45 -104 -146.5 -170.5t-232.5 -66.5q-129 0 -224 65.5t-140 171.5q-8 18 -8 39zM420 477q0 -115 46 -170t140 -55q109 0 157 82t48 209q0 113 -46 167t-140 54q-109 0 -157 -81t-48 -206z" />
<glyph unicode="&#x150;" horiz-adv-x="1630" d="M111 678q0 233 90 412.5t256 276.5t385 97q217 0 378.5 -85t248.5 -242.5t87 -370.5q0 -233 -91 -411.5t-257 -276.5t-383 -98t-378.5 85t-248.5 241.5t-87 371.5zM485 678q0 -197 87 -302.5t249 -105.5q166 0 262.5 131t96.5 365q0 195 -88 301.5t-246 106.5 q-168 0 -264.5 -132.5t-96.5 -363.5zM714 1616q0 16 11 41l86 186q27 57 84 58q39 0 68.5 -27t29.5 -64q0 -35 -29 -69l-114 -139q-35 -43 -78 -43q-25 0 -41.5 15t-16.5 42zM1013 1616q0 16 11 41l84 186q27 57 84 58q39 0 68.5 -27t29.5 -64q0 -35 -27 -69l-114 -139 q-35 -43 -78 -43q-25 0 -41.5 15t-16.5 42z" />
<glyph unicode="&#x151;" d="M59 483q0 170 70 294t196 189.5t293 65.5q168 0 293 -61.5t192.5 -174t67.5 -261.5q0 -172 -69.5 -296t-195.5 -189.5t-294 -65.5t-292.5 61t-192.5 175t-68 263zM420 477q0 -115 46 -170t140 -55q109 0 157 82t48 209q0 113 -46 167t-140 54q-109 0 -157 -81t-48 -206z M463 1200q0 6 4 27l43 237q12 55 46 83t75 28q43 0 73 -27.5t30 -72.5q0 -37 -21 -78l-110 -221q-13 -25 -32.5 -38.5t-39.5 -13.5q-29 0 -48.5 20.5t-19.5 55.5zM762 1198q0 8 4 29l43 237q12 55 46 83t75 28t72 -26.5t31 -71.5q0 -35 -23 -80l-108 -221 q-13 -25 -33.5 -38.5t-40.5 -13.5q-27 0 -46.5 20.5t-19.5 53.5z" />
<glyph unicode="&#x152;" horiz-adv-x="2138" d="M111 678q0 242 96 414t277.5 262t435.5 90h1085q82 0 124 -36t42 -97q0 -158 -191 -158h-516l-22 -274h475q82 0 124 -35t42 -99q0 -80 -46 -117.5t-143 -37.5h-475l-22 -299h516q82 0 124 -37t42 -100q0 -154 -191 -154h-1063q-217 0 -378.5 83t-248.5 235.5t-87 359.5z M485 676q0 -184 100.5 -284.5t288.5 -100.5h154l70 862h-146q-238 0 -352.5 -116.5t-114.5 -360.5z" />
<glyph unicode="&#x153;" horiz-adv-x="1835" d="M59 483q0 170 69 294t192.5 189.5t285.5 65.5q262 0 393 -141q131 141 351 141q195 0 311.5 -134t116.5 -368q0 -45 -26 -70.5t-69 -25.5h-520q25 -184 219 -184q51 0 87 10t104 39q37 16 61 16q45 0 71 -34.5t26 -85.5q0 -41 -18.5 -80t-55.5 -62q-55 -31 -137 -50 t-168 -19q-119 0 -212 39.5t-159 113.5q-131 -154 -387 -153q-160 0 -280.5 62.5t-187.5 175t-67 261.5zM420 477q0 -115 46 -170t140 -55q103 0 150 83t47 208q0 113 -44 167t-134 54q-109 0 -157 -81t-48 -206zM1167 606h312q-2 92 -39 136t-101 44q-69 0 -112 -43 t-60 -137z" />
<glyph unicode="&#x154;" horiz-adv-x="1447" d="M106 174l87 1096q8 84 56 129t132 45h526q227 0 354.5 -116t127.5 -308q0 -193 -89.5 -304.5t-277.5 -146.5q55 -14 93 -49t71 -100l92 -195q18 -39 18 -75q0 -72 -59 -122.5t-133 -50.5q-51 0 -94 27t-70 80l-176 377q-37 80 -129 80h-131l-27 -365q-6 -86 -59 -137 t-139 -51t-133.5 50t-39.5 136zM526 823h305q100 0 152.5 45t52.5 129q0 82 -44 122t-136 40h-305zM782 1636q0 31 20 60l105 153q37 53 94 54q47 0 84 -35t37 -80q0 -43 -41 -82l-137 -117q-33 -30 -78 -30q-35 0 -59.5 22.5t-24.5 54.5z" />
<glyph unicode="&#x155;" horiz-adv-x="858" d="M78 156l57 706q8 80 64.5 123t130.5 43q72 0 113.5 -40t39.5 -114q57 68 136 108t153 44l25 2q65 4 103 -33t30 -110q-8 -82 -49 -119t-144 -47l-55 -6q-115 -14 -158 -58.5t-53 -148.5l-29 -350q-6 -82 -60 -125t-132 -43t-128 43t-44 125zM496 1212q0 29 14 58l86 217 q23 43 56.5 64.5t70.5 21.5q53 0 96 -37t43 -90q0 -49 -43 -98l-135 -164q-47 -54 -104 -54q-37 0 -60.5 23t-23.5 59z" />
<glyph unicode="&#x156;" horiz-adv-x="1447" d="M106 174l87 1096q8 84 56 129t132 45h526q227 0 354.5 -116t127.5 -308q0 -193 -89.5 -304.5t-277.5 -146.5q55 -14 93 -49t71 -100l92 -195q18 -39 18 -75q0 -72 -59 -122.5t-133 -50.5q-51 0 -94 27t-70 80l-176 377q-37 80 -129 80h-131l-27 -365q-6 -86 -59 -137 t-139 -51t-133.5 50t-39.5 136zM499 -270q0 66 49.5 108.5t114.5 42.5q90 0 140.5 -50t50.5 -126q0 -72 -26 -131t-62 -102q-37 -43 -95 -43q-33 0 -54 15t-21 40q0 23 18 47q23 29 41 70h-12q-59 0 -101.5 32.5t-42.5 96.5zM526 823h305q100 0 152.5 45t52.5 129 q0 82 -44 122t-136 40h-305z" />
<glyph unicode="&#x157;" horiz-adv-x="858" d="M55 -270q0 66 49.5 108.5t114.5 42.5q90 0 140.5 -50t50.5 -126q0 -72 -26 -131t-62 -102q-37 -43 -95 -43q-33 0 -54 15t-21 40q0 23 18 47q23 29 41 70h-12q-59 0 -101.5 32.5t-42.5 96.5zM78 156l57 706q8 80 64.5 123t130.5 43q72 0 113.5 -40t39.5 -114 q57 68 136 108t153 44l25 2q65 4 103 -33t30 -110q-8 -82 -49 -119t-144 -47l-55 -6q-115 -14 -158 -58.5t-53 -148.5l-29 -350q-6 -82 -60 -125t-132 -43t-128 43t-44 125z" />
<glyph unicode="&#x158;" horiz-adv-x="1447" d="M106 174l87 1096q8 84 56 129t132 45h526q227 0 354.5 -116t127.5 -308q0 -193 -89.5 -304.5t-277.5 -146.5q55 -14 93 -49t71 -100l92 -195q18 -39 18 -75q0 -72 -59 -122.5t-133 -50.5q-51 0 -94 27t-70 80l-176 377q-37 80 -129 80h-131l-27 -365q-6 -86 -59 -137 t-139 -51t-133.5 50t-39.5 136zM526 823h305q100 0 152.5 45t52.5 129q0 82 -44 122t-136 40h-305zM551 1804q0 39 32.5 66.5t75.5 27.5q27 0 52.5 -15t43.5 -44l64 -110l98 110q50 57 111 57q37 0 62.5 -21.5t25.5 -53.5q0 -39 -35 -76l-135 -143q-49 -49 -131 -50 q-39 0 -73 13.5t-54 36.5l-115 143q-23 29 -22 59z" />
<glyph unicode="&#x159;" horiz-adv-x="858" d="M78 156l57 706q8 80 64.5 123t130.5 43q72 0 113.5 -40t39.5 -114q57 68 136 108t153 44l25 2q65 4 103 -33t30 -110q-8 -82 -49 -119t-144 -47l-55 -6q-115 -14 -158 -58.5t-53 -148.5l-29 -350q-6 -82 -60 -125t-132 -43t-128 43t-44 125zM260 1473q0 41 34 68.5 t79 27.5q37 0 70.5 -20.5t52.5 -63.5l65 -139l82 151q21 37 51.5 54.5t63.5 17.5q45 0 79 -28t34 -68q0 -33 -27 -72l-143 -193q-29 -39 -71 -59.5t-87 -20.5t-83 20.5t-60 59.5l-123 209q-16 27 -17 56z" />
<glyph unicode="&#x15a;" horiz-adv-x="1359" d="M47 240q0 57 35 100t92 43q47 0 96 -29q66 -33 169.5 -58.5t219.5 -25.5q117 0 178.5 31t61.5 90q0 63 -67.5 99t-208.5 77q-152 45 -248 88t-166 128t-70 221q0 137 77 241.5t218 160.5t330 56q154 0 284 -33.5t203 -91.5q61 -47 62 -125q0 -59 -38 -103t-97 -44 q-51 0 -99 31q-63 31 -149 54.5t-176 23.5q-111 0 -175.5 -36t-64.5 -100q0 -66 66.5 -100.5t212.5 -77.5q150 -45 245 -87t164.5 -124t69.5 -215q0 -217 -164 -334.5t-465 -117.5q-158 0 -293 30.5t-219 77.5q-41 27 -62.5 67t-21.5 83zM739 1636q0 31 20 60l105 153 q37 53 94 54q47 0 84 -35t37 -80q0 -43 -41 -82l-137 -117q-33 -30 -78 -30q-35 0 -59.5 22.5t-24.5 54.5z" />
<glyph unicode="&#x15b;" horiz-adv-x="1003" d="M16 188q0 53 34 93.5t85 40.5q31 0 68 -19q66 -31 146.5 -49t152.5 -18q59 0 91 14t32 43q0 33 -41 51t-133 45q-109 29 -182.5 59.5t-128 91t-54.5 158.5t58.5 174t168 118t256.5 42q66 0 152 -17.5t143 -41.5q43 -23 64.5 -59.5t21.5 -77.5q0 -51 -31.5 -89t-78.5 -38 q-31 0 -60 14q-117 57 -243 57q-63 0 -97 -15t-34 -42q0 -33 41.5 -53.5t134.5 -44.5q111 -31 183.5 -62t126.5 -91t54 -159q0 -156 -124 -242.5t-353 -86.5q-190 0 -350 63q-51 23 -77 60.5t-26 80.5zM522 1212q0 29 14 58l86 217q23 43 56.5 64.5t70.5 21.5q53 0 96 -37 t43 -90q0 -49 -43 -98l-135 -164q-47 -54 -104 -54q-37 0 -60.5 23t-23.5 59z" />
<glyph unicode="&#x15c;" horiz-adv-x="1359" d="M47 240q0 57 35 100t92 43q47 0 96 -29q66 -33 169.5 -58.5t219.5 -25.5q117 0 178.5 31t61.5 90q0 63 -67.5 99t-208.5 77q-152 45 -248 88t-166 128t-70 221q0 137 77 241.5t218 160.5t330 56q154 0 284 -33.5t203 -91.5q61 -47 62 -125q0 -59 -38 -103t-97 -44 q-51 0 -99 31q-63 31 -149 54.5t-176 23.5q-111 0 -175.5 -36t-64.5 -100q0 -66 66.5 -100.5t212.5 -77.5q150 -45 245 -87t164.5 -124t69.5 -215q0 -217 -164 -334.5t-465 -117.5q-158 0 -293 30.5t-219 77.5q-41 27 -62.5 67t-21.5 83zM493 1634q0 37 37 76l135 143 q47 47 133 48q39 0 72 -12.5t51 -35.5l115 -143q23 -29 22 -59q0 -39 -32.5 -67t-73.5 -28q-61 0 -96 60l-64 110l-98 -108q-50 -57 -113 -57q-37 0 -62.5 20.5t-25.5 52.5z" />
<glyph unicode="&#x15d;" horiz-adv-x="1003" d="M16 188q0 53 34 93.5t85 40.5q31 0 68 -19q66 -31 146.5 -49t152.5 -18q59 0 91 14t32 43q0 33 -41 51t-133 45q-109 29 -182.5 59.5t-128 91t-54.5 158.5t58.5 174t168 118t256.5 42q66 0 152 -17.5t143 -41.5q43 -23 64.5 -59.5t21.5 -77.5q0 -51 -31.5 -89t-78.5 -38 q-31 0 -60 14q-117 57 -243 57q-63 0 -97 -15t-34 -42q0 -33 41.5 -53.5t134.5 -44.5q111 -31 183.5 -62t126.5 -91t54 -159q0 -156 -124 -242.5t-353 -86.5q-190 0 -350 63q-51 23 -77 60.5t-26 80.5zM278 1229q0 37 27 71l143 191q29 39 71 59.5t89 20.5q45 0 83 -20.5 t60 -59.5l121 -209q16 -27 16 -55q0 -41 -33.5 -69t-78.5 -28q-37 0 -71 20.5t-52 63.5l-66 142l-82 -154q-40 -72 -114 -72q-45 0 -79 29t-34 70z" />
<glyph unicode="&#x15e;" horiz-adv-x="1359" d="M47 240q0 57 35 100t92 43q47 0 96 -29q66 -33 169.5 -58.5t219.5 -25.5q117 0 178.5 31t61.5 90q0 63 -67.5 99t-208.5 77q-152 45 -248 88t-166 128t-70 221q0 137 77 241.5t218 160.5t330 56q154 0 284 -33.5t203 -91.5q61 -47 62 -125q0 -59 -38 -103t-97 -44 q-51 0 -99 31q-63 31 -149 54.5t-176 23.5q-111 0 -175.5 -36t-64.5 -100q0 -65 66.5 -100t212.5 -78q150 -45 245 -87t164.5 -124t69.5 -215q0 -205 -147.5 -322.5t-422.5 -127.5l-14 -66h4q82 0 129 -38t47 -101q0 -84 -78.5 -134.5t-207.5 -50.5q-94 0 -152 17 q-23 6 -35 23.5t-12 39.5q0 33 20.5 57.5t49.5 16.5t61.5 -12t48.5 -4q90 0 90 45q0 35 -53 35q-18 0 -39.5 -5.5t-34.5 -5.5q-23 0 -33 12.5t-4 30.5l29 144q-119 8 -219 36.5t-168 65.5q-41 27 -62.5 67t-21.5 83z" />
<glyph unicode="&#x15f;" horiz-adv-x="1003" d="M16 188q0 53 34 93.5t85 40.5q31 0 68 -19q66 -31 146.5 -49t152.5 -18q59 0 91 14t32 43q0 33 -41 51t-133 45q-109 29 -182.5 59.5t-128 91t-54.5 158.5t58.5 174t168 118t256.5 42q66 0 152 -17.5t143 -41.5q43 -23 64.5 -59.5t21.5 -77.5q0 -51 -31.5 -89t-78.5 -38 q-31 0 -60 14q-117 57 -243 57q-63 0 -97 -15t-34 -42q0 -33 41.5 -53.5t134.5 -44.5q111 -31 183.5 -62t126.5 -91t54 -159q0 -145 -106.5 -230t-304.5 -97l-17 -68h4q82 0 129 -38t47 -101q0 -84 -78.5 -134.5t-207.5 -50.5q-94 0 -152 17q-23 6 -35 23.5t-12 39.5 q0 33 20.5 57.5t49.5 16.5t61.5 -12t48.5 -4q90 0 90 45q0 35 -53 35q-18 0 -39.5 -5.5t-34.5 -5.5q-23 0 -33 12.5t-4 30.5l31 146q-137 18 -231 57q-51 23 -77 60.5t-26 80.5z" />
<glyph unicode="&#x160;" horiz-adv-x="1359" d="M47 240q0 57 35 100t92 43q47 0 96 -29q66 -33 169.5 -58.5t219.5 -25.5q117 0 178.5 31t61.5 90q0 63 -67.5 99t-208.5 77q-152 45 -248 88t-166 128t-70 221q0 137 77 241.5t218 160.5t330 56q154 0 284 -33.5t203 -91.5q61 -47 62 -125q0 -59 -38 -103t-97 -44 q-51 0 -99 31q-63 31 -149 54.5t-176 23.5q-111 0 -175.5 -36t-64.5 -100q0 -66 66.5 -100.5t212.5 -77.5q150 -45 245 -87t164.5 -124t69.5 -215q0 -217 -164 -334.5t-465 -117.5q-158 0 -293 30.5t-219 77.5q-41 27 -62.5 67t-21.5 83zM508 1804q0 39 32.5 66.5t75.5 27.5 q27 0 52.5 -15t43.5 -44l64 -110l98 110q50 57 111 57q37 0 62.5 -21.5t25.5 -53.5q0 -39 -35 -76l-135 -143q-49 -49 -131 -50q-39 0 -73 13.5t-54 36.5l-115 143q-23 29 -22 59z" />
<glyph unicode="&#x161;" horiz-adv-x="1003" d="M16 188q0 53 34 93.5t85 40.5q31 0 68 -19q66 -31 146.5 -49t152.5 -18q59 0 91 14t32 43q0 33 -41 51t-133 45q-109 29 -182.5 59.5t-128 91t-54.5 158.5t58.5 174t168 118t256.5 42q66 0 152 -17.5t143 -41.5q43 -23 64.5 -59.5t21.5 -77.5q0 -51 -31.5 -89t-78.5 -38 q-31 0 -60 14q-117 57 -243 57q-63 0 -97 -15t-34 -42q0 -33 41.5 -53.5t134.5 -44.5q111 -31 183.5 -62t126.5 -91t54 -159q0 -156 -124 -242.5t-353 -86.5q-190 0 -350 63q-51 23 -77 60.5t-26 80.5zM286 1473q0 41 34 68.5t79 27.5q37 0 70.5 -20.5t52.5 -63.5l65 -139 l82 151q21 37 51.5 54.5t63.5 17.5q45 0 79 -28t34 -68q0 -33 -27 -72l-143 -193q-29 -39 -71 -59.5t-87 -20.5t-83 20.5t-60 59.5l-123 209q-16 27 -17 56z" />
<glyph unicode="&#x162;" horiz-adv-x="1294" d="M53 1278q0 88 47 127t144 39h958q166 0 166 -141q0 -88 -46 -126t-144 -38h-289l-78 -963q-4 -63 -39 -109.5t-92 -64.5l-18 -84h4q82 0 129 -38t47 -101q0 -84 -79 -134.5t-208 -50.5q-94 0 -152 17q-23 6 -35 23.5t-12 39.5q0 33 20.5 57.5t49.5 16.5t61.5 -12t49.5 -4 q90 0 90 45q0 35 -54 35q-18 0 -39.5 -5.5t-33.5 -5.5q-23 0 -33 12.5t-4 30.5l37 174q-78 47 -68 156l78 965h-291q-166 0 -166 139z" />
<glyph unicode="&#x163;" horiz-adv-x="829" d="M0 866q0 141 178 142h60l10 133q6 80 59 125t137 45t129 -45t39 -123l-10 -135h111q72 0 111.5 -33t39.5 -92q0 -74 -42 -109t-132 -35h-110l-27 -331q-2 -12 -2 -33q0 -129 113 -129l41 2q33 4 45 4q34 0 56.5 -31t22.5 -80q0 -88 -56 -122.5t-195 -34.5h-31l-15 -66h5 q82 0 129 -38t47 -101q0 -84 -79 -134.5t-208 -50.5q-94 0 -152 17q-23 6 -35 23.5t-12 39.5q0 33 20.5 57.5t49.5 16.5t61.5 -12t49.5 -4q90 0 90 45q0 35 -54 35q-18 0 -39.5 -5.5t-33.5 -5.5q-23 0 -33 12.5t-4 30.5l37 179q-184 84 -185 329q0 37 2 58l27 329h-59 q-74 0 -115 33t-41 94z" />
<glyph unicode="&#x164;" horiz-adv-x="1294" d="M53 1278q0 88 47 127t144 39h958q166 0 166 -141q0 -88 -46 -126t-144 -38h-289l-78 -963q-6 -84 -61.5 -135t-143.5 -51q-86 0 -134 50t-40 134l78 965h-291q-166 0 -166 139zM467 1804q0 39 32.5 66.5t75.5 27.5q27 0 52.5 -15t43.5 -44l64 -110l98 110q50 57 111 57 q37 0 62.5 -21.5t25.5 -53.5q0 -39 -35 -76l-135 -143q-49 -49 -131 -50q-39 0 -73 13.5t-54 36.5l-115 143q-23 29 -22 59z" />
<glyph unicode="&#x165;" horiz-adv-x="829" d="M0 866q0 141 178 142h60l10 133q6 80 59 125t137 45t129 -45t39 -123l-10 -135h111q72 0 111.5 -33t39.5 -92q0 -74 -42 -109t-132 -35h-110l-27 -331q-2 -12 -2 -33q0 -129 113 -129l41 2q33 4 45 4q35 0 57 -31t22 -80q0 -88 -56 -122.5t-195 -34.5q-190 0 -291 93 t-101 271q0 41 2 62l27 329h-59q-74 0 -115 33t-41 94zM692 1118l29 266q4 37 42 57.5t87 20.5q53 0 91 -20.5t38 -57.5q0 -6 -4 -22l-78 -252q-8 -29 -38 -44t-66 -15q-43 0 -73 18t-28 49z" />
<glyph unicode="&#x166;" horiz-adv-x="1294" d="M53 1278q0 88 47 127t144 39h958q166 0 166 -141q0 -88 -46 -126t-144 -38h-289l-23 -269h140q74 0 115.5 -36.5t41.5 -98.5q0 -74 -48 -111.5t-134 -37.5h-137l-33 -410q-6 -84 -61.5 -135t-143.5 -51q-86 0 -134 50t-40 134l33 412h-139q-76 0 -117 35.5t-41 99.5 q0 74 48 111.5t134 37.5h137l23 269h-291q-166 0 -166 139z" />
<glyph unicode="&#x167;" horiz-adv-x="849" d="M10 866q0 141 178 142h60l10 133q6 80 59.5 125t137.5 45t129 -45t39 -123l-11 -135h111q72 0 111.5 -33t39.5 -92q0 -74 -41.5 -109t-132.5 -35h-110l-4 -41h86q68 0 103.5 -30.5t35.5 -83.5q0 -66 -43 -100.5t-119 -34.5h-82l-4 -41q-2 -12 -2 -33q0 -129 109 -129 q16 0 45 4q33 4 45 2q65 -4 92 -100q2 -94 -57.5 -131t-210.5 -37q-188 0 -287.5 94t-99.5 274q0 37 2 58l4 39h-33q-68 0 -104.5 32.5t-36.5 89.5q0 61 44 94t120 33h28l4 41h-59q-74 0 -115 33t-41 94z" />
<glyph unicode="&#x168;" horiz-adv-x="1525" d="M127 547q0 29 4 86l51 635q8 86 61.5 136t137.5 50q86 0 132 -50t38 -134l-49 -652q-2 -23 -2 -63q0 -145 67.5 -215t208.5 -70q115 0 181.5 69t78.5 234l56 695q8 86 61 136t139 50q84 0 130 -50t40 -134l-53 -672q-25 -305 -188.5 -460.5t-462.5 -155.5 q-631 0 -631 565zM496 1663q0 53 25.5 105.5t75.5 86t118 33.5q37 0 73.5 -12t85.5 -37q45 -20 76 -31.5t60 -11.5q27 0 43 10.5t36 30.5q18 18 34 27.5t38 9.5q35 0 49.5 -19.5t14.5 -58.5q0 -53 -26 -105.5t-76 -86t-117 -33.5q-37 0 -74 12t-86 37q-45 20 -76 31.5 t-59 11.5q-27 0 -43.5 -10.5t-34.5 -30.5q-16 -18 -32.5 -28.5t-39.5 -10.5q-66 0 -65 80z" />
<glyph unicode="&#x169;" d="M88 348q0 23 4 72l35 440q6 78 59.5 123t139.5 45q84 0 128 -45t38 -123l-35 -420l-2 -30q0 -72 32.5 -110t96.5 -38q76 0 118.5 52.5t49.5 140.5l32 405q8 78 61.5 123t137.5 45q86 0 130 -45t36 -123l-55 -706q-6 -74 -58.5 -120t-136.5 -46q-70 0 -113 34.5t-47 94.5 q-53 -61 -136 -97t-179 -36q-164 0 -250 93t-86 271zM312 1280q0 55 30.5 110.5t82 91.5t108.5 36q49 0 86 -15.5t90 -46.5q43 -23 65.5 -33t47.5 -10q27 0 45 13.5t39 39.5q23 27 39 39.5t41 12.5q59 0 59 -91q0 -55 -32 -110t-83 -91t-108 -36q-47 0 -86 15.5t-88 43.5 q-39 23 -62.5 33t-48.5 10q-27 0 -45 -13t-41 -40t-39 -39t-41 -12q-31 0 -45 24.5t-14 67.5z" />
<glyph unicode="&#x16a;" horiz-adv-x="1525" d="M127 547q0 29 4 86l51 635q8 86 61.5 136t137.5 50q86 0 132 -50t38 -134l-49 -652q-2 -23 -2 -63q0 -145 67.5 -215t208.5 -70q115 0 181.5 69t78.5 234l56 695q8 86 61 136t139 50q84 0 130 -50t40 -134l-53 -672q-25 -305 -188.5 -460.5t-462.5 -155.5 q-631 0 -631 565zM500 1720q0 57 33.5 87t89.5 30h493q47 0 76 -29.5t29 -76.5q0 -55 -35 -84t-88 -29h-494q-45 0 -74.5 28.5t-29.5 73.5z" />
<glyph unicode="&#x16b;" d="M88 348q0 23 4 72l35 440q6 78 59.5 123t139.5 45q84 0 128 -45t38 -123l-35 -420l-2 -30q0 -72 32.5 -110t96.5 -38q76 0 118.5 52.5t49.5 140.5l32 405q8 78 61.5 123t137.5 45q86 0 130 -45t36 -123l-55 -706q-6 -74 -58.5 -120t-136.5 -46q-70 0 -113 34.5t-47 94.5 q-53 -61 -136 -97t-179 -36q-164 0 -250 93t-86 271zM318 1341q0 55 35 84t88 29h493q45 0 75 -27.5t30 -70.5q0 -57 -34 -88t-89 -31h-494q-47 0 -75.5 27.5t-28.5 76.5z" />
<glyph unicode="&#x16c;" horiz-adv-x="1525" d="M127 547q0 29 4 86l51 635q8 86 61.5 136t137.5 50q86 0 132 -50t38 -134l-49 -652q-2 -23 -2 -63q0 -145 67.5 -215t208.5 -70q115 0 181.5 69t78.5 234l56 695q8 86 61 136t139 50q84 0 130 -50t40 -134l-53 -672q-25 -305 -188.5 -460.5t-462.5 -155.5 q-631 0 -631 565zM504 1790q0 37 27.5 59.5t66.5 22.5q43 0 80 -31q35 -23 84 -37t106 -14q51 0 103.5 14.5t85.5 36.5q41 33 86 33q35 0 57.5 -19.5t22.5 -52.5q0 -31 -29 -71q-51 -66 -136 -107t-196 -41q-117 0 -203 40t-135 108q-20 29 -20 59z" />
<glyph unicode="&#x16d;" d="M88 348q0 23 4 72l35 440q6 78 59.5 123t139.5 45q84 0 128 -45t38 -123l-35 -420l-2 -30q0 -72 32.5 -110t96.5 -38q76 0 118.5 52.5t49.5 140.5l32 405q8 78 61.5 123t137.5 45q86 0 130 -45t36 -123l-55 -706q-6 -74 -58.5 -120t-136.5 -46q-70 0 -113 34.5t-47 94.5 q-53 -61 -136 -97t-179 -36q-164 0 -250 93t-86 271zM306 1456q0 39 31.5 65.5t70.5 26.5q49 0 80 -45t85 -73.5t120 -28.5t112.5 26.5t85.5 75.5q35 47 88 47q37 0 63 -23.5t26 -62.5q0 -27 -11 -47q-45 -104 -146.5 -170.5t-232.5 -66.5q-129 0 -224 65.5t-140 171.5 q-8 18 -8 39z" />
<glyph unicode="&#x16e;" horiz-adv-x="1525" d="M127 547q0 29 4 86l51 635q8 86 61.5 136t137.5 50q86 0 132 -50t38 -134l-49 -652q-2 -23 -2 -63q0 -145 67.5 -215t208.5 -70q115 0 181.5 69t78.5 234l56 695q8 86 61 136t139 50q84 0 130 -50t40 -134l-53 -672q-25 -305 -188.5 -460.5t-462.5 -155.5 q-631 0 -631 565zM633 1784q0 94 66.5 159.5t162.5 65.5t164 -65.5t68 -159.5q0 -96 -68 -162t-164 -66t-162.5 66t-66.5 162zM778 1784q0 -39 23.5 -64.5t60.5 -25.5t61.5 25.5t24.5 64.5q0 37 -24.5 62.5t-61.5 25.5t-60.5 -25.5t-23.5 -62.5z" />
<glyph unicode="&#x16f;" d="M88 348q0 23 4 72l35 440q6 78 59.5 123t139.5 45q84 0 128 -45t38 -123l-35 -420l-2 -30q0 -72 32.5 -110t96.5 -38q76 0 118.5 52.5t49.5 140.5l32 405q8 78 61.5 123t137.5 45q86 0 130 -45t36 -123l-55 -706q-6 -74 -58.5 -120t-136.5 -46q-70 0 -113 34.5t-47 94.5 q-53 -61 -136 -97t-179 -36q-164 0 -250 93t-86 271zM449 1352q0 94 66.5 159.5t162.5 65.5t164 -65.5t68 -159.5q0 -96 -67.5 -162t-164.5 -66q-96 0 -162.5 65.5t-66.5 162.5zM594 1352q0 -37 24 -63.5t60 -26.5q37 0 61.5 26.5t24.5 63.5t-24.5 62.5t-61.5 25.5 t-60.5 -25.5t-23.5 -62.5z" />
<glyph unicode="&#x170;" horiz-adv-x="1525" d="M127 547q0 29 4 86l51 635q8 86 61.5 136t137.5 50q86 0 132 -50t38 -134l-49 -652q-2 -23 -2 -63q0 -145 67.5 -215t208.5 -70q115 0 181.5 69t78.5 234l56 695q8 86 61 136t139 50q84 0 130 -50t40 -134l-53 -672q-25 -305 -188.5 -460.5t-462.5 -155.5 q-631 0 -631 565zM661 1616q0 16 11 41l86 186q27 57 84 58q39 0 68.5 -27t29.5 -64q0 -35 -29 -69l-114 -139q-35 -43 -78 -43q-25 0 -41.5 15t-16.5 42zM960 1616q0 16 11 41l84 186q27 57 84 58q39 0 68.5 -27t29.5 -64q0 -35 -27 -69l-114 -139q-35 -43 -78 -43 q-25 0 -41.5 15t-16.5 42z" />
<glyph unicode="&#x171;" d="M88 348q0 23 4 72l35 440q6 78 59.5 123t139.5 45q84 0 128 -45t38 -123l-35 -420l-2 -30q0 -72 32.5 -110t96.5 -38q76 0 118.5 52.5t49.5 140.5l32 405q8 78 61.5 123t137.5 45q86 0 130 -45t36 -123l-55 -706q-6 -74 -58.5 -120t-136.5 -46q-70 0 -113 34.5t-47 94.5 q-53 -61 -136 -97t-179 -36q-164 0 -250 93t-86 271zM459 1200q0 6 4 27l43 237q12 55 46 83t75 28q43 0 73 -27.5t30 -72.5q0 -37 -21 -78l-110 -221q-13 -25 -32.5 -38.5t-39.5 -13.5q-29 0 -48.5 20.5t-19.5 55.5zM758 1198q0 8 4 29l43 237q12 55 46 83t75 28t72 -26.5 t31 -71.5q0 -35 -23 -80l-108 -221q-13 -25 -33.5 -38.5t-40.5 -13.5q-27 0 -46.5 20.5t-19.5 53.5z" />
<glyph unicode="&#x172;" horiz-adv-x="1525" d="M127 549q0 27 4 84l51 635q8 86 61.5 136t137.5 50q86 0 132 -50t38 -134l-49 -652q-2 -23 -2 -63q0 -145 67.5 -215t208.5 -70q115 0 181.5 69t78.5 234l56 695q8 86 61 136t139 50q84 0 130 -50t40 -134l-53 -672q-18 -246 -128 -396.5t-323 -203.5q-55 -12 -87.5 -45 t-32.5 -82q0 -45 27.5 -70.5t76.5 -25.5q39 0 84 14q6 2 18 2q25 0 40.5 -20.5t15.5 -46.5q0 -53 -47 -80q-84 -49 -176 -50q-121 0 -195 61.5t-74 160.5q0 100 70 168q-551 31 -551 565z" />
<glyph unicode="&#x173;" d="M88 346q0 23 4 72l35 442q6 78 58.5 123t138.5 45q84 0 129 -45t39 -123l-35 -420l-2 -30q0 -72 32.5 -110t96.5 -38q76 0 118.5 52.5t49.5 140.5l32 405q8 78 60.5 123t136.5 45q86 0 131 -45t37 -123l-55 -708q-10 -100 -103 -148q-59 -31 -83.5 -59.5t-24.5 -73.5 t27.5 -70.5t76.5 -25.5q35 0 86 14q6 2 17 2q25 0 40 -20.5t15 -46.5q0 -53 -45 -80q-47 -27 -87 -38.5t-91 -11.5q-121 0 -195 61.5t-74 160.5q0 127 121 215q-33 35 -35 86q-53 -61 -136 -97t-179 -36q-164 0 -250 93t-86 269z" />
<glyph unicode="&#x174;" horiz-adv-x="2295" d="M152 1278q0 82 59 132t135 50q55 0 99 -30.5t59 -88.5l203 -813l350 811q25 57 74 88t102 31q55 0 98 -30.5t58 -90.5l206 -823l340 825q25 60 73 90.5t103 30.5q66 0 112 -40t46 -107q0 -47 -22 -94l-488 -1117q-25 -57 -80 -88.5t-116 -31.5q-63 0 -112.5 31.5 t-64.5 86.5l-210 766l-330 -764q-25 -59 -79 -89.5t-118 -30.5q-61 0 -110.5 30.5t-65.5 87.5l-313 1117q-8 31 -8 61zM952 1634q0 37 37 76l135 143q47 47 133 48q39 0 72 -12.5t51 -35.5l115 -143q23 -29 22 -59q0 -39 -32.5 -67t-73.5 -28q-61 0 -96 60l-64 110l-98 -108 q-50 -57 -113 -57q-37 0 -62.5 20.5t-25.5 52.5z" />
<glyph unicode="&#x175;" horiz-adv-x="1785" d="M74 862q0 74 59.5 122t132.5 48q49 0 88 -26.5t56 -77.5l147 -492l229 490q23 49 65 75.5t89 26.5q45 0 83 -26.5t52 -75.5l148 -492l227 492q23 51 67 77.5t93 26.5q66 0 116 -41t50 -104q0 -39 -21 -80l-366 -715q-25 -49 -79.5 -76.5t-115.5 -27.5t-109.5 26.5 t-62.5 75.5l-133 410l-191 -408q-25 -51 -77 -77.5t-115 -26.5q-61 0 -110.5 26.5t-65.5 75.5l-246 717q-10 35 -10 57zM651 1229q0 37 27 71l143 191q29 39 71 59.5t89 20.5q45 0 83 -20.5t60 -59.5l121 -209q16 -27 16 -55q0 -41 -33.5 -69t-78.5 -28q-37 0 -71 20.5 t-52 63.5l-66 142l-82 -154q-40 -72 -114 -72q-45 0 -79 29t-34 70z" />
<glyph unicode="&#x176;" horiz-adv-x="1331" d="M80 1268q0 72 58.5 130t129.5 58q76 0 125 -72l301 -440l381 453q55 63 127 63q68 0 118 -50t50 -120q0 -66 -47 -119l-457 -532l-37 -463q-8 -92 -64 -140t-138 -48q-84 0 -133.5 48t-40.5 138l36 467l-380 541q-29 41 -29 86zM471 1634q0 37 37 76l135 143 q47 47 133 48q39 0 72 -12.5t51 -35.5l115 -143q23 -29 22 -59q0 -39 -32.5 -67t-73.5 -28q-61 0 -96 60l-64 110l-98 -108q-50 -57 -113 -57q-37 0 -62.5 20.5t-25.5 52.5z" />
<glyph unicode="&#x177;" horiz-adv-x="1107" d="M61 864q0 68 61.5 118t135.5 50q47 0 84 -25.5t55 -76.5l158 -488l231 486q25 51 66 76.5t88 25.5q66 0 117 -42t51 -103q0 -33 -18 -70l-576 -1096q-29 -53 -67.5 -77.5t-84.5 -24.5q-59 0 -103 42t-44 103q0 43 21 84l106 213l-272 762q-8 18 -9 43zM313 1229 q0 37 27 71l143 191q29 39 71 59.5t89 20.5q45 0 83 -20.5t60 -59.5l121 -209q16 -27 16 -55q0 -41 -33.5 -69t-78.5 -28q-37 0 -71 20.5t-52 63.5l-66 142l-82 -154q-40 -72 -114 -72q-45 0 -79 29t-34 70z" />
<glyph unicode="&#x178;" horiz-adv-x="1331" d="M80 1268q0 72 58.5 130t129.5 58q76 0 125 -72l301 -440l381 453q55 63 127 63q68 0 118 -50t50 -120q0 -66 -47 -119l-457 -532l-37 -463q-8 -92 -64 -140t-138 -48q-84 0 -133.5 48t-40.5 138l36 467l-380 541q-29 41 -29 86zM389 1731q0 74 47.5 117.5t124.5 43.5 q78 0 126 -44t48 -117q0 -76 -48 -121t-126 -45q-77 0 -124.5 45t-47.5 121zM795 1731q0 74 47 117.5t125 43.5q76 0 124 -44t48 -117q0 -76 -47 -121t-125 -45t-125 45t-47 121z" />
<glyph unicode="&#x179;" horiz-adv-x="1263" d="M43 141q0 80 59 152l686 856h-485q-166 0 -166 131q0 88 46 126t145 38h786q72 0 112 -40t40 -101q0 -80 -60 -152l-688 -856h520q166 0 166 -137q0 -84 -47 -121t-145 -37h-817q-72 0 -112 40t-40 101zM688 1636q0 31 20 60l105 153q37 53 94 54q47 0 84 -35t37 -80 q0 -43 -41 -82l-137 -117q-33 -30 -78 -30q-35 0 -59.5 22.5t-24.5 54.5z" />
<glyph unicode="&#x17a;" horiz-adv-x="1062" d="M43 141q0 80 59 140l453 458h-324q-78 0 -116.5 32t-38.5 89q0 76 44 112t134 36h620q68 0 108 -41t40 -101q0 -78 -59 -137l-459 -461h350q78 0 116 -31.5t38 -89.5q0 -76 -43 -111.5t-134 -35.5h-641q-70 0 -108.5 41t-38.5 100zM553 1212q0 29 14 58l86 217 q23 43 56.5 64.5t70.5 21.5q53 0 96 -37t43 -90q0 -49 -43 -98l-135 -164q-47 -54 -104 -54q-37 0 -60.5 23t-23.5 59z" />
<glyph unicode="&#x17b;" horiz-adv-x="1263" d="M43 141q0 80 59 152l686 856h-485q-166 0 -166 131q0 88 46 126t145 38h786q72 0 112 -40t40 -101q0 -80 -60 -152l-688 -856h520q166 0 166 -137q0 -84 -47 -121t-145 -37h-817q-72 0 -112 40t-40 101zM534 1731q0 78 54.5 125t146.5 47q90 0 145.5 -47.5t55.5 -124.5 q0 -80 -54.5 -128.5t-146.5 -48.5t-146.5 48.5t-54.5 128.5z" />
<glyph unicode="&#x17c;" horiz-adv-x="1062" d="M43 141q0 80 59 140l453 458h-324q-78 0 -116.5 32t-38.5 89q0 76 44 112t134 36h620q68 0 108 -41t40 -101q0 -78 -59 -137l-459 -461h350q78 0 116 -31.5t38 -89.5q0 -76 -43 -111.5t-134 -35.5h-641q-70 0 -108.5 41t-38.5 100zM418 1348q0 80 54 127t146 47 q90 0 145.5 -47.5t55.5 -126.5q0 -80 -54 -128.5t-147 -48.5q-92 0 -146 48.5t-54 128.5z" />
<glyph unicode="&#x17d;" horiz-adv-x="1263" d="M43 141q0 80 59 152l686 856h-485q-166 0 -166 131q0 88 46 126t145 38h786q72 0 112 -40t40 -101q0 -80 -60 -152l-688 -856h520q166 0 166 -137q0 -84 -47 -121t-145 -37h-817q-72 0 -112 40t-40 101zM457 1804q0 39 32.5 66.5t75.5 27.5q27 0 52.5 -15t43.5 -44 l64 -110l98 110q50 57 111 57q37 0 62.5 -21.5t25.5 -53.5q0 -39 -35 -76l-135 -143q-49 -49 -131 -50q-39 0 -73 13.5t-54 36.5l-115 143q-23 29 -22 59z" />
<glyph unicode="&#x17e;" horiz-adv-x="1062" d="M43 141q0 80 59 140l453 458h-324q-78 0 -116.5 32t-38.5 89q0 76 44 112t134 36h620q68 0 108 -41t40 -101q0 -78 -59 -137l-459 -461h350q78 0 116 -31.5t38 -89.5q0 -76 -43 -111.5t-134 -35.5h-641q-70 0 -108.5 41t-38.5 100zM317 1473q0 41 34 68.5t79 27.5 q37 0 70.5 -20.5t52.5 -63.5l65 -139l82 151q21 37 51.5 54.5t63.5 17.5q45 0 79 -28t34 -68q0 -33 -27 -72l-143 -193q-29 -39 -71 -59.5t-87 -20.5t-83 20.5t-60 59.5l-123 209q-16 27 -17 56z" />
<glyph unicode="&#x192;" d="M-49 -256q0 61 51 110.5t135 49.5h21q47 0 84 38t53 103l227 772h-135q-43 0 -72.5 27.5t-29.5 68.5q0 49 34.5 78t83.5 29h179l4 16q63 223 204.5 320.5t303.5 97.5h43q74 0 111.5 -36t37.5 -89q0 -61 -50 -110.5t-134 -49.5h-23q-47 0 -84 -37.5t-53 -103.5l-2 -8h131 q43 0 74 -28.5t31 -69.5q0 -45 -36 -75t-85 -30h-174l-228 -780q-63 -223 -205.5 -319.5t-304.5 -96.5h-45q-72 0 -109.5 36t-37.5 87z" />
<glyph unicode="&#x2c6;" horiz-adv-x="614" d="M65 1229q0 37 27 71l143 191q29 39 71 59.5t89 20.5q45 0 83 -20.5t60 -59.5l121 -209q16 -27 16 -55q0 -41 -33.5 -69t-78.5 -28q-37 0 -71 20.5t-52 63.5l-66 142l-82 -154q-40 -72 -114 -72q-45 0 -79 29t-34 70z" />
<glyph unicode="&#x2da;" horiz-adv-x="614" d="M145 1352q0 94 66.5 159.5t162.5 65.5t164 -65.5t68 -159.5q0 -96 -67.5 -162t-164.5 -66q-96 0 -162.5 65.5t-66.5 162.5zM290 1352q0 -37 24 -63.5t60 -26.5q37 0 61.5 26.5t24.5 63.5t-24.5 62.5t-61.5 25.5t-60.5 -25.5t-23.5 -62.5z" />
<glyph unicode="&#x2dc;" horiz-adv-x="614" d="M8 1280q0 55 30.5 110.5t82 91.5t108.5 36q49 0 86 -15.5t90 -46.5q43 -23 65.5 -33t47.5 -10q27 0 45 13.5t39 39.5q23 27 39 39.5t41 12.5q59 0 59 -91q0 -55 -32 -110t-83 -91t-108 -36q-47 0 -86 15.5t-88 43.5q-39 23 -62.5 33t-48.5 10q-27 0 -45 -13t-41 -40 t-39 -39t-41 -12q-31 0 -45 24.5t-14 67.5z" />
<glyph unicode="&#x3a9;" horiz-adv-x="1687" d="M61 141q0 84 46.5 121t144.5 37h141q-160 231 -217 356t-57 246q0 170 95 297t271.5 196.5t413.5 69.5q346 0 540.5 -137t194.5 -381q0 -96 -47 -198.5t-121.5 -203t-199.5 -245.5h141q82 0 124 -34t42 -99q0 -88 -47 -127t-144 -39h-364q-68 0 -104.5 38t-36.5 99 q0 74 53 152q137 209 204.5 323.5t95 188t27.5 139.5q0 115 -90 174.5t-268 59.5q-195 0 -299 -75t-104 -218q0 -76 49 -201t182 -393q31 -63 31 -121q0 -74 -45 -120t-123 -46h-363q-166 0 -166 141z" />
<glyph unicode="&#x3c0;" horiz-adv-x="1290" d="M2 864q0 74 43 109t133 35h959q152 0 151 -125q0 -74 -42 -109t-132 -35h-70l-32 -397q-6 -86 94 -92q61 -4 98 -38t37 -77q0 -57 -62.5 -101t-179.5 -44q-170 -4 -260 76.5t-90 263.5q0 41 2 61l29 348h-86q-20 -180 -55 -332.5t-95 -300.5q-27 -61 -78 -92.5 t-110 -31.5q-70 0 -121 42t-51 111q0 31 8 58q49 145 84 274t55 272h-75q-76 0 -115 33t-39 92z" />
<glyph unicode="&#x2000;" horiz-adv-x="1004" />
<glyph unicode="&#x2001;" horiz-adv-x="2009" />
<glyph unicode="&#x2002;" horiz-adv-x="1004" />
<glyph unicode="&#x2003;" horiz-adv-x="2009" />
<glyph unicode="&#x2004;" horiz-adv-x="669" />
<glyph unicode="&#x2005;" horiz-adv-x="502" />
<glyph unicode="&#x2006;" horiz-adv-x="334" />
<glyph unicode="&#x2007;" horiz-adv-x="334" />
<glyph unicode="&#x2008;" horiz-adv-x="251" />
<glyph unicode="&#x2009;" horiz-adv-x="401" />
<glyph unicode="&#x200a;" horiz-adv-x="111" />
<glyph unicode="&#x2010;" horiz-adv-x="913" d="M98 541q0 152 183 151h385q76 0 116.5 -35.5t40.5 -95.5q0 -154 -182 -153h-385q-76 0 -117 36.5t-41 96.5z" />
<glyph unicode="&#x2011;" horiz-adv-x="913" d="M98 541q0 152 183 151h385q76 0 116.5 -35.5t40.5 -95.5q0 -154 -182 -153h-385q-76 0 -117 36.5t-41 96.5z" />
<glyph unicode="&#x2012;" horiz-adv-x="913" d="M98 541q0 152 183 151h385q76 0 116.5 -35.5t40.5 -95.5q0 -154 -182 -153h-385q-76 0 -117 36.5t-41 96.5z" />
<glyph unicode="&#x2013;" horiz-adv-x="1024" d="M4 547q0 49 40 77.5t106 28.5h751q57 0 92 -27.5t35 -72.5q0 -49 -39 -78t-104 -29h-752q-57 0 -93 29t-36 72z" />
<glyph unicode="&#x2014;" horiz-adv-x="2048" d="M4 547q0 49 40 77.5t106 28.5h1775q57 0 92 -27.5t35 -72.5q0 -49 -39 -78t-104 -29h-1776q-57 0 -93 29t-36 72z" />
<glyph unicode="&#x2018;" horiz-adv-x="557" d="M121 987q0 119 55 231.5t150 202.5q35 33 73 33q37 0 63.5 -25.5t26.5 -60.5q0 -37 -28 -65q-78 -78 -107 -162q74 -11 116 -61t42 -124q0 -98 -57.5 -149t-141.5 -51q-92 0 -142 58t-50 173z" />
<glyph unicode="&#x2019;" horiz-adv-x="557" d="M141 1253q0 98 56.5 149.5t140.5 51.5q94 0 143 -59.5t49 -171.5q0 -119 -55 -232.5t-147 -202.5q-35 -33 -74 -32q-37 0 -64.5 26.5t-27.5 61.5t28 63q78 78 109 162q-76 10 -117 59.5t-41 124.5z" />
<glyph unicode="&#x201a;" horiz-adv-x="557" d="M55 184q0 98 57.5 149.5t141.5 51.5q92 0 142 -58.5t50 -172.5q0 -119 -55 -231.5t-149 -203.5q-31 -31 -74 -30q-37 0 -64.5 25.5t-27.5 60.5q0 33 30 63q78 82 109 164q-76 10 -118 59.5t-42 122.5z" />
<glyph unicode="&#x201c;" horiz-adv-x="1013" d="M121 987q0 119 55 231.5t150 202.5q35 33 73 33q37 0 63.5 -25.5t26.5 -60.5q0 -37 -28 -65q-78 -78 -107 -162q74 -11 116 -61t42 -124q0 -98 -57.5 -149t-141.5 -51q-92 0 -142 58t-50 173zM578 987q0 119 55 231.5t150 202.5q35 33 73 33q37 0 63.5 -25.5t26.5 -60.5 q0 -37 -28 -65q-78 -78 -107 -162q74 -11 116 -61t42 -124q0 -98 -57.5 -149t-141.5 -51q-92 0 -142 58t-50 173z" />
<glyph unicode="&#x201d;" horiz-adv-x="1013" d="M141 1253q0 98 56.5 149.5t140.5 51.5q94 0 143 -59.5t49 -171.5q0 -119 -55 -232.5t-147 -202.5q-35 -33 -74 -32q-37 0 -64.5 26.5t-27.5 61.5t28 63q78 78 109 162q-76 10 -117 59.5t-41 124.5zM598 1253q0 98 56.5 149.5t140.5 51.5q94 0 143 -59.5t49 -171.5 q0 -119 -55 -232.5t-147 -202.5q-35 -33 -74 -32q-37 0 -64.5 26.5t-27.5 61.5t28 63q78 78 109 162q-76 10 -117 59.5t-41 124.5z" />
<glyph unicode="&#x201e;" horiz-adv-x="1013" d="M55 184q0 98 57.5 149.5t141.5 51.5q92 0 142 -58.5t50 -172.5q0 -119 -55 -231.5t-149 -203.5q-31 -31 -74 -30q-37 0 -64.5 25.5t-27.5 60.5q0 33 30 63q78 82 109 164q-76 10 -118 59.5t-42 122.5zM512 184q0 98 57.5 149.5t141.5 51.5q92 0 142 -58.5t50 -172.5 q0 -119 -55 -231.5t-149 -203.5q-31 -31 -74 -30q-37 0 -64.5 25.5t-27.5 60.5q0 33 30 63q78 82 109 164q-76 10 -118 59.5t-42 122.5z" />
<glyph unicode="&#x2026;" horiz-adv-x="1669" d="M55 186q0 84 56.5 141.5t140.5 57.5q86 0 142.5 -57.5t56.5 -141.5t-56.5 -141t-142.5 -57q-84 0 -140.5 57t-56.5 141zM612 186q0 84 56.5 141.5t140.5 57.5q86 0 142.5 -57.5t56.5 -141.5t-56.5 -141t-142.5 -57q-84 0 -140.5 57t-56.5 141zM1169 186q0 86 55.5 142.5 t141.5 56.5q84 0 140.5 -57.5t56.5 -141.5t-56.5 -141t-140.5 -57q-86 0 -141.5 56t-55.5 142z" />
<glyph unicode="&#x202f;" horiz-adv-x="401" />
<glyph unicode="&#x2030;" horiz-adv-x="2795" d="M100 991q0 223 105.5 351t288.5 128q180 0 279 -105t99 -298q0 -229 -102 -354t-289 -125q-182 0 -281.5 104.5t-99.5 298.5zM393 961q0 -80 19.5 -116t64.5 -36q103 0 103 289q0 78 -19.5 113.5t-64.5 35.5q-55 0 -79 -71.5t-24 -214.5zM446 70q0 39 27 77l846 1283 q45 68 115 67q51 0 90 -36t39 -85q0 -41 -27 -80l-844 -1282q-44 -67 -114 -67q-51 0 -91.5 35.5t-40.5 87.5zM1135 391q0 221 105.5 349t287.5 128q180 0 279.5 -105.5t99.5 -297.5q0 -229 -102.5 -354t-288.5 -125q-183 0 -282 105.5t-99 299.5zM1427 358 q0 -80 19.5 -115.5t64.5 -35.5q103 0 103 289q0 78 -19.5 114.5t-64.5 36.5q-55 0 -79 -72.5t-24 -216.5zM1956 391q0 221 105.5 349t287.5 128q180 0 279.5 -105.5t99.5 -297.5q0 -229 -102.5 -354t-288.5 -125q-183 0 -282 105.5t-99 299.5zM2249 358q0 -80 19.5 -115.5 t64.5 -35.5q102 0 102 289q0 78 -19.5 114.5t-64.5 36.5q-55 0 -78.5 -72.5t-23.5 -216.5z" />
<glyph unicode="&#x2039;" horiz-adv-x="655" d="M109 537q0 59 45 118l172 234q27 37 62.5 55.5t72.5 18.5q53 0 90 -32t37 -83q0 -35 -25 -82l-121 -219l82 -217q12 -33 13 -64q0 -59 -42 -97t-98 -38q-37 0 -69.5 18.5t-55.5 57.5l-135 233q-29 51 -28 97z" />
<glyph unicode="&#x203a;" horiz-adv-x="638" d="M74 244q0 43 22 82l123 219l-84 219q-12 35 -12 63q0 59 43 97.5t98 38.5q37 0 70 -18.5t55 -57.5l135 -236q27 -47 27 -94q0 -57 -43 -119l-174 -233q-27 -37 -62.5 -55.5t-72.5 -18.5q-53 0 -89 31t-36 82z" />
<glyph unicode="&#x2044;" horiz-adv-x="430" d="M-322 72q0 43 29 86l834 1261q25 37 55.5 55.5t65.5 18.5q51 0 87.5 -35t36.5 -86q0 -43 -28 -86l-832 -1261q-49 -74 -123 -74q-51 0 -88 34.5t-37 86.5z" />
<glyph unicode="&#x205f;" horiz-adv-x="502" />
<glyph unicode="&#x20ac;" d="M16 561q0 47 35 79t86 32h66q0 53 6 102h-66q-43 0 -72.5 30t-29.5 75q0 47 35 78.5t86 31.5h84q66 227 215 350t368 123q217 0 392 -127q49 -37 49 -100q0 -61 -46 -114.5t-108 -53.5q-41 0 -82 27q-63 39 -110 55t-95 16q-148 0 -211 -176h207q43 0 73 -30.5t30 -73.5 q0 -49 -34 -80t-87 -31h-232q-4 -66 -4 -102h230q43 0 72.5 -31t29.5 -74q0 -47 -34.5 -78.5t-86.5 -31.5h-202q16 -92 62 -135t126 -43q51 0 99 16t128 61q39 23 72 23q53 0 89 -43t36 -100q0 -80 -68 -127q-188 -127 -389 -127q-207 0 -341 123.5t-175 351.5h-100 q-43 0 -73 30.5t-30 73.5z" />
<glyph unicode="&#x2122;" horiz-adv-x="1957" d="M63 1307q0 72 40 104.5t126 32.5h529q76 0 110.5 -30t34.5 -89q0 -72 -39 -107.5t-127 -35.5h-100l-37 -455q-6 -74 -57 -115t-119 -41t-113 41t-39 115l37 455h-100q-76 0 -111 32.5t-35 92.5zM936 731l45 569q6 74 55 114t113 40q88 0 133 -102l133 -299l184 299 q66 102 158 102q62 0 103 -40t34 -114l-45 -569q-12 -160 -151 -160q-68 0 -103.5 41t-27.5 119l12 152l-45 -74q-37 -57 -66.5 -79.5t-76.5 -22.5q-45 0 -73 23.5t-52 78.5l-33 74l-12 -152q-6 -80 -46 -120t-108 -40t-102.5 40t-28.5 120z" />
<glyph unicode="&#x2202;" d="M29 455q0 160 62.5 285.5t173 196.5t251.5 71q92 0 164 -29t115 -80q2 14 2 45q0 166 -105.5 262.5t-296.5 96.5h-30q-66 0 -99 32.5t-33 83.5q0 43 24 82t60 55q47 18 87 25.5t96 7.5q207 0 355.5 -89t227 -261t78.5 -414q0 -264 -74.5 -457.5t-214 -298t-329.5 -104.5 q-244 0 -379 128t-135 362zM399 465q0 -96 41 -153.5t113 -57.5q82 0 133 65.5t51 186.5q0 98 -41 153.5t-114 55.5q-84 0 -133.5 -63.5t-49.5 -186.5z" />
<glyph unicode="&#x2206;" horiz-adv-x="1687" d="M61 141q0 84 46.5 121t144.5 37h141q-160 231 -217 356t-57 246q0 170 95 297t271.5 196.5t413.5 69.5q346 0 540.5 -137t194.5 -381q0 -96 -47 -198.5t-121.5 -203t-199.5 -245.5h141q82 0 124 -34t42 -99q0 -88 -47 -127t-144 -39h-364q-68 0 -104.5 38t-36.5 99 q0 74 53 152q137 209 204.5 323.5t95 188t27.5 139.5q0 115 -90 174.5t-268 59.5q-195 0 -299 -75t-104 -218q0 -76 49 -201t182 -393q31 -63 31 -121q0 -74 -45 -120t-123 -46h-363q-166 0 -166 141z" />
<glyph unicode="&#x220f;" d="M59 -211l117 1487q8 74 58.5 121t123.5 47h664q74 0 118 -47t36 -121l-117 -1487q-6 -74 -57.5 -121t-124.5 -47q-72 0 -115 47t-39 121l106 1364h-329l-105 -1364q-6 -74 -57 -121t-125 -47q-72 0 -116 47t-38 121z" />
<glyph unicode="&#x2211;" horiz-adv-x="1257" d="M6 -229q0 78 57 153l502 635l-403 594q-39 57 -39 121q0 72 48 121t128 49h788q166 0 166 -139q0 -82 -46 -121t-144 -39h-490l301 -459q47 -70 48 -133q0 -72 -72 -162l-365 -461h482q166 0 166 -137q0 -82 -46.5 -122t-144.5 -40h-786q-72 0 -111 39t-39 101z" />
<glyph unicode="&#x221a;" d="M20 584q0 55 38 91t94 36h198q39 0 66.5 -22.5t36.5 -61.5l98 -631l405 1384q16 47 54.5 73t83.5 26q47 0 79.5 -24.5t32.5 -68.5q0 -14 -6 -32l-473 -1571q-33 -104 -79 -150.5t-122 -46.5q-73 0 -112 44t-60 145l-125 692h-96q-47 0 -80 35t-33 82z" />
<glyph unicode="&#x221e;" d="M57 543q0 184 91.5 299.5t250.5 115.5q70 0 133.5 -34.5t106.5 -114.5q94 150 246 149q137 0 218 -91t81 -242q0 -201 -91.5 -310.5t-248.5 -109.5q-70 0 -133.5 34.5t-106.5 114.5q-94 -150 -246 -149q-137 0 -219 91t-82 247zM272 563q0 -68 32 -109.5t87 -41.5 q49 0 89 43t65 129q-12 84 -52 126t-92 42q-61 0 -95 -53.5t-34 -135.5zM696 584q14 -84 54.5 -128t91.5 -44q61 0 95 54t34 140q0 63 -33 104.5t-86 41.5q-102 0 -156 -168z" />
<glyph unicode="&#x222b;" d="M102 -244q0 61 41 104.5t101 43.5h24q57 0 92 38t39 103l80 991q14 205 140 311.5t350 106.5q166 0 166 -139q0 -59 -41 -102.5t-99 -43.5h-24q-57 0 -92 -37.5t-41 -103.5l-78 -991q-16 -205 -142 -310.5t-352 -105.5q-84 0 -124 38t-40 97z" />
<glyph unicode="&#x2248;" d="M129 354q0 33 25 70q49 68 116.5 104.5t139.5 36.5q57 0 111 -19.5t130 -56.5q55 -29 88 -41t62 -12q51 0 76 21q59 53 114 53q43 0 71 -27.5t28 -68.5q0 -39 -25 -72q-49 -66 -118.5 -101.5t-141.5 -35.5q-60 0 -113 20.5t-127 57.5q-51 27 -85 40t-62 13q-53 0 -78 -23 q-53 -55 -113 -55q-41 0 -69.5 27.5t-28.5 68.5zM158 762q0 39 24 72q47 68 116 104.5t140 36.5q57 0 109.5 -18.5t130.5 -57.5q55 -29 88 -41t61 -12q53 0 76 20q59 53 115 54q43 0 71.5 -28t28.5 -69q0 -37 -26 -71q-51 -66 -119 -102t-139 -36q-60 0 -113 20.5t-127 57.5 q-51 27 -85 40t-63 13q-53 0 -79 -22q-53 -55 -111 -55q-41 0 -69.5 27.5t-28.5 66.5z" />
<glyph unicode="&#x2260;" d="M104 377q0 55 38 92t94 37h217l82 166h-285q-47 0 -80 33.5t-33 80.5q0 55 38 92t93 37h385l76 152q18 37 48 56.5t65 19.5q27 0 51 -13q31 -14 49.5 -40.5t18.5 -57.5t-15 -59l-28 -58h108q49 0 80 -32.5t31 -81.5q0 -55 -38 -92t-91 -37h-211l-82 -166h278q49 0 80 -33 t31 -82q0 -55 -38 -92t-93 -37h-377l-76 -151q-18 -35 -48 -54.5t-64 -19.5q-23 0 -50 10q-33 14 -51 41t-18 59q0 25 14 58l29 57h-115q-47 0 -80 34t-33 81z" />
<glyph unicode="&#x2264;" d="M84 113q0 57 38 94t93 37h758q49 0 80.5 -34t31.5 -83q0 -53 -38.5 -90t-92.5 -37h-757q-47 0 -80 33t-33 80zM133 696q0 57 36 105.5t89 64.5l746 207q20 4 30 4q47 0 81 -36.5t36 -84.5q0 -38 -26.5 -71t-63.5 -43l-543 -142l498 -137q39 -12 64.5 -45t27.5 -76 q0 -53 -33 -89t-82 -36q-18 0 -41 7l-694 200q-51 16 -87 65.5t-38 106.5z" />
<glyph unicode="&#x2265;" d="M84 113q0 57 38 94t93 37h758q49 0 80.5 -34t31.5 -83q0 -53 -38.5 -90t-92.5 -37h-757q-47 0 -80 33t-33 80zM115 442q0 39 25.5 71t62.5 42l545 143l-498 138q-41 12 -66.5 44.5t-25.5 75.5q0 55 32.5 88t88.5 33q23 0 34 -2l695 -201q53 -16 87.5 -65t34.5 -109 q2 -55 -33.5 -103t-88.5 -65l-746 -206q-10 -4 -33 -4q-47 0 -79.5 36.5t-34.5 83.5z" />
<glyph unicode="&#x25fc;" horiz-adv-x="1034" d="M0 0v1034h1034v-1034h-1034z" />
</font>
</defs>
</svg>
