<?xml version="1.0" standalone="no"?>
<!DOCTYPE svg PUBLIC "-//W3C//DTD SVG 1.1//EN" "http://www.w3.org/Graphics/SVG/1.1/DTD/svg11.dtd" >
<svg xmlns="http://www.w3.org/2000/svg">
<metadata>Generated by IcoMoon</metadata>
<defs>
<font id="icomoon" horiz-adv-x="1024">
<font-face units-per-em="1024" ascent="960" descent="-64" />
<missing-glyph horiz-adv-x="1024" />
<glyph unicode="&#x20;" horiz-adv-x="512" d="" />
<glyph unicode="&#xe900;" glyph-name="download" d="M488.443 954.921c-11.192-5.658-18.371-13.476-23.38-25.464-2.696-6.454-3.062-38.661-3.062-269.829v-262.5l-40.507 40.333c-44.204 44.012-48.264 46.789-68.375 46.789-35.707 0-58.811-31.747-48.776-67.018 3.389-11.914 142.308-151.823 160.236-161.38 29.78-15.872 63.091-16.023 94.42-0.428 12.168 6.057 150.756 142.866 157.601 155.576 17.58 32.648-7.788 73.249-45.765 73.249-20.48 0-25.426-3.379-68.836-47.053l-38.999-39.237-1.001 264.678-0.998 264.676-6.054 9.789c-13.32 21.548-43.259 29.568-66.504 17.818zM26.209 492.731c-22.587-11.256-27.133-23.77-25.646-70.597 7.739-243.958 201.093-452.736 447.378-483.062 282.171-34.747 538.964 165.253 573.151 446.395 9.605 78.976-2.289 109.888-43.169 112.197-38.147 2.156-52.826-15.908-55.918-68.82-20.221-346.002-421.161-515.2-682.115-287.857-82.053 71.483-131.238 173.998-137.866 287.347-1.912 32.717-3.937 40.932-13.030 52.851-12.603 16.522-41.961 21.921-62.784 11.546z" />
<glyph unicode="&#xe901;" glyph-name="edit" d="M849.001 956.89c-6.6-1.649-19.651-6.707-29-11.244l-17.001-8.248-506.926-506.271-39.037-117.115c-21.471-64.415-39.032-118.894-39.025-121.065 0.036-13.309 9.073-28.303 20.675-34.301 13.757-7.114 19.423-5.711 141.34 34.98l115.028 38.392 252.198 252.49c197.617 197.847 253.573 254.956 258.555 263.88 37.693 67.528 14.531 156.736-50.196 193.339-29.545 16.707-74.703 23.13-106.611 15.163zM86.999 885.686c-34.629-6.551-68.314-35.796-81.503-70.764l-4.495-11.922-0.522-387.919c-0.468-350.198-0.207-388.987 2.673-398.897 10.852-37.332 39.273-65.846 76.71-76.959 9.815-2.913 44.564-3.22 360-3.174l349.138 0.051 13.115 4.472c36.485 12.436 63.491 40.929 72.717 76.713 3.912 15.176 4.89 397.898 1.042 408.082-11.379 30.116-58.368 30.116-69.747 0-1.446-3.832-2.127-66.097-2.127-195.108v-189.476l-4.964-9.894c-2.883-5.742-8.067-11.988-12.355-14.892l-7.388-5h-680.584l-8.113 5.368c-4.887 3.233-9.797 8.852-12.355 14.131l-4.242 8.763 0.044 371.868c0.051 418.534-1.364 381.555 15.084 394.102l7.56 5.768 231.158 0.998c226.629 0.98 231.288 1.080 237.944 5.002 24.955 14.705 26.944 48.243 3.812 64.276l-8.256 5.722-232.172 0.289c-138.877 0.174-236.191-0.471-242.173-1.603zM896.402 883.753c31.48-6.671 52.511-32.253 52.408-63.754-0.097-29.747 19.011-8.52-251.574-279.48l-242.145-242.481-68.915-22.984c-37.903-12.639-69.181-22.715-69.509-22.387s9.748 31.606 22.387 69.509l22.984 68.915 241.482 241.244c132.813 132.685 244.631 242.852 248.481 244.813 15.043 7.67 29.343 9.797 44.401 6.605z" />
<glyph unicode="&#xe902;" glyph-name="eposta" d="M239.283 956.204c-13.719-9.044-13.253-5.292-13.284-107.203l-0.026-92.001-109.617-79.603c-65.004-47.206-110.989-81.925-112.986-85.307-3.123-5.286-3.372-28.948-3.372-321.275v-315.566l4.408-6.436c9.6-14.011-37.839-12.813 507.776-12.813h492.567l6.436 4.408c13.901 9.526 12.813-18.532 12.813 330.591 0 292.541-0.246 315.799-3.382 321.106-2.010 3.407-47.754 37.955-112.952 85.309l-109.571 79.585-0.061 92.001c-0.067 101.901 0.397 98.161-13.317 107.203-8.942 5.896-536.492 5.896-545.434 0zM736 663.204v-236.795l-77.338-56.397c-90.885-66.276-79.675-60.347-94.029-49.736-54.879 40.573-51.305 40.579-105.188-0.113-14.249-10.762-3.238-16.614-95.176 50.58l-76.27 55.744v473.51h448v-236.795zM939.871 576c0.015-0.55-28.076-21.437-62.423-46.418-34.345-24.98-66.273-48.233-70.948-51.674l-8.499-6.254v208.187l70.922-51.42c39.007-28.283 70.932-51.871 70.948-52.421zM225.999 574.828v-103.173l-8.499 6.264c-4.675 3.446-36.6 26.698-70.945 51.674-34.345 24.973-62.438 45.857-62.433 46.408 0.015 1.3 138.409 101.752 140.378 101.893 0.827 0.059 1.5-46.321 1.5-103.066zM300.001 340.255c50.048-36.518 91.238-67.085 91.533-67.93 0.504-1.446-325.911-242.324-328.376-242.324-0.637 0-1.157 108.879-1.157 241.956v241.956l73.5-53.629c40.425-29.496 114.45-83.51 164.5-120.028zM961.165 30.497c-1.27-1.267-329.318 240.059-328.696 241.805 0.292 0.824 74.332 55.36 164.531 121.19l164.001 119.69 0.507-240.916c0.279-132.503 0.125-241.3-0.343-241.769zM707.679 137.492l191.306-140.493-193.492-0.509c-106.422-0.282-280.543-0.282-386.936 0l-193.444 0.509 192.768 141.591c116.964 85.911 193.892 141.156 195.628 140.49 1.574-0.604 88.952-64.32 194.171-141.588z" />
<glyph unicode="&#xe903;" glyph-name="eye" d="M462.001 751.762c-163.694-16.438-313.395-103.846-435.556-254.323-37.722-46.464-37.432-53.445 4.324-104.212 277.251-337.096 690.642-334.815 966.787 5.335 37.722 46.464 37.432 53.445-4.324 104.212-146.010 177.526-339.546 268.234-531.231 248.988zM557.23 657.262c147.809-32.125 216.635-205.865 130.762-330.086-90.865-131.438-288.356-120.901-364.032 19.423-86.003 159.473 56.389 349.107 233.27 310.664zM477 559.176c-125.839-41.743-97.27-227.177 35-227.177 109.76 0 158.413 138.045 73.075 207.334-29.046 23.585-72.658 31.593-108.076 19.843z" />
<glyph unicode="&#xe904;" glyph-name="facebook" d="M598.001 958.618c-86.84-9.19-155.958-64.54-181.844-145.618-11.436-35.814-12.631-48.22-13.645-141.499l-0.929-85.501h-155.581v-184h155.999v-465.999h190.001v465.999l157 0.005 11.569 90.499c6.362 49.774 11.538 91.172 11.5 91.996-0.038 0.827-40.637 1.5-90.222 1.5h-90.156l0.765 71.501c1.341 125.565 8.635 132.367 142.044 132.467l43.5 0.033v163.607l-11.5 1.247c-40.591 4.401-141.238 6.651-168.499 3.763z" />
<glyph unicode="&#xe905;" d="M558.080 704.376c-54.213-3.556-87.447-23.816-101.389-61.811-6.582-17.935-8.259-30.449-9.062-67.589l-0.653-30.208-62.464-1.024v-94.208l31.232-0.55c17.178-0.302 31.347-0.648 31.488-0.768s0.264-57.011 0.271-126.426c0.008-69.414 0.384-126.789 0.835-127.498 0.645-1.014 10.906-1.234 47.857-1.024l47.037 0.266 0.261 126.364c0.184 90.642 0.581 126.751 1.395 127.731 0.901 1.088 9.024 1.423 39.675 1.636l38.541 0.269 1.8 10.752c4.995 29.839 12.268 76.71 12.393 79.872l0.143 3.584-92.639 0.532-0.663 2.642c-0.364 1.454-0.435 9.628-0.156 18.166 0.763 23.301 5.197 32.998 17.948 39.263l5.878 2.885 71.68 1.024v96.256l-38.4 0.082c-21.12 0.046-40.474-0.051-43.008-0.218z" />
<glyph unicode="&#xe906;" d="M441.856 958.92c-8.53-0.893-24.748-3.643-35.84-6.080-2.816-0.617-6.502-1.364-8.192-1.659s-3.994-0.934-5.12-1.421c-1.126-0.486-3.43-1.108-5.12-1.382s-4.915-1.027-7.168-1.677c-2.253-0.648-5.248-1.413-6.656-1.697s-3.482-0.891-4.608-1.349c-1.126-0.456-4.122-1.388-6.656-2.068-2.534-0.684-5.409-1.656-6.387-2.166s-2.481-0.924-3.341-0.924c-0.86 0-2.363-0.404-3.341-0.899s-3.622-1.454-5.875-2.135c-4.406-1.329-26.691-9.618-31.744-11.804-10.813-4.682-14.938-6.605-29.184-13.617-8.73-4.296-16.102-8.061-16.384-8.369-0.282-0.305-1.894-1.231-3.584-2.058s-4.997-2.785-7.352-4.352c-2.355-1.564-4.549-2.847-4.874-2.847-1.244 0-23.081-13.903-34.258-21.811-49.505-35.031-89.257-74.493-124.5-123.597-8.248-11.494-24.087-36.099-24.087-37.422 0-0.364-0.852-1.884-1.894-3.379-1.882-2.696-6.433-10.975-14.162-25.759-9.705-18.565-22.543-49.536-28.019-67.584-1.28-4.224-2.716-8.118-3.19-8.653-0.476-0.535-0.863-2.038-0.863-3.341s-0.404-3.169-0.899-4.147c-0.865-1.715-1.444-3.589-4.191-13.555-0.696-2.534-1.682-5.665-2.186-6.961-0.504-1.293-0.916-3.686-0.916-5.315 0-1.631-0.412-3.218-0.916-3.53-0.504-0.31-1.165-2.296-1.469-4.411-0.305-2.117-1.068-6.152-1.697-8.968-2.542-11.364-4.936-26.278-6.244-38.912-1.505-14.515-0.84-143.050 0.75-144.996 0.645-0.788 1.428-3.74 1.736-6.556 0.632-5.747 2.051-13.865 3.758-21.504 0.63-2.816 1.393-6.851 1.697-8.968 0.305-2.115 0.965-4.101 1.469-4.411 0.504-0.312 0.916-1.9 0.916-3.53 0-1.628 0.412-4.022 0.916-5.315 0.504-1.295 1.48-4.426 2.168-6.961 0.686-2.534 1.603-5.76 2.035-7.168s1.347-4.634 2.030-7.168c0.684-2.534 1.656-5.409 2.166-6.387s0.924-2.614 0.924-3.635c0-1.021 0.384-2.294 0.852-2.829 0.466-0.535 1.418-3.046 2.115-5.581 1.454-5.309 9.551-26.988 12.621-33.792 1.144-2.534 3.901-8.755 6.131-13.824 4.621-10.511 8.138-17.252 9.257-17.748 0.422-0.189 0.768-0.952 0.768-1.697s2.813-6.351 6.254-12.46c3.438-6.106 7.667-13.627 9.395-16.709 21.509-38.369 63.334-88.932 100.7-121.736 15.593-13.688 16.571-14.482 17.807-14.482 0.556 0 1.014-0.346 1.019-0.768 0.005-0.686 8.061-7.091 23.032-18.314 11.679-8.755 40.11-26.588 51.2-32.118 1.69-0.842 3.302-1.779 3.584-2.079 0.558-0.594 32.763-16.476 39.424-19.441 2.253-1.004 6.28-2.793 8.95-3.976 2.668-1.185 5.455-2.153 6.195-2.153 0.737 0 1.779-0.387 2.314-0.858 1.303-1.147 16.189-6.508 27.597-9.935 5.069-1.523 10.017-3.174 10.995-3.668s2.908-0.899 4.291-0.899c1.382 0 2.798-0.461 3.146-1.024s1.961-1.024 3.584-1.024c1.623 0 3.236-0.461 3.584-1.024s1.961-1.024 3.584-1.024c1.623 0 3.236-0.461 3.584-1.024s2.422-1.024 4.608-1.024c2.186 0 4.229-0.412 4.541-0.916 0.31-0.504 2.296-1.165 4.411-1.469 2.117-0.305 6.152-1.068 8.968-1.697s7.539-1.582 10.496-2.115c2.957-0.535 8.026-1.452 11.264-2.043 13.271-2.414 26.074-2.844 84.736-2.852 58.412-0.008 70.103 0.392 83.712 2.857 3.238 0.586 8.538 1.546 11.776 2.132 3.238 0.584 7.731 1.324 9.984 1.641s4.534 0.991 5.069 1.495c0.535 0.504 2.465 0.919 4.291 0.919s3.604 0.461 3.953 1.024c0.348 0.563 2.422 1.024 4.608 1.024s4.26 0.461 4.608 1.024c0.348 0.563 1.961 1.024 3.584 1.024s3.236 0.461 3.584 1.024c0.348 0.563 1.961 1.024 3.584 1.024s3.236 0.461 3.584 1.024c0.348 0.563 1.764 1.024 3.146 1.024s3.313 0.404 4.291 0.899c0.978 0.494 5.926 2.143 10.995 3.666 9.595 2.883 28.759 9.777 35.84 12.892 2.253 0.991 6.164 2.652 8.694 3.694 8.054 3.31 45.54 22.331 47.114 23.905 0.282 0.282 3.238 1.894 6.572 3.584 7.526 3.817 44.877 28.557 51.103 33.848 1.029 0.876 5.176 4.116 9.216 7.206 25.958 19.848 58.931 52.498 81.078 80.282 2.816 3.533 6.546 8.090 8.292 10.127 6.917 8.079 30.633 43.692 37.248 55.928 2.437 4.506 5.215 9.344 6.175 10.752 1.905 2.79 20.477 40.233 20.477 41.28 0 0.353 1.070 3.077 2.381 6.049 7.076 16.069 13.655 34.634 18.243 51.487 0.612 2.253 1.487 5.018 1.943 6.144 0.458 1.126 1.065 3.2 1.349 4.608s1.050 4.403 1.697 6.656c0.65 2.253 1.403 5.478 1.677 7.168s0.896 3.994 1.382 5.12c0.486 1.126 1.126 3.43 1.421 5.12s1.042 5.376 1.659 8.192c0.62 2.816 1.562 7.539 2.094 10.496 0.535 2.957 1.449 8.026 2.033 11.264 2.66 14.769 3.128 30.267 2.831 94.052-0.225 48.212-0.635 67.057-1.485 68.096-0.645 0.788-1.428 3.74-1.736 6.556-0.632 5.747-2.051 13.865-3.758 21.504-0.63 2.816-1.393 6.851-1.697 8.968-0.305 2.115-0.965 4.101-1.469 4.411-0.504 0.312-0.916 1.9-0.916 3.53 0 1.628-0.412 4.022-0.916 5.315-0.504 1.295-1.48 4.426-2.168 6.961-0.686 2.534-1.603 5.76-2.035 7.168s-1.29 4.403-1.905 6.656c-4.022 14.748-10.012 32.113-14.572 42.23-1.075 2.386-1.956 4.813-1.956 5.389s-0.453 1.848-1.009 2.826c-0.553 0.978-2.435 5.005-4.18 8.947-7.368 16.64-16.294 33.938-29.33 56.832-10.44 18.332-34.038 50.819-53.709 73.938-20.329 23.89-58.808 59.072-85.773 78.418-9.587 6.876-33.562 22.51-39.462 25.728-3.356 1.833-7.273 4.116-8.704 5.076s-3.983 2.419-5.673 3.244c-1.69 0.822-3.302 1.764-3.584 2.089-0.663 0.771-38.385 19.379-39.278 19.379-0.374 0-2.634 0.896-5.020 1.992-7.854 3.602-34.568 13.368-36.567 13.368-1.078 0-2.243 0.461-2.591 1.024s-1.731 1.024-3.072 1.024c-1.341 0-2.724 0.461-3.072 1.024s-1.731 1.024-3.072 1.024c-1.341 0-2.724 0.461-3.072 1.024s-1.961 1.024-3.584 1.024c-1.623 0-3.236 0.461-3.584 1.024s-1.961 1.024-3.584 1.024c-1.623 0-3.205 0.41-3.515 0.911-0.31 0.499-2.063 1.17-3.899 1.487s-4.951 0.86-6.922 1.206c-1.971 0.348-4.506 1.029-5.632 1.516s-3.43 1.126-5.12 1.421c-1.69 0.294-5.376 1.042-8.192 1.659-2.816 0.62-7.539 1.562-10.496 2.094-2.957 0.535-8.026 1.452-11.264 2.043-3.238 0.589-9.805 1.469-14.592 1.958-10.447 1.065-129.574 1.052-139.776-0.015zM639.488 656.384v-48.128l-71.68-1.024-5.878-2.885c-12.751-6.264-17.185-15.962-17.948-39.263-0.279-8.538-0.207-16.712 0.156-18.166l0.663-2.642 92.639-0.532-0.143-3.584c-0.125-3.162-7.398-50.033-12.393-79.872l-1.8-10.752-38.541-0.269c-30.651-0.212-38.774-0.548-39.675-1.636-0.814-0.98-1.211-37.089-1.395-127.731l-0.261-126.364-47.037-0.266c-36.951-0.21-47.212 0.010-47.857 1.024-0.451 0.709-0.827 58.084-0.835 127.498s-0.131 126.305-0.271 126.426c-0.141 0.12-14.31 0.466-31.488 0.768l-31.232 0.55v94.208l62.464 1.024 0.653 30.208c1.856 85.891 27.295 119.752 96.115 127.941 14.536 1.728 15.864 1.769 57.344 1.677l38.4-0.082v-48.128z" />
<glyph unicode="&#xe907;" glyph-name="favorite" d="M334.999 787.955c-178.35-23.002-268.104-227.579-164.938-375.956 14.172-20.383 269.565-275.843 287.468-287.544 48.486-31.69 89.124-22.784 145.572 31.9 35.113 34.015 39.805 50.749 19.113 68.16-16.041 13.496-27.604 10.222-54.126-15.332-42.312-40.765-50.772-45.171-69.484-36.175-13.988 6.728-260.828 251.699-277.266 275.169-57.137 81.582-37.663 191.473 43.924 247.875 68.106 47.084 157.274 40.517 219.891-16.189 19.159-17.349 34.534-17.349 53.693 0 143.596 130.040 362.501-31.16 279.132-205.553-16.655-34.842-2.78-61.407 28.961-55.452 30.945 5.806 57.51 92.81 49.016 160.545-21.978 175.273-219.681 267.768-367.032 171.72l-16.924-11.031-16.924 11.031c-45.796 29.852-106.289 43.771-160.077 36.833zM683.968 444.352c-12.15-6.362-15.967-17.065-15.967-44.777v-23.575h-23.578c-35.282 0-48.435-8.686-48.417-31.969 0.020-22.426 11.768-30.013 46.495-30.024l25.5-0.008 0.010-22.5c0.018-35.392 6.487-47.529 26.97-50.601 24.461-3.668 35.018 10.675 35.018 47.57v25.531h25.531c36.314 0 50.401 9.933 47.846 33.728-2.243 20.882-12.6 27.1-46.515 27.927l-26.862 0.655-0.008 25.344c-0.010 40.105-18.396 57.16-46.024 42.698z" />
<glyph unicode="&#xe908;" glyph-name="filter" d="M491.039 805.998c-98.504-17.774-136.543-138.296-66.012-209.152 13.286-13.348 36.224-27.569 50.483-31.296l4.49-1.175 0.008-226.688c0.008-222.671 0.077-226.803 3.981-233.206 12.032-19.732 43.991-19.732 56.023 0 3.904 6.403 3.973 10.534 3.981 233.206l0.008 226.688 4.49 1.175c25.585 6.689 58.621 34.022 71.862 59.451 47.675 91.566-29.133 199.071-129.313 180.997zM170.437 802.673c-16.125-7.946-15.368-1.992-15.985-125.775l-0.55-110.103-11.21-3.809c-103.040-35.026-105.219-189.919-3.213-228.508l14.477-5.476 0.023-107.699c0.023-118.917-0.21-116.593 12.682-125.773 9.459-6.735 28.191-7.34 37.23-1.198 15.68 10.652 15.040 5.458 15.675 127.035l0.566 108.367 7.434 2.355c105.178 33.336 108.183 192.243 4.352 230.103l-11.789 4.298-0.563 108.255c-0.55 105.070-0.686 108.462-4.675 115.249-8.794 14.968-28.442 20.575-44.454 12.68zM820.109 801.669c-16.087-10.929-14.986 1.467-16.108-181.274l-1.001-162.601-11.732-4.769c-101.875-41.4-100.442-195.871 2.117-228.39l10.383-3.292 0.617-54.172c0.783-69.102 5.076-78.6 34.701-76.777 28.332 1.743 30.915 8.141 30.915 76.595v53.386l4.49 1.175c109.153 28.544 114.248 193.692 7.178 232.73l-11.668 4.257v161.928c0 178.931 0.586 170.573-12.662 180.006-9.459 6.735-28.191 7.34-37.23 1.198zM529.999 737.526c24.407-7.334 43.446-37.207 39.027-61.23-8.525-46.326-60.849-65.646-94.892-35.039-45.957 41.321-3.686 114.166 55.864 96.269zM209.935 499.837c13.376-5.755 27.034-20.884 31.045-34.394 19.822-66.747-73.812-105.188-104.86-43.052-24.228 48.484 23.859 98.936 73.815 77.445zM863.611 389.65c41.536-19.794 41.416-79.862-0.205-100.951-52.954-26.834-106.655 36.375-71.77 84.475 16.735 23.073 44.695 29.473 71.974 16.476z" />
<glyph unicode="&#xe909;" glyph-name="filter1" d="M489.744 955.243c-23.058-11.365-21.976-2.851-22.858-179.856l-0.785-157.442-16.032-5.45c-147.343-50.083-150.457-271.578-4.594-326.758l20.703-7.832 0.031-154.004c0.035-170.047-0.301-166.723 18.137-179.852 13.527-9.632 40.312-10.494 53.238-1.712 22.422 15.232 21.506 7.802 22.413 181.656l0.809 154.96 10.631 3.37c150.401 47.667 154.699 274.9 6.224 329.037l-16.856 6.146-0.809 154.802c-0.784 150.247-0.981 155.097-6.682 164.803-12.574 21.405-40.671 29.419-63.57 18.132zM546.226 522.197c19.126-8.227 38.657-29.865 44.394-49.183 28.344-95.444-105.548-150.412-149.948-61.56-34.645 69.331 34.118 141.473 105.554 110.743z" />
<glyph unicode="&#xe90a;" glyph-name="filter2" d="M482.104 957.143c-140.491-25.349-194.745-197.244-94.151-298.305 18.949-19.038 51.664-39.319 72.002-44.637l6.405-1.675 0.011-323.316c0.011-317.587 0.111-323.481 5.679-332.613 17.16-28.145 62.742-28.145 79.902 0 5.567 9.132 5.668 15.026 5.679 332.613l0.011 323.316 6.405 1.675c36.489 9.542 83.61 48.525 102.493 84.793 67.998 130.596-41.552 283.93-184.434 258.149zM537.673 859.484c34.809-10.461 61.965-53.068 55.662-87.329-12.156-66.072-86.784-93.629-135.339-49.974-65.55 58.935-5.26 162.829 79.677 137.303z" />
<glyph unicode="&#xe90b;" glyph-name="filter3" d="M486.415 953.806c-23.002-15.627-21.427 2.099-23.034-259.213l-1.43-232.518-16.777-6.818c-145.677-59.201-143.63-280.088 3.028-326.59l14.849-4.709 0.88-77.463c1.122-98.813 7.261-112.396 49.62-109.791 40.515 2.493 44.208 11.642 44.208 109.531v76.339l6.421 1.679c156.087 40.817 163.371 276.974 10.266 332.799l-16.687 6.085v231.554c0 255.864 0.84 243.911-18.106 257.402-13.527 9.633-40.312 10.494-53.238 1.713zM548.623 364.631c59.396-28.301 59.222-114.197-0.294-144.356-75.72-38.37-152.51 52.015-102.625 120.795 23.93 32.995 63.912 42.148 102.92 23.561z" />
<glyph unicode="&#xe90c;" glyph-name="headset" d="M465.001 958.774c-138.491-19.579-243.955-84.562-316.111-194.775-40.904-62.472-68.841-149.448-68.879-214.423l-0.010-15.427-11.5-7.813c-23.544-15.992-46.776-45.015-57.718-72.1-10.417-25.789-11.054-34.156-10.355-135.557l0.645-93.678 5.453-16c16.95-49.736 54.761-87.544 104.474-104.468l16-5.448 128.282-0.084 8.118 5.368c17.789 11.766 16.602-4.106 16.602 221.632 0 225.72 1.188 209.859-16.589 221.632l-8.108 5.368-46.651 0.602c-25.659 0.333-46.636 1.231-46.615 1.999 2.286 87.176 62.738 195.589 141.591 253.924 176.504 130.573 433.108 66.514 524.534-130.952 23.749-51.29 25.958-53.573 51.837-53.573 34.58 0 48.819 26.79 34.015 64-55.404 139.244-178.404 238.397-330.015 266.038-18.23 3.323-103.081 5.988-118.999 3.735zM764.337 549.791c-4.989-2.516-10.926-7.79-14.001-12.434l-5.335-8.061-2.002-442.296-5.553-9.446c-3.599-6.126-8.873-11.4-14.999-14.999l-9.446-5.553-130.002-1.213-6.999 9.5c-45.023 61.105-144 27.228-144-49.288 0-76.477 98.629-110.31 143.997-49.395l6.994 9.395h69.716c77.719 0 82.703 0.62 108.119 13.414 35.185 17.718 63.173 61.204 63.173 98.156v9.992l36.5 0.899c78.904 1.946 132.762 39.862 157.010 110.541l5.489 16v201.999l-5.489 16c-17.111 49.874-54.961 87.693-104.509 104.422-23.291 7.864-134.264 9.631-148.664 2.368zM200 326.001v-148.001l-17.5 0.041c-59.965 0.136-93.714 23.982-100.421 70.961-2.596 18.171-2.596 135.826 0 153.999 6.682 46.789 38.986 70.013 98.422 70.756l19.5 0.243v-147.999zM873.001 471.921c36.475-5.207 63.711-32.445 68.92-68.92 2.596-18.173 2.596-135.828 0-153.999-6.707-46.979-40.456-70.825-100.421-70.961l-17.5-0.041v296l17.5-0.038c9.626-0.023 23.8-0.94 31.501-2.040z" />
<glyph unicode="&#xe90d;" glyph-name="illus" d="M24.504 955.791c-38.779-19.195-30.456-79.57 12.063-87.514 12.849-2.399 26.647 0.484 36.992 7.729l8.558 5.993 182.884-0.069-13.243-7.731c-148.385-86.612-245.251-247.419-251.18-416.983-1.567-44.805 4.178-55.677 29.422-55.677 23.549 0 29.791 10.158 32.044 52.15 11.576 215.972 178.125 398.418 387.561 424.556l19.464 2.429 5.809-5.386c13.271-12.298 60.974-12.298 74.245 0l5.809 5.386 19.464-2.429c209.436-26.138 375.985-208.584 387.561-424.556 2.253-41.992 8.494-52.15 32.044-52.15 25.244 0 30.989 10.872 29.422 55.677-5.929 169.564-102.794 330.371-251.18 416.983l-13.243 7.731 182.884 0.069 8.558-5.993c32.468-22.738 72.558-1.746 72.558 37.993 0 40.297-42.051 61.284-73.971 36.918l-9.062-6.917h-382.979l-5.832 6.177c-8.276 8.771-12.467 9.823-39.155 9.823s-30.879-1.052-39.155-9.823l-5.832-6.177h-383.437l-6.287 5.304c-13.842 11.671-36.649 14.474-52.785 6.487zM499 733.286c-8.635-3.996-1.667 5.297-158.797-211.776-147.914-204.339-149.409-206.556-147.686-219.151 1.252-9.147 109.699-343.107 114.319-352.041 7.921-15.319-6.659-14.303 205.164-14.303s197.243-1.016 205.164 14.303c5.102 9.864 113.219 343.506 114.307 352.742 0.571 4.826-0.264 10.847-2.076 14.999-4.39 10.068-293.386 407.793-299.745 412.521-6.756 5.023-22.62 6.423-30.648 2.706zM477.115 206.118c-26.895-28.081-4.554-78.095 34.885-78.095 39.483 0 62.766 53.499 34.291 78.787l-4.291 3.809v399.811l111.14-153.416c61.125-84.378 111.547-154.481 112.046-155.781 0.714-1.861-50.040-161.044-91.425-286.733l-6.090-18.501h-311.342l-6.090 18.501c-52.849 160.507-92.14 285.023-90.816 287.79 0.868 1.81 51.077 71.575 111.578 155.034l110.001 151.747 0.509-198.915 0.509-198.917-4.905-5.12z" />
<glyph unicode="&#xe90e;" glyph-name="info" d="M445.128 956.751c-386.785-49.536-577.761-502.244-344.128-815.752 249.746-335.13 780.795-242.657 901.642 157 107.94 356.979-187.556 706.132-557.514 658.752zM569.9 874.788c259.727-34.432 428.28-294.543 355.259-548.239-49.513-172.017-209.646-299.356-387.658-308.273-299.412-14.991-521.352 263.875-438.659 551.176 58.276 202.463 260.122 333.299 471.058 305.336zM497.344 687.232c-60.595-16.893-48.248-107.192 14.656-107.192 68.977 0 73.631 101.286 5 108.79-5.77 0.632-14.083-0.044-19.656-1.597zM494.999 528.207c-9.311-4.311-17.848-12.833-20.872-20.838-4.352-11.52-2.808-284.196 1.659-292.948 13.837-27.108 53.926-28.782 70.318-2.936l5.896 9.298v140.48c0 94.39-0.699 142.326-2.127 146.107-5.143 13.612-22.013 24.543-37.873 24.543-4.951 0-12.6-1.667-17.001-3.704z" />
<glyph unicode="&#xe90f;" glyph-name="instagram" d="M299.361 957.791c-163.64-8.922-264.576-92.764-289.226-240.248-10.732-64.205-13.581-427.894-4.024-513.544 16.261-145.715 99.4-236.014 239.457-260.076 47.629-8.184 443.489-11.397 508.431-4.127 161.137 18.038 254.026 113.418 268.014 275.203 1.551 17.953 2.035 95.962 1.562 252.001l-0.689 225.999-4.636 25.001c-24.445 131.773-106.865 213.071-237.251 234.025-46.71 7.506-377.155 11.461-481.638 5.765zM737.999 862.093c110.359-10.842 170.048-62.484 187.034-161.82 10.028-58.657 9.948-447.503-0.102-505.449-16.717-96.356-75.162-149.202-177.93-160.886-49.577-5.637-419.497-5.619-465.92 0.023-104.701 12.723-161.567 64.538-177.828 162.038-10.117 60.659-10.314 439.020-0.261 501.002 15.334 94.543 69.891 148.28 164.506 162.040 46.221 6.723 409.17 9.075 470.502 3.052zM769.585 781.315c-44.577-12.564-59.331-70.961-26.281-104.010 24.256-24.256 69.688-23.112 90.678 2.286 40.041 48.456-4.388 118.641-64.397 101.724zM479.27 709.87c-192.673-26.683-292.616-246.154-185.672-407.739 120.417-181.947 401.485-145.216 470.339 61.463 61.514 184.645-93.161 372.795-284.667 346.276zM555.277 611.942c125.486-31.98 169.979-186.478 80.829-280.676-76.503-80.835-210.665-65.782-267.226 29.985-76.485 129.5 41.147 287.708 186.396 250.691z" />
<glyph unicode="&#xe910;" glyph-name="lock" d="M464 957.133c-128.307-22.943-223.457-117.128-247.109-244.611-2.312-12.467-3.564-34.688-4.334-77.023l-1.083-59.5h-71.782l-11.692-11.692v-279.798c0-310.205-0.947-287.739 13.064-309.512 10.967-17.039 26.537-29.169 45.793-35.671 15.14-5.112 635.146-5.112 650.286 0 19.256 6.502 34.826 18.632 45.793 35.671 14.011 21.773 13.064-0.694 13.064 309.512v279.798l-11.692 11.692h-71.782l-1.083 59.5c-1.859 102.044-17.004 151.155-65.664 212.938-64.187 81.492-181.289 126.666-281.779 108.695zM546.304 827.11c62.579-13.263 112.909-61.363 129.974-124.219 3.794-13.972 4.426-22.589 5.225-71.391l0.911-55.501h-340.828l0.911 55.501c1.032 62.897 2.796 73.352 17.521 103.772 33.193 68.577 112.218 107.538 186.286 91.837zM532.762 400.978c63.485-16.535 84.928-100.362 36.378-142.205l-7.862-6.774 6.413-58.501c10.063-91.786 14.159-85.499-55.69-85.499-69.85 0.003-65.754-6.287-55.69 85.499l6.413 58.501-7.862 6.774c-64.049 55.196-4.613 163.697 77.901 142.205z" />
<glyph unicode="&#xe911;" glyph-name="loc-pin" d="M457.444 956.879c-256.545-39.923-390.822-336.061-249.879-551.084 21.583-32.922 214.031-287.076 224.504-296.486 44.096-39.616 116.019-39.386 160.433 0.512 9.923 8.916 203.325 264.54 223.933 295.974 61.368 93.624 73.206 222.052 30.31 328.847-62.19 154.839-225.037 247.8-389.302 222.236zM556.495 874.929c189.888-28.273 294.436-249.354 196.25-415.004-19.517-32.929-213.76-289.341-222.605-293.852-10.504-5.361-25.777-5.361-36.28 0-8.845 4.511-203.087 260.923-222.605 293.852-118.802 200.43 52.5 449.661 285.24 415.004zM478.999 716.214c-88.404-25.8-117.238-136.932-52.224-201.295 76.644-75.876 205.225-22.569 205.225 85.082 0 80.172-76.746 138.465-153.001 116.214zM529.58 634.212c35.753-18.248 22.618-72.212-17.58-72.212-40.66 0-53.187 53.55-17.001 72.671 8.376 4.424 25.457 4.198 34.58-0.458zM330.527 10.885c-25.275-15.15-25.16-54.968 0.202-69.832l8.622-5.053h345.298l8.622 5.053c25.467 14.925 25.467 54.968 0 69.893l-8.622 5.053-345.649-0.038-8.474-5.076z" />
<glyph unicode="&#xe912;" glyph-name="map-pin" d="M470.999 893.873c-131.441-17.782-237.396-117.729-263.355-248.417-19.802-99.681 11.392-172.767 208.724-489.032 37.261-59.72 73.697-118.894 80.975-131.502 15.58-26.998 14.313-26.499 23.852-9.421 10.519 18.834 41.29 68.575 88.159 142.5 164.329 259.2 211.192 355.141 211.505 432.998 0.727 182.428-166.984 327.619-349.86 302.874zM544.66 730.693c103.409-25.6 138.765-153.267 63.34-228.692-71.813-71.813-191.839-44.132-225.252 51.95-35.062 100.815 58.051 202.458 161.912 176.742z" />
<glyph unicode="&#xe913;" glyph-name="pager-arrow" d="M237 828.255c-43.208-12.457-78.764-48.691-89.828-91.543-5.345-20.708-4.664-169.236 0.817-178.23 11.671-19.141 43.177-19.809 55.404-1.172 3.261 4.972 3.722 12.823 4.785 81.595 0.778 50.181 1.989 78.6 3.556 83.451 6.049 18.726 24.044 36.37 42.952 42.117 12.155 3.694 534.484 3.692 546.642-0.003 18.824-5.722 37.422-24.32 43.144-43.144 3.697-12.165 3.697-534.487 0-546.652-5.722-18.824-24.32-37.422-43.144-43.144-12.165-3.697-534.487-3.697-546.652 0-18.322 5.568-37.079 23.959-42.939 42.107-1.572 4.859-2.78 33.231-3.558 83.459-1.062 68.772-1.523 76.623-4.785 81.595-12.227 18.637-43.732 17.969-55.404-1.172-5.481-8.993-6.162-157.522-0.817-178.23 11.359-43.996 49.71-81.999 93.056-92.219 19.241-4.534 556.303-4.534 575.544 0 43.346 10.22 81.697 48.223 93.056 92.219 4.823 18.683 4.823 558.74 0 577.423-11.261 43.612-48.504 80.855-92.116 92.116-19.589 5.056-562.043 4.521-579.712-0.573zM462.482 604.012c-9.759-5.952-14.467-15.066-14.467-28.012 0-15.073 0.205-15.34 58.772-75.702l51.133-52.7-52.319-53.665c-58.365-59.866-57.436-58.673-57.523-73.933-0.143-24.773 25.556-40.566 47.529-29.202 13.361 6.909 119.749 120.259 124.365 132.503 5.875 15.583 5.048 41.244-1.748 54.382-5.069 9.797-113.943 123.034-122.596 127.508-8.1 4.188-25.349 3.574-33.147-1.18z" />
<glyph unicode="&#xe914;" glyph-name="photo" d="M177.137 860.936c-37.123-10.186-68.227-41.603-78.167-78.95-4.393-16.517-4.393-651.453 0-667.971 10.066-37.821 41.224-68.979 79.045-79.045 16.517-4.393 651.453-4.393 667.971 0 37.814 10.063 68.915 41.157 79.063 79.045 4.406 16.448 4.38 651.374-0.026 667.971-10.038 37.801-41.213 68.979-79.037 79.045-15.795 4.201-653.517 4.111-668.849-0.095zM838.001 792.814c27.668-15.562 26.342-1.26 25.597-276.306l-0.599-220.493-43.999 35.205c-86.638 69.317-96.195 69.128-196.872-3.942-48.092-34.906-57.948-41.277-63.834-41.277-6.449 0-11.333 4.339-66.324 58.962-65.234 64.794-70.254 68.531-97.935 72.914-34.97 5.535-48.317-1.311-119.035-61.043-30.799-26.017-69.299-58.516-85.553-72.223l-29.553-24.922 1.106 503.311 6.211 11c6.856 12.137 19.54 21.591 32.348 24.113 4.091 0.804 146.941 1.334 317.44 1.175l310.001-0.289 11-6.185zM611.203 690.811c-41.211-9.971-76.321-45.412-86.103-86.917-27.121-115.062 113.047-194.616 197.151-111.895 85.402 84.001 5.519 227.018-111.048 198.812zM660.001 623.844c51.779-23.414 36.521-98.752-20.001-98.752-59.85 0-71.442 83.571-14.013 101.041 9.528 2.898 24.817 1.869 34.015-2.289zM390.047 349.975c2.079-1.114 29.64-28.14 61.243-60.058 63.153-63.788 68.037-67.482 95.212-72.056 32.899-5.537 45.724 0.517 114.499 54.049 55.091 42.883 59.185 45.481 68.109 43.241 2.811-0.707 34.414-24.801 70.231-53.545l65.121-52.265-1.572-76.452-6.131-10.944c-7.585-13.542-21.491-22.756-37.189-24.643-13.804-1.656-601.334-1.656-615.137 0-27.635 3.32-41.992 21.414-43.668 55.037l-1.029 20.659 56.422 46.999c31.032 25.851 79.273 66.127 107.2 89.5 52.92 44.296 56.031 46.182 66.691 40.476z" />
<glyph unicode="&#xe915;" glyph-name="photo-gallery" d="M238.999 913.19c-32.535-10.332-57.605-36.288-65.933-68.26-3.617-13.883-4.733-532.145-1.175-544.556 8.307-28.959 44.774-60.326 76.977-66.207 20.672-3.776 684.723-2.913 700.946 0.911 33.677 7.939 60.308 32.438 70.259 64.63 5.504 17.818 6.213 529.736 0.755 548.429-8.632 29.576-33.536 54.899-63.009 64.072-15.557 4.844-703.706 5.78-718.82 0.98zM932.846 850.084c9.833-2.278 17.009-7.557 22.154-16.292 3.904-6.63 4.014-10.911 4.554-178.501l0.553-171.709-78.679 91.709c-101.665 118.5-98.491 115.832-136.090 114.348-37.793-1.49-31.826 3.794-134.316-118.963l-80.422-96.325-29.801 29.896c-38.771 38.894-54.794 46.74-85.379 41.815-25.71-4.14-28.303-6.193-106.921-84.616l-72.499-72.32v218.967c0 209.295 0.161 219.274 3.702 225.874 4.511 8.412 11.553 13.908 20.541 16.031 9.541 2.25 662.902 2.337 672.602 0.087zM353.001 783.086c-81.385-34.173-68.951-151.114 17.592-165.455 69.496-11.517 121.923 62.63 89.385 126.413-18.237 35.745-69.914 54.605-106.977 39.043zM398.154 716.155c7.964-7.967 7.985-17.7 0.051-26.578-12.078-13.517-34.204-4.713-34.204 13.609 0 17.060 21.788 25.334 34.153 12.969zM855.857 502.5l104.141-121.5-0.049-24c-0.072-36.997-4.672-49.096-21.384-56.246-10.568-4.521-674.204-4.063-683.763 0.474-3.74 1.777-6.802 3.814-6.802 4.531 0 2.772 175.27 176.241 178.071 176.241 1.631 0 21.407-18.542 43.948-41.208 70.569-70.958 55.703-76.841 178.355 70.551 76.145 91.507 94.648 112.658 98.545 112.658 3.868 0 24.983-23.552 108.938-121.5zM94.001 575.759c-16.325-6.49-12.777 3.917-58.112-170.537l-36.321-139.779 0.758-20.454c1.308-35.382 21.77-67.282 52.472-81.807 12.495-5.911 676.82-184.397 693.722-186.383 36.772-4.321 78.118 18.409 94.426 51.912 7.913 16.256 31.055 105.503 31.055 119.759 0 18.685-12.961 31.534-31.795 31.524-24.492-0.018-28.237-5.985-44.349-70.717-11.968-48.074-12.836-50.598-19.786-57.61-13.038-13.158-1.818-15.329-213.345 41.318-105.449 28.239-255.624 68.447-333.724 89.352-147.812 39.56-151.13 40.64-158.492 51.569-7.429 11.021-6.149 17.539 32.689 166.364 26.783 102.633 36.892 144.407 36.111 149.217-3.364 20.731-26.094 33.912-45.307 26.273z" />
<glyph unicode="&#xe916;" glyph-name="play" d="M332.646 925.094c-360.343-133.883-447.204-619.999-155.412-869.763 181.476-155.336 488.056-155.336 669.532 0 427.231 365.696 13.42 1065.764-514.12 869.763zM667.758 812.265c398.067-175.363 278.298-758.961-155.758-758.961-470.825 0-544.655 686.052-84.229 782.697 66.706 14.003 179.692 2.829 239.987-23.736zM400.184 448.069c0-129.792 3.41-235.986 7.578-235.986 11.781 0 310.269 225.201 309.783 233.723-0.389 6.815-262.817 206.052-301.417 228.838-13.194 7.79-15.944-31.276-15.944-226.575z" />
<glyph unicode="&#xe917;" glyph-name="plus-circle" d="M461 958.697c-314.693-33.836-523.991-335.334-445.125-641.208 70.077-271.785 352.182-436.38 626.637-365.614 271.785 70.077 436.378 352.195 365.606 626.668-49.979 193.838-211.758 341.023-413.007 375.749-23.442 4.045-110.779 6.915-134.111 4.406zM574.001 875.026c278.787-45.036 442.785-330.496 337.925-588.209-137.802-338.678-610.099-363.013-780.933-40.241-145.6 275.092 34.45 600.325 350.008 632.236 15.841 1.603 74.396-0.783 93-3.786zM494.039 685.499c-4.844-2.473-11.558-7.956-14.922-12.183l-6.116-7.683-0.563-86.817-0.561-86.817h-83.515c-82.665 0-83.604-0.044-92.321-4.498-28.498-14.559-30.188-53.686-3.046-70.5l9.684-6.001 169.321-1.236v-167.135l4.654-8.814c14.477-27.407 56.215-27.407 70.692 0l4.654 8.814v167.135l169.321 1.236 9.684 6.001c27.141 16.814 25.452 55.941-3.046 70.5-8.717 4.454-9.656 4.498-92.321 4.498h-83.515l-0.561 86.817-0.563 86.817-6.116 7.683c-7.956 9.997-21.138 16.684-32.883 16.684-5.548 0-12.621-1.772-17.961-4.5z" />
<glyph unicode="&#xe918;" glyph-name="print" d="M288.684 956.027c-71.26-18.68-110.065-72.827-112.172-156.526l-0.942-37.501h670.861l-0.942 37.501c-2.115 84.014-41.070 138.232-112.425 156.483-23.608 6.039-421.363 6.077-444.38 0.044zM112.684 698.028c-51.942-13.617-94.029-55.647-108.173-108.027-5.358-19.845-5.358-296.156 0-316.001 18.432-68.262 76.541-112 148.81-112h24.678v159.452l-12.908 1.037c-35.694 2.865-47.703 37.535-18.883 54.513 6.723 3.958 10.388 3.999 364.79 3.999 354.404 0 358.070-0.041 364.792-3.999 28.82-16.978 16.809-51.648-18.883-54.513l-12.91-1.037 0.003-79.726v-79.726h25.679c73.413 0 131.241 43.233 149.809 112 5.358 19.845 5.358 296.156 0 316.001-14.252 52.78-56.292 94.648-108.426 107.983-23.775 6.080-775.191 6.121-798.38 0.044zM267.791 569.001c20.859-12.288 20.859-37.714 0-50.002-8.1-4.769-98.161-7.209-113.521-3.072-30.17 8.123-32.123 44.582-2.959 55.219 13.299 4.851 107.548 3.113 116.48-2.145zM236.457 150.5l0.543-171.5 5.345-10.127c5.678-10.76 17.139-22.313 28.035-28.26 10.284-5.612 470.958-5.612 481.239 0 10.898 5.947 22.356 17.5 28.037 28.26l5.345 10.127 1.085 342.999h-550.172l0.543-171.5zM603.791 249.001c10.614-6.254 15.209-13.806 15.209-25.001s-4.595-18.747-15.209-25.001c-8.013-4.718-161.672-7.34-177.674-3.031-30.021 8.084-31.882 44.628-2.806 55.158 13.773 4.987 171.558 3.128 180.48-2.125zM603.791 121.001c10.614-6.254 15.209-13.806 15.209-25.001s-4.595-18.747-15.209-25.001c-8.013-4.718-161.672-7.34-177.674-3.031-30.021 8.084-31.882 44.628-2.806 55.158 13.773 4.987 171.558 3.128 180.48-2.125z" />
<glyph unicode="&#xe919;" glyph-name="resfresh" d="M457.001 794.939c-90.701-14.659-178.022-68.029-228.444-139.622-24.087-34.204-16.059-62.316 17.8-62.316 17.748 0 21.036 2.068 34.903 21.975 135.306 194.225 447.27 134.715 505.925-96.509 6.525-25.72 6.218-26.097-10.683-13.061-25.897 19.973-53.809 15.455-60.611-9.812-5.699-21.156-1.807-26.196 52.255-67.707 70.73-54.303 68.124-54.61 121.5 14.31 38.195 49.321 38.359 49.597 38.341 64.433-0.044 33.014-41.475 42.634-61.788 14.349-8.307-11.566-8.911-11.387-11.93 3.523-26.524 131.069-137.313 239.391-273.892 267.799-26.074 5.422-96.796 6.935-123.377 2.639zM176.847 504.067c-5.033-2.038-11.523-9.828-49.92-59.94l-29.786-38.874-0.796-12.524c-2.245-35.244 39.255-47.882 60.81-18.519 9.116 12.421 9.528 12.332 12.575-2.711 19.791-97.797 90.015-188.383 182.648-235.612 156.244-79.657 354.58-29.934 448.484 112.438 30.956 46.93-25.58 79.34-57.864 33.172-137.091-196.055-451.574-134.339-507.116 99.523-5.363 22.574-5.312 22.615 11.615 9.567 25.902-19.963 53.809-15.442 60.611 9.82 5.699 21.156 1.807 26.196-52.255 67.707-49.976 38.369-60.828 43.308-79.007 35.953z" />
<glyph unicode="&#xe91a;" glyph-name="search" d="M361.999 958.723c-2.749-0.404-11.75-1.705-19.999-2.89-248.161-35.633-406.139-303.933-318.159-540.342 94.61-254.218 407.652-348.662 622.159-187.702l13 9.756 147.999-147.461c94.418-94.075 150.646-148.662 155.302-150.774 28.303-12.831 59.615 5.811 61.35 36.529 1.265 22.405 6.679 16.172-153.843 177.162l-147.571 147.999 4.918 6.001c136.95 167.091 101.642 436.109-74.77 569.708-82.476 62.461-199.135 95.409-290.386 82.015zM456.561 868.964c208.507-33.106 329.206-265.61 235.325-453.307-119.401-238.715-453.422-238.843-572.659-0.22-114.194 228.534 83.172 493.88 337.334 453.527z" />
<glyph unicode="&#xe91b;" glyph-name="twitter" d="M667 860.805c-113.705-25.303-185.28-131.226-165.76-245.304l1.283-7.501h-7.821c-133.962 0-315.108 90.271-410.179 204.403-13.55 16.266-13.14 16.192-19.584 3.476-46.541-91.843-20.851-202.138 61.829-265.459l5.768-4.419-9.769 1.129c-25.295 2.918-53.391 10.985-72.863 20.918-10.854 5.537-10.639 5.855-9.249-13.734 6.149-86.633 63.158-159.834 145.185-186.429l16.84-5.46-11.633-2.414c-13.74-2.852-54.024-3.674-67.548-1.377-11.482 1.948-11.494 1.882-3.238-17.951 28.406-68.234 97.879-119.749 172.224-127.703l13.484-1.441-9.029-6.897c-71.782-54.81-188.71-87.936-279.439-79.168-22.272 2.153-22.062 1.559 5-14.065 213.338-123.162 488.916-103.201 675.789 48.95 136.335 111.002 221.56 290.138 221.691 465.964l0.020 29.325 17.761 14.162c30.262 24.133 90.227 90.87 85.711 95.386-0.532 0.532-7.606-1.659-15.718-4.867-16.276-6.436-43.269-14.879-58.755-18.378-17.357-3.924-39.334-7.473-37.635-6.077 0.899 0.737 6.771 5.197 13.048 9.91 25.405 19.080 47.473 46.595 61.619 76.836 13.934 29.788 14.515 29.299-16.338 13.747-26.509-13.363-62.636-26.729-92.022-34.051l-15.327-3.817-8.673 8.842c-42.342 43.172-125.676 67.041-186.673 53.466z" />
<glyph unicode="&#xe91c;" d="M627.712 670.561c-57.649-8.85-100.204-51.781-106.547-107.494-1.257-11.044-1.162-13.619 1.364-36.731 0.468-4.301-18.345-2.944-52.001 3.753-73.372 14.597-141.020 51.901-190.989 105.316-13.437 14.364-13.271 14.316-17.774 5.363-24.535-48.794-9.175-114.358 34.266-146.245 2.765-2.030 5.025-4.111 5.025-4.626 0-3.796-31.355 2.836-44.068 9.321-7.913 4.037-8.453 3.471-7.608-7.954 3.528-47.629 41.513-93.161 87.813-105.262 3.822-0.998 7.176-2.179 7.45-2.621 1.682-2.719-26.56-5.637-40.133-4.145-12.567 1.38-12.626 1.29-6.989-10.918 17.664-38.252 55.135-65.201 97.661-70.234 11.791-1.395 12.209-2.24 3.976-8.087-41.736-29.647-94.743-45.514-148.959-44.588-22.966 0.389-23.939 0.177-17.592-3.881 43.635-27.896 110.986-46.943 173.693-49.116 196.782-6.825 358.072 143.311 363.459 338.322l0.604 21.804 9.313 7.299c20.229 15.849 52.17 49.938 49.395 52.713-0.681 0.681-1.18 0.538-16.527-4.769-21.862-7.557-52.931-13.332-47.462-8.819 0.197 0.161 3.814 2.834 8.038 5.937 15.329 11.259 28.649 27.566 36.902 45.176 5.983 12.767 5.88 12.884-5.949 6.948-17.572-8.819-38.208-16.466-55.529-20.575-12.109-2.872-12.406-2.819-19.579 3.581-26.115 23.304-67.348 35.735-101.253 30.533z" />
<glyph unicode="&#xe91d;" d="M441.856 958.92c-8.53-0.893-24.748-3.643-35.84-6.080-2.816-0.617-6.502-1.364-8.192-1.659s-3.994-0.934-5.12-1.421c-1.126-0.486-3.43-1.108-5.12-1.382s-4.915-1.027-7.168-1.677c-2.253-0.648-5.248-1.413-6.656-1.697s-3.482-0.891-4.608-1.349c-1.126-0.456-4.122-1.388-6.656-2.068-2.534-0.684-5.409-1.656-6.387-2.166s-2.481-0.924-3.341-0.924c-0.86 0-2.363-0.404-3.341-0.899s-3.622-1.454-5.875-2.135c-4.406-1.329-26.691-9.618-31.744-11.804-10.813-4.682-14.938-6.605-29.184-13.617-8.73-4.296-16.102-8.061-16.384-8.369-0.282-0.305-1.894-1.231-3.584-2.058s-4.997-2.785-7.352-4.352c-2.355-1.564-4.549-2.847-4.874-2.847-1.244 0-23.081-13.903-34.258-21.811-49.505-35.031-89.257-74.493-124.5-123.597-8.248-11.494-24.087-36.099-24.087-37.422 0-0.364-0.852-1.884-1.894-3.379-1.882-2.696-6.433-10.975-14.162-25.759-9.705-18.565-22.543-49.536-28.019-67.584-1.28-4.224-2.716-8.118-3.19-8.653-0.476-0.535-0.863-2.038-0.863-3.341s-0.404-3.169-0.899-4.147c-0.865-1.715-1.444-3.589-4.191-13.555-0.696-2.534-1.682-5.665-2.186-6.961-0.504-1.293-0.916-3.686-0.916-5.315 0-1.631-0.412-3.218-0.916-3.53-0.504-0.31-1.165-2.296-1.469-4.411-0.305-2.117-1.068-6.152-1.697-8.968-2.542-11.364-4.936-26.278-6.244-38.912-1.505-14.515-0.84-143.050 0.75-144.996 0.645-0.788 1.428-3.74 1.736-6.556 0.632-5.747 2.051-13.865 3.758-21.504 0.63-2.816 1.393-6.851 1.697-8.968 0.305-2.115 0.965-4.101 1.469-4.411 0.504-0.312 0.916-1.9 0.916-3.53 0-1.628 0.412-4.022 0.916-5.315 0.504-1.295 1.48-4.426 2.168-6.961 0.686-2.534 1.603-5.76 2.035-7.168s1.347-4.634 2.030-7.168c0.684-2.534 1.656-5.409 2.166-6.387s0.924-2.614 0.924-3.635c0-1.021 0.384-2.294 0.852-2.829 0.466-0.535 1.418-3.046 2.115-5.581 1.454-5.309 9.551-26.988 12.621-33.792 1.144-2.534 3.83-8.584 5.97-13.44 4.047-9.188 14.474-29.409 19.735-38.272 1.672-2.816 4.436-7.644 6.141-10.726 23.322-42.153 74.355-101.696 114.998-134.17 27.907-22.3 59.482-43.656 78.72-53.248 1.69-0.842 3.302-1.779 3.584-2.079 0.558-0.594 32.763-16.476 39.424-19.441 2.253-1.004 6.28-2.793 8.95-3.976 2.668-1.185 5.455-2.153 6.195-2.153 0.737 0 1.779-0.387 2.314-0.858 1.303-1.147 16.189-6.508 27.597-9.935 5.069-1.523 10.017-3.174 10.995-3.668s2.908-0.899 4.291-0.899c1.382 0 2.798-0.461 3.146-1.024s1.961-1.024 3.584-1.024c1.623 0 3.236-0.461 3.584-1.024s1.961-1.024 3.584-1.024c1.623 0 3.236-0.461 3.584-1.024s2.422-1.024 4.608-1.024c2.186 0 4.229-0.412 4.541-0.916 0.31-0.504 2.296-1.165 4.411-1.469 2.117-0.305 6.152-1.068 8.968-1.697s7.539-1.582 10.496-2.115c2.957-0.535 8.026-1.452 11.264-2.043 13.271-2.414 26.074-2.844 84.736-2.852 58.412-0.008 70.103 0.392 83.712 2.857 3.238 0.586 8.538 1.546 11.776 2.132 3.238 0.584 7.731 1.324 9.984 1.641s4.534 0.991 5.069 1.495c0.535 0.504 2.465 0.919 4.291 0.919s3.604 0.461 3.953 1.024c0.348 0.563 2.422 1.024 4.608 1.024s4.26 0.461 4.608 1.024c0.348 0.563 1.961 1.024 3.584 1.024s3.236 0.461 3.584 1.024c0.348 0.563 1.961 1.024 3.584 1.024s3.236 0.461 3.584 1.024c0.348 0.563 1.764 1.024 3.146 1.024s3.313 0.404 4.291 0.899c0.978 0.494 5.926 2.143 10.995 3.666 9.595 2.883 28.759 9.777 35.84 12.892 2.253 0.991 6.164 2.652 8.694 3.694 5.345 2.196 39.084 19.098 46.602 23.342 14.835 8.379 20.613 11.937 32.768 20.186 16.399 11.131 22.996 15.752 25.418 17.81 1.029 0.876 5.176 4.116 9.216 7.206 26.066 19.93 58.839 52.383 81.078 80.282 2.816 3.533 6.546 8.090 8.292 10.127 6.917 8.079 30.633 43.692 37.248 55.928 2.437 4.506 5.215 9.344 6.175 10.752 1.905 2.79 20.477 40.233 20.477 41.28 0 0.353 1.070 3.077 2.381 6.049 7.076 16.069 13.655 34.634 18.243 51.487 0.612 2.253 1.487 5.018 1.943 6.144 0.458 1.126 1.065 3.2 1.349 4.608s1.050 4.403 1.697 6.656c0.65 2.253 1.403 5.478 1.677 7.168s0.896 3.994 1.382 5.12c0.486 1.126 1.126 3.43 1.421 5.12s1.042 5.376 1.659 8.192c0.62 2.816 1.562 7.539 2.094 10.496 0.535 2.957 1.449 8.026 2.033 11.264 2.66 14.769 3.128 30.267 2.831 94.052-0.225 48.212-0.635 67.057-1.485 68.096-0.645 0.788-1.428 3.74-1.736 6.556-0.632 5.747-2.051 13.865-3.758 21.504-0.63 2.816-1.393 6.851-1.697 8.968-0.305 2.115-0.965 4.101-1.469 4.411-0.504 0.312-0.916 1.9-0.916 3.53 0 1.628-0.412 4.022-0.916 5.315-0.504 1.295-1.48 4.426-2.168 6.961-0.686 2.534-1.603 5.76-2.035 7.168s-1.29 4.403-1.905 6.656c-4.022 14.748-10.012 32.113-14.572 42.23-1.075 2.386-1.956 4.813-1.956 5.389s-0.453 1.848-1.009 2.826c-0.553 0.978-2.435 5.005-4.18 8.947-7.368 16.64-16.294 33.938-29.33 56.832-10.44 18.332-34.038 50.819-53.709 73.938-20.329 23.89-58.808 59.072-85.773 78.418-9.587 6.876-33.562 22.51-39.462 25.728-3.356 1.833-7.273 4.116-8.704 5.076s-3.983 2.419-5.673 3.244c-1.69 0.822-3.302 1.764-3.584 2.089-0.663 0.771-38.385 19.379-39.278 19.379-0.374 0-2.634 0.896-5.020 1.992-7.854 3.602-34.568 13.368-36.567 13.368-1.078 0-2.243 0.461-2.591 1.024s-1.731 1.024-3.072 1.024c-1.341 0-2.724 0.461-3.072 1.024s-1.731 1.024-3.072 1.024c-1.341 0-2.724 0.461-3.072 1.024s-1.961 1.024-3.584 1.024c-1.623 0-3.236 0.461-3.584 1.024s-1.961 1.024-3.584 1.024c-1.623 0-3.205 0.41-3.515 0.911-0.31 0.499-2.063 1.17-3.899 1.487s-4.951 0.86-6.922 1.206c-1.971 0.348-4.506 1.029-5.632 1.516s-3.43 1.126-5.12 1.421c-1.69 0.294-5.376 1.042-8.192 1.659-2.816 0.62-7.539 1.562-10.496 2.094-2.957 0.535-8.026 1.452-11.264 2.043-3.238 0.589-9.805 1.469-14.592 1.958-10.447 1.065-129.574 1.052-139.776-0.015zM667.254 669.647c22.492-3.922 45.043-14.746 61.711-29.619 7.173-6.4 7.47-6.454 19.579-3.581 17.321 4.109 37.957 11.756 55.529 20.575 11.83 5.937 11.932 5.819 5.949-6.948-8.253-17.61-21.573-33.917-36.902-45.176-4.224-3.103-7.841-5.775-8.038-5.937-5.468-4.513 25.6 1.262 47.462 8.819 15.347 5.307 15.846 5.45 16.527 4.769 2.775-2.775-29.166-36.864-49.395-52.713l-9.313-7.299-0.604-21.804c-5.386-195.011-166.676-345.147-363.459-338.322-62.707 2.173-130.058 21.22-173.693 49.116-6.346 4.058-5.373 4.27 17.592 3.881 54.216-0.927 107.223 14.94 148.959 44.588 8.233 5.847 7.816 6.692-3.976 8.087-42.527 5.033-79.997 31.982-97.661 70.234-5.637 12.209-5.578 12.298 6.989 10.918 13.573-1.492 41.815 1.426 40.133 4.145-0.274 0.443-3.628 1.623-7.45 2.621-46.3 12.101-84.285 57.633-87.813 105.262-0.845 11.425-0.305 11.991 7.608 7.954 12.713-6.484 44.068-13.117 44.068-9.321 0 0.515-2.26 2.596-5.025 4.626-43.441 31.887-58.801 97.452-34.266 146.245 4.503 8.952 4.337 9.001 17.774-5.363 49.969-53.414 117.617-90.719 190.989-105.316 33.656-6.697 52.47-8.054 52.001-3.753-2.527 23.112-2.621 25.687-1.364 36.731 6.344 55.713 48.899 98.644 106.547 107.494 7.101 1.088 31.255 0.53 39.542-0.914z" />
<glyph unicode="&#xe91e;" glyph-name="upload" d="M488 799.918c-101.542-9.764-188.585-78.804-219.256-173.919-3.016-9.349-5.542-17.142-5.614-17.316s-8.43-1.743-18.578-3.489c-206.976-35.62-285.724-291.556-134.707-437.811 58.196-56.361 104.079-71.388 217.917-71.375 82.529 0.010 88.223 2.074 88.223 31.992 0 29.266-5.202 31.227-86.589 32.617-48.763 0.832-69.847 1.935-79.396 4.157-218.033 50.711-196.096 357.916 26.957 377.49 36.503 3.205 41.633 7.357 48.148 38.968 40.845 198.223 327.675 203.443 371.855 6.766 8.003-35.622 13.156-41.393 39.547-44.301 54.802-6.034 81.915-15.278 112.712-38.428 113.167-85.069 98.417-260.326-27.21-323.31-35.459-17.777-48.719-19.999-127.404-21.343-81.388-1.39-86.589-3.351-86.589-32.617 0-29.829 5.86-31.985 86.984-31.987 100.667 0 139.077 10.112 193.221 50.872 177.185 133.381 111.265 415.050-107.039 457.37-10.985 2.13-20.119 4.068-20.296 4.308s-2.255 6.907-4.623 14.815c-33.265 111.132-149.939 187.914-268.262 176.54zM494.999 540.204c-15.857-9.994-172.698-171.092-174.106-178.831-4.306-23.683 8.855-41.372 30.779-41.372 14.275 0 18.455 3.318 73.828 58.58l54.5 54.392 0.008-205.985c0.008-202.015 0.084-206.113 3.981-212.506 12.032-19.732 43.991-19.732 56.023 0 3.896 6.392 3.973 10.491 3.981 212.506l0.008 205.985 54.5-54.392c55.373-55.263 59.553-58.58 73.828-58.58 21.924 0 35.085 17.69 30.779 41.372-1.446 7.962-162.409 172.828-175.508 179.766-7.849 4.16-25.311 3.658-32.599-0.934z" />
<glyph unicode="&#xe91f;" glyph-name="user2" d="M464 957.133c-255.16-45.624-338.304-374.236-133.619-528.1l11.574-8.701-14.477-5.402c-187.238-69.86-326.797-265.69-327.416-459.43l-0.061-19.5h81.4l1.211 26.501c12.193 266.929 278.341 458.693 540.552 389.476 176.835-46.679 310.013-209.679 318.226-389.476l1.211-26.501h81.4l-0.061 19.5c-0.62 193.741-140.178 389.571-327.416 459.43l-14.477 5.402 11.684 8.783c152.988 115.003 152.108 354.189-1.728 470.769-63.485 48.108-153.18 70.63-228.001 57.249zM550.5 875.159c167.665-32.079 233.848-235.372 116.764-358.656-132.943-139.988-369.265-45.594-369.265 147.497 0 133.514 122.573 236.017 252.5 211.159z" />
<glyph unicode="&#xe920;" glyph-name="video" d="M158.999 958.74c-78.385-16.238-133.686-67.085-154.161-141.74-3.717-13.563-3.837-25.162-3.837-370.002v-355.999l4.698-15.002c22.973-73.359 74.847-121.759 146.931-137.098 20.365-4.334 698.214-4.352 718.807-0.018 72.148 15.176 127.985 68.137 147.725 140.116 5.998 21.878 5.998 716.124 0 738.002-18.583 67.758-64.753 114.811-135.16 137.738l-13.002 4.234-353.999 0.297c-194.701 0.164-355.799-0.074-358.001-0.53zM281.242 844.5c17.623-23.926 47.493-64.425 66.373-89.999l34.332-46.5-309.947-0.003 0.031 37.501c0.038 51.4 4.669 69.32 24.781 95.903 26.276 34.734 54.976 46.308 115.287 46.487l37.1 0.11 32.044-43.5zM616.189 800.499c35.471-48.125 65.349-88.625 66.396-89.999 1.518-1.992-19.564-2.499-103.841-2.496l-105.743 0.005-132.785 179.991h211.479l64.494-87.501zM870.144 882.506c55.836-18.89 79.997-58.079 81.395-132.027l0.804-42.522-177.277 1.042-63.629 86.001c-34.995 47.299-64.538 87.611-65.646 89.582-3.489 6.193 205.632 4.257 224.353-2.076zM951.537 369.5l-0.538-266.501-5.389-14.761c-13.018-35.643-40.878-62.948-75.955-74.437l-14.656-4.8h-685.998l-14.656 4.8c-35.077 11.489-62.938 38.794-75.955 74.437l-5.389 14.761-0.538 266.501-0.535 266.499h880.143l-0.535-266.499zM391.209 518.034c-6.922-2.204-16.302-10.752-20.887-19.034-3.023-5.46-3.323-21.386-3.323-177.001v-171l4.608-8.033c7.171-12.508 16.673-17.966 31.286-17.966h12.183l145.964 84.219c164.539 94.938 157.627 89.992 157.627 112.781 0 22.641 6.756 17.81-156.995 112.294-154.762 89.298-154.076 88.96-170.463 83.74zM532.49 366.523c41.521-23.936 75.494-43.988 75.5-44.557 0.005-0.571-35.766-21.665-79.491-46.876-43.725-25.213-81.523-47.127-83.999-48.696l-4.5-2.854v196.687l8.499-5.089c4.675-2.801 42.47-24.676 83.991-48.614z" />
<glyph unicode="&#xe921;" d="M484.864 702.459c-174.502-20.157-275.722-200.84-202.33-361.17l3.144-6.871-6.19-29.993c-3.405-16.497-6.605-32.067-7.112-34.601-0.504-2.534-3.704-18.153-7.112-34.706-7.209-35.039-7.288-36.037-3.2-40.125 4.37-4.37-3.494-5.821 92.239 17.016 49.743 11.866 41.359 11.528 62.976 2.542 140.483-58.401 304.681 25.644 341.061 174.569 41.741 170.88-100.076 333.371-273.477 313.339zM546.66 645.665c130.596-24.077 201.659-164.424 143.493-283.397-48.942-100.114-168.74-139.174-270.554-88.218-15.112 7.562-10.442 7.672-47.375-1.119-7.322-1.743-17.459-4.137-22.528-5.317-5.069-1.183-11.727-2.78-14.799-3.551-7.918-1.992-7.995-1.72-4.347 15.69 14.966 71.465 14.121 60.57 5.965 76.869-74.831 149.545 48.284 318.881 210.145 289.042zM419.965 569.6c-9.19-4.933-26.12-24.151-31.009-35.203-18.634-42.125 15.148-108.797 82.184-162.204 61.74-49.185 123.456-60.142 156.349-27.756 23.997 23.629 27.351 42.708 8.806 50.107-3.853 1.536-53.453 15.57-55.007 15.562-5.153-0.026-9.787-2.834-18.478-11.21-14.735-14.195-18.66-15.191-32.074-8.138-22.298 11.722-58.191 42.829-73.395 63.601-11.046 15.094-10.867 19.576 1.4 35.113 11.218 14.208 11.136 15.483-3.072 47.503-15.613 35.187-21.281 40.366-35.704 32.625z" />
<glyph unicode="&#xe922;" d="M440.832 958.874c-3.942-0.438-9.818-1.285-13.056-1.884-12.782-2.358-17.833-3.238-21.76-3.791-2.253-0.317-4.534-0.991-5.069-1.495s-2.696-0.919-4.803-0.919c-2.107 0-4.086-0.41-4.396-0.911-0.31-0.499-2.179-1.19-4.155-1.536-1.976-0.343-5.212-0.906-7.188-1.249-1.976-0.346-3.845-1.037-4.155-1.536-0.31-0.502-1.892-0.911-3.515-0.911s-3.236-0.461-3.584-1.024c-0.348-0.563-1.961-1.024-3.584-1.024s-3.236-0.461-3.584-1.024c-0.348-0.563-1.731-1.024-3.072-1.024s-2.724-0.461-3.072-1.024c-0.348-0.563-1.533-1.024-2.634-1.024s-2.801-0.404-3.779-0.899c-0.978-0.494-3.622-1.454-5.875-2.132-7.652-2.307-22.316-7.764-31.744-11.814-2.816-1.211-6.733-2.842-8.704-3.625-8.553-3.405-43.738-21.729-49.311-25.682-1.495-1.060-3.005-1.928-3.359-1.928-0.837 0-25.311-15.334-31.406-19.679-2.593-1.848-6.971-4.954-9.728-6.902-53.189-37.576-104.056-93.284-140.608-153.989-18.401-30.561-38.705-75.046-46.108-101.030-0.722-2.534-1.669-5.53-2.104-6.656s-1.357-4.122-2.048-6.656c-0.691-2.534-1.631-5.53-2.086-6.656-0.458-1.126-1.065-3.2-1.349-4.608s-1.042-4.403-1.682-6.656c-3.492-12.293-8.497-35.4-10.314-47.616-2.555-17.167-2.854-25.987-2.847-83.968 0.010-66.191 0.358-72.973 4.961-96.256 0.614-3.098 1.354-7.245 1.646-9.216 0.294-1.971 0.934-4.506 1.426-5.632 0.489-1.126 1.124-3.43 1.408-5.12 0.287-1.69 1.042-5.146 1.679-7.68 0.64-2.534 1.411-6.111 1.713-7.946 0.305-1.836 0.963-3.589 1.462-3.899 0.502-0.31 0.911-1.541 0.911-2.734 0-2.307 1.702-8.305 3.197-11.264 0.494-0.978 0.899-2.481 0.899-3.341s0.415-2.363 0.924-3.341c0.509-0.978 1.508-3.853 2.22-6.387 1.175-4.173 6.198-18.504 9.69-27.648 6.541-17.129 27.556-60.186 32.233-66.048 0.451-0.563 2.327-3.779 4.168-7.142 10.534-19.244 31.503-48.276 54.899-76.019 12.421-14.725 45.015-46.413 60.347-58.662 17.262-13.793 24.074-18.811 42.88-31.588 11.86-8.056 16.904-11.146 34.304-21.015 17.009-9.646 51.057-25.487 69.12-32.159 6.195-2.289 15.411-5.407 20.48-6.93s10.017-3.172 10.995-3.666c0.978-0.494 2.908-0.899 4.291-0.899s2.798-0.461 3.146-1.024c0.348-0.563 1.961-1.024 3.584-1.024s3.205-0.41 3.515-0.911c0.532-0.86 1.8-1.175 11.087-2.757 2.117-0.358 4.101-1.065 4.411-1.564 0.31-0.502 2.289-0.911 4.396-0.911s4.268-0.415 4.803-0.919c0.916-0.865 3.876-1.426 14.797-2.796 2.534-0.32 5.046-0.996 5.581-1.505 0.535-0.507 3.323-0.924 6.195-0.924s5.798-0.576 6.502-1.28c0.991-0.991 16.445-1.352 68.557-1.595 64.74-0.305 77.189 0.077 94.413 2.888 3.661 0.599 8.73 1.344 11.264 1.661 2.534 0.315 5.046 0.988 5.581 1.498 0.535 0.507 2.696 0.924 4.803 0.924s4.116 0.461 4.465 1.024c0.348 0.563 2.422 1.024 4.608 1.024s4.26 0.461 4.608 1.024c0.348 0.563 2.191 1.024 4.096 1.024s3.748 0.461 4.096 1.024c0.348 0.563 1.961 1.024 3.584 1.024s3.236 0.461 3.584 1.024c0.348 0.563 1.961 1.024 3.584 1.024s3.236 0.461 3.584 1.024c0.348 0.563 1.961 1.024 3.584 1.024s3.236 0.461 3.584 1.024c0.348 0.563 1.48 1.024 2.516 1.024 3.843 0 37.294 11.924 52.268 18.634 22.456 10.058 35.53 16.788 59.904 30.833 7.388 4.257 34.417 22.016 35.328 23.212 0.282 0.371 2.816 2.225 5.632 4.122s5.35 3.748 5.632 4.116c0.282 0.366 3.968 3.295 8.192 6.508 24.732 18.813 61.486 55.13 81.638 80.66 2.381 3.016 6.359 8.018 8.842 11.116 9.029 11.269 29.862 42.568 36.467 54.784 2.437 4.506 5.21 9.344 6.162 10.752 8.891 13.13 29.97 61.85 37.44 86.528 1.533 5.069 3.123 10.138 3.53 11.264 1.992 5.512 3.072 9.564 3.072 11.533 0 1.193 0.41 2.424 0.911 2.734 0.499 0.31 1.157 2.063 1.462 3.899 0.302 1.836 1.073 5.412 1.713 7.946 0.637 2.534 1.393 5.99 1.679 7.68 0.284 1.69 0.919 3.994 1.408 5.12 0.492 1.126 1.132 3.661 1.426 5.632 0.292 1.971 1.042 6.118 1.667 9.216 0.622 3.098 1.354 7.936 1.628 10.752 0.271 2.816 1.047 6.226 1.723 7.58 1.774 3.54 1.774 152.307 0 155.848-0.676 1.354-1.452 4.764-1.723 7.58-0.274 2.816-1.006 7.654-1.628 10.752-0.625 3.098-1.375 7.245-1.667 9.216-0.294 1.971-0.934 4.506-1.426 5.632-0.489 1.126-1.124 3.43-1.408 5.12-0.586 3.464-1.997 9.29-3.72 15.36-0.64 2.253-1.398 5.248-1.682 6.656s-0.891 3.482-1.349 4.608c-0.456 1.126-1.331 3.891-1.943 6.144-8.438 30.986-24.538 69.238-43.105 102.4-1.26 2.253-3.709 6.63-5.443 9.728-7.79 13.924-26.885 41.58-40.801 59.1-35.389 44.547-72.507 78.584-120.202 110.223-7.885 5.233-16.41 10.629-18.944 11.999-2.534 1.367-4.838 2.716-5.12 2.998s-1.613 1.132-2.957 1.889c-1.344 0.755-4.109 2.324-6.144 3.484-18.627 10.624-44.242 22.853-60.531 28.897-4.224 1.567-10.445 3.881-13.824 5.14-3.379 1.257-8.909 3.082-12.288 4.052s-6.945 2.186-7.923 2.701c-0.978 0.517-2.678 0.94-3.779 0.94s-2.286 0.461-2.634 1.024c-0.348 0.563-1.961 1.024-3.584 1.024s-3.236 0.461-3.584 1.024c-0.348 0.563-1.961 1.024-3.584 1.024s-3.236 0.461-3.584 1.024c-0.348 0.563-1.961 1.024-3.584 1.024s-3.236 0.461-3.584 1.024c-0.348 0.563-2.191 1.024-4.096 1.024s-3.748 0.461-4.096 1.024c-0.348 0.563-2.422 1.024-4.608 1.024s-4.26 0.461-4.608 1.024c-0.348 0.563-2.358 1.024-4.465 1.024s-4.268 0.417-4.803 0.924c-0.535 0.509-3.046 1.183-5.581 1.498-2.534 0.317-7.603 1.068-11.264 1.669s-10.342 1.505-14.848 2.004c-9.971 1.108-131.272 1.060-141.312-0.054zM538.112 702.487c210.908-23.657 302.7-275.791 156.17-428.972-70.618-73.823-183.473-97.846-277.002-58.964-21.617 8.986-13.233 9.324-62.976-2.542-95.734-22.838-87.869-21.386-92.239-17.016-4.088 4.088-4.009 5.087 3.2 40.125 3.407 16.553 6.607 32.172 7.112 34.706 0.507 2.534 3.707 18.104 7.112 34.601l6.19 29.993-3.144 6.871c-82.696 180.657 60.531 383.076 255.578 361.198zM490.491 647.688c-140.273-16.241-217.987-163.144-153.976-291.064 8.156-16.3 9.001-5.404-5.965-76.869-3.648-17.411-3.571-17.682 4.347-15.69 3.072 0.771 9.731 2.368 14.799 3.551 5.069 1.18 15.206 3.574 22.528 5.317 36.933 8.791 32.264 8.681 47.375 1.119 128.074-64.1 274.903 15.386 290.115 157.053 13.207 123.011-95.951 230.856-219.223 216.584zM436.705 569.567c5.612-3.177 6.881-5.358 18.964-32.591 14.208-32.020 14.29-33.295 3.072-47.503-12.268-15.537-12.447-20.019-1.4-35.113 15.204-20.772 51.098-51.878 73.395-63.601 13.414-7.053 17.339-6.057 32.074 8.138 8.691 8.376 13.325 11.185 18.478 11.21 1.554 0.008 51.154-14.026 55.007-15.562 18.545-7.398 15.191-26.478-8.806-50.107-38.106-37.517-112.003-17.101-181.156 50.048-58.217 56.532-77.402 113.743-50.693 151.171 15.145 21.217 30.269 30.026 41.065 23.91z" />
<glyph unicode="&#xe923;" glyph-name="youtube" d="M358.001 791.985c-220.89-7.002-263.885-17.769-295.483-73.984-44.024-78.318-42.263-458.004 2.435-525.325 22.546-33.956 51.046-50.486 99.049-57.444 143.229-20.759 597.076-19.533 710.162 1.917 93.934 17.82 116.764 80.745 116.764 321.851 0 246.884-23.585 303.946-132.247 319.956-76.9 11.331-339.062 18.153-500.68 13.028zM539.249 528.486c64.763-37.307 119.206-68.654 120.983-69.66 2.644-1.492-230.072-138.373-242.26-142.492-1.283-0.435-1.971 48.66-1.971 140.713 0 119.094 0.433 141.215 2.749 140.326 1.51-0.581 55.736-31.58 120.499-68.887z" />
<glyph unicode="&#xe924;" glyph-name="zoom" d="M432 893.796c-287.314-32.305-455.416-341.297-326.735-600.584 114.783-231.283 414.561-303.104 621.358-148.864 8.594 6.408 16.361 11.651 17.262 11.651 0.904 0 38.423-34.307 83.379-76.237 44.954-41.93 84.631-77.481 88.172-78.999 27.238-11.692 54.618 16.791 42.877 44.605-2.158 5.112-118.899 115.86-160 151.785l-7.037 6.152 10.711 12.846c76.698 92.009 109.192 224.205 84.895 345.382-42.417 211.558-240.643 356.347-454.881 332.262zM524.001 827.812c266.752-31.022 400.010-356.293 231.396-564.813-209.695-259.315-624.274-115.208-624.274 217.001 0 213.373 179.843 372.588 392.878 347.812zM462.482 716.012c-14.871-9.068-14.467-5.983-14.474-110.513l-0.008-93.499-93.499-0.008c-89.772-0.008-93.76-0.166-100.019-3.981-19.732-12.032-19.732-43.991 0-56.023 6.259-3.814 10.248-3.973 100.019-3.981l93.499-0.008 0.008-93.499c0.008-104.53-0.397-101.445 14.474-110.513 8.855-5.399 26.181-5.399 35.036 0 14.871 9.068 14.467 5.983 14.474 110.513l0.008 93.499 93.499 0.008c89.772 0.008 93.76 0.166 100.019 3.981 19.732 12.032 19.732 43.991 0 56.023-6.259 3.814-10.248 3.973-100.019 3.981l-93.499 0.008-0.008 93.499c-0.008 104.53 0.397 101.445-14.474 110.513-8.855 5.399-26.181 5.399-35.036 0z" />
<glyph unicode="&#xe925;" glyph-name="add" d="M18.527 954.885c-4.79-2.872-10.657-8.806-13.499-13.658l-5.028-8.579v-208.404c0-233.098-1.027-216.294 13.975-228.915 11.082-9.326 10.604-9.308 222.026-9.308 221.061 0 212.037-0.507 225.262 12.716 13.222 13.225 12.716 4.201 12.716 225.262 0 211.423 0.018 210.944-9.308 222.026-12.623 15.002 4.211 13.978-229.092 13.957l-208.579-0.020-8.474-5.076zM571.743 955.988c-22.779-12.037-21.722-0.742-21.722-231.99 0-221.12-0.512-212.035 12.744-225.29 13.348-13.348 3.804-12.838 229.586-12.244 230.886 0.604 210.632-0.86 224.438 16.22l6.211 7.685 0.527 211.095 0.527 211.092-5.079 8.668c-2.99 5.1-8.632 10.749-13.704 13.722l-8.622 5.053-208.824-0.090c-201.884-0.084-209.065-0.215-216.082-3.922zM392 723.999v-155.999h-312v312h312v-156.001zM944 723.999v-155.999h-312v312h312v-156.001zM25.311 407.084c-9.467-3.377-16.509-9.764-21.507-19.505-3.668-7.153-3.804-14.907-3.804-215.823v-208.404l5.053-8.622c2.972-5.071 8.622-10.714 13.722-13.704l8.668-5.079 422.188 1.055 7.685 6.211c17.080 13.806 15.616-6.449 16.22 224.438 0.384 146.281-0.1 207.022-1.702 212.966-2.895 10.757-16.169 24.179-26.839 27.144-12.882 3.576-409.551 2.936-419.684-0.676zM776 407.752c-26.916-8.041-27.904-12.004-27.955-112.251l-0.044-83.502-83.502-0.044c-77.228-0.041-84.116-0.325-91.732-3.781-27.139-12.326-29.471-52.050-4.088-69.647l7.974-5.527 171.223-1.162 0.563-85.591 0.561-85.594 5.724-8.256c13.176-19.008 43.29-22.403 60.029-6.769 13.092 12.227 13.153 12.728 13.202 103.872l0.046 82.499 82.499 0.046c92.46 0.049 92.099-0.003 104.919 14.6 15.846 18.045 9.467 50.762-11.919 61.112-8.499 4.116-11.264 4.242-92.050 4.242h-83.287l-0.581 85.676-0.581 85.673-5.527 7.974c-9.848 14.203-29.345 21.248-45.473 16.43zM392 171.999v-155.999h-312v312h312v-156.001z" />
<glyph unicode="&#xe926;" glyph-name="padlock" d="M465.999 927.165c-111.724-19.784-195.42-100.306-220.529-212.165-3.571-15.913-4.145-27.095-4.933-96.443l-0.893-78.444-7.322-1.162c-43.584-6.92-72.428-31.918-80.238-69.542-1.505-7.255-2.007-75.873-1.628-223.439l0.543-212.969 4.488-11c9.050-22.193 28.321-41.464 50.514-50.514l11-4.488h589.998l11 4.488c22.193 9.050 41.464 28.321 50.514 50.514l4.488 11 0.543 212.969c0.379 147.566-0.123 216.184-1.628 223.439-7.811 37.624-36.654 62.623-80.238 69.542l-7.322 1.162-0.893 78.444c-1.206 105.856-8.312 136.361-44.605 191.45-57.626 87.47-169.426 135.475-272.858 117.158zM554.637 863.869c72.571-14.789 132.68-68.124 156.396-138.78 9.001-26.811 10.944-48.008 10.957-119.59l0.010-65.5h-419.999l0.010 65.5c0.010 47.396 0.824 70.892 2.952 85.005 17.869 118.533 131.515 197.445 249.674 173.366zM798.001 472.932c14.915-8.668 13.993 5.88 13.996-220.964 0.005-227.164 0.963-212.227-14.118-220.314-10.614-5.691-561.142-5.691-571.756 0-15.078 8.087-14.121-6.797-14.121 219.878 0 234.196-1.551 218.752 22.548 224.543 17.178 4.127 556.111 1.121 563.451-3.144zM482.975 384.507c-75.295-26.826-84.846-129.106-15.506-166.062l12.157-6.479 0.686-37.484c0.891-48.55 6.272-58.483 31.688-58.483s30.797 9.933 31.688 58.483l0.686 37.484 11.799 6.287c64.701 34.486 62.333 128.497-4.065 161.37-18.491 9.157-50.752 11.436-69.133 4.884zM527.404 322.081c30.139-18.378 5.609-64.056-27.325-50.88-28.111 11.249-18.639 54.784 11.922 54.784 5.407 0 11.556-1.559 15.404-3.904z" />
<glyph unicode="&#xe927;" glyph-name="user" d="M464.195 956.777c-209.72-35.146-296.020-298.148-148.649-453.007 168.361-176.919 466.437-57.91 466.437 186.23 0 169.277-149.699 294.945-317.788 266.778zM534.999 897.129c137.252-10.424 225.825-167.844 165.891-294.833-68.872-145.923-265.953-163.041-359.985-31.268-65.603 91.932-41.009 227.269 52.849 290.829 34.952 23.667 90.312 40.369 122.248 36.879 2.749-0.3 11.3-1.024 18.998-1.608zM395 356.887c-172.027-27.244-305.961-163.162-329.897-334.779-6.909-49.533-4.012-72.955 10.179-82.312 8.963-5.908 864.474-5.908 873.436 0 14.149 9.329 17.198 33.874 10.179 81.946-24.522 167.91-145.833 296.392-314.051 332.618-25.994 5.599-218.181 7.542-249.846 2.527zM591.030 298.061c160.709-11.095 284.047-128.732 307.794-293.56l1.224-8.502h-776.095l1.224 8.502c21.225 147.338 122.286 258.202 262.308 287.744 33.59 7.086 140.782 10.15 203.546 5.816z" />
</font>
</defs>
</svg>
