<?xml version="1.0" standalone="no"?>
<!DOCTYPE svg PUBLIC "-//W3C//DTD SVG 1.1//EN" "http://www.w3.org/Graphics/SVG/1.1/DTD/svg11.dtd" >
<svg xmlns="http://www.w3.org/2000/svg" xmlns:xlink="http://www.w3.org/1999/xlink" version="1.1">
<metadata>
Created by FontForge 20170924 at Thu Jul 21 23:26:59 2016
 By www-data
Copyright \251 2015 by Radomir Tinkov. All rights reserved.
</metadata>
<defs>
<font id="Gilroy-BlackItalic" horiz-adv-x="578" >
  <font-face 
    font-family="Gilroy"
    font-weight="900"
    font-style="italic"
    font-stretch="normal"
    units-per-em="1000"
    panose-1="0 0 10 0 0 0 0 0 0 0"
    ascent="773"
    descent="-227"
    x-height="500"
    cap-height="700"
    bbox="-414 -277 1171.75 985"
    underline-thickness="50"
    underline-position="-100"
    slope="-10"
    unicode-range="U+0020-FB02"
  />
<missing-glyph horiz-adv-x="500" 
d="M93 800h317v-1000h-317v1000zM333 700v33h-165v-33h65v-37h-66v-33h166v33h-66v37h66zM267 534v70h-100v-104h166v34h-66zM200 570h33v-36h-33v36zM333 440v33h-166v-33h66v-37h-66v-33h100v70h66zM333 313v100h-33v-66h-133v-34h166zM333 178v113h-100v-56h34v23h33v-47
h-100v80h-33v-113h166zM333 5v113h-166v-113h166zM200 85h100v-47h-100v47zM333 -51v33h-166v-33h70l-70 -47v-33h166v33h-102l70 47h32z" />
    <glyph glyph-name="fi" unicode="fi" horiz-adv-x="572" 
d="M288 500h280l-88 -500h-166l60 341h-114l-60 -341h-166l60 341h-62l27 159h63c25 148 118 215 290 215c44 0 86 -5 127 -15l-25 -145c-36 6 -72 9 -109 9c-70 0 -109 -21 -117 -64z" />
    <glyph glyph-name="fl" unicode="fl" horiz-adv-x="572" 
d="M412 715c59 0 123 -7 191 -20l-123 -695h-166l101 573c-7 1 -17 1 -30 1c-55 0 -87 -25 -97 -74h66l-28 -159h-66l-60 -341h-166l60 341h-62l27 159h63c25 148 118 215 290 215z" />
    <glyph glyph-name="f_f" unicode="ff" horiz-adv-x="612" 
d="M696 725l-27 -154c-56 4 -88 -16 -96 -61l-2 -10h85l-27 -159h-86l-60 -341h-167l60 341h-116l-60 -341h-166l60 341h-62l27 159h63c27 153 123 225 290 215l-27 -154c-56 4 -88 -16 -97 -61h116l2 10c27 153 123 225 290 215z" />
    <glyph glyph-name="f_f_i" unicode="ffi" horiz-adv-x="855" 
d="M571 500h280l-88 -500h-167l60 341h-113l-60 -341h-167l60 341h-116l-60 -341h-166l60 341h-62l27 159h63c27 148 125 224 290 215l-27 -154c-56 4 -88 -16 -97 -61h116l2 10c25 143 120 215 285 215c47 0 91 -5 132 -15l-25 -145c-36 6 -72 9 -109 9
c-70 0 -109 -21 -116 -64z" />
    <glyph glyph-name="f_f_l" unicode="ffl" horiz-adv-x="855" 
d="M696 725c59 0 123 -7 191 -20l-124 -705h-167l103 583c-7 1 -17 1 -30 1c-55 0 -87 -25 -96 -74l-2 -10h65l-27 -159h-66l-60 -341h-167l60 341h-116l-60 -341h-166l60 341h-62l27 159h63c27 153 123 225 290 215l-27 -154c-56 4 -88 -16 -97 -61h116l2 10
c25 148 118 215 290 215z" />
    <glyph glyph-name=".notdef" horiz-adv-x="500" 
d="M93 800h317v-1000h-317v1000zM333 700v33h-165v-33h65v-37h-66v-33h166v33h-66v37h66zM267 534v70h-100v-104h166v34h-66zM200 570h33v-36h-33v36zM333 440v33h-166v-33h66v-37h-66v-33h100v70h66zM333 313v100h-33v-66h-133v-34h166zM333 178v113h-100v-56h34v23h33v-47
h-100v80h-33v-113h166zM333 5v113h-166v-113h166zM200 85h100v-47h-100v47zM333 -51v33h-166v-33h70l-70 -47v-33h166v33h-102l70 47h32z" />
    <glyph glyph-name="NULL" horiz-adv-x="0" 
 />
    <glyph glyph-name="CR" horiz-adv-x="333" 
 />
    <glyph glyph-name="space" unicode=" " horiz-adv-x="227" 
 />
    <glyph glyph-name="exclam" unicode="!" horiz-adv-x="294" 
d="M217 255h-138l10 245l35 200h204l-35 -200zM100 -14c-57 0 -96 47 -85 106c11 57 62 102 122 102c57 0 97 -49 86 -106c-11 -59 -60 -102 -123 -102z" />
    <glyph glyph-name="quotedbl" unicode="&#x22;" horiz-adv-x="442" 
d="M212 441h-114l26 259h154zM411 441h-114l25 259h154z" />
    <glyph glyph-name="numbersign" unicode="#" horiz-adv-x="631" 
d="M656 505l-40 -120h-101l-24 -70h101l-40 -120h-102l-50 -145h-128l50 145h-82l-50 -145h-128l50 145h-102l40 120h103l24 70h-102l40 120h103l50 145h128l-50 -145h82l50 145h128l-50 -145h100zM281 315h82l24 70h-82z" />
    <glyph glyph-name="dollar" unicode="$" horiz-adv-x="567" 
d="M363 421c25 -11 32 -13 56 -25c13 -5 22 -10 28 -14c13 -8 38 -23 49 -36c34 -34 57 -85 42 -161c-23 -124 -119 -193 -258 -200l-15 -85h-70l16 88c-111 13 -185 75 -210 166l158 82c17 -44 44 -71 81 -80l22 121l-14 6c-55 23 -92 46 -127 83s-48 89 -37 153
c11 61 40 109 88 143c48 35 104 52 167 53l15 85h70l-16 -92c82 -19 139 -68 171 -148l-154 -82c-12 27 -28 47 -48 58l-20 -113c1 -1 5 -1 6 -2zM260 503c-4 -20 7 -37 33 -51l16 94c-28 -5 -44 -20 -49 -43zM360 202c3 19 -8 35 -33 48l-17 -94c29 7 45 22 50 46z" />
    <glyph glyph-name="percent" unicode="%" horiz-adv-x="823" 
d="M242 356c-53 0 -94 18 -123 54c-29 37 -40 79 -33 127c8 50 31 92 69 126c39 35 86 52 142 52c53 0 95 -19 124 -58c29 -38 39 -82 30 -132c-10 -48 -34 -88 -72 -121c-37 -32 -83 -48 -137 -48zM178 69l-63 42l546 500l63 -41zM259 483c47 0 78 58 53 90
c-24 33 -89 8 -93 -37c-7 -31 11 -53 40 -53zM564 -14c-53 0 -95 18 -124 55s-40 80 -32 129s31 90 69 124c39 34 86 51 141 51c53 0 94 -19 123 -57c30 -38 40 -82 31 -131c-9 -48 -33 -89 -71 -122c-37 -33 -83 -49 -137 -49zM580 113c31 0 56 24 61 52
c5 31 -11 53 -42 53c-29 0 -54 -22 -59 -53c-7 -29 11 -52 40 -52z" />
    <glyph glyph-name="ampersand" unicode="&#x26;" horiz-adv-x="696" 
d="M523 373l135 -86c-29 -58 -59 -107 -90 -146l76 -104l-148 -75l-53 71c-55 -32 -118 -48 -188 -48c-81 0 -141 21 -182 64s-56 97 -45 160c15 83 65 147 152 190c-18 41 -24 83 -17 124c9 59 37 105 83 140c47 35 103 52 169 52c116 0 194 -53 233 -159l-162 -85
c-17 49 -44 74 -81 74c-33 0 -60 -20 -65 -52c-1 -11 0 -22 4 -34c8 -24 15 -32 38 -64l92 -125c20 34 36 68 49 103zM289 140c23 0 44 5 65 14l-94 127c-1 1 -2 2 -2 3c-28 -17 -44 -40 -49 -69c-8 -43 21 -75 80 -75z" />
    <glyph glyph-name="quotesingle" unicode="'" horiz-adv-x="243" 
d="M212 441h-114l26 259h154z" />
    <glyph glyph-name="parenleft" unicode="(" horiz-adv-x="327" 
d="M260 -100h-164c-45 137 -58 302 -31 465c27 153 89 298 187 435h167c-199 -292 -252 -608 -159 -900z" />
    <glyph glyph-name="parenright" unicode=")" horiz-adv-x="326" 
d="M102 800h164c45 -137 58 -302 31 -465c-27 -153 -89 -298 -187 -435h-167c199 292 252 608 159 900z" />
    <glyph glyph-name="asterisk" unicode="*" horiz-adv-x="405" 
d="M329 595l93 10l-17 -96l-89 10l44 -70l-85 -50l-28 82l-57 -82l-75 50l68 70l-92 -10l17 96l89 -10l-44 70l85 50l28 -82l57 82l75 -50z" />
    <glyph glyph-name="plus" unicode="+" horiz-adv-x="560" 
d="M391 429h160l-28 -158h-160l-28 -160h-159l28 160h-160l29 158h160l28 160h158z" />
    <glyph glyph-name="comma" unicode="," horiz-adv-x="302" 
d="M64 174h184l-140 -314h-134z" />
    <glyph glyph-name="hyphen" unicode="-" horiz-adv-x="500" 
d="M440 222h-390l28 158h390z" />
    <glyph glyph-name="period" unicode="." horiz-adv-x="289" 
d="M98 -14c-57 0 -96 47 -85 106c11 57 62 102 122 102c57 0 96 -49 85 -106c-11 -59 -59 -102 -122 -102z" />
    <glyph glyph-name="slash" unicode="/" horiz-adv-x="520" 
d="M592 800l-554 -900h-75l554 900h75z" />
    <glyph glyph-name="zero" unicode="0" horiz-adv-x="630" 
d="M621 340c-20 -111 -60 -198 -119 -261s-135 -94 -226 -94s-158 35 -199 104c-41 70 -52 160 -33 271s59 197 118 260c60 63 136 95 227 95s158 -35 199 -105c41 -69 52 -159 33 -270zM299 159c73 0 121 64 144 191c22 127 -4 191 -77 191s-121 -64 -143 -191
c-23 -127 2 -191 76 -191z" />
    <glyph glyph-name="one" unicode="1" horiz-adv-x="415" 
d="M73 632l202 68h154l-123 -700h-179l89 504l-127 -31z" />
    <glyph glyph-name="two" unicode="2" horiz-adv-x="540" 
d="M468 0h-490l22 130l278 245c51 45 79 81 84 109c7 33 -12 57 -47 57c-39 0 -75 -25 -106 -76l-145 89c64 107 165 161 274 161c65 0 118 -22 159 -67c42 -44 57 -100 45 -169c-15 -81 -53 -135 -136 -207l-116 -99h208z" />
    <glyph glyph-name="three" unicode="3" horiz-adv-x="548" 
d="M114 700h455l-25 -141l-141 -149c80 -33 128 -107 112 -202c-13 -74 -46 -130 -99 -167c-52 -37 -114 -56 -187 -56c-117 0 -203 53 -235 158l164 85c14 -46 44 -69 90 -69c52 0 82 22 90 66c7 40 -18 65 -67 65h-37l-51 102l130 137h-229z" />
    <glyph glyph-name="four" unicode="4" 
d="M504 270h70l-29 -163h-70l-19 -107h-178l19 107h-307l29 163l278 430h204l-280 -430h105l22 126h178z" />
    <glyph glyph-name="five" unicode="5" horiz-adv-x="549" 
d="M571 700l-30 -171h-245l-19 -75h43c67 0 121 -22 161 -65c41 -43 54 -103 41 -179c-13 -73 -46 -129 -99 -168c-53 -38 -115 -57 -186 -57c-127 0 -208 53 -243 158l165 86c15 -47 47 -70 97 -70c49 0 82 25 89 64c7 40 -16 66 -63 66h-225l101 411h413z" />
    <glyph glyph-name="six" unicode="6" horiz-adv-x="560" 
d="M552 700l-187 -226c61 -11 108 -41 141 -88s45 -101 34 -164c-13 -73 -46 -130 -99 -173s-118 -64 -197 -64c-81 0 -143 24 -186 73s-57 111 -44 184c10 57 33 106 70 146l259 312h209zM362 232c9 53 -21 84 -70 84c-51 0 -91 -31 -100 -84s19 -83 70 -83
c49 0 91 31 100 83z" />
    <glyph glyph-name="seven" unicode="7" horiz-adv-x="490" 
d="M49 527l31 173h473l-25 -148l-309 -552h-200l296 527h-266z" />
    <glyph glyph-name="eight" unicode="8" horiz-adv-x="569" 
d="M567 501c-11 -60 -43 -107 -97 -140c53 -40 77 -104 65 -173c-23 -129 -123 -202 -287 -202c-84 0 -147 20 -189 61c-41 41 -56 94 -44 159c13 73 55 128 125 165c-41 37 -57 85 -47 143c11 63 41 112 90 147s107 53 176 53c67 0 122 -19 163 -58s56 -90 45 -155z
M259 492c-7 -37 15 -60 58 -60c40 0 74 24 79 60c7 36 -17 60 -58 60c-43 0 -72 -24 -79 -60zM363 222c7 45 -21 73 -70 73c-51 0 -88 -28 -96 -73c-9 -44 19 -72 70 -72c49 0 87 28 96 72z" />
    <glyph glyph-name="nine" unicode="9" horiz-adv-x="560" 
d="M351 715c81 0 143 -25 186 -74s57 -110 44 -183c-10 -57 -33 -106 -70 -146l-259 -312h-209l187 226c-61 11 -109 40 -142 87s-44 102 -33 165c13 73 46 130 99 173s118 64 197 64zM233 468c-9 -53 21 -84 70 -84c51 0 91 31 100 84s-19 83 -70 83
c-49 0 -91 -31 -100 -83z" />
    <glyph glyph-name="colon" unicode=":" horiz-adv-x="289" 
d="M155 307c-57 0 -96 47 -85 106c11 57 62 102 122 102c57 0 96 -49 85 -106c-11 -59 -59 -102 -122 -102zM98 -14c-57 0 -96 47 -85 106c11 57 62 102 122 102c57 0 96 -49 85 -106c-11 -59 -59 -102 -122 -102z" />
    <glyph glyph-name="semicolon" unicode=";" horiz-adv-x="302" 
d="M167 307c-57 0 -96 47 -85 106c11 57 62 102 122 102c57 0 96 -49 85 -106c-11 -59 -59 -102 -122 -102zM62 174h184l-140 -314h-134z" />
    <glyph glyph-name="less" unicode="&#x3c;" horiz-adv-x="521" 
d="M66 424l485 195l-33 -181l-287 -97l254 -97l-30 -163l-415 195z" />
    <glyph glyph-name="equal" unicode="=" horiz-adv-x="511" 
d="M497 380h-439l29 159h439zM459 161h-439l28 159h439z" />
    <glyph glyph-name="greater" unicode="&#x3e;" horiz-adv-x="521" 
d="M72 456l29 163l415 -195l-26 -148l-485 -195l33 181l288 97z" />
    <glyph glyph-name="question" unicode="?" horiz-adv-x="548" 
d="M348 255h-169c22 140 176 163 191 239c5 29 -13 48 -45 48c-44 0 -80 -28 -108 -83l-144 91c55 108 160 165 279 165c65 0 118 -20 157 -59c40 -39 54 -90 43 -152c-25 -150 -193 -180 -204 -249zM216 -14c-57 0 -96 47 -85 106c11 57 62 102 122 102
c57 0 97 -49 86 -106c-11 -59 -60 -102 -123 -102z" />
    <glyph glyph-name="at" unicode="@" horiz-adv-x="769" 
d="M449 612c218 1 324 -187 295 -351c-25 -141 -97 -215 -204 -215c-63 0 -109 30 -124 78c-28 -26 -62 -39 -101 -39c-43 0 -77 17 -100 51s-30 75 -21 123c17 93 84 156 164 156c37 0 67 -14 89 -43l6 31h136l-42 -236c-7 -42 6 -63 40 -63c57 0 94 54 113 161
c15 85 -2 158 -52 217c-49 59 -117 89 -204 89c-90 0 -170 -30 -241 -90s-114 -135 -130 -226c-16 -93 3 -170 56 -233c54 -62 129 -93 224 -93c57 0 109 7 156 22l-8 -43c-45 -13 -97 -20 -154 -20c-107 0 -192 36 -254 107c-61 71 -83 159 -64 264c18 101 66 185 145 252
s170 101 275 101zM330 250c-16 -68 88 -68 95 0c7 31 -9 52 -38 52s-50 -21 -57 -52z" />
    <glyph glyph-name="A" unicode="A" horiz-adv-x="671" 
d="M631 0h-191l-11 101h-233l-48 -101h-197l354 700h218zM386 497l-116 -242h142z" />
    <glyph glyph-name="B" unicode="B" horiz-adv-x="602" 
d="M605 494c-11 -60 -41 -106 -90 -137c49 -37 69 -90 60 -159c-16 -119 -115 -198 -274 -198h-290l123 700h266c69 0 123 -19 162 -58s53 -88 43 -148zM374 540h-89l-19 -110h88c36 0 65 20 70 55c5 33 -14 55 -50 55zM400 219c7 36 -12 59 -52 59h-109l-21 -118h108
c39 0 67 24 74 59z" />
    <glyph glyph-name="C" unicode="C" horiz-adv-x="722" 
d="M359 -15c-107 0 -191 36 -250 108s-79 161 -62 267c17 103 64 188 141 255c78 67 169 100 272 100c137 0 235 -63 286 -167l-164 -87c-27 53 -73 79 -139 79c-55 0 -102 -18 -143 -53c-40 -35 -65 -80 -75 -137c-9 -55 -1 -101 26 -137c27 -35 67 -53 120 -53
c67 0 122 28 164 84l147 -95c-75 -104 -192 -164 -323 -164z" />
    <glyph glyph-name="D" unicode="D" horiz-adv-x="709" 
d="M134 700h285c92 0 166 -35 221 -106s74 -155 57 -254c-18 -100 -64 -182 -137 -245s-161 -95 -264 -95h-285zM523 353c17 105 -37 174 -134 174h-101l-63 -354h96c51 0 94 16 131 49s61 77 71 131z" />
    <glyph glyph-name="E" unicode="E" horiz-adv-x="535" 
d="M579 700l-30 -167h-265l-18 -98h242l-30 -164h-240l-18 -103h270l-29 -168h-450l123 700h445z" />
    <glyph glyph-name="F" unicode="F" horiz-adv-x="518" 
d="M564 700l-30 -173h-251l-20 -114h245l-30 -173h-246l-42 -240h-179l123 700h430z" />
    <glyph glyph-name="G" unicode="G" horiz-adv-x="779" 
d="M424 401h353l-12 -71c-17 -106 -62 -190 -135 -252s-162 -93 -268 -93c-109 0 -193 36 -252 108c-59 73 -80 162 -63 267c17 103 65 188 142 255s168 100 272 100c137 0 240 -62 293 -165l-164 -88c-29 52 -78 78 -147 78c-55 0 -102 -18 -143 -53
c-40 -35 -65 -80 -75 -137c-10 -56 -1 -103 27 -140s70 -55 126 -55c86 0 146 31 181 92h-162z" />
    <glyph glyph-name="H" unicode="H" horiz-adv-x="665" 
d="M464 441l46 259h178l-123 -700h-178l47 269h-197l-47 -269h-179l123 700h179l-46 -259h197z" />
    <glyph glyph-name="I" unicode="I" horiz-adv-x="289" 
d="M11 0l123 700h179l-123 -700h-179z" />
    <glyph glyph-name="J" unicode="J" horiz-adv-x="569" 
d="M234 -15c-116 0 -193 48 -230 145l162 87c13 -41 37 -58 81 -58c55 0 86 24 94 71l83 470h179l-84 -473c-28 -163 -129 -242 -285 -242z" />
    <glyph glyph-name="K" unicode="K" horiz-adv-x="631" 
d="M502 700h209l-298 -348l178 -352h-185l-160 319l-56 -319h-179l123 700h179l-50 -284z" />
    <glyph glyph-name="L" unicode="L" horiz-adv-x="485" 
d="M313 700l-93 -527h241l-30 -173h-420l123 700h179z" />
    <glyph glyph-name="M" unicode="M" horiz-adv-x="825" 
d="M658 700h190l-123 -700h-178l66 378l-219 -282h-18l-119 287l-67 -383h-179l123 700h179l114 -302z" />
    <glyph glyph-name="N" unicode="N" horiz-adv-x="675" 
d="M190 0h-179l123 700h139l182 -366l65 366h178l-123 -700h-138l-182 366z" />
    <glyph glyph-name="O" unicode="O" horiz-adv-x="790" 
d="M360 -15c-214 -4 -353 183 -313 376c17 100 64 184 141 252s170 102 279 102c106 0 188 -37 247 -112c59 -74 81 -161 64 -262s-64 -186 -140 -254c-75 -68 -168 -102 -278 -102zM600 350c10 55 0 101 -29 136c-29 36 -71 54 -125 54s-102 -18 -144 -54
c-41 -35 -67 -81 -77 -136c-10 -56 -1 -102 27 -137c29 -35 70 -53 124 -53s102 18 145 53c43 36 70 82 79 137z" />
    <glyph glyph-name="P" unicode="P" horiz-adv-x="592" 
d="M134 700h264c70 0 126 -24 167 -72c41 -47 57 -108 46 -183c-10 -71 -41 -128 -93 -171c-51 -43 -118 -64 -199 -64h-92l-37 -210h-179zM433 455c9 45 -17 74 -65 74h-85l-26 -149h87c47 0 81 30 89 75z" />
    <glyph glyph-name="Q" unicode="Q" horiz-adv-x="795" 
d="M467 715c106 0 188 -37 247 -112c59 -74 81 -161 64 -262c-14 -86 -51 -161 -112 -226l51 -67l-132 -100l-55 72c-52 -23 -109 -35 -170 -35c-209 -4 -352 185 -313 376c17 100 64 184 142 252s171 102 278 102zM338 268l133 100l88 -115c21 30 35 62 41 97
c10 55 0 101 -29 136c-29 36 -71 54 -125 54s-102 -18 -144 -54c-41 -35 -67 -81 -77 -136c-10 -56 -1 -102 27 -137c29 -35 70 -53 124 -53c15 0 29 1 42 4z" />
    <glyph glyph-name="R" unicode="R" horiz-adv-x="620" 
d="M624 448c-16 -89 -71 -158 -152 -194l96 -254h-180l-82 226h-76l-40 -226h-179l124 700h274c69 0 126 -25 169 -74s59 -109 46 -178zM380 535h-96l-28 -157h103c44 -1 78 31 86 78s-17 79 -65 79z" />
    <glyph glyph-name="S" unicode="S" horiz-adv-x="588" 
d="M269 -15c-149 0 -243 66 -272 174l159 82c19 -58 61 -87 128 -87c55 0 85 16 91 48c4 22 -11 40 -46 55c-5 3 -30 11 -73 26c-61 21 -108 49 -139 84s-42 84 -31 145c11 64 42 114 91 149c50 36 109 54 177 54c117 0 205 -57 245 -160l-153 -82c-22 49 -57 73 -106 73
c-42 0 -66 -15 -72 -45c-8 -33 20 -50 108 -81c61 -21 94 -35 135 -71c43 -35 57 -89 45 -162c-24 -132 -131 -202 -287 -202z" />
    <glyph glyph-name="T" unicode="T" horiz-adv-x="545" 
d="M89 700h525l-31 -173h-172l-93 -527h-179l93 527h-173z" />
    <glyph glyph-name="U" unicode="U" horiz-adv-x="645" 
d="M290 -15c-85 0 -151 23 -198 69c-46 46 -63 105 -50 176l83 470h179l-80 -453c-11 -59 17 -88 83 -88c65 0 103 29 114 88l79 453h179l-83 -470c-14 -79 -49 -139 -104 -182c-55 -42 -123 -63 -202 -63z" />
    <glyph glyph-name="V" unicode="V" horiz-adv-x="640" 
d="M383 0h-214l-95 700h186l45 -492l217 492h202z" />
    <glyph glyph-name="W" unicode="W" horiz-adv-x="1004" 
d="M346 0h-189l-73 700h181l35 -441l202 441h143l48 -441l188 441h196l-318 -700h-189l-43 395z" />
    <glyph glyph-name="X" unicode="X" horiz-adv-x="632" 
d="M490 700h208l-264 -350l148 -350h-193l-79 186l-141 -186h-208l274 363l-143 337h194l73 -173z" />
    <glyph glyph-name="Y" unicode="Y" horiz-adv-x="631" 
d="M498 700h212l-295 -395l-54 -305h-179l54 305l-157 395h190l75 -225z" />
    <glyph glyph-name="Z" unicode="Z" horiz-adv-x="542" 
d="M117 700h474l-23 -138l-312 -389h250l-30 -173h-487l24 138l313 389h-240z" />
    <glyph glyph-name="bracketleft" unicode="[" horiz-adv-x="329" 
d="M406 800l-27 -159h-98l-103 -582h98l-29 -159h-264l159 900h264z" />
    <glyph glyph-name="backslash" unicode="\" horiz-adv-x="520" 
d="M433 -100h-68l-243 900h68z" />
    <glyph glyph-name="bracketright" unicode="]" horiz-adv-x="329" 
d="M117 800h264l-159 -900h-264l28 159h98l103 582h-98z" />
    <glyph glyph-name="asciicircum" unicode="^" horiz-adv-x="580" 
d="M310 700h118l138 -354h-174l-51 158l-110 -158h-184z" />
    <glyph glyph-name="underscore" unicode="_" horiz-adv-x="515" 
d="M413 -186h-465l28 158h465z" />
    <glyph glyph-name="grave" unicode="`" horiz-adv-x="314" 
d="M348 555h-154l-95 145h188z" />
    <glyph glyph-name="a" unicode="a" horiz-adv-x="615" 
d="M435 445l10 55h166l-88 -500h-166l7 39c-39 -35 -87 -53 -146 -53c-71 0 -124 27 -159 81c-34 54 -45 117 -33 190c11 71 41 131 90 181c49 51 109 76 181 76c64 0 110 -23 138 -69zM401 247v3c11 65 -22 109 -86 109c-31 0 -58 -10 -81 -30s-37 -46 -42 -79
s0 -59 15 -79s39 -30 70 -30c63 0 112 42 124 106z" />
    <glyph glyph-name="b" unicode="b" horiz-adv-x="615" 
d="M392 514c69 0 122 -27 159 -81s50 -118 38 -193c-13 -73 -43 -133 -91 -182c-47 -48 -106 -72 -175 -72c-66 0 -114 24 -143 71l-10 -57h-166l123 700h166l-42 -241c38 37 85 55 141 55zM423 250c12 67 -24 109 -85 109s-112 -42 -124 -109c-11 -67 24 -109 87 -109
c61 0 111 42 122 109z" />
    <glyph glyph-name="c" unicode="c" horiz-adv-x="532" 
d="M260 -14c-80 0 -142 26 -186 79s-60 118 -48 195c12 74 46 135 102 182c56 48 121 72 196 72c105 0 179 -51 215 -131l-151 -79c-15 32 -41 48 -78 48c-59 0 -109 -41 -118 -101c-11 -60 25 -103 81 -103c39 0 70 17 93 50l132 -84c-51 -84 -139 -128 -238 -128z" />
    <glyph glyph-name="d" unicode="d" horiz-adv-x="616" 
d="M436 444l45 256h166l-123 -700h-166l7 40c-39 -36 -88 -54 -147 -54c-71 0 -124 27 -159 81c-34 54 -45 117 -33 190c11 71 41 131 90 181c49 51 109 76 181 76c64 0 110 -23 139 -70zM278 141c61 0 110 40 123 103l2 10c5 32 -1 57 -17 76c-15 19 -39 29 -70 29
s-59 -10 -82 -30s-37 -46 -42 -79c-11 -65 23 -109 86 -109z" />
    <glyph glyph-name="e" unicode="e" horiz-adv-x="568" 
d="M324 514c75 0 134 -26 177 -77s57 -113 44 -186c-3 -20 -8 -41 -17 -62h-343c9 -41 41 -61 96 -61c40 0 73 12 99 36l106 -97c-58 -54 -131 -81 -218 -81s-152 26 -196 79c-43 53 -59 118 -46 195c12 73 46 134 102 182s121 72 196 72zM205 305h189c-3 46 -30 69 -79 69
s-86 -23 -110 -69z" />
    <glyph glyph-name="f" unicode="f" horiz-adv-x="331" 
d="M412 715l-27 -154c-56 4 -88 -16 -97 -61h86l-28 -159h-86l-60 -341h-166l60 341h-62l27 159h63c27 148 125 224 290 215z" />
    <glyph glyph-name="g" unicode="g" horiz-adv-x="619" 
d="M441 441l10 59h164l-85 -480c-14 -81 -48 -140 -102 -178c-53 -38 -118 -57 -193 -57c-112 0 -199 42 -234 122l147 77c19 -36 53 -54 102 -54c61 0 105 30 116 90l7 38c-39 -35 -87 -52 -142 -52c-153 0 -223 130 -200 261c10 67 39 124 87 173c49 49 109 74 182 74
c65 0 112 -24 141 -73zM284 157c59 0 108 38 123 93l3 20c5 55 -30 93 -89 93c-63 0 -113 -43 -124 -103s24 -103 87 -103z" />
    <glyph glyph-name="h" unicode="h" 
d="M395 514c108 0 174 -79 151 -215l-53 -299h-166l49 278c8 53 -17 79 -62 79c-51 0 -86 -31 -97 -91v1l-47 -267h-166l123 700h166l-44 -251c38 43 87 65 146 65z" />
    <glyph glyph-name="i" unicode="i" horiz-adv-x="262" 
d="M184 541c-52 0 -89 44 -80 96c8 51 56 95 111 95c53 0 89 -43 80 -95c-8 -53 -56 -96 -111 -96zM170 0h-166l88 500h166z" />
    <glyph glyph-name="j" unicode="j" horiz-adv-x="277" 
d="M230 732c53 0 89 -43 80 -95c-8 -53 -56 -96 -111 -96c-52 0 -89 44 -80 96c8 51 56 95 111 95zM19 0l88 500h166l-88 -500c-28 -164 -112 -224 -277 -215l27 154c49 -3 77 18 84 61z" />
    <glyph glyph-name="k" unicode="k" horiz-adv-x="537" 
d="M382 500h191l-210 -251l130 -249h-178l-106 220l-39 -220h-166l123 700h166l-70 -398z" />
    <glyph glyph-name="l" unicode="l" horiz-adv-x="263" 
d="M171 0h-166l56 321l72 409h166l-72 -414z" />
    <glyph glyph-name="m" unicode="m" horiz-adv-x="850" 
d="M662 514c113 0 180 -80 157 -208l-53 -306h-167l50 287c9 47 -8 70 -49 70c-42 0 -69 -23 -81 -68l-51 -289h-166l50 287c7 47 -9 70 -50 70c-43 0 -71 -26 -83 -77l-49 -280h-166l88 500h166l-8 -46c37 40 84 60 139 60c58 0 98 -22 120 -67c43 45 94 67 153 67z" />
    <glyph glyph-name="n" unicode="n" 
d="M395 514c108 0 174 -79 151 -215l-53 -299h-166l49 278c8 53 -17 79 -62 79c-51 0 -86 -31 -97 -91v1l-47 -267h-166l88 500h166l-9 -51c38 43 87 65 146 65z" />
    <glyph glyph-name="o" unicode="o" horiz-adv-x="583" 
d="M258 -14c-173 -1 -261 147 -231 280c13 69 47 128 100 176c54 48 121 72 202 72c80 0 141 -29 183 -86s57 -121 44 -192c-12 -68 -45 -127 -100 -176s-121 -74 -198 -74zM271 146c59 0 107 43 118 104s-22 104 -81 104c-57 0 -106 -43 -117 -104s23 -104 80 -104z" />
    <glyph glyph-name="p" unicode="p" horiz-adv-x="615" 
d="M393 514c69 0 121 -27 158 -82c37 -54 50 -118 38 -192c-12 -72 -42 -132 -90 -181c-47 -49 -106 -73 -176 -73c-65 0 -113 24 -143 71l-45 -257h-166l123 700h166l-7 -41c38 37 85 55 142 55zM423 250c12 67 -21 109 -84 109c-61 0 -111 -41 -124 -105l-2 -7
c-9 -64 26 -106 87 -106c63 0 112 42 123 109z" />
    <glyph glyph-name="q" unicode="q" horiz-adv-x="615" 
d="M435 445l10 55h166l-123 -700h-166l42 239c-39 -35 -87 -53 -146 -53c-71 0 -124 27 -159 81c-34 54 -45 117 -33 190c11 71 41 131 90 181c49 51 109 76 181 76c64 0 110 -23 138 -69zM315 359c-63 0 -112 -44 -123 -109s22 -109 85 -109s113 44 124 109
s-22 109 -86 109z" />
    <glyph glyph-name="r" unicode="r" horiz-adv-x="380" 
d="M258 500l-17 -94c31 68 94 104 169 104l-31 -184c-38 5 -74 -1 -109 -20c-34 -19 -55 -52 -63 -99l2 16l-39 -223h-166l88 500h166z" />
    <glyph glyph-name="s" unicode="s" horiz-adv-x="473" 
d="M210 -14c-111 0 -184 41 -220 123l146 71c15 -38 42 -57 83 -57c29 0 45 8 48 24c4 20 -34 33 -82 46c-68 17 -153 57 -133 170c9 50 34 88 76 113s88 38 139 38c92 0 166 -39 198 -111l-141 -68c-12 30 -33 45 -62 46c-25 1 -40 -8 -44 -27c-7 -37 57 -36 116 -59
c61 -18 116 -59 99 -160c-9 -51 -35 -89 -76 -113s-90 -36 -147 -36z" />
    <glyph glyph-name="t" unicode="t" horiz-adv-x="394" 
d="M374 341h-104l-25 -145c-8 -45 19 -51 96 -46l-26 -150c-188 -25 -264 37 -237 192l26 149h-75l28 159h75l16 90l175 50l-25 -140h105z" />
    <glyph glyph-name="u" unicode="u" 
d="M361 233l47 267h166l-88 -500h-166l9 51c-38 -43 -87 -65 -146 -65c-108 0 -174 79 -151 215l53 299h166l-49 -278c-8 -53 17 -79 62 -79c51 0 86 31 97 91v-1z" />
    <glyph glyph-name="v" unicode="v" horiz-adv-x="533" 
d="M254 216l140 284h183l-270 -500h-169l-94 500h169z" />
    <glyph glyph-name="w" unicode="w" horiz-adv-x="790" 
d="M535 233l112 267h181l-241 -500h-162l-27 251l-109 -251h-170l-65 500h166l23 -272l118 272h145z" />
    <glyph glyph-name="x" unicode="x" horiz-adv-x="549" 
d="M394 500h192l-220 -250l139 -250h-176l-71 127l-111 -127h-191l228 260l-133 240h176l65 -117z" />
    <glyph glyph-name="y" unicode="y" horiz-adv-x="549" 
d="M272 211l130 289h191l-254 -485c-87 -167 -194 -227 -342 -215l28 156c72 0 100 15 131 64l-112 480h176z" />
    <glyph glyph-name="z" unicode="z" horiz-adv-x="455" 
d="M79 500h390l-20 -114l-212 -232h181l-27 -154h-410l21 114l211 232h-161z" />
    <glyph glyph-name="braceleft" unicode="{" horiz-adv-x="363" 
d="M307 47l-28 -154c-147 -9 -218 67 -195 195l24 134c8 41 -15 55 -63 50l28 159c48 -5 73 5 81 50l24 134c25 144 107 206 263 195l-27 -154c-41 6 -65 -8 -70 -41l-24 -134c-12 -69 -38 -104 -90 -129c41 -25 55 -68 44 -130l-23 -134c-5 -35 12 -46 56 -41z" />
    <glyph glyph-name="bar" unicode="|" horiz-adv-x="277" 
d="M143 -200h-167l162 920h167z" />
    <glyph glyph-name="braceright" unicode="}" horiz-adv-x="363" 
d="M91 655l28 154c147 9 218 -67 195 -195l-24 -134c-8 -41 15 -55 63 -50l-28 -159c-48 5 -73 -5 -81 -50l-24 -134c-25 -144 -107 -206 -263 -195l27 154c41 -6 65 8 70 41l24 134c12 69 38 104 90 129c-41 25 -55 68 -44 130l23 134c5 35 -12 46 -56 41z" />
    <glyph glyph-name="asciitilde" unicode="~" horiz-adv-x="606" 
d="M164 235l-121 61c52 151 169 198 278 145c44 -22 77 -32 98 -30s40 19 57 50l121 -61c-52 -150 -170 -199 -277 -145c-45 22 -78 32 -99 30s-40 -19 -57 -50z" />
    <glyph glyph-name="exclamdown" unicode="&#xa1;" horiz-adv-x="294" 
d="M194 514c57 0 96 -47 85 -106c-11 -57 -62 -102 -122 -102c-57 0 -97 49 -86 106c11 59 60 102 123 102zM77 245h138l-10 -245l-35 -200h-204l35 200z" />
    <glyph glyph-name="cent" unicode="&#xa2;" horiz-adv-x="532" 
d="M288 248h2c39 0 70 17 93 50l132 -84c-51 -84 -139 -128 -238 -128c-19 0 -41 2 -66 7l-46 -93h-65l56 113c-87 44 -130 138 -113 247c12 74 46 135 102 182c56 48 121 72 196 72c22 0 42 -2 60 -6l46 92h65l-55 -112c44 -22 77 -57 99 -105l-151 -79
c-7 13 -15 24 -24 31zM209 351c-6 -36 2 -64 24 -83l91 184c-57 -1 -106 -41 -115 -101z" />
    <glyph glyph-name="sterling" unicode="&#xa3;" horiz-adv-x="575" 
d="M459 272h-189l-18 -99h304l-30 -173h-545l31 173h62l17 99h-51l25 140h51l14 79c27 152 125 224 256 224c109 0 184 -52 223 -156l-162 -82c-15 45 -40 67 -75 67c-36 0 -58 -19 -65 -58l-13 -74h190z" />
    <glyph glyph-name="currency" unicode="&#xa4;" horiz-adv-x="533" 
d="M518 591l40 -45l-81 -68c24 -38 32 -82 23 -131s-30 -91 -65 -128l56 -68l-48 -39l-56 68c-41 -27 -87 -40 -136 -40c-48 0 -88 13 -120 39l-82 -70l-39 44l82 69c-24 38 -32 82 -23 131s30 91 65 128l-56 68l46 40l58 -70c42 27 88 41 137 41c46 0 85 -13 118 -38z
M275 294c33 0 59 21 66 56c5 35 -12 56 -47 56c-33 0 -58 -21 -65 -56s11 -56 46 -56z" />
    <glyph glyph-name="yen" unicode="&#xa5;" horiz-adv-x="631" 
d="M498 700h212l-245 -328h114l-17 -94h-152l-7 -41h152l-16 -93h-153l-25 -144h-179l25 144h-152l16 93h153l7 41h-153l17 94h114l-130 328h190l75 -225z" />
    <glyph glyph-name="brokenbar" unicode="&#xa6;" horiz-adv-x="277" 
d="M240 350h-167l65 370h167zM143 -200h-167l65 370h167z" />
    <glyph glyph-name="section" unicode="&#xa7;" horiz-adv-x="549" 
d="M410 463c79 -33 132 -95 116 -184c-9 -49 -35 -89 -79 -119c17 -29 22 -65 15 -107c-21 -112 -115 -165 -239 -165c-110 0 -182 42 -216 125l142 74c19 -41 49 -61 89 -61c35 0 54 11 57 33c3 15 -3 25 -23 36c-9 6 -18 11 -26 14c-16 8 -56 23 -73 31
c-81 36 -136 99 -120 192c9 51 36 90 80 117c-14 29 -17 64 -10 103c10 55 35 96 76 123s90 40 145 40c99 0 167 -43 204 -130l-139 -64c-17 39 -42 59 -73 59c-28 0 -44 -11 -47 -33c-2 -17 7 -28 23 -40c9 -7 30 -15 43 -22c13 -5 40 -15 55 -22zM275 268
c9 -4 45 -17 62 -25c13 9 20 20 23 35c-1 34 -16 39 -58 57l-64 26c-11 -7 -17 -18 -20 -33c-5 -28 14 -43 57 -60z" />
    <glyph glyph-name="dieresis" unicode="&#xa8;" horiz-adv-x="369" 
d="M178 695c43 0 73 -36 65 -80c-6 -69 -109 -108 -145 -57c-44 46 11 141 80 137zM344 535c-43 0 -73 36 -65 80c6 68 109 109 145 56c44 -45 -11 -140 -80 -136z" />
    <glyph glyph-name="copyright" unicode="&#xa9;" horiz-adv-x="779" 
d="M358 -12c-194 -5 -351 175 -311 370c17 101 65 185 143 252c78 68 167 102 268 102c99 0 180 -37 242 -111c63 -73 85 -160 68 -259c-18 -101 -66 -185 -144 -253c-77 -67 -166 -101 -266 -101zM358 29c89 0 168 30 238 91s113 136 128 225s-4 165 -58 229
c-53 65 -123 97 -210 97c-88 0 -167 -31 -237 -92s-113 -135 -128 -224c-16 -89 3 -165 56 -230c53 -64 124 -96 211 -96zM380 153c-59 0 -105 21 -136 62c-31 42 -41 90 -32 145c9 53 34 97 74 133s88 54 145 54c68 0 127 -40 160 -100l-125 -65c-8 19 -24 29 -48 29
c-36 0 -66 -28 -71 -61c-7 -32 12 -61 47 -61c23 0 43 10 59 30l111 -70c-43 -61 -113 -96 -184 -96z" />
    <glyph glyph-name="guillemotleft" unicode="&#xab;" horiz-adv-x="569" 
d="M206 504h145l-144 -200l74 -190h-139l-77 195zM413 504h146l-149 -206l73 -184h-139l-75 190z" />
    <glyph glyph-name="logicalnot" unicode="&#xac;" horiz-adv-x="569" 
d="M67 429h499l-49 -278h-169l21 120h-330z" />
    <glyph glyph-name="registered" unicode="&#xae;" horiz-adv-x="779" 
d="M458 712c99 0 180 -37 242 -111c63 -73 85 -160 68 -259c-18 -101 -66 -185 -144 -253c-77 -67 -166 -101 -266 -101c-194 -5 -351 175 -311 370c17 101 65 185 143 252c78 68 167 102 268 102zM456 671c-88 0 -167 -31 -237 -92s-113 -135 -128 -224
c-16 -89 3 -165 56 -230c53 -64 124 -96 211 -96c89 0 168 30 238 91s113 136 128 225s-4 165 -58 229c-53 65 -123 97 -210 97zM291 535h176c37 0 68 -14 92 -42c25 -28 34 -61 27 -99c-9 -47 -31 -83 -67 -106l48 -123h-136l-31 97h-26l-17 -97h-131zM426 420h-24l-10 -53
h24c21 0 33 9 37 27c3 19 -7 26 -27 26z" />
    <glyph glyph-name="overscore" unicode="&#xaf;" horiz-adv-x="350" 
d="M383 554h-309l22 130h310z" />
    <glyph glyph-name="degree" unicode="&#xb0;" horiz-adv-x="415" 
d="M248 461c-50 0 -90 18 -119 53c-29 36 -39 78 -30 126c8 49 31 90 69 122s83 48 135 48c51 0 90 -18 119 -54c29 -35 40 -77 31 -126s-32 -89 -70 -121c-37 -32 -82 -48 -135 -48zM320 635c17 60 -84 60 -89 0c-4 -27 10 -45 37 -45s48 18 52 45z" />
    <glyph glyph-name="plusminus" unicode="&#xb1;" horiz-adv-x="560" 
d="M432 665l-24 -136h161l-29 -158h-159l-24 -136h-159l24 136h-160l28 158h160l24 136h158zM479 21h-479l29 159h478z" />
    <glyph glyph-name="acute" unicode="&#xb4;" horiz-adv-x="314" 
d="M74 555l101 145h198l-136 -145h-163z" />
    <glyph glyph-name="uni00B5" unicode="&#xb5;" horiz-adv-x="608" 
d="M581 500l-56 -321c-3 -20 5 -30 25 -30h25l-26 -149h-72c-48 0 -83 16 -106 47c-39 -41 -86 -61 -143 -61c-22 0 -42 3 -59 10l-34 -196h-166l123 700h166l-49 -276h1c-9 -55 16 -81 61 -81c51 0 83 27 95 82l49 275h166z" />
    <glyph glyph-name="paragraph" unicode="&#xb6;" horiz-adv-x="727" 
d="M324 700h446l-27 -160h-67l-130 -740h-158l130 740h-64l-130 -740h-158l79 451c-62 1 -111 24 -147 71c-35 47 -47 101 -36 163s41 113 91 154c51 41 108 61 171 61z" />
    <glyph glyph-name="middot" unicode="&#xb7;" horiz-adv-x="289" 
d="M144 246c-57 0 -96 47 -85 106c11 57 62 102 122 102c57 0 96 -49 85 -106c-11 -59 -59 -102 -122 -102z" />
    <glyph glyph-name="cedilla" unicode="&#xb8;" horiz-adv-x="274" 
d="M152 0l-8 -46c36 -17 50 -45 43 -86c-13 -70 -96 -100 -250 -89l19 109c62 -5 95 0 98 14c2 11 -15 18 -50 20l14 78h134z" />
    <glyph glyph-name="guillemotright" unicode="&#xbb;" horiz-adv-x="570" 
d="M107 504h139l75 -190l-144 -200h-146l149 206zM309 504h139l77 -195l-141 -195h-145l144 200z" />
    <glyph glyph-name="onequarter" unicode="&#xbc;" horiz-adv-x="817" 
d="M63 0l522 700h119l-522 -700h-119zM117 300l46 256l-81 -20l-11 118l135 46h114l-71 -400h-132zM756 171h35l-20 -115h-35l-10 -56h-122l10 56h-184l20 115l152 229h141l-147 -229h39l11 63h121z" />
    <glyph glyph-name="onehalf" unicode="&#xbd;" horiz-adv-x="812" 
d="M63 0l522 700h119l-522 -700h-119zM117 300l46 256l-81 -20l-11 118l135 46h114l-71 -400h-132zM788 275c-8 -43 -34 -75 -87 -118l-49 -40h111l-20 -117h-306l15 89l168 141c24 21 37 36 38 46c3 15 -3 22 -20 22c-19 0 -37 -15 -56 -45l-100 63c42 65 101 98 177 98
c41 0 75 -13 101 -38c27 -25 36 -59 28 -101z" />
    <glyph glyph-name="threequarters" unicode="&#xbe;" horiz-adv-x="876" 
d="M356 417c-15 -87 -75 -131 -178 -131c-81 0 -132 31 -152 94l111 59c9 -27 27 -40 54 -40c22 0 34 9 36 26c3 17 -6 25 -27 25h-29l-33 68l66 66h-123l21 116h286l-16 -87l-78 -79c47 -20 71 -64 62 -117zM122 0l522 700h119l-522 -700h-119zM815 171h35l-20 -115h-35
l-10 -56h-122l10 56h-184l20 115l152 229h141l-147 -229h39l11 63h121z" />
    <glyph glyph-name="questiondown" unicode="&#xbf;" horiz-adv-x="548" 
d="M332 514c57 0 96 -47 85 -106c-11 -57 -62 -102 -122 -102c-57 0 -97 49 -86 106c11 59 60 102 123 102zM200 245h169c-22 -140 -176 -163 -191 -239c-5 -29 13 -48 45 -48c44 0 80 28 108 83l144 -91c-55 -108 -160 -165 -279 -165c-65 0 -118 20 -158 59
c-39 39 -53 90 -42 152c25 150 193 180 204 249z" />
    <glyph glyph-name="Agrave" unicode="&#xc0;" horiz-adv-x="671" 
d="M453 900l61 -145h-154l-95 145h188zM631 0h-191l-11 101h-233l-48 -101h-197l354 700h218zM386 497l-116 -242h142z" />
    <glyph glyph-name="Aacute" unicode="&#xc1;" horiz-adv-x="671" 
d="M435 900h198l-136 -145h-163zM-49 0l354 700h218l108 -700h-191l-11 101h-233l-48 -101h-197zM386 497l-116 -242h142z" />
    <glyph glyph-name="Acircumflex" unicode="&#xc2;" horiz-adv-x="671" 
d="M458 745l-29 56l-50 -56h-151l133 155h167l79 -155h-149zM631 0h-191l-11 101h-233l-48 -101h-197l354 700h218zM386 497l-116 -242h142z" />
    <glyph glyph-name="Atilde" unicode="&#xc3;" horiz-adv-x="671" 
d="M422 768c-28 21 -50 21 -57 -20h-121c17 166 130 190 208 143c30 -18 48 -26 57 19h122c-17 -168 -132 -188 -209 -142zM-49 0l354 700h218l108 -700h-191l-11 101h-233l-48 -101h-197zM386 497l-116 -242h142z" />
    <glyph glyph-name="Adieresis" unicode="&#xc4;" horiz-adv-x="671" 
d="M351 895c43 0 73 -36 65 -80c-6 -69 -109 -108 -145 -57c-44 46 11 141 80 137zM517 735c-43 0 -73 36 -65 80c6 68 109 109 145 56c44 -45 -11 -140 -80 -136zM631 0h-191l-11 101h-233l-48 -101h-197l354 700h218zM386 497l-116 -242h142z" />
    <glyph glyph-name="Aring" unicode="&#xc5;" horiz-adv-x="671" 
d="M631 0h-191l-11 101h-233l-48 -101h-197l350 691c-15 23 -19 51 -14 82c13 76 78 129 161 129c41 0 72 -13 95 -40c23 -26 31 -58 24 -96c-6 -33 -20 -60 -42 -82zM394 770c-3 -21 6 -32 27 -32c23 0 37 10 40 31c4 19 -6 33 -29 33c-20 0 -35 -13 -38 -32zM386 497
l-116 -242h142z" />
    <glyph glyph-name="AE" unicode="&#xc6;" horiz-adv-x="885" 
d="M929 700l-30 -168h-231l-17 -97h207l-30 -164h-205l-18 -103h235l-29 -168h-410l18 101h-192l-75 -101h-201l523 700h455zM478 437l-136 -182h104z" />
    <glyph glyph-name="Ccedilla" unicode="&#xc7;" horiz-adv-x="722" 
d="M371 160c67 0 122 28 164 84l147 -95c-65 -90 -153 -143 -263 -160l-6 -35c36 -17 50 -45 43 -86c-13 -70 -96 -100 -250 -89l19 109c62 -5 95 0 98 14c2 11 -15 18 -50 20l13 70c-86 17 -151 59 -196 127c-44 68 -58 148 -43 241c17 103 64 188 141 255
c78 67 169 100 272 100c137 0 235 -63 286 -167l-164 -87c-27 53 -73 79 -139 79c-55 0 -102 -18 -143 -53c-40 -35 -65 -80 -75 -137c-9 -55 -1 -101 26 -137c27 -35 67 -53 120 -53z" />
    <glyph glyph-name="Egrave" unicode="&#xc8;" horiz-adv-x="535" 
d="M396 900l61 -145h-154l-95 145h188zM579 700l-30 -167h-265l-18 -98h242l-30 -164h-240l-18 -103h270l-29 -168h-450l123 700h445z" />
    <glyph glyph-name="Eacute" unicode="&#xc9;" horiz-adv-x="535" 
d="M378 900h198l-136 -145h-163zM579 700l-30 -167h-265l-18 -98h242l-30 -164h-240l-18 -103h270l-29 -168h-450l123 700h445z" />
    <glyph glyph-name="Ecircumflex" unicode="&#xca;" horiz-adv-x="535" 
d="M401 745l-29 56l-50 -56h-151l133 155h167l79 -155h-149zM579 700l-30 -167h-265l-18 -98h242l-30 -164h-240l-18 -103h270l-29 -168h-450l123 700h445z" />
    <glyph glyph-name="Edieresis" unicode="&#xcb;" horiz-adv-x="535" 
d="M294 895c43 0 73 -36 65 -80c-6 -69 -109 -108 -145 -57c-44 46 11 141 80 137zM460 735c-43 0 -73 36 -65 80c6 68 109 109 145 56c44 -45 -11 -140 -80 -136zM579 700l-30 -167h-265l-18 -98h242l-30 -164h-240l-18 -103h270l-29 -168h-450l123 700h445z" />
    <glyph glyph-name="Igrave" unicode="&#xcc;" horiz-adv-x="289" 
d="M324 755h-154l-95 145h188zM134 700l-123 -700h179l123 700h-179z" />
    <glyph glyph-name="Iacute" unicode="&#xcd;" horiz-adv-x="289" 
d="M144 755l101 145h198l-136 -145h-163zM134 700l-123 -700h179l123 700h-179z" />
    <glyph glyph-name="Icircumflex" unicode="&#xce;" horiz-adv-x="289" 
d="M268 745l-29 56l-50 -56h-151l133 155h167l79 -155h-149zM190 0h-179l123 700h179z" />
    <glyph glyph-name="Idieresis" unicode="&#xcf;" horiz-adv-x="289" 
d="M161 895c43 0 73 -36 65 -80c-6 -69 -109 -108 -145 -57c-44 46 11 141 80 137zM327 735c-43 0 -73 36 -65 80c6 68 109 109 145 56c44 -45 -11 -140 -80 -136zM11 0l123 700h179l-123 -700h-179z" />
    <glyph glyph-name="Eth" unicode="&#xd0;" horiz-adv-x="739" 
d="M164 700h285c92 0 166 -35 221 -106s74 -155 57 -254c-18 -100 -64 -182 -137 -245s-161 -95 -264 -95h-285l46 263h-74l28 158h74zM553 353c17 105 -37 174 -134 174h-101l-19 -106h132l-28 -158h-132l-16 -90h96c51 0 94 16 131 49s61 77 71 131z" />
    <glyph glyph-name="Ntilde" unicode="&#xd1;" horiz-adv-x="675" 
d="M367 748h-121c17 166 130 190 208 143c30 -18 48 -26 57 19h122c-17 -168 -132 -188 -209 -142c-28 21 -50 21 -57 -20zM190 0h-179l123 700h139l182 -366l65 366h178l-123 -700h-138l-182 366z" />
    <glyph glyph-name="Ograve" unicode="&#xd2;" horiz-adv-x="790" 
d="M576 765h-154l-95 145h188zM360 -15c110 0 203 34 278 102c76 68 123 153 140 254s-5 188 -64 262c-59 75 -141 112 -247 112c-109 0 -202 -34 -279 -102s-124 -152 -141 -252c-40 -193 99 -380 313 -376zM600 350c-9 -55 -36 -101 -79 -137c-43 -35 -91 -53 -145 -53
s-95 18 -124 53c-28 35 -37 81 -27 137c10 55 36 101 77 136c42 36 90 54 144 54s96 -18 125 -54c29 -35 39 -81 29 -136z" />
    <glyph glyph-name="Oacute" unicode="&#xd3;" horiz-adv-x="790" 
d="M396 765l101 145h198l-136 -145h-163zM360 -15c110 0 203 34 278 102c76 68 123 153 140 254s-5 188 -64 262c-59 75 -141 112 -247 112c-109 0 -202 -34 -279 -102s-124 -152 -141 -252c-40 -193 99 -380 313 -376zM600 350c-9 -55 -36 -101 -79 -137
c-43 -35 -91 -53 -145 -53s-95 18 -124 53c-28 35 -37 81 -27 137c10 55 36 101 77 136c42 36 90 54 144 54s96 -18 125 -54c29 -35 39 -81 29 -136z" />
    <glyph glyph-name="Ocircumflex" unicode="&#xd4;" horiz-adv-x="790" 
d="M520 755l-29 56l-50 -56h-151l133 155h167l79 -155h-149zM467 715c106 0 188 -37 247 -112c59 -74 81 -161 64 -262s-64 -186 -140 -254c-75 -68 -168 -102 -278 -102c-214 -4 -353 183 -313 376c17 100 64 184 141 252s170 102 279 102zM600 350c10 55 0 101 -29 136
c-29 36 -71 54 -125 54s-102 -18 -144 -54c-41 -35 -67 -81 -77 -136c-10 -56 -1 -102 27 -137c29 -35 70 -53 124 -53s102 18 145 53c43 36 70 82 79 137z" />
    <glyph glyph-name="Otilde" unicode="&#xd5;" horiz-adv-x="790" 
d="M427 758h-121c17 166 130 190 208 143c30 -18 48 -26 57 19h122c-17 -168 -132 -188 -209 -142c-28 21 -50 21 -57 -20zM360 -15c-214 -4 -353 183 -313 376c17 100 64 184 141 252s170 102 279 102c106 0 188 -37 247 -112c59 -74 81 -161 64 -262s-64 -186 -140 -254
c-75 -68 -168 -102 -278 -102zM600 350c10 55 0 101 -29 136c-29 36 -71 54 -125 54s-102 -18 -144 -54c-41 -35 -67 -81 -77 -136c-10 -56 -1 -102 27 -137c29 -35 70 -53 124 -53s102 18 145 53c43 36 70 82 79 137z" />
    <glyph glyph-name="Odieresis" unicode="&#xd6;" horiz-adv-x="790" 
d="M413 905c43 0 73 -36 65 -80c-6 -69 -109 -108 -145 -57c-44 46 11 141 80 137zM579 745c-43 0 -73 36 -65 80c6 68 109 109 145 56c44 -45 -11 -140 -80 -136zM360 -15c-214 -4 -353 183 -313 376c17 100 64 184 141 252s170 102 279 102c106 0 188 -37 247 -112
c59 -74 81 -161 64 -262s-64 -186 -140 -254c-75 -68 -168 -102 -278 -102zM600 350c10 55 0 101 -29 136c-29 36 -71 54 -125 54s-102 -18 -144 -54c-41 -35 -67 -81 -77 -136c-10 -56 -1 -102 27 -137c29 -35 70 -53 124 -53s102 18 145 53c43 36 70 82 79 137z" />
    <glyph glyph-name="multiply" unicode="&#xd7;" horiz-adv-x="538" 
d="M435 578l101 -112l-137 -119l96 -113l-124 -112l-99 116l-134 -116l-100 112l137 119l-96 113l124 112l98 -116z" />
    <glyph glyph-name="Oslash" unicode="&#xd8;" horiz-adv-x="795" 
d="M782 669l-63 -64c60 -74 81 -162 64 -264c-17 -101 -64 -186 -140 -254c-75 -68 -168 -102 -278 -102c-77 0 -143 21 -198 63l-62 -63l-73 46l76 77c-54 72 -73 156 -56 253c17 100 64 184 141 252s170 102 279 102c70 0 131 -18 184 -53l53 53zM230 350
c-7 -41 -3 -77 10 -108l282 284c-22 9 -46 14 -71 14c-54 0 -102 -18 -144 -54c-41 -35 -67 -81 -77 -136zM605 350c9 47 3 87 -18 122l-289 -292c23 -13 51 -20 83 -20c54 0 102 18 145 53c43 36 70 82 79 137z" />
    <glyph glyph-name="Ugrave" unicode="&#xd9;" horiz-adv-x="645" 
d="M502 755h-154l-95 145h188zM290 -15c79 0 147 21 202 63c55 43 90 103 104 182l83 470h-179l-79 -453c-11 -59 -49 -88 -114 -88c-66 0 -94 29 -83 88l80 453h-179l-83 -470c-13 -71 4 -130 50 -176c47 -46 113 -69 198 -69z" />
    <glyph glyph-name="Uacute" unicode="&#xda;" horiz-adv-x="645" 
d="M322 755l101 145h198l-136 -145h-163zM290 -15c79 0 147 21 202 63c55 43 90 103 104 182l83 470h-179l-79 -453c-11 -59 -49 -88 -114 -88c-66 0 -94 29 -83 88l80 453h-179l-83 -470c-13 -71 4 -130 50 -176c47 -46 113 -69 198 -69z" />
    <glyph glyph-name="Ucircumflex" unicode="&#xdb;" horiz-adv-x="645" 
d="M446 745l-29 56l-50 -56h-151l133 155h167l79 -155h-149zM421 247l79 453h179l-83 -470c-14 -79 -49 -139 -104 -182c-55 -42 -123 -63 -202 -63c-85 0 -151 23 -198 69c-46 46 -63 105 -50 176l83 470h179l-80 -453c-11 -59 17 -88 83 -88c65 0 103 29 114 88z" />
    <glyph glyph-name="Udieresis" unicode="&#xdc;" horiz-adv-x="645" 
d="M339 895c43 0 73 -36 65 -80c-6 -69 -109 -108 -145 -57c-44 46 11 141 80 137zM505 735c-43 0 -73 36 -65 80c6 68 109 109 145 56c44 -45 -11 -140 -80 -136zM290 -15c-85 0 -151 23 -198 69c-46 46 -63 105 -50 176l83 470h179l-80 -453c-11 -59 17 -88 83 -88
c65 0 103 29 114 88l79 453h179l-83 -470c-14 -79 -49 -139 -104 -182c-55 -42 -123 -63 -202 -63z" />
    <glyph glyph-name="Yacute" unicode="&#xdd;" horiz-adv-x="631" 
d="M415 900h198l-136 -145h-163zM498 700h212l-295 -395l-54 -305h-179l54 305l-157 395h190l75 -225z" />
    <glyph glyph-name="Thorn" unicode="&#xde;" horiz-adv-x="592" 
d="M295 596h85c70 0 126 -24 167 -72s57 -109 46 -184c-10 -71 -41 -128 -93 -171c-51 -43 -118 -64 -199 -64h-93l-18 -105h-179l124 700h178zM415 350c9 47 -17 75 -65 75h-85l-27 -149h88c47 0 81 29 89 74z" />
    <glyph glyph-name="germandbls" unicode="&#xdf;" horiz-adv-x="552" 
d="M229 -5l25 148c67 -9 103 5 109 44c4 19 -6 53 -31 102c-24 49 -34 82 -31 101c3 17 14 39 33 66c20 27 31 48 34 61c7 32 -11 51 -43 51c-36 0 -58 -20 -65 -59l-90 -509h-166l90 508c23 138 109 207 256 207c61 0 111 -18 148 -54c37 -35 52 -76 44 -123
c-5 -26 -17 -54 -38 -83s-32 -50 -35 -62c-14 -47 74 -149 54 -250c-18 -99 -92 -178 -294 -148z" />
    <glyph glyph-name="agrave" unicode="&#xe0;" horiz-adv-x="615" 
d="M381 700l61 -145h-154l-95 145h188zM435 445l10 55h166l-88 -500h-166l7 39c-39 -35 -87 -53 -146 -53c-71 0 -124 27 -159 81c-34 54 -45 117 -33 190c11 71 41 131 90 181c49 51 109 76 181 76c64 0 110 -23 138 -69zM401 247v3c11 65 -22 109 -86 109
c-31 0 -58 -10 -81 -30s-37 -46 -42 -79s0 -59 15 -79s39 -30 70 -30c63 0 112 42 124 106z" />
    <glyph glyph-name="aacute" unicode="&#xe1;" horiz-adv-x="615" 
d="M363 700h198l-136 -145h-163zM435 445l10 55h166l-88 -500h-166l7 39c-39 -35 -87 -53 -146 -53c-71 0 -124 27 -159 81c-34 54 -45 117 -33 190c11 71 41 131 90 181c49 51 109 76 181 76c64 0 110 -23 138 -69zM401 247v3c11 65 -22 109 -86 109c-31 0 -58 -10 -81 -30
s-37 -46 -42 -79s0 -59 15 -79s39 -30 70 -30c63 0 112 42 124 106z" />
    <glyph glyph-name="acircumflex" unicode="&#xe2;" horiz-adv-x="615" 
d="M386 545l-29 56l-50 -56h-151l133 155h167l79 -155h-149zM435 445l10 55h166l-88 -500h-166l7 39c-39 -35 -87 -53 -146 -53c-71 0 -124 27 -159 81c-34 54 -45 117 -33 190c11 71 41 131 90 181c49 51 109 76 181 76c64 0 110 -23 138 -69zM401 247v3
c11 65 -22 109 -86 109c-31 0 -58 -10 -81 -30s-37 -46 -42 -79s0 -59 15 -79s39 -30 70 -30c63 0 112 42 124 106z" />
    <glyph glyph-name="atilde" unicode="&#xe3;" horiz-adv-x="615" 
d="M350 568c-28 21 -50 21 -57 -20h-121c17 166 130 190 208 143c30 -18 48 -26 57 19h122c-17 -168 -132 -188 -209 -142zM435 445l10 55h166l-88 -500h-166l7 39c-39 -35 -87 -53 -146 -53c-71 0 -124 27 -159 81c-34 54 -45 117 -33 190c11 71 41 131 90 181
c49 51 109 76 181 76c64 0 110 -23 138 -69zM401 247v3c11 65 -22 109 -86 109c-31 0 -58 -10 -81 -30s-37 -46 -42 -79s0 -59 15 -79s39 -30 70 -30c63 0 112 42 124 106z" />
    <glyph glyph-name="adieresis" unicode="&#xe4;" horiz-adv-x="615" 
d="M279 695c43 0 73 -36 65 -80c-6 -69 -109 -108 -145 -57c-44 46 11 141 80 137zM445 535c-43 0 -73 36 -65 80c6 68 109 109 145 56c44 -45 -11 -140 -80 -136zM435 445l10 55h166l-88 -500h-166l7 39c-39 -35 -87 -53 -146 -53c-71 0 -124 27 -159 81
c-34 54 -45 117 -33 190c11 71 41 131 90 181c49 51 109 76 181 76c64 0 110 -23 138 -69zM401 247v3c11 65 -22 109 -86 109c-31 0 -58 -10 -81 -30s-37 -46 -42 -79s0 -59 15 -79s39 -30 70 -30c63 0 112 42 124 106z" />
    <glyph glyph-name="aring" unicode="&#xe5;" horiz-adv-x="615" 
d="M350 533c-41 0 -72 13 -95 39s-31 58 -24 96c13 76 78 129 161 129c41 0 72 -13 95 -40c23 -26 31 -58 24 -96c-13 -76 -76 -128 -161 -128zM338 665c-3 -21 6 -32 27 -32c23 0 37 10 40 31c4 19 -6 33 -29 33c-20 0 -35 -13 -38 -32zM435 445l10 55h166l-88 -500h-166
l7 39c-39 -35 -87 -53 -146 -53c-71 0 -124 27 -159 81c-34 54 -45 117 -33 190c11 71 41 131 90 181c49 51 109 76 181 76c64 0 110 -23 138 -69zM401 247v3c11 65 -22 109 -86 109c-31 0 -58 -10 -81 -30s-37 -46 -42 -79s0 -59 15 -79s39 -30 70 -30c63 0 112 42 124 106
z" />
    <glyph glyph-name="ae" unicode="&#xe6;" horiz-adv-x="945" 
d="M735 514c68 0 119 -25 153 -76c35 -50 46 -112 34 -187c-5 -23 -11 -44 -18 -62h-343c9 -41 42 -61 97 -61c40 0 73 12 99 36l106 -97c-58 -54 -121 -81 -189 -81c-71 0 -124 21 -157 63l-9 -49h-151l7 42c-41 -37 -88 -56 -143 -56c-153 -1 -222 139 -195 272
c11 69 42 129 92 180s112 76 186 76c60 0 104 -19 133 -58l8 44h151l-6 -34c41 32 90 48 145 48zM581 305h190c-3 46 -30 69 -79 69c-50 0 -87 -23 -111 -69zM277 143c61 0 112 41 124 105v2c11 65 -23 107 -86 107s-113 -43 -124 -107c-11 -65 23 -107 86 -107z" />
    <glyph glyph-name="ccedilla" unicode="&#xe7;" horiz-adv-x="532" 
d="M273 148c39 0 70 17 93 50l132 -84c-39 -67 -99 -108 -179 -123l-7 -37c36 -17 50 -45 43 -86c-13 -70 -96 -100 -250 -89l19 109c62 -5 95 0 98 14c2 11 -15 18 -50 20l13 74c-58 15 -102 47 -131 95c-29 49 -38 105 -28 169c12 74 46 135 102 182c56 48 121 72 196 72
c105 0 179 -51 215 -131l-151 -79c-15 32 -41 48 -78 48c-59 0 -109 -41 -118 -101c-11 -60 25 -103 81 -103z" />
    <glyph glyph-name="egrave" unicode="&#xe8;" horiz-adv-x="568" 
d="M378 707l61 -145h-154l-95 145h188zM324 514c75 0 134 -26 177 -77s57 -113 44 -186c-3 -20 -8 -41 -17 -62h-343c9 -41 41 -61 96 -61c40 0 73 12 99 36l106 -97c-58 -54 -131 -81 -218 -81s-152 26 -196 79c-43 53 -59 118 -46 195c12 73 46 134 102 182s121 72 196 72
zM205 305h189c-3 46 -30 69 -79 69s-86 -23 -110 -69z" />
    <glyph glyph-name="eacute" unicode="&#xe9;" horiz-adv-x="568" 
d="M360 707h198l-136 -145h-163zM324 514c75 0 134 -26 177 -77s57 -113 44 -186c-3 -20 -8 -41 -17 -62h-343c9 -41 41 -61 96 -61c40 0 73 12 99 36l106 -97c-58 -54 -131 -81 -218 -81s-152 26 -196 79c-43 53 -59 118 -46 195c12 73 46 134 102 182s121 72 196 72z
M205 305h189c-3 46 -30 69 -79 69s-86 -23 -110 -69z" />
    <glyph glyph-name="ecircumflex" unicode="&#xea;" horiz-adv-x="568" 
d="M383 552l-29 56l-50 -56h-151l133 155h167l79 -155h-149zM324 514c75 0 134 -26 177 -77s57 -113 44 -186c-3 -20 -8 -41 -17 -62h-343c9 -41 41 -61 96 -61c40 0 73 12 99 36l106 -97c-58 -54 -131 -81 -218 -81s-152 26 -196 79c-43 53 -59 118 -46 195
c12 73 46 134 102 182s121 72 196 72zM205 305h189c-3 46 -30 69 -79 69s-86 -23 -110 -69z" />
    <glyph glyph-name="edieresis" unicode="&#xeb;" horiz-adv-x="568" 
d="M276 702c43 0 73 -36 65 -80c-6 -69 -109 -108 -145 -57c-44 46 11 141 80 137zM442 542c-43 0 -73 36 -65 80c6 68 109 109 145 56c44 -45 -11 -140 -80 -136zM324 514c75 0 134 -26 177 -77s57 -113 44 -186c-3 -20 -8 -41 -17 -62h-343c9 -41 41 -61 96 -61
c40 0 73 12 99 36l106 -97c-58 -54 -131 -81 -218 -81s-152 26 -196 79c-43 53 -59 118 -46 195c12 73 46 134 102 182s121 72 196 72zM205 305h189c-3 46 -30 69 -79 69s-86 -23 -110 -69z" />
    <glyph glyph-name="igrave" unicode="&#xec;" horiz-adv-x="262" 
d="M262 550h-155l-47 150h181zM170 0l88 500h-166l-88 -500h166z" />
    <glyph glyph-name="iacute" unicode="&#xed;" horiz-adv-x="262" 
d="M101 550l66 150h189l-97 -150h-158zM4 0h166l88 500h-166z" />
    <glyph glyph-name="icircumflex" unicode="&#xee;" horiz-adv-x="262" 
d="M217 545l-22 48l-37 -48h-150l119 155h166l65 -155h-141zM170 0h-166l88 500h166z" />
    <glyph glyph-name="idieresis" unicode="&#xef;" horiz-adv-x="262" 
d="M30 620c7 41 47 77 90 77s72 -34 64 -77c-7 -43 -48 -77 -91 -77s-71 36 -63 77zM208 620c8 43 50 77 91 77s71 -34 64 -77c-8 -43 -50 -77 -91 -77s-71 34 -64 77zM170 0h-166l88 500h166z" />
    <glyph glyph-name="eth" unicode="&#xf0;" horiz-adv-x="566" 
d="M394 565l115 -200c27 -45 36 -94 27 -145c-12 -73 -45 -130 -99 -172c-53 -41 -116 -62 -189 -62c-74 0 -134 23 -179 70s-60 109 -47 184c11 60 39 110 85 150c47 40 100 62 161 65l-29 55l-141 -50l21 121l68 24l-51 95h180l23 -40l145 52l-21 -122zM370 228
c3 20 1 37 -7 52c-15 23 -38 34 -69 34c-55 0 -98 -33 -107 -86c-9 -56 20 -90 76 -90c55 0 98 34 107 90z" />
    <glyph glyph-name="ntilde" unicode="&#xf1;" 
d="M339 578c-28 21 -50 21 -57 -20h-121c17 166 130 190 208 143c30 -18 48 -26 57 19h122c-17 -168 -132 -188 -209 -142zM395 514c108 0 174 -79 151 -215l-53 -299h-166l49 278c8 53 -17 79 -62 79c-51 0 -86 -31 -97 -91v1l-47 -267h-166l88 500h166l-9 -51
c38 43 87 65 146 65z" />
    <glyph glyph-name="ograve" unicode="&#xf2;" horiz-adv-x="583" 
d="M437 565h-154l-95 145h188zM258 -14c77 0 143 25 198 74s88 108 100 176c13 71 -2 135 -44 192s-103 86 -183 86c-81 0 -148 -24 -202 -72c-53 -48 -87 -107 -100 -176c-30 -133 58 -281 231 -280zM271 146c-57 0 -91 43 -80 104s60 104 117 104c59 0 92 -43 81 -104
s-59 -104 -118 -104z" />
    <glyph glyph-name="oacute" unicode="&#xf3;" horiz-adv-x="583" 
d="M257 565l101 145h198l-136 -145h-163zM258 -14c77 0 143 25 198 74s88 108 100 176c13 71 -2 135 -44 192s-103 86 -183 86c-81 0 -148 -24 -202 -72c-53 -48 -87 -107 -100 -176c-30 -133 58 -281 231 -280zM271 146c-57 0 -91 43 -80 104s60 104 117 104
c59 0 92 -43 81 -104s-59 -104 -118 -104z" />
    <glyph glyph-name="ocircumflex" unicode="&#xf4;" horiz-adv-x="583" 
d="M381 555l-29 56l-50 -56h-151l133 155h167l79 -155h-149zM329 514c80 0 141 -29 183 -86s57 -121 44 -192c-12 -68 -45 -127 -100 -176s-121 -74 -198 -74c-173 -1 -261 147 -231 280c13 69 47 128 100 176c54 48 121 72 202 72zM308 354c-57 0 -106 -43 -117 -104
s23 -104 80 -104c59 0 107 43 118 104s-22 104 -81 104z" />
    <glyph glyph-name="otilde" unicode="&#xf5;" horiz-adv-x="583" 
d="M288 558h-121c17 166 130 190 208 143c30 -18 48 -26 57 19h122c-17 -168 -132 -188 -209 -142c-28 21 -50 21 -57 -20zM258 -14c-173 -1 -261 147 -231 280c13 69 47 128 100 176c54 48 121 72 202 72c80 0 141 -29 183 -86s57 -121 44 -192c-12 -68 -45 -127 -100 -176
s-121 -74 -198 -74zM271 146c59 0 107 43 118 104s-22 104 -81 104c-57 0 -106 -43 -117 -104s23 -104 80 -104z" />
    <glyph glyph-name="odieresis" unicode="&#xf6;" horiz-adv-x="583" 
d="M274 705c43 0 73 -36 65 -80c-6 -69 -109 -108 -145 -57c-44 46 11 141 80 137zM440 545c-43 0 -73 36 -65 80c6 68 109 109 145 56c44 -45 -11 -140 -80 -136zM258 -14c-173 -1 -261 147 -231 280c13 69 47 128 100 176c54 48 121 72 202 72c80 0 141 -29 183 -86
s57 -121 44 -192c-12 -68 -45 -127 -100 -176s-121 -74 -198 -74zM271 146c59 0 107 43 118 104s-22 104 -81 104c-57 0 -106 -43 -117 -104s23 -104 80 -104z" />
    <glyph glyph-name="divide" unicode="&#xf7;" horiz-adv-x="551" 
d="M314 459c-53 0 -89 44 -80 97c11 55 57 93 110 93s90 -44 79 -97c-9 -53 -54 -93 -109 -93zM519 271h-480l28 158h480zM352 144c-11 -55 -57 -93 -110 -93s-89 44 -80 97s57 93 110 93s89 -44 80 -97z" />
    <glyph glyph-name="oslash" unicode="&#xf8;" horiz-adv-x="583" 
d="M499 512l63 -35l-49 -50c41 -55 56 -118 43 -191c-12 -69 -45 -128 -99 -177c-53 -49 -120 -73 -199 -73c-53 0 -100 13 -139 39l-36 -37l-63 34l49 50c-42 55 -56 120 -42 194c13 69 47 128 100 176c54 48 121 72 202 72c50 0 95 -13 134 -39zM193 250
c-3 -20 -3 -36 2 -49l145 149c-12 3 -22 4 -30 4c-59 0 -106 -43 -117 -104zM391 250c3 19 2 35 -2 50l-147 -149c11 -3 22 -5 31 -5c59 0 107 43 118 104z" />
    <glyph glyph-name="ugrave" unicode="&#xf9;" 
d="M364 700l61 -145h-154l-95 145h188zM361 233l47 267h166l-88 -500h-166l9 51c-38 -43 -87 -65 -146 -65c-108 0 -174 79 -151 215l53 299h166l-49 -278c-8 -53 17 -79 62 -79c51 0 86 31 97 91v-1z" />
    <glyph glyph-name="uacute" unicode="&#xfa;" 
d="M346 700h198l-136 -145h-163zM361 233l47 267h166l-88 -500h-166l9 51c-38 -43 -87 -65 -146 -65c-108 0 -174 79 -151 215l53 299h166l-49 -278c-8 -53 17 -79 62 -79c51 0 86 31 97 91v-1z" />
    <glyph glyph-name="ucircumflex" unicode="&#xfb;" 
d="M369 545l-29 56l-50 -56h-151l133 155h167l79 -155h-149zM361 233l47 267h166l-88 -500h-166l9 51c-38 -43 -87 -65 -146 -65c-108 0 -174 79 -151 215l53 299h166l-49 -278c-8 -53 17 -79 62 -79c51 0 86 31 97 91v-1z" />
    <glyph glyph-name="udieresis" unicode="&#xfc;" 
d="M262 695c43 0 73 -36 65 -80c-6 -69 -109 -108 -145 -57c-44 46 11 141 80 137zM428 535c-43 0 -73 36 -65 80c6 68 109 109 145 56c44 -45 -11 -140 -80 -136zM361 233l47 267h166l-88 -500h-166l9 51c-38 -43 -87 -65 -146 -65c-108 0 -174 79 -151 215l53 299h166
l-49 -278c-8 -53 17 -79 62 -79c51 0 86 31 97 91v-1z" />
    <glyph glyph-name="yacute" unicode="&#xfd;" horiz-adv-x="549" 
d="M328 700h198l-136 -145h-163zM272 211l130 289h191l-254 -485c-87 -167 -194 -227 -342 -215l28 156c72 0 100 15 131 64l-112 480h176z" />
    <glyph glyph-name="thorn" unicode="&#xfe;" horiz-adv-x="615" 
d="M393 514c69 0 121 -27 158 -82c37 -54 50 -118 38 -192c-12 -72 -42 -132 -90 -181c-47 -49 -106 -73 -176 -73c-65 0 -113 24 -143 71l-45 -257h-166l158 900h166l-42 -241c38 37 85 55 142 55zM423 250c12 67 -21 109 -84 109s-113 -42 -125 -109
c-11 -67 23 -109 86 -109s112 42 123 109z" />
    <glyph glyph-name="ydieresis" unicode="&#xff;" horiz-adv-x="549" 
d="M244 695c43 0 73 -36 65 -80c-6 -69 -109 -108 -145 -57c-44 46 11 141 80 137zM410 535c-43 0 -73 36 -65 80c6 68 109 109 145 56c44 -45 -11 -140 -80 -136zM272 211l130 289h191l-254 -485c-87 -167 -194 -227 -342 -215l28 156c72 0 100 15 131 64l-112 480h176z
" />
    <glyph glyph-name="Amacron" unicode="&#x100;" horiz-adv-x="671" 
d="M291 884h310l-23 -130h-309zM631 0h-191l-11 101h-233l-48 -101h-197l354 700h218zM386 497l-116 -242h142z" />
    <glyph glyph-name="amacron" unicode="&#x101;" horiz-adv-x="615" 
d="M219 684h310l-23 -130h-309zM435 445l10 55h166l-88 -500h-166l7 39c-39 -35 -87 -53 -146 -53c-71 0 -124 27 -159 81c-34 54 -45 117 -33 190c11 71 41 131 90 181c49 51 109 76 181 76c64 0 110 -23 138 -69zM401 247v3c11 65 -22 109 -86 109c-31 0 -58 -10 -81 -30
s-37 -46 -42 -79s0 -59 15 -79s39 -30 70 -30c63 0 112 42 124 106z" />
    <glyph glyph-name="Abreve" unicode="&#x102;" horiz-adv-x="671" 
d="M430 737c-113 0 -179 64 -160 160h140c-5 -29 5 -44 32 -44c26 0 42 15 47 44h140c-17 -107 -83 -160 -199 -160zM631 0h-191l-11 101h-233l-48 -101h-197l354 700h218zM386 497l-116 -242h142z" />
    <glyph glyph-name="abreve" unicode="&#x103;" horiz-adv-x="615" 
d="M358 537c-113 0 -179 64 -160 160h140c-5 -29 5 -44 32 -44c26 0 42 15 47 44h140c-17 -107 -83 -160 -199 -160zM435 445l10 55h166l-88 -500h-166l7 39c-39 -35 -87 -53 -146 -53c-71 0 -124 27 -159 81c-34 54 -45 117 -33 190c11 71 41 131 90 181
c49 51 109 76 181 76c64 0 110 -23 138 -69zM401 247v3c11 65 -22 109 -86 109c-31 0 -58 -10 -81 -30s-37 -46 -42 -79s0 -59 15 -79s39 -30 70 -30c63 0 112 42 124 106z" />
    <glyph glyph-name="Aogonek" unicode="&#x104;" horiz-adv-x="671" 
d="M575 -75c-3 -16 3 -24 18 -24c7 0 14 1 22 3l-19 -101c-30 -11 -60 -17 -91 -17c-60 0 -100 38 -88 98c7 41 34 79 80 116h-57l-11 101h-233l-48 -101h-197l354 700h218l108 -700c-33 -29 -51 -54 -56 -75zM386 497l-116 -242h142z" />
    <glyph glyph-name="aogonek" unicode="&#x105;" horiz-adv-x="615" 
d="M435 445l10 55h166l-88 -500c-36 -33 -55 -60 -57 -82c-2 -13 4 -19 18 -19c7 0 14 1 22 3l-18 -99c-25 -11 -54 -17 -85 -17c-61 0 -100 32 -95 85c2 43 30 86 84 129h-35l7 39c-39 -35 -87 -53 -146 -53c-71 0 -124 27 -159 81c-34 54 -45 117 -33 190
c11 71 41 131 90 181c49 51 109 76 181 76c64 0 110 -23 138 -69zM401 247v3c11 65 -22 109 -86 109c-31 0 -58 -10 -81 -30s-37 -46 -42 -79s0 -59 15 -79s39 -30 70 -30c63 0 112 42 124 106z" />
    <glyph glyph-name="Cacute" unicode="&#x106;" horiz-adv-x="722" 
d="M394 765l101 145h198l-136 -145h-163zM359 -15c131 0 248 60 323 164l-147 95c-42 -56 -97 -84 -164 -84c-53 0 -93 18 -120 53c-27 36 -35 82 -26 137c10 57 35 102 75 137c41 35 88 53 143 53c66 0 112 -26 139 -79l164 87c-51 104 -149 167 -286 167
c-103 0 -194 -33 -272 -100c-77 -67 -124 -152 -141 -255c-17 -106 3 -195 62 -267s143 -108 250 -108z" />
    <glyph glyph-name="cacute" unicode="&#x107;" horiz-adv-x="532" 
d="M244 560l101 145h198l-136 -145h-163zM260 -14c99 0 187 44 238 128l-132 84c-23 -33 -54 -50 -93 -50c-56 0 -92 43 -81 103c9 60 59 101 118 101c37 0 63 -16 78 -48l151 79c-36 80 -110 131 -215 131c-75 0 -140 -24 -196 -72c-56 -47 -90 -108 -102 -182
c-12 -77 4 -142 48 -195s106 -79 186 -79z" />
    <glyph glyph-name="Cdotaccent" unicode="&#x10a;" horiz-adv-x="722" 
d="M482 753c-49 0 -83 41 -74 89c9 49 56 90 105 90s83 -41 75 -90c-11 -48 -58 -89 -106 -89zM359 -15c-107 0 -191 36 -250 108s-79 161 -62 267c17 103 64 188 141 255c78 67 169 100 272 100c137 0 235 -63 286 -167l-164 -87c-27 53 -73 79 -139 79
c-55 0 -102 -18 -143 -53c-40 -35 -65 -80 -75 -137c-9 -55 -1 -101 26 -137c27 -35 67 -53 120 -53c67 0 122 28 164 84l147 -95c-75 -104 -192 -164 -323 -164z" />
    <glyph glyph-name="cdotaccent" unicode="&#x10b;" horiz-adv-x="532" 
d="M332 548c-49 0 -83 41 -74 89c9 49 56 90 105 90s83 -41 75 -90c-11 -48 -58 -89 -106 -89zM260 -14c-80 0 -142 26 -186 79s-60 118 -48 195c12 74 46 135 102 182c56 48 121 72 196 72c105 0 179 -51 215 -131l-151 -79c-15 32 -41 48 -78 48c-59 0 -109 -41 -118 -101
c-11 -60 25 -103 81 -103c39 0 70 17 93 50l132 -84c-51 -84 -139 -128 -238 -128z" />
    <glyph glyph-name="Ccaron" unicode="&#x10c;" horiz-adv-x="722" 
d="M561 755h-167l-79 155h145l30 -56l49 56h155zM371 160c67 0 122 28 164 84l147 -95c-75 -104 -192 -164 -323 -164c-107 0 -191 36 -250 108s-79 161 -62 267c17 103 64 188 141 255c78 67 169 100 272 100c137 0 235 -63 286 -167l-164 -87c-27 53 -73 79 -139 79
c-55 0 -102 -18 -143 -53c-40 -35 -65 -80 -75 -137c-9 -55 -1 -101 26 -137c27 -35 67 -53 120 -53z" />
    <glyph glyph-name="ccaron" unicode="&#x10d;" horiz-adv-x="532" 
d="M411 550h-167l-79 155h145l30 -56l49 56h155zM310 352c-59 0 -109 -41 -118 -101c-11 -60 25 -103 81 -103c39 0 70 17 93 50l132 -84c-51 -84 -139 -128 -238 -128c-80 0 -142 26 -186 79s-60 118 -48 195c12 74 46 135 102 182c56 48 121 72 196 72
c105 0 179 -51 215 -131l-151 -79c-15 32 -41 48 -78 48z" />
    <glyph glyph-name="Dcaron" unicode="&#x10e;" horiz-adv-x="709" 
d="M486 745h-167l-79 155h145l30 -56l49 56h155zM134 700h285c92 0 166 -35 221 -106s74 -155 57 -254c-18 -100 -64 -182 -137 -245s-161 -95 -264 -95h-285zM523 353c17 105 -37 174 -134 174h-101l-63 -354h96c51 0 94 16 131 49s61 77 71 131z" />
    <glyph glyph-name="dcaron" unicode="&#x10f;" horiz-adv-x="758" 
d="M436 444l45 256h166l-123 -700h-166l7 40c-39 -36 -88 -54 -147 -54c-71 0 -124 27 -159 81c-34 54 -45 117 -33 190c11 71 41 131 90 181c49 51 109 76 181 76c64 0 110 -23 139 -70zM649 481l49 219h154l-73 -219h-130zM278 141c61 0 110 40 123 103l2 10
c5 32 -1 57 -17 76c-15 19 -39 29 -70 29s-59 -10 -82 -30s-37 -46 -42 -79c-11 -65 23 -109 86 -109z" />
    <glyph glyph-name="Dcroat" unicode="&#x110;" horiz-adv-x="739" 
d="M164 700h285c92 0 166 -35 221 -106s74 -155 57 -254c-18 -100 -64 -182 -137 -245s-161 -95 -264 -95h-285l46 263h-74l28 158h74zM553 353c17 105 -37 174 -134 174h-101l-19 -106h132l-28 -158h-132l-16 -90h96c51 0 94 16 131 49s61 77 71 131z" />
    <glyph glyph-name="dslash" unicode="&#x111;" horiz-adv-x="625" 
d="M637 645h58l-19 -106h-57l-95 -539h-166l7 37c-38 -34 -87 -51 -146 -51c-73 0 -127 27 -162 80s-45 117 -32 190c12 69 43 128 92 176c49 49 109 73 179 73c64 0 110 -23 139 -69l18 103h-137l19 106h136l10 55h166zM191 245c-12 -64 23 -106 86 -106s112 42 124 106
c11 65 -23 107 -86 107s-113 -43 -124 -107z" />
    <glyph glyph-name="Emacron" unicode="&#x112;" horiz-adv-x="535" 
d="M234 884h310l-23 -130h-309zM579 700l-30 -167h-265l-18 -98h242l-30 -164h-240l-18 -103h270l-29 -168h-450l123 700h445z" />
    <glyph glyph-name="emacron" unicode="&#x113;" horiz-adv-x="568" 
d="M216 691h310l-23 -130h-309zM324 514c75 0 134 -26 177 -77s57 -113 44 -186c-3 -20 -8 -41 -17 -62h-343c9 -41 41 -61 96 -61c40 0 73 12 99 36l106 -97c-58 -54 -131 -81 -218 -81s-152 26 -196 79c-43 53 -59 118 -46 195c12 73 46 134 102 182s121 72 196 72z
M205 305h189c-3 46 -30 69 -79 69s-86 -23 -110 -69z" />
    <glyph glyph-name="Edotaccent" unicode="&#x116;" horiz-adv-x="535" 
d="M365 743c-49 0 -83 41 -74 89c9 49 56 90 105 90s83 -41 75 -90c-11 -48 -58 -89 -106 -89zM579 700l-30 -167h-265l-18 -98h242l-30 -164h-240l-18 -103h270l-29 -168h-450l123 700h445z" />
    <glyph glyph-name="edotaccent" unicode="&#x117;" horiz-adv-x="568" 
d="M347 550c-49 0 -83 41 -74 89c9 49 56 90 105 90s83 -41 75 -90c-11 -48 -58 -89 -106 -89zM324 514c75 0 134 -26 177 -77s57 -113 44 -186c-3 -20 -8 -41 -17 -62h-343c9 -41 41 -61 96 -61c40 0 73 12 99 36l106 -97c-58 -54 -131 -81 -218 -81s-152 26 -196 79
c-43 53 -59 118 -46 195c12 73 46 134 102 182s121 72 196 72zM205 305h189c-3 46 -30 69 -79 69s-86 -23 -110 -69z" />
    <glyph glyph-name="Eogonek" unicode="&#x118;" horiz-adv-x="535" 
d="M579 700l-30 -167h-265l-18 -98h242l-30 -164h-240l-18 -103h270l-29 -168c-35 -32 -54 -58 -57 -78c-3 -15 2 -23 17 -23c4 -1 12 0 23 3l-18 -99c-89 -35 -201 -18 -180 74c7 39 35 80 84 123h-319l123 700h445z" />
    <glyph glyph-name="eogonek" unicode="&#x119;" horiz-adv-x="568" 
d="M324 514c75 0 134 -26 177 -77s57 -113 44 -186c-3 -20 -8 -41 -17 -62h-343c9 -41 41 -61 96 -61c40 0 73 12 99 36l106 -97c-13 -12 -24 -21 -31 -26c-57 -43 -95 -87 -103 -114c-6 -19 0 -28 19 -28c6 0 13 1 20 3l-18 -99c-27 -11 -55 -17 -84 -17
c-72 0 -107 39 -96 94c6 34 31 69 76 106h-1c-87 0 -152 26 -196 79c-43 53 -59 118 -46 195c12 73 46 134 102 182s121 72 196 72zM205 305h189c-3 46 -30 69 -79 69s-86 -23 -110 -69z" />
    <glyph glyph-name="Ecaron" unicode="&#x11a;" horiz-adv-x="535" 
d="M444 745h-167l-79 155h145l30 -56l49 56h155zM579 700l-30 -167h-265l-18 -98h242l-30 -164h-240l-18 -103h270l-29 -168h-450l123 700h445z" />
    <glyph glyph-name="ecaron" unicode="&#x11b;" horiz-adv-x="568" 
d="M426 552h-167l-79 155h145l30 -56l49 56h155zM324 514c75 0 134 -26 177 -77s57 -113 44 -186c-3 -20 -8 -41 -17 -62h-343c9 -41 41 -61 96 -61c40 0 73 12 99 36l106 -97c-58 -54 -131 -81 -218 -81s-152 26 -196 79c-43 53 -59 118 -46 195c12 73 46 134 102 182
s121 72 196 72zM205 305h189c-3 46 -30 69 -79 69s-86 -23 -110 -69z" />
    <glyph glyph-name="Gbreve" unicode="&#x11e;" horiz-adv-x="779" 
d="M490 747c-113 0 -179 64 -160 160h140c-5 -29 5 -44 32 -44c26 0 42 15 47 44h140c-17 -107 -83 -160 -199 -160zM424 401h353l-12 -71c-17 -106 -62 -190 -135 -252s-162 -93 -268 -93c-109 0 -193 36 -252 108c-59 73 -80 162 -63 267c17 103 65 188 142 255
s168 100 272 100c137 0 240 -62 293 -165l-164 -88c-29 52 -78 78 -147 78c-55 0 -102 -18 -143 -53c-40 -35 -65 -80 -75 -137c-10 -56 -1 -103 27 -140s70 -55 126 -55c86 0 146 31 181 92h-162z" />
    <glyph glyph-name="gbreve" unicode="&#x11f;" horiz-adv-x="619" 
d="M361 547c-113 0 -179 64 -160 160h140c-5 -29 5 -44 32 -44c26 0 42 15 47 44h140c-17 -107 -83 -160 -199 -160zM441 441l10 59h164l-85 -480c-14 -81 -48 -140 -102 -178c-53 -38 -118 -57 -193 -57c-112 0 -199 42 -234 122l147 77c19 -36 53 -54 102 -54
c61 0 105 30 116 90l7 38c-39 -35 -87 -52 -142 -52c-153 0 -223 130 -200 261c10 67 39 124 87 173c49 49 109 74 182 74c65 0 112 -24 141 -73zM284 157c59 0 108 38 123 93l3 20c5 55 -30 93 -89 93c-63 0 -113 -43 -124 -103s24 -103 87 -103z" />
    <glyph glyph-name="Gdotaccent" unicode="&#x120;" horiz-adv-x="779" 
d="M482 753c-49 0 -83 41 -74 89c9 49 56 90 105 90s83 -41 75 -90c-11 -48 -58 -89 -106 -89zM424 401h353l-12 -71c-17 -106 -62 -190 -135 -252s-162 -93 -268 -93c-109 0 -193 36 -252 108c-59 73 -80 162 -63 267c17 103 65 188 142 255s168 100 272 100
c137 0 240 -62 293 -165l-164 -88c-29 52 -78 78 -147 78c-55 0 -102 -18 -143 -53c-40 -35 -65 -80 -75 -137c-10 -56 -1 -103 27 -140s70 -55 126 -55c86 0 146 31 181 92h-162z" />
    <glyph glyph-name="gdotaccent" unicode="&#x121;" horiz-adv-x="619" 
d="M353 553c-49 0 -83 41 -74 89c9 49 56 90 105 90s83 -41 75 -90c-11 -48 -58 -89 -106 -89zM441 441l10 59h164l-85 -480c-14 -81 -48 -140 -102 -178c-53 -38 -118 -57 -193 -57c-112 0 -199 42 -234 122l147 77c19 -36 53 -54 102 -54c61 0 105 30 116 90l7 38
c-39 -35 -87 -52 -142 -52c-153 0 -223 130 -200 261c10 67 39 124 87 173c49 49 109 74 182 74c65 0 112 -24 141 -73zM284 157c59 0 108 38 123 93l3 20c5 55 -30 93 -89 93c-63 0 -113 -43 -124 -103s24 -103 87 -103z" />
    <glyph glyph-name="Gcommaaccent" unicode="&#x122;" horiz-adv-x="779" 
d="M424 401h353l-12 -71c-17 -106 -62 -190 -135 -252s-162 -93 -268 -93c-109 0 -193 36 -252 108c-59 73 -80 162 -63 267c17 103 65 188 142 255s168 100 272 100c137 0 240 -62 293 -165l-164 -88c-29 52 -78 78 -147 78c-55 0 -102 -18 -143 -53
c-40 -35 -65 -80 -75 -137c-10 -56 -1 -103 27 -140s70 -55 126 -55c86 0 146 31 181 92h-162zM353 -277h-129l48 220h154z" />
    <glyph glyph-name="gcommaaccent" unicode="&#x123;" horiz-adv-x="619" 
d="M342 795h129l-49 -220h-154zM441 441l10 59h164l-85 -480c-14 -81 -48 -140 -102 -178c-53 -38 -118 -57 -193 -57c-112 0 -199 42 -234 122l147 77c19 -36 53 -54 102 -54c61 0 105 30 116 90l7 38c-39 -35 -87 -52 -142 -52c-153 0 -223 130 -200 261
c10 67 39 124 87 173c49 49 109 74 182 74c65 0 112 -24 141 -73zM284 157c59 0 108 38 123 93l3 20c5 55 -30 93 -89 93c-63 0 -113 -43 -124 -103s24 -103 87 -103z" />
    <glyph glyph-name="Hbar" unicode="&#x126;" horiz-adv-x="705" 
d="M692 608h60l-22 -130h-61l-84 -478h-178l39 220h-197l-39 -220h-179l84 478h-59l22 130h60l16 92h179l-16 -92h197l16 92h178zM279 393h197l15 85h-197z" />
    <glyph glyph-name="hbar" unicode="&#x127;" horiz-adv-x="587" 
d="M402 502c108 0 175 -79 151 -215l-50 -287h-166l46 266c9 53 -15 80 -62 80c-49 0 -80 -26 -94 -78l-47 -268h-166l95 539h-58l19 106h57l10 55h166l-10 -55h136l-19 -106h-135l-18 -101c39 43 87 64 145 64z" />
    <glyph glyph-name="Imacron" unicode="&#x12a;" horiz-adv-x="289" 
d="M388 754h-309l22 130h310zM11 0l123 700h179l-123 -700h-179z" />
    <glyph glyph-name="imacron" unicode="&#x12b;" horiz-adv-x="262" 
d="M315 554h-259l23 135h259zM170 0h-166l88 500h166z" />
    <glyph glyph-name="Iogonek" unicode="&#x12e;" horiz-adv-x="289" 
d="M313 700l-123 -700c-31 -33 -48 -59 -50 -79c-2 -15 4 -22 19 -22c4 -1 11 0 22 3l-18 -99c-30 -11 -60 -17 -91 -17c-61 0 -97 39 -89 95c6 39 31 79 75 119h-47l123 700h179z" />
    <glyph glyph-name="iogonek" unicode="&#x12f;" horiz-adv-x="262" 
d="M215 732c53 0 89 -43 80 -95c-8 -53 -56 -96 -111 -96c-52 0 -89 44 -80 96c8 51 56 95 111 95zM32 0h-28l88 500h166l-88 -500c-28 -32 -43 -58 -46 -79c-2 -15 4 -22 18 -22c4 -1 11 0 22 3l-18 -99c-29 -11 -59 -17 -91 -17c-60 0 -96 39 -89 92c3 35 25 75 66 122z
" />
    <glyph glyph-name="Idot" unicode="&#x130;" horiz-adv-x="289" 
d="M232 743c-49 0 -83 41 -74 89c9 49 56 90 105 90s83 -41 75 -90c-11 -48 -58 -89 -106 -89zM11 0l123 700h179l-123 -700h-179z" />
    <glyph glyph-name="dotlessi" unicode="&#x131;" horiz-adv-x="262" 
d="M170 0h-166l88 500h166z" />
    <glyph glyph-name="Kcommaaccent" unicode="&#x136;" horiz-adv-x="631" 
d="M502 700h209l-298 -348l178 -352h-185l-160 319l-56 -319h-179l123 700h179l-50 -284zM267 -277h-129l48 220h154z" />
    <glyph glyph-name="kcommaaccent" unicode="&#x137;" horiz-adv-x="537" 
d="M382 500h191l-210 -251l130 -249h-178l-106 220l-39 -220h-166l123 700h166l-70 -398zM240 -277h-129l48 220h154z" />
    <glyph glyph-name="Lacute" unicode="&#x139;" horiz-adv-x="485" 
d="M252 900h198l-136 -145h-163zM313 700l-93 -527h241l-30 -173h-420l123 700h179z" />
    <glyph glyph-name="lacute" unicode="&#x13a;" horiz-adv-x="263" 
d="M138 760l101 145h198l-136 -145h-163zM5 0h166l56 316l72 414h-166l-72 -409z" />
    <glyph glyph-name="Lcommaaccent" unicode="&#x13b;" horiz-adv-x="485" 
d="M313 700l-93 -527h241l-30 -173h-420l123 700h179zM218 -277h-129l48 220h154z" />
    <glyph glyph-name="lcommaaccent" unicode="&#x13c;" horiz-adv-x="263" 
d="M171 0h-166l56 321l72 409h166l-72 -414zM81 -277h-129l48 220h154z" />
    <glyph glyph-name="Lcaron" unicode="&#x13d;" horiz-adv-x="485" 
d="M134 700h179l-93 -527h241l-30 -173h-420zM327 501l44 199h164l-69 -199h-139z" />
    <glyph glyph-name="lcaron" unicode="&#x13e;" horiz-adv-x="397" 
d="M171 0h-166l56 321l72 409h166l-72 -414zM423 511h-129l49 219h154z" />
    <glyph glyph-name="Lslash" unicode="&#x141;" horiz-adv-x="515" 
d="M274 308l-24 -135h241l-30 -173h-420l35 199l-66 -36l31 177l66 36l57 324h179l-38 -215l133 73l-31 -177z" />
    <glyph glyph-name="lslash" unicode="&#x142;" horiz-adv-x="279" 
d="M263 475l56 32l-27 -157l-57 -32v-2l-56 -316h-166l37 212l-57 -33l28 157l56 32l64 362h166z" />
    <glyph glyph-name="Nacute" unicode="&#x143;" horiz-adv-x="675" 
d="M336 755l101 145h198l-136 -145h-163zM11 0h179l65 366l182 -366h138l123 700h-178l-65 -366l-182 366h-139z" />
    <glyph glyph-name="nacute" unicode="&#x144;" 
d="M352 710h198l-136 -145h-163zM395 514c108 0 174 -79 151 -215l-53 -299h-166l49 278c8 53 -17 79 -62 79c-51 0 -86 -31 -97 -91v1l-47 -267h-166l88 500h166l-9 -51c38 43 87 65 146 65z" />
    <glyph glyph-name="Ncommaaccent" unicode="&#x145;" horiz-adv-x="675" 
d="M190 0h-179l123 700h139l182 -366l65 366h178l-123 -700h-138l-182 366zM297 -277h-129l48 220h154z" />
    <glyph glyph-name="ncommaaccent" unicode="&#x146;" 
d="M395 514c108 0 174 -79 151 -215l-53 -299h-166l49 278c8 53 -17 79 -62 79c-51 0 -86 -31 -97 -91v1l-47 -267h-166l88 500h166l-9 -51c38 43 87 65 146 65zM253 -277h-129l48 220h154z" />
    <glyph glyph-name="Ncaron" unicode="&#x147;" horiz-adv-x="675" 
d="M503 745h-167l-79 155h145l30 -56l49 56h155zM455 334l65 366h178l-123 -700h-138l-182 366l-65 -366h-179l123 700h139z" />
    <glyph glyph-name="ncaron" unicode="&#x148;" 
d="M418 555h-167l-79 155h145l30 -56l49 56h155zM395 514c108 0 174 -79 151 -215l-53 -299h-166l49 278c8 53 -17 79 -62 79c-51 0 -86 -31 -97 -91v1l-47 -267h-166l88 500h166l-9 -51c38 43 87 65 146 65z" />
    <glyph glyph-name="Eng" unicode="&#x14a;" horiz-adv-x="675" 
d="M455 334l65 366h178l-123 -700c-27 -151 -114 -220 -281 -207l28 154c48 -2 76 18 83 60l8 42l-158 317l-65 -366h-179l123 700h139z" />
    <glyph glyph-name="eng" unicode="&#x14b;" 
d="M395 514c108 0 174 -79 151 -215l-53 -299c-27 -156 -108 -220 -261 -209l27 150c38 -3 61 16 68 59l49 278c8 53 -17 79 -62 79c-51 0 -86 -31 -97 -91v1l-47 -267h-166l88 500h166l-9 -51c38 43 87 65 146 65z" />
    <glyph glyph-name="Omacron" unicode="&#x14c;" horiz-adv-x="790" 
d="M640 764h-309l22 130h310zM360 -15c-214 -4 -353 183 -313 376c17 100 64 184 141 252s170 102 279 102c106 0 188 -37 247 -112c59 -74 81 -161 64 -262s-64 -186 -140 -254c-75 -68 -168 -102 -278 -102zM600 350c10 55 0 101 -29 136c-29 36 -71 54 -125 54
s-102 -18 -144 -54c-41 -35 -67 -81 -77 -136c-10 -56 -1 -102 27 -137c29 -35 70 -53 124 -53s102 18 145 53c43 36 70 82 79 137z" />
    <glyph glyph-name="omacron" unicode="&#x14d;" horiz-adv-x="583" 
d="M501 564h-309l22 130h310zM258 -14c-173 -1 -261 147 -231 280c13 69 47 128 100 176c54 48 121 72 202 72c80 0 141 -29 183 -86s57 -121 44 -192c-12 -68 -45 -127 -100 -176s-121 -74 -198 -74zM271 146c59 0 107 43 118 104s-22 104 -81 104
c-57 0 -106 -43 -117 -104s23 -104 80 -104z" />
    <glyph glyph-name="Ohungarumlaut" unicode="&#x150;" horiz-adv-x="790" 
d="M285 755l106 150h164l-113 -150h-157zM477 755l117 150h163l-122 -150h-158zM360 -15c110 0 203 34 278 102c76 68 123 153 140 254s-5 188 -64 262c-59 75 -141 112 -247 112c-109 0 -202 -34 -279 -102s-124 -152 -141 -252c-40 -193 99 -380 313 -376zM600 350
c-9 -55 -36 -101 -79 -137c-43 -35 -91 -53 -145 -53s-95 18 -124 53c-28 35 -37 81 -27 137c10 55 36 101 77 136c42 36 90 54 144 54s96 -18 125 -54c29 -35 39 -81 29 -136z" />
    <glyph glyph-name="ohungarumlaut" unicode="&#x151;" horiz-adv-x="583" 
d="M146 555l106 150h164l-113 -150h-157zM338 555l117 150h163l-122 -150h-158zM258 -14c77 0 143 25 198 74s88 108 100 176c13 71 -2 135 -44 192s-103 86 -183 86c-81 0 -148 -24 -202 -72c-53 -48 -87 -107 -100 -176c-30 -133 58 -281 231 -280zM271 146
c-57 0 -91 43 -80 104s60 104 117 104c59 0 92 -43 81 -104s-59 -104 -118 -104z" />
    <glyph glyph-name="OE" unicode="&#x152;" horiz-adv-x="934" 
d="M978 700l-29 -168h-226l-17 -97h201l-29 -164h-200l-18 -103h230l-30 -168h-409c-36 -10 -72 -15 -108 -15c-104 0 -184 36 -239 109s-75 160 -58 262c16 99 63 184 141 254s170 105 275 105c43 0 80 -5 112 -15l-31 -176c-26 11 -60 16 -102 16c-53 0 -100 -18 -141 -53
c-40 -35 -65 -81 -75 -137s-2 -102 25 -137s68 -53 121 -53c43 0 80 5 111 16l92 524h404z" />
    <glyph glyph-name="oe" unicode="&#x153;" horiz-adv-x="933" 
d="M699 514c71 0 127 -26 168 -77s56 -113 43 -186c-3 -20 -8 -41 -17 -62h-343c9 -41 41 -61 96 -61c40 0 73 12 99 36l106 -97c-58 -54 -128 -81 -210 -81c-89 0 -153 29 -192 86c-53 -57 -120 -86 -201 -86c-56 0 -103 14 -140 41c-73 55 -97 140 -82 233
c12 70 44 130 96 179c53 50 119 75 199 75c78 0 136 -29 175 -86c54 57 122 86 203 86zM570 305h189c-3 46 -30 69 -79 69s-86 -23 -110 -69zM310 354c-59 0 -107 -43 -118 -104s24 -104 81 -104c59 0 108 43 119 104s-25 104 -82 104z" />
    <glyph glyph-name="Racute" unicode="&#x154;" horiz-adv-x="620" 
d="M380 900h198l-136 -145h-163zM624 448c-16 -89 -71 -158 -152 -194l96 -254h-180l-82 226h-76l-40 -226h-179l124 700h274c69 0 126 -25 169 -74s59 -109 46 -178zM380 535h-96l-28 -157h103c44 -1 78 31 86 78s-17 79 -65 79z" />
    <glyph glyph-name="racute" unicode="&#x155;" horiz-adv-x="380" 
d="M260 700h198l-136 -145h-163zM258 500l-17 -94c31 68 94 104 169 104l-31 -184c-38 5 -74 -1 -109 -20c-34 -19 -55 -52 -63 -99l2 16l-39 -223h-166l88 500h166z" />
    <glyph glyph-name="Rcommaaccent" unicode="&#x156;" horiz-adv-x="620" 
d="M624 448c-16 -89 -71 -158 -152 -194l96 -254h-180l-82 226h-76l-40 -226h-179l124 700h274c69 0 126 -25 169 -74s59 -109 46 -178zM380 535h-96l-28 -157h103c44 -1 78 31 86 78s-17 79 -65 79zM295 -277h-129l48 220h154z" />
    <glyph glyph-name="rcommaaccent" unicode="&#x157;" horiz-adv-x="380" 
d="M258 500l-17 -94c31 68 94 104 169 104l-31 -184c-38 5 -74 -1 -109 -20c-34 -19 -55 -52 -63 -99l2 16l-39 -223h-166l88 500h166zM80 -277h-129l48 220h154z" />
    <glyph glyph-name="Rcaron" unicode="&#x158;" horiz-adv-x="620" 
d="M446 745h-167l-79 155h145l30 -56l49 56h155zM624 448c-16 -89 -71 -158 -152 -194l96 -254h-180l-82 226h-76l-40 -226h-179l124 700h274c69 0 126 -25 169 -74s59 -109 46 -178zM380 535h-96l-28 -157h103c44 -1 78 31 86 78s-17 79 -65 79z" />
    <glyph glyph-name="rcaron" unicode="&#x159;" horiz-adv-x="380" 
d="M326 545h-167l-79 155h145l30 -56l49 56h155zM258 500l-17 -94c31 68 94 104 169 104l-31 -184c-38 5 -74 -1 -109 -20c-34 -19 -55 -52 -63 -99l2 16l-39 -223h-166l88 500h166z" />
    <glyph glyph-name="Sacute" unicode="&#x15a;" horiz-adv-x="588" 
d="M287 765l101 145h198l-136 -145h-163zM269 -15c156 0 263 70 287 202c12 73 -2 127 -45 162c-41 36 -74 50 -135 71c-88 31 -116 48 -108 81c6 30 30 45 72 45c49 0 84 -24 106 -73l153 82c-40 103 -128 160 -245 160c-68 0 -127 -18 -177 -54c-49 -35 -80 -85 -91 -149
c-11 -61 0 -110 31 -145s78 -63 139 -84c43 -15 68 -23 73 -26c35 -15 50 -33 46 -55c-6 -32 -36 -48 -91 -48c-67 0 -109 29 -128 87l-159 -82c29 -108 123 -174 272 -174z" />
    <glyph glyph-name="sacute" unicode="&#x15b;" horiz-adv-x="473" 
d="M201 565l101 145h198l-136 -145h-163zM210 -14c57 0 106 12 147 36s67 62 76 113c17 101 -38 142 -99 160c-59 23 -123 22 -116 59c4 19 19 28 44 27c29 -1 50 -16 62 -46l141 68c-32 72 -106 111 -198 111c-51 0 -97 -13 -139 -38s-67 -63 -76 -113
c-20 -113 65 -153 133 -170c48 -13 86 -26 82 -46c-3 -16 -19 -24 -48 -24c-41 0 -68 19 -83 57l-146 -71c36 -82 109 -123 220 -123z" />
    <glyph glyph-name="Scedilla" unicode="&#x15e;" horiz-adv-x="588" 
d="M376 420c61 -21 94 -35 135 -71c43 -35 57 -89 45 -162c-20 -113 -102 -181 -225 -198l-6 -35c36 -17 50 -45 43 -86c-13 -70 -96 -100 -250 -89l19 109c62 -5 95 0 98 14c2 11 -15 18 -50 20l12 69c-108 17 -176 79 -200 168l159 82c19 -58 61 -87 128 -87
c55 0 85 16 91 48c4 22 -11 40 -46 55c-5 3 -30 11 -73 26c-61 21 -108 49 -139 84s-42 84 -31 145c11 64 42 114 91 149c50 36 109 54 177 54c117 0 205 -57 245 -160l-153 -82c-22 49 -57 73 -106 73c-42 0 -66 -15 -72 -45c-8 -33 20 -50 108 -81z" />
    <glyph glyph-name="scedilla" unicode="&#x15f;" horiz-adv-x="473" 
d="M218 354c-7 -37 57 -36 116 -59c61 -18 116 -59 99 -160c-15 -79 -68 -127 -159 -144l-7 -37c36 -17 50 -45 43 -86c-13 -70 -96 -100 -250 -89l19 109c62 -5 95 0 98 14c2 11 -15 18 -50 20l13 70c-73 14 -123 53 -150 117l146 71c15 -38 42 -57 83 -57c29 0 45 8 48 24
c4 20 -34 33 -82 46c-68 17 -153 57 -133 170c9 50 34 88 76 113s88 38 139 38c92 0 166 -39 198 -111l-141 -68c-12 30 -33 45 -62 46c-25 1 -40 -8 -44 -27z" />
    <glyph glyph-name="Scaron" unicode="&#x160;" horiz-adv-x="588" 
d="M454 755h-167l-79 155h145l30 -56l49 56h155zM376 420c61 -21 94 -35 135 -71c43 -35 57 -89 45 -162c-24 -132 -131 -202 -287 -202c-149 0 -243 66 -272 174l159 82c19 -58 61 -87 128 -87c55 0 85 16 91 48c4 22 -11 40 -46 55c-5 3 -30 11 -73 26
c-61 21 -108 49 -139 84s-42 84 -31 145c11 64 42 114 91 149c50 36 109 54 177 54c117 0 205 -57 245 -160l-153 -82c-22 49 -57 73 -106 73c-42 0 -66 -15 -72 -45c-8 -33 20 -50 108 -81z" />
    <glyph glyph-name="scaron" unicode="&#x161;" horiz-adv-x="473" 
d="M368 555h-167l-79 155h145l30 -56l49 56h155zM262 381c-25 1 -40 -8 -44 -27c-7 -37 57 -36 116 -59c61 -18 116 -59 99 -160c-9 -51 -35 -89 -76 -113s-90 -36 -147 -36c-111 0 -184 41 -220 123l146 71c15 -38 42 -57 83 -57c29 0 45 8 48 24c4 20 -34 33 -82 46
c-68 17 -153 57 -133 170c9 50 34 88 76 113s88 38 139 38c92 0 166 -39 198 -111l-141 -68c-12 30 -33 45 -62 46z" />
    <glyph glyph-name="uni0162" unicode="&#x162;" horiz-adv-x="545" 
d="M89 700h525l-31 -173h-172l-93 -527h-179l93 527h-173zM224 -277h-129l48 220h154z" />
    <glyph glyph-name="uni0163" unicode="&#x163;" horiz-adv-x="394" 
d="M374 341h-104l-25 -145c-8 -45 19 -51 96 -46l-26 -150c-188 -25 -264 37 -237 192l26 149h-75l28 159h75l16 90l175 50l-25 -140h105zM183 -272h-129l48 220h154z" />
    <glyph glyph-name="Tcaron" unicode="&#x164;" horiz-adv-x="545" 
d="M438 745h-167l-79 155h145l30 -56l49 56h155zM89 700h525l-31 -173h-172l-93 -527h-179l93 527h-173z" />
    <glyph glyph-name="tcaron" unicode="&#x165;" horiz-adv-x="430" 
d="M342 536l43 190h150l-69 -190h-124zM148 590l175 50l-25 -140h105l-29 -159h-104l-25 -145c-8 -45 19 -51 96 -46l-26 -150c-188 -25 -264 37 -237 192l26 149h-75l28 159h75z" />
    <glyph glyph-name="Tbar" unicode="&#x166;" horiz-adv-x="545" 
d="M614 700l-31 -173h-172l-21 -115h105l-28 -158h-104l-45 -254h-179l45 254h-107l28 158h106l21 115h-173l30 173h525z" />
    <glyph glyph-name="tbar" unicode="&#x167;" horiz-adv-x="394" 
d="M403 500l-26 -145h-104l-7 -41h72l-21 -120h-72c-7 -43 20 -49 96 -44l-26 -150c-188 -25 -264 37 -237 192v2h-50l21 120h50l8 41h-76l26 145h75l16 90l175 50l-25 -140h105z" />
    <glyph glyph-name="Umacron" unicode="&#x16a;" horiz-adv-x="645" 
d="M566 754h-309l22 130h310zM290 -15c-85 0 -151 23 -198 69c-46 46 -63 105 -50 176l83 470h179l-80 -453c-11 -59 17 -88 83 -88c65 0 103 29 114 88l79 453h179l-83 -470c-14 -79 -49 -139 -104 -182c-55 -42 -123 -63 -202 -63z" />
    <glyph glyph-name="umacron" unicode="&#x16b;" 
d="M202 684h310l-23 -130h-309zM361 233l47 267h166l-88 -500h-166l9 51c-38 -43 -87 -65 -146 -65c-108 0 -174 79 -151 215l53 299h166l-49 -278c-8 -53 17 -79 62 -79c51 0 86 31 97 91v-1z" />
    <glyph glyph-name="Uring" unicode="&#x16e;" horiz-adv-x="645" 
d="M405 708c-41 0 -72 13 -95 39s-31 58 -24 96c13 76 78 129 161 129c41 0 72 -13 95 -40c23 -26 31 -58 24 -96c-13 -76 -76 -128 -161 -128zM420 808c23 0 37 10 40 31c4 19 -6 33 -29 33c-20 0 -35 -13 -38 -32c-3 -21 6 -32 27 -32zM290 -15c-85 0 -151 23 -198 69
c-46 46 -63 105 -50 176l83 470h179l-80 -453c-11 -59 17 -88 83 -88c65 0 103 29 114 88l79 453h179l-83 -470c-14 -79 -49 -139 -104 -182c-55 -42 -123 -63 -202 -63z" />
    <glyph glyph-name="uring" unicode="&#x16f;" 
d="M333 533c-41 0 -72 13 -95 39s-31 58 -24 96c13 76 78 129 161 129c41 0 72 -13 95 -40c23 -26 31 -58 24 -96c-13 -76 -76 -128 -161 -128zM321 665c-3 -21 6 -32 27 -32c23 0 37 10 40 31c4 19 -6 33 -29 33c-20 0 -35 -13 -38 -32zM361 233l47 267h166l-88 -500h-166
l9 51c-38 -43 -87 -65 -146 -65c-108 0 -174 79 -151 215l53 299h166l-49 -278c-8 -53 17 -79 62 -79c51 0 86 31 97 91v-1z" />
    <glyph glyph-name="Uhungarumlaut" unicode="&#x170;" horiz-adv-x="645" 
d="M211 745l106 150h164l-113 -150h-157zM403 745l117 150h163l-122 -150h-158zM290 -15c79 0 147 21 202 63c55 43 90 103 104 182l83 470h-179l-79 -453c-11 -59 -49 -88 -114 -88c-66 0 -94 29 -83 88l80 453h-179l-83 -470c-13 -71 4 -130 50 -176
c47 -46 113 -69 198 -69z" />
    <glyph glyph-name="uhungarumlaut" unicode="&#x171;" 
d="M240 695h164l-113 -150h-157zM606 695l-122 -150h-158l117 150h163zM361 234v-1l47 267h166l-88 -500h-166l9 51c-38 -43 -87 -65 -146 -65c-108 0 -174 79 -151 215l53 299h166l-49 -278c-8 -53 17 -79 62 -79c51 0 86 31 97 91z" />
    <glyph glyph-name="Uogonek" unicode="&#x172;" horiz-adv-x="645" 
d="M421 247l79 453h179l-83 -470c-15 -85 -55 -149 -118 -192c-67 -51 -103 -90 -110 -116c-4 -15 2 -22 17 -23c4 -1 12 0 23 3l-18 -99c-30 -11 -58 -17 -85 -17c-69 0 -106 41 -95 101c7 37 29 70 64 98c-81 3 -143 28 -186 73c-43 46 -58 103 -46 172l83 470h179
l-80 -453c-11 -59 17 -88 83 -88c65 0 103 29 114 88z" />
    <glyph glyph-name="uogonek" unicode="&#x173;" 
d="M361 233l47 267h166l-88 -500h-2c-36 -33 -55 -60 -57 -82c-2 -13 4 -19 18 -19c7 0 14 1 22 3l-18 -99c-25 -11 -52 -17 -81 -17c-65 0 -110 34 -99 95c7 39 35 78 82 119h-31l9 51c-38 -43 -87 -65 -146 -65c-108 0 -174 79 -151 215l53 299h166l-49 -278
c-8 -53 17 -79 62 -79c51 0 86 31 97 91v-1z" />
    <glyph glyph-name="Wcircumflex" unicode="&#x174;" horiz-adv-x="1004" 
d="M624 745l-29 56l-50 -56h-151l133 155h167l79 -155h-149zM693 259l188 441h196l-318 -700h-189l-43 395l-181 -395h-189l-73 700h181l35 -441l202 441h143z" />
    <glyph glyph-name="wcircumflex" unicode="&#x175;" horiz-adv-x="790" 
d="M485 545l-29 56l-50 -56h-151l133 155h167l79 -155h-149zM535 233l112 267h181l-241 -500h-162l-27 251l-109 -251h-170l-65 500h166l23 -272l118 272h145z" />
    <glyph glyph-name="Ycircumflex" unicode="&#x176;" horiz-adv-x="631" 
d="M438 745l-29 56l-50 -56h-151l133 155h167l79 -155h-149zM498 700h212l-295 -395l-54 -305h-179l54 305l-157 395h190l75 -225z" />
    <glyph glyph-name="ycircumflex" unicode="&#x177;" horiz-adv-x="549" 
d="M351 545l-29 56l-50 -56h-151l133 155h167l79 -155h-149zM272 211l130 289h191l-254 -485c-87 -167 -194 -227 -342 -215l28 156c72 0 100 15 131 64l-112 480h176z" />
    <glyph glyph-name="Ydieresis" unicode="&#x178;" horiz-adv-x="631" 
d="M331 895c43 0 73 -36 65 -80c-6 -69 -109 -108 -145 -57c-44 46 11 141 80 137zM497 735c-43 0 -73 36 -65 80c6 68 109 109 145 56c44 -45 -11 -140 -80 -136zM498 700h212l-295 -395l-54 -305h-179l54 305l-157 395h190l75 -225z" />
    <glyph glyph-name="Zacute" unicode="&#x179;" horiz-adv-x="542" 
d="M378 900h198l-136 -145h-163zM117 700h474l-23 -138l-312 -389h250l-30 -173h-487l24 138l313 389h-240z" />
    <glyph glyph-name="zacute" unicode="&#x17a;" horiz-adv-x="455" 
d="M295 700h198l-136 -145h-163zM213 346h-161l27 154h390l-20 -114l-212 -232h181l-27 -154h-410l21 114z" />
    <glyph glyph-name="Zdotaccent" unicode="&#x17b;" horiz-adv-x="542" 
d="M365 743c-49 0 -83 41 -74 89c9 49 56 90 105 90s83 -41 75 -90c-11 -48 -58 -89 -106 -89zM117 700h474l-23 -138l-312 -389h250l-30 -173h-487l24 138l313 389h-240z" />
    <glyph glyph-name="zdotaccent" unicode="&#x17c;" horiz-adv-x="455" 
d="M282 543c-49 0 -83 41 -74 89c9 49 56 90 105 90s83 -41 75 -90c-11 -48 -58 -89 -106 -89zM79 500h390l-20 -114l-212 -232h181l-27 -154h-410l21 114l211 232h-161z" />
    <glyph glyph-name="Zcaron" unicode="&#x17d;" horiz-adv-x="542" 
d="M444 745h-167l-79 155h145l30 -56l49 56h155zM117 700h474l-23 -138l-312 -389h250l-30 -173h-487l24 138l313 389h-240z" />
    <glyph glyph-name="zcaron" unicode="&#x17e;" horiz-adv-x="455" 
d="M361 545h-167l-79 155h145l30 -56l49 56h155zM213 346h-161l27 154h390l-20 -114l-212 -232h181l-27 -154h-410l21 114z" />
    <glyph glyph-name="florin" unicode="&#x192;" horiz-adv-x="461" 
d="M203 431l37 106c18 53 43 95 75 124c65 60 141 62 226 45l-29 -164c-17 11 -37 11 -60 2s-40 -27 -49 -54l-20 -59h74l-28 -159h-102l-105 -303c-18 -53 -43 -95 -76 -124c-64 -60 -140 -62 -225 -45l29 164c17 -11 37 -11 60 -2s40 27 49 54l89 256h-69l29 159h95z" />
    <glyph glyph-name="Scommaaccent" unicode="&#x218;" horiz-adv-x="588" 
d="M269 -15c-149 0 -243 66 -272 174l159 82c19 -58 61 -87 128 -87c55 0 85 16 91 48c4 22 -11 40 -46 55c-5 3 -30 11 -73 26c-61 21 -108 49 -139 84s-42 84 -31 145c11 64 42 114 91 149c50 36 109 54 177 54c117 0 205 -57 245 -160l-153 -82c-22 49 -57 73 -106 73
c-42 0 -66 -15 -72 -45c-8 -33 20 -50 108 -81c61 -21 94 -35 135 -71c43 -35 57 -89 45 -162c-24 -132 -131 -202 -287 -202zM265 -277h-129l48 220h154z" />
    <glyph glyph-name="scommaaccent" unicode="&#x219;" horiz-adv-x="473" 
d="M210 -14c-111 0 -184 41 -220 123l146 71c15 -38 42 -57 83 -57c29 0 45 8 48 24c4 20 -34 33 -82 46c-68 17 -153 57 -133 170c9 50 34 88 76 113s88 38 139 38c92 0 166 -39 198 -111l-141 -68c-12 30 -33 45 -62 46c-25 1 -40 -8 -44 -27c-7 -37 57 -36 116 -59
c61 -18 116 -59 99 -160c-9 -51 -35 -89 -76 -113s-90 -36 -147 -36zM207 -277h-129l48 220h154z" />
    <glyph glyph-name="uni021A" unicode="&#x21a;" horiz-adv-x="545" 
d="M89 700h525l-31 -173h-172l-93 -527h-179l93 527h-173zM224 -277h-129l48 220h154z" />
    <glyph glyph-name="uni021B" unicode="&#x21b;" horiz-adv-x="394" 
d="M374 341h-104l-25 -145c-8 -45 19 -51 96 -46l-26 -150c-188 -25 -264 37 -237 192l26 149h-75l28 159h75l16 90l175 50l-25 -140h105zM183 -272h-129l48 220h154z" />
    <glyph glyph-name="circumflex" unicode="&#x2c6;" horiz-adv-x="419" 
d="M372 700l79 -155h-149l-29 56l-50 -56h-151l133 155h167z" />
    <glyph glyph-name="caron" unicode="&#x2c7;" horiz-adv-x="419" 
d="M274 644l49 56h155l-133 -155h-167l-79 155h145z" />
    <glyph glyph-name="breve" unicode="&#x2d8;" horiz-adv-x="399" 
d="M259 537c-113 0 -179 64 -160 160h140c-5 -29 5 -44 32 -44c26 0 42 15 47 44h140c-17 -107 -83 -160 -199 -160z" />
    <glyph glyph-name="dotaccent" unicode="&#x2d9;" horiz-adv-x="199" 
d="M161 543c-49 0 -83 41 -74 89c9 49 56 90 105 90s83 -41 75 -90c-11 -48 -58 -89 -106 -89z" />
    <glyph glyph-name="ring" unicode="&#x2da;" horiz-adv-x="321" 
d="M210 533c-41 0 -72 13 -95 39s-31 58 -24 96c13 76 78 129 161 129c41 0 72 -13 95 -40c23 -26 31 -58 24 -96c-13 -76 -76 -128 -161 -128zM225 633c23 0 37 10 40 31c4 19 -6 33 -29 33c-20 0 -35 -13 -38 -32c-3 -21 6 -32 27 -32z" />
    <glyph glyph-name="ogonek" unicode="&#x2db;" horiz-adv-x="233" 
d="M-46 -123c7 39 35 80 84 123h131c-35 -32 -54 -58 -57 -78c-3 -15 2 -23 17 -23c4 -1 12 0 23 3l-18 -99c-89 -35 -201 -18 -180 74z" />
    <glyph glyph-name="tilde" unicode="&#x2dc;" horiz-adv-x="398" 
d="M200 548h-121c17 166 130 190 208 143c30 -18 48 -26 57 19h122c-17 -168 -132 -188 -209 -142c-28 21 -50 21 -57 -20z" />
    <glyph glyph-name="hungarumlaut" unicode="&#x2dd;" horiz-adv-x="486" 
d="M72 545l106 150h164l-113 -150h-157zM264 545l117 150h163l-122 -150h-158z" />
    <glyph glyph-name="gravecomb" unicode="&#x300;" horiz-adv-x="0" 
d="M34 555h-154l-95 145h188z" />
    <glyph glyph-name="acutecomb" unicode="&#x301;" horiz-adv-x="0" 
d="M-226 555l101 145h198l-136 -145h-163z" />
    <glyph glyph-name="uni0302" unicode="&#x302;" horiz-adv-x="0" 
d="M-47 700l79 -155h-149l-29 56l-50 -56h-151l133 155h167z" />
    <glyph glyph-name="tildecomb" unicode="&#x303;" horiz-adv-x="0" 
d="M-205 548h-121c17 166 130 190 208 143c30 -18 48 -26 57 19h122c-17 -168 -132 -188 -209 -142c-28 21 -50 21 -57 -20z" />
    <glyph glyph-name="uni0304" unicode="&#x304;" horiz-adv-x="0" 
d="M34 554h-309l22 130h310z" />
    <glyph glyph-name="uni0306" unicode="&#x306;" horiz-adv-x="0" 
d="M-145 537c-113 0 -179 64 -160 160h140c-5 -29 5 -44 32 -44c26 0 42 15 47 44h140c-17 -107 -83 -160 -199 -160z" />
    <glyph glyph-name="uni0307" unicode="&#x307;" horiz-adv-x="0" 
d="M-58 543c-49 0 -83 41 -74 89c9 49 56 90 105 90s83 -41 75 -90c-11 -48 -58 -89 -106 -89z" />
    <glyph glyph-name="uni0308" unicode="&#x308;" horiz-adv-x="0" 
d="M-216 695c43 0 73 -36 65 -80c-6 -69 -109 -108 -145 -57c-44 46 11 141 80 137zM-50 535c-43 0 -73 36 -65 80c6 68 109 109 145 56c44 -45 -11 -140 -80 -136z" />
    <glyph glyph-name="uni030A" unicode="&#x30a;" horiz-adv-x="0" 
d="M-108 533c-41 0 -72 13 -95 39s-31 58 -24 96c13 76 78 129 161 129c41 0 72 -13 95 -40c23 -26 31 -58 24 -96c-13 -76 -76 -128 -161 -128zM-93 633c23 0 37 10 40 31c4 19 -6 33 -29 33c-20 0 -35 -13 -38 -32c-3 -21 6 -32 27 -32z" />
    <glyph glyph-name="uni030B" unicode="&#x30b;" horiz-adv-x="0" 
d="M-414 545l106 150h164l-113 -150h-157zM-222 545l117 150h163l-122 -150h-158z" />
    <glyph glyph-name="uni030C" unicode="&#x30c;" horiz-adv-x="0" 
d="M-145 644l49 56h155l-133 -155h-167l-79 155h145z" />
    <glyph glyph-name="uni0312" unicode="&#x312;" horiz-adv-x="0" 
d="M-19 985h129l-49 -220h-154z" />
    <glyph glyph-name="uni0326" unicode="&#x326;" horiz-adv-x="0" 
d="M-148 -277h-129l48 220h154z" />
    <glyph glyph-name="uni0327" unicode="&#x327;" horiz-adv-x="0" 
d="M-123 0l-8 -46c36 -17 50 -45 43 -86c-13 -70 -96 -100 -250 -89l19 109c62 -5 95 0 98 14c2 11 -15 18 -50 20l14 78h134z" />
    <glyph glyph-name="uni0328" unicode="&#x328;" horiz-adv-x="0" 
d="M-284 -123c7 39 35 80 84 123h131c-35 -32 -54 -58 -57 -78c-3 -15 2 -23 17 -23c4 -1 12 0 23 3l-18 -99c-89 -35 -201 -18 -180 74z" />
    <glyph glyph-name="uni0394" unicode="&#x394;" horiz-adv-x="660" 
d="M302 700h214l105 -700h-670zM382 497l-158 -342h194z" />
    <glyph glyph-name="uni03A9" unicode="&#x3a9;" horiz-adv-x="775" 
d="M774 365c-14 -78 -51 -144 -112 -197h63l-29 -168h-281l12 71l12 66l5 31l1 5c76 27 133 93 148 177c9 55 -1 101 -30 136c-29 36 -71 54 -125 54s-102 -18 -144 -54c-41 -35 -67 -81 -76 -136c-15 -84 19 -150 84 -177l-6 -36l-24 -137h-281l29 168h73
c-48 57 -65 126 -51 207c18 100 67 182 146 245c80 63 172 95 276 95c198 5 349 -154 310 -350z" />
    <glyph glyph-name="pi" unicode="&#x3c0;" horiz-adv-x="661" 
d="M59 500h630l-27 -157h-75l-60 -343h-166l60 343h-147l-60 -343h-166l60 343h-76z" />
    <glyph glyph-name="uni0401" unicode="&#x401;" horiz-adv-x="535" 
d="M294 895c43 0 73 -36 65 -80c-6 -69 -109 -108 -145 -57c-44 46 11 141 80 137zM460 735c-43 0 -73 36 -65 80c6 68 109 109 145 56c44 -45 -11 -140 -80 -136zM579 700l-30 -167h-265l-18 -98h242l-30 -164h-240l-18 -103h270l-29 -168h-450l123 700h445z" />
    <glyph glyph-name="uni0402" unicode="&#x402;" horiz-adv-x="695" 
d="M502 450c124 0 186 -75 163 -196l-9 -52c-15 -83 -43 -141 -84 -174c-41 -32 -104 -46 -188 -41l28 159c44 -3 61 13 68 56l5 31c7 41 -12 57 -52 57c-23 0 -49 -5 -77 -15l-48 -275h-179l93 527h-163l30 173h525l-31 -173h-182l-17 -93c39 11 79 16 118 16z" />
    <glyph glyph-name="uni0403" unicode="&#x403;" horiz-adv-x="475" 
d="M357 899h198l-136 -145h-163zM11 0l123 700h414l-30 -173h-235l-93 -527h-179z" />
    <glyph glyph-name="uni0404" unicode="&#x404;" horiz-adv-x="722" 
d="M371 157c68 0 123 29 164 87l147 -95c-75 -104 -192 -164 -323 -164c-107 0 -191 36 -250 108s-79 161 -62 267c17 103 64 188 141 255c78 67 169 100 272 100c137 0 237 -63 286 -167l-164 -87c-24 55 -70 82 -139 82c-81 0 -152 -42 -191 -111h251l-30 -164h-249
c15 -68 67 -111 147 -111z" />
    <glyph glyph-name="uni0405" unicode="&#x405;" horiz-adv-x="588" 
d="M269 -15c-149 0 -243 66 -272 174l159 82c19 -58 61 -87 128 -87c55 0 85 16 91 48c4 22 -11 40 -46 55c-5 3 -30 11 -73 26c-61 21 -108 49 -139 84s-42 84 -31 145c11 64 42 114 91 149c50 36 109 54 177 54c117 0 205 -57 245 -160l-153 -82c-22 49 -57 73 -106 73
c-42 0 -66 -15 -72 -45c-8 -33 20 -50 108 -81c61 -21 94 -35 135 -71c43 -35 57 -89 45 -162c-24 -132 -131 -202 -287 -202z" />
    <glyph glyph-name="uni0406" unicode="&#x406;" horiz-adv-x="289" 
d="M11 0l123 700h179l-123 -700h-179z" />
    <glyph glyph-name="uni0407" unicode="&#x407;" horiz-adv-x="289" 
d="M161 895c43 0 73 -36 65 -80c-6 -69 -109 -108 -145 -57c-44 46 11 141 80 137zM327 735c-43 0 -73 36 -65 80c6 68 109 109 145 56c44 -45 -11 -140 -80 -136zM11 0l123 700h179l-123 -700h-179z" />
    <glyph glyph-name="uni0408" unicode="&#x408;" horiz-adv-x="569" 
d="M234 -15c-116 0 -193 48 -230 145l162 87c13 -41 37 -58 81 -58c55 0 86 24 94 71l83 470h179l-84 -473c-28 -163 -129 -242 -285 -242z" />
    <glyph glyph-name="uni0409" unicode="&#x409;" horiz-adv-x="938" 
d="M638 464h73c65 0 119 -23 161 -69c43 -46 58 -104 46 -173c-12 -70 -45 -125 -98 -164s-116 -58 -191 -58h-252l93 527h-131l-44 -254c-45 -259 -199 -288 -334 -275l29 167c73 -8 110 17 127 116l74 419h488zM681 294h-73l-22 -124h73c47 0 74 21 81 62s-12 62 -59 62z
" />
    <glyph glyph-name="uni040A" unicode="&#x40a;" horiz-adv-x="943" 
d="M643 465h73c65 0 119 -23 161 -70c43 -46 58 -104 46 -173c-12 -70 -45 -125 -98 -164s-116 -58 -191 -58h-252l52 294h-192l-52 -294h-179l123 700h179l-41 -235h192l41 235h179zM745 232c7 41 -12 62 -58 62h-74l-22 -123h73c47 0 74 20 81 61z" />
    <glyph glyph-name="uni040B" unicode="&#x40b;" horiz-adv-x="700" 
d="M500 455c121 0 182 -72 165 -196l-44 -259h-177l41 237c8 44 -12 58 -56 58c-24 0 -48 -4 -71 -13l-50 -282h-179l93 527h-163l30 173h525l-31 -173h-182l-16 -89c39 11 78 17 115 17z" />
    <glyph glyph-name="uni040C" unicode="&#x40c;" horiz-adv-x="631" 
d="M416 899h198l-136 -145h-163zM502 700h209l-298 -348l178 -352h-185l-160 319l-56 -319h-179l123 700h179l-50 -284z" />
    <glyph glyph-name="uni040E" unicode="&#x40e;" horiz-adv-x="629" 
d="M268 893h323l-24 -140h-323zM356 413l155 287h191l-280 -489c-45 -79 -95 -134 -151 -166c-56 -31 -123 -46 -201 -45l29 167c59 -3 108 17 146 58l-151 475h176z" />
    <glyph glyph-name="uni040F" unicode="&#x40f;" horiz-adv-x="650" 
d="M402 173l93 527h179l-123 -700h-181l-24 -134h-178l24 134h-181l123 700h179l-93 -527h182z" />
    <glyph glyph-name="uni0410" unicode="&#x410;" horiz-adv-x="671" 
d="M631 0h-191l-11 101h-233l-48 -101h-197l354 700h218zM386 497l-116 -242h142z" />
    <glyph glyph-name="uni0411" unicode="&#x411;" horiz-adv-x="592" 
d="M268 442h110c67 0 119 -22 156 -66c37 -43 50 -98 39 -164c-24 -135 -121 -212 -273 -212h-289l123 700h464l-30 -173h-285zM343 281h-104l-20 -117h103c39 0 67 19 74 58s-14 59 -53 59z" />
    <glyph glyph-name="uni0412" unicode="&#x412;" horiz-adv-x="602" 
d="M605 494c-11 -60 -41 -106 -90 -137c49 -37 69 -90 60 -159c-16 -119 -115 -198 -274 -198h-290l123 700h266c69 0 123 -19 162 -58s53 -88 43 -148zM374 540h-89l-19 -110h88c36 0 65 20 70 55c5 33 -14 55 -50 55zM400 219c7 36 -12 59 -52 59h-109l-21 -118h108
c39 0 67 24 74 59z" />
    <glyph glyph-name="uni0413" unicode="&#x413;" horiz-adv-x="475" 
d="M134 700h414l-30 -173h-235l-93 -527h-179z" />
    <glyph glyph-name="uni0414" unicode="&#x414;" horiz-adv-x="712" 
d="M211 700h487l-93 -527h76l-55 -307h-178l23 134h-326l-24 -134h-178l54 307h73c41 50 70 124 88 222zM262 173h165l64 361h-130l-25 -141c-17 -95 -42 -168 -74 -220z" />
    <glyph glyph-name="uni0415" unicode="&#x415;" horiz-adv-x="535" 
d="M579 700l-30 -167h-265l-18 -98h242l-30 -164h-240l-18 -103h270l-29 -168h-450l123 700h445z" />
    <glyph glyph-name="uni0416" unicode="&#x416;" horiz-adv-x="927" 
d="M794 700h204l-269 -358l144 -342h-187l-121 312l-55 -312h-179l53 304l-222 -304h-201l277 364l-145 336h187l120 -305l54 305h179l-54 -305z" />
    <glyph glyph-name="uni0417" unicode="&#x417;" horiz-adv-x="560" 
d="M563 495c-11 -63 -43 -111 -97 -142c57 -39 79 -94 66 -166c-23 -128 -129 -202 -293 -202c-130 0 -213 55 -248 164l159 84c16 -53 53 -79 111 -79c56 0 88 21 96 62c6 36 -13 56 -57 60l-106 1l27 155h70c54 0 84 19 91 58c5 37 -17 58 -64 58c-45 0 -80 -25 -107 -74
l-144 93c57 92 155 148 278 148c71 0 127 -21 170 -63s59 -94 48 -157z" />
    <glyph glyph-name="uni0418" unicode="&#x418;" horiz-adv-x="675" 
d="M150 0h-139l123 700h179l-60 -341l307 341h138l-123 -700h-178l60 341z" />
    <glyph glyph-name="uni0419" unicode="&#x419;" horiz-adv-x="675" 
d="M575 754h-323l24 140h323zM150 0h-139l123 700h179l-60 -341l307 341h138l-123 -700h-178l60 341z" />
    <glyph glyph-name="uni041A" unicode="&#x41a;" horiz-adv-x="631" 
d="M502 700h209l-298 -348l178 -352h-185l-160 319l-56 -319h-179l123 700h179l-50 -284z" />
    <glyph glyph-name="uni041B" unicode="&#x41b;" horiz-adv-x="665" 
d="M-39 -2l29 167c73 -8 110 17 127 116l74 419h498l-123 -700h-179l93 527h-141l-44 -254c-45 -256 -193 -288 -334 -275z" />
    <glyph glyph-name="uni041C" unicode="&#x41c;" horiz-adv-x="825" 
d="M658 700h190l-123 -700h-178l66 378l-219 -282h-18l-119 287l-67 -383h-179l123 700h179l114 -302z" />
    <glyph glyph-name="uni041D" unicode="&#x41d;" horiz-adv-x="665" 
d="M464 441l46 259h178l-123 -700h-178l47 269h-197l-47 -269h-179l123 700h179l-46 -259h197z" />
    <glyph glyph-name="uni041E" unicode="&#x41e;" horiz-adv-x="790" 
d="M360 -15c-214 -4 -353 183 -313 376c17 100 64 184 141 252s170 102 279 102c106 0 188 -37 247 -112c59 -74 81 -161 64 -262s-64 -186 -140 -254c-75 -68 -168 -102 -278 -102zM600 350c10 55 0 101 -29 136c-29 36 -71 54 -125 54s-102 -18 -144 -54
c-41 -35 -67 -81 -77 -136c-10 -56 -1 -102 27 -137c29 -35 70 -53 124 -53s102 18 145 53c43 36 70 82 79 137z" />
    <glyph glyph-name="uni041F" unicode="&#x41f;" horiz-adv-x="650" 
d="M134 700h540l-123 -700h-179l93 527h-182l-93 -527h-179z" />
    <glyph glyph-name="uni0420" unicode="&#x420;" horiz-adv-x="592" 
d="M134 700h264c70 0 126 -24 167 -72c41 -47 57 -108 46 -183c-10 -71 -41 -128 -93 -171c-51 -43 -118 -64 -199 -64h-92l-37 -210h-179zM433 455c9 45 -17 74 -65 74h-85l-26 -149h87c47 0 81 30 89 75z" />
    <glyph glyph-name="uni0421" unicode="&#x421;" horiz-adv-x="722" 
d="M359 -15c-107 0 -191 36 -250 108s-79 161 -62 267c17 103 64 188 141 255c78 67 169 100 272 100c137 0 235 -63 286 -167l-164 -87c-27 53 -73 79 -139 79c-55 0 -102 -18 -143 -53c-40 -35 -65 -80 -75 -137c-9 -55 -1 -101 26 -137c27 -35 67 -53 120 -53
c67 0 122 28 164 84l147 -95c-75 -104 -192 -164 -323 -164z" />
    <glyph glyph-name="uni0422" unicode="&#x422;" horiz-adv-x="545" 
d="M89 700h525l-31 -173h-172l-93 -527h-179l93 527h-173z" />
    <glyph glyph-name="uni0423" unicode="&#x423;" horiz-adv-x="629" 
d="M356 413l155 287h191l-280 -489c-45 -79 -95 -134 -151 -166c-56 -31 -123 -46 -201 -45l29 167c59 -3 108 17 146 58l-151 475h176z" />
    <glyph glyph-name="uni0424" unicode="&#x424;" horiz-adv-x="833" 
d="M586 720l-15 -84c92 -14 161 -48 208 -101s63 -118 50 -195c-28 -159 -158 -258 -359 -278l-15 -82h-172l15 84c-93 13 -163 47 -210 100s-63 119 -49 196c28 160 157 258 361 278l14 82h172zM217 350c-13 -69 23 -110 110 -123l44 249c-90 -13 -141 -55 -154 -126z
M652 350c12 72 -21 113 -109 126l-44 -249c89 13 140 54 153 123z" />
    <glyph glyph-name="uni0425" unicode="&#x425;" horiz-adv-x="632" 
d="M490 700h208l-264 -350l148 -350h-193l-79 186l-141 -186h-208l274 363l-143 337h194l73 -173z" />
    <glyph glyph-name="uni0426" unicode="&#x426;" horiz-adv-x="702" 
d="M683 700l-93 -527h80l-54 -307h-179l24 134h-450l123 700h184l-93 -527h182l93 527h183z" />
    <glyph glyph-name="uni0427" unicode="&#x427;" horiz-adv-x="647" 
d="M439 398l53 302h178l-123 -700h-178l39 223c-31 -7 -63 -10 -95 -10c-175 0 -261 90 -234 242l43 245h178l-40 -231c-11 -61 17 -83 86 -84c29 0 60 4 93 13z" />
    <glyph glyph-name="uni0428" unicode="&#x428;" horiz-adv-x="949" 
d="M702 173l92 527h179l-123 -700h-839l123 700h179l-93 -527h152l92 527h179l-93 -527h152z" />
    <glyph glyph-name="uni0429" unicode="&#x429;" horiz-adv-x="992" 
d="M973 700l-93 -527h80l-54 -307h-179l24 134h-740l123 700h179l-93 -527h152l92 527h179l-93 -527h152l92 527h179z" />
    <glyph glyph-name="uni042A" unicode="&#x42a;" horiz-adv-x="697" 
d="M387 0h-271l93 527h-160l30 173h339l-37 -210h92c66 0 120 -25 161 -75c42 -49 57 -109 45 -180c-27 -147 -135 -235 -292 -235zM351 320l-27 -149h93c41 0 76 30 84 74s-18 75 -58 75h-92z" />
    <glyph glyph-name="uni042B" unicode="&#x42b;" horiz-adv-x="869" 
d="M282 0h-271l123 700h179l-37 -210h93c66 0 120 -25 161 -75c41 -49 56 -109 44 -180c-27 -147 -135 -235 -292 -235zM769 0h-178l123 700h178zM246 320l-26 -149h92c43 0 77 30 84 74c8 44 -17 75 -58 75h-92z" />
    <glyph glyph-name="uni042C" unicode="&#x42c;" horiz-adv-x="592" 
d="M276 490h93c66 0 120 -25 161 -75c41 -49 56 -109 44 -180c-27 -147 -135 -235 -292 -235h-271l123 700h179zM396 245c8 44 -17 75 -58 75h-92l-26 -149h92c43 0 77 30 84 74z" />
    <glyph glyph-name="uni042D" unicode="&#x42d;" horiz-adv-x="720" 
d="M398 715c105 0 188 -36 247 -108s81 -161 64 -267c-17 -102 -62 -187 -137 -254s-165 -101 -272 -101c-135 0 -241 63 -290 167l162 86c27 -54 75 -81 144 -81c81 0 149 42 188 111h-251l30 164h251c-15 69 -68 111 -148 111c-71 0 -126 -28 -167 -85l-143 92
c72 103 191 165 322 165z" />
    <glyph glyph-name="uni042E" unicode="&#x42e;" horiz-adv-x="1068" 
d="M748 715c216 3 347 -183 308 -375c-17 -100 -65 -184 -142 -253c-77 -68 -171 -102 -281 -102c-87 0 -158 27 -215 82s-87 124 -91 207h-89l-48 -274h-179l123 700h179l-45 -254h89c32 81 83 146 153 195c71 49 150 74 238 74zM879 350c9 55 -1 101 -30 136
c-29 36 -71 54 -125 54s-102 -18 -144 -54c-41 -35 -67 -81 -77 -136c-10 -56 -1 -102 27 -137c29 -35 70 -53 124 -53s102 18 145 53c43 36 70 82 80 137z" />
    <glyph glyph-name="uni042F" unicode="&#x42f;" horiz-adv-x="627" 
d="M374 700h277l-123 -700h-179l40 226h-29l-176 -226h-210l204 252c-81 43 -115 131 -98 223c13 63 45 116 96 159c52 44 118 66 198 66zM255 456c-8 -45 22 -79 67 -79h94l28 158h-95c-47 0 -85 -32 -94 -79z" />
    <glyph glyph-name="uni0430" unicode="&#x430;" horiz-adv-x="615" 
d="M435 445l10 55h166l-88 -500h-166l7 39c-39 -35 -87 -53 -146 -53c-71 0 -124 27 -159 81c-34 54 -45 117 -33 190c11 71 41 131 90 181c49 51 109 76 181 76c64 0 110 -23 138 -69zM401 247v3c11 65 -22 109 -86 109c-31 0 -58 -10 -81 -30s-37 -46 -42 -79
s0 -59 15 -79s39 -30 70 -30c63 0 112 42 124 106z" />
    <glyph glyph-name="uni0431" unicode="&#x431;" horiz-adv-x="570" 
d="M263 -15c-83 0 -146 26 -190 79c-43 53 -58 120 -44 202c15 85 40 152 73 200c34 49 88 90 163 123c10 5 24 11 43 19l38 17c13 7 49 22 58 29c11 7 33 21 41 30c9 11 22 23 31 39l125 -78c-17 -38 -42 -68 -73 -91s-76 -45 -135 -66c-47 -17 -81 -32 -103 -45
c-21 -13 -38 -29 -50 -48c39 29 84 43 134 43c53 0 99 -22 137 -65s51 -98 40 -164c-11 -68 -43 -122 -95 -163c-51 -41 -116 -61 -193 -61zM276 129c55 0 101 38 109 89c9 52 -25 90 -80 90c-52 0 -102 -34 -110 -87c-9 -53 25 -92 81 -92z" />
    <glyph glyph-name="uni0432" unicode="&#x432;" horiz-adv-x="519" 
d="M501 348c-8 -45 -31 -78 -69 -97c41 -27 58 -65 50 -115c-16 -91 -82 -136 -199 -136h-279l88 500h262c51 0 90 -15 117 -44s37 -65 30 -108zM307 376h-78l-11 -66h77c27 0 42 11 45 32c5 23 -6 34 -33 34zM321 161c4 22 -7 33 -33 33h-91l-12 -68h90c27 0 42 12 46 35z
" />
    <glyph glyph-name="uni0433" unicode="&#x433;" horiz-adv-x="407" 
d="M92 500h359l-27 -159h-194l-60 -341h-166l60 341z" />
    <glyph glyph-name="uni0434" unicode="&#x434;" horiz-adv-x="600" 
d="M564 500l-60 -343h64l-51 -291h-160l24 134h-260l-24 -134h-160l52 291h59c33 42 56 99 68 170l31 173h417zM223 157h119l34 195h-94l-4 -25c-13 -72 -32 -129 -55 -170z" />
    <glyph glyph-name="uni0435" unicode="&#x435;" horiz-adv-x="568" 
d="M324 514c75 0 134 -26 177 -77s57 -113 44 -186c-3 -20 -8 -41 -17 -62h-343c9 -41 41 -61 96 -61c40 0 73 12 99 36l106 -97c-58 -54 -131 -81 -218 -81s-152 26 -196 79c-43 53 -59 118 -46 195c12 73 46 134 102 182s121 72 196 72zM205 305h189c-3 46 -30 69 -79 69
s-86 -23 -110 -69z" />
    <glyph glyph-name="uni0436" unicode="&#x436;" horiz-adv-x="779" 
d="M631 500h184l-199 -258l110 -242h-170l-91 214l-38 -214h-164l36 206l-159 -206h-179l203 261l-101 239h168l84 -205l36 205h164l-37 -210z" />
    <glyph glyph-name="uni0437" unicode="&#x437;" horiz-adv-x="456" 
d="M439 356c-9 -49 -34 -84 -75 -105c45 -28 62 -69 53 -124c-16 -88 -96 -142 -227 -142c-109 0 -177 40 -206 120l138 71c12 -35 39 -53 81 -53c33 0 51 11 55 34c3 20 -10 31 -37 31h-60l22 126h50c27 0 42 10 45 30s-13 33 -38 33c-33 0 -61 -18 -82 -53l-119 76
c57 76 132 114 225 114c57 0 102 -16 135 -48c34 -32 47 -69 40 -110z" />
    <glyph glyph-name="uni0438" unicode="&#x438;" horiz-adv-x="580" 
d="M214 273l234 227h128l-88 -500h-162l40 227l-234 -227h-128l88 500h162z" />
    <glyph glyph-name="uni0439" unicode="&#x439;" horiz-adv-x="580" 
d="M505 554h-323l24 140h323zM214 273l234 227h128l-88 -500h-162l40 227l-234 -227h-128l88 500h162z" />
    <glyph glyph-name="uni043A" unicode="&#x43a;" horiz-adv-x="537" 
d="M385 500h188l-209 -250l129 -250h-181l-104 216l-38 -216h-166l88 500h166l-36 -204z" />
    <glyph glyph-name="uni043B" unicode="&#x43b;" horiz-adv-x="562" 
d="M126 500h432l-88 -500h-166l60 341h-100l-24 -134c-29 -167 -112 -226 -273 -207l26 154c46 -10 75 16 86 77z" />
    <glyph glyph-name="uni043C" unicode="&#x43c;" horiz-adv-x="648" 
d="M471 500h173l-88 -500h-160l42 241l-136 -166h-18l-77 166l-42 -241h-161l88 500h161l73 -183z" />
    <glyph glyph-name="uni043D" unicode="&#x43d;" horiz-adv-x="575" 
d="M375 328l30 172h166l-88 -500h-166l30 172h-147l-30 -172h-166l88 500h166l-30 -172h147z" />
    <glyph glyph-name="uni043E" unicode="&#x43e;" horiz-adv-x="583" 
d="M258 -14c-173 -1 -261 147 -231 280c13 69 47 128 100 176c54 48 121 72 202 72c80 0 141 -29 183 -86s57 -121 44 -192c-12 -68 -45 -127 -100 -176s-121 -74 -198 -74zM271 146c59 0 107 43 118 104s-22 104 -81 104c-57 0 -106 -43 -117 -104s23 -104 80 -104z" />
    <glyph glyph-name="uni043F" unicode="&#x43f;" horiz-adv-x="575" 
d="M92 500h479l-88 -500h-166l60 343h-147l-60 -343h-166z" />
    <glyph glyph-name="uni0440" unicode="&#x440;" horiz-adv-x="615" 
d="M393 514c69 0 121 -27 158 -82c37 -54 50 -118 38 -192c-12 -72 -42 -132 -90 -181c-47 -49 -106 -73 -176 -73c-65 0 -113 24 -143 71l-45 -257h-166l123 700h166l-7 -41c38 37 85 55 142 55zM423 250c12 67 -21 109 -84 109c-61 0 -111 -41 -124 -105l-2 -7
c-9 -64 26 -106 87 -106c63 0 112 42 123 109z" />
    <glyph glyph-name="uni0441" unicode="&#x441;" horiz-adv-x="532" 
d="M260 -14c-80 0 -142 26 -186 79s-60 118 -48 195c12 74 46 135 102 182c56 48 121 72 196 72c105 0 179 -51 215 -131l-151 -79c-15 32 -41 48 -78 48c-59 0 -109 -41 -118 -101c-11 -60 25 -103 81 -103c39 0 70 17 93 50l132 -84c-51 -84 -139 -128 -238 -128z" />
    <glyph glyph-name="uni0442" unicode="&#x442;" horiz-adv-x="470" 
d="M52 500h454l-27 -159h-144l-60 -341h-166l60 341h-145z" />
    <glyph glyph-name="uni0443" unicode="&#x443;" horiz-adv-x="549" 
d="M272 211l130 289h191l-254 -485c-87 -167 -194 -227 -342 -215l28 156c72 0 100 15 131 64l-112 480h176z" />
    <glyph glyph-name="uni0444" unicode="&#x444;" horiz-adv-x="709" 
d="M514 700l-34 -195c75 -14 131 -45 166 -94c36 -49 48 -105 37 -170c-24 -135 -127 -229 -294 -250l-33 -191h-162l34 194c-75 14 -130 45 -166 94c-35 49 -47 106 -36 171c24 133 125 228 292 249l34 192h162zM519 250c9 52 -13 86 -66 101l-36 -202c59 16 93 50 102 101
zM189 250c-9 -51 13 -84 66 -100l36 200c-59 -15 -93 -49 -102 -100z" />
    <glyph glyph-name="uni0445" unicode="&#x445;" horiz-adv-x="549" 
d="M394 500h192l-220 -250l139 -250h-176l-71 127l-111 -127h-191l228 260l-133 240h176l65 -117z" />
    <glyph glyph-name="uni0446" unicode="&#x446;" horiz-adv-x="612" 
d="M556 500l-60 -343h85l-52 -291h-160l24 134h-389l88 500h166l-60 -343h131l61 343h166z" />
    <glyph glyph-name="uni0447" unicode="&#x447;" horiz-adv-x="543" 
d="M335 292l37 208h167l-88 -500h-167l24 138c-35 -7 -67 -11 -94 -11c-65 0 -114 18 -145 54s-42 81 -32 135l32 184h167l-28 -158c-7 -41 13 -61 61 -61c19 0 41 4 66 11z" />
    <glyph glyph-name="uni0448" unicode="&#x448;" horiz-adv-x="835" 
d="M605 157l60 343h166l-88 -500h-739l88 500h166l-60 -343h122l60 343h164l-60 -343h121z" />
    <glyph glyph-name="uni0449" unicode="&#x449;" horiz-adv-x="862" 
d="M816 500l-60 -343h74l-52 -291h-159l24 134h-639l88 500h166l-60 -343h114l60 343h164l-60 -343h114l60 343h166z" />
    <glyph glyph-name="uni044A" unicode="&#x44a;" horiz-adv-x="583" 
d="M309 359h82c55 0 98 -18 129 -54s42 -81 33 -135c-21 -113 -96 -170 -226 -170h-248l60 341h-122l27 159h290zM393 180c4 24 -10 40 -37 40h-71l-15 -81h72c29 0 46 14 51 41z" />
    <glyph glyph-name="uni044B" unicode="&#x44b;" horiz-adv-x="747" 
d="M233 359h82c55 0 99 -18 130 -54s42 -81 33 -135c-21 -113 -96 -170 -226 -170h-248l88 500h166zM489 0l88 500h166l-88 -500h-166zM318 180c4 24 -10 40 -37 40h-72l-15 -81h72c27 0 48 16 52 41z" />
    <glyph glyph-name="uni044C" unicode="&#x44c;" horiz-adv-x="507" 
d="M233 359h82c55 0 99 -18 130 -54s42 -81 33 -135c-21 -113 -96 -170 -226 -170h-248l88 500h166zM318 180c4 24 -10 40 -37 40h-72l-15 -81h72c27 0 48 16 52 41z" />
    <glyph glyph-name="uni044D" unicode="&#x44d;" horiz-adv-x="532" 
d="M278 514c79 0 140 -27 183 -81c43 -53 58 -118 45 -193c-14 -76 -48 -137 -101 -184s-120 -70 -200 -70c-97 0 -180 53 -213 130l142 75c14 -37 44 -55 91 -55c40 0 73 15 100 46h-135l24 136h135c-15 31 -43 46 -84 46c-46 0 -81 -19 -106 -57l-125 79
c53 79 145 128 244 128z" />
    <glyph glyph-name="uni044E" unicode="&#x44e;" horiz-adv-x="807" 
d="M555 514c169 1 252 -143 226 -276c-11 -69 -44 -128 -99 -178c-55 -49 -121 -74 -198 -74c-132 0 -211 78 -227 186h-57l-30 -172h-166l88 500h166l-30 -172h50c45 109 145 186 277 186zM616 250c11 61 -23 104 -82 104c-57 0 -107 -43 -118 -104c-9 -61 23 -104 82 -104
c57 0 109 43 118 104z" />
    <glyph glyph-name="uni044F" unicode="&#x44f;" horiz-adv-x="532" 
d="M275 500h253l-88 -500h-164l25 142h-21l-120 -142h-191l150 172c-52 35 -75 96 -66 156c7 48 30 89 69 122s90 50 153 50zM214 316c-3 -23 10 -42 39 -42h71l15 86h-71c-29 0 -50 -20 -54 -44z" />
    <glyph glyph-name="uni0451" unicode="&#x451;" horiz-adv-x="568" 
d="M276 702c43 0 73 -36 65 -80c-6 -69 -109 -108 -145 -57c-44 46 11 141 80 137zM442 542c-43 0 -73 36 -65 80c6 68 109 109 145 56c44 -45 -11 -140 -80 -136zM324 514c75 0 134 -26 177 -77s57 -113 44 -186c-3 -20 -8 -41 -17 -62h-343c9 -41 41 -61 96 -61
c40 0 73 12 99 36l106 -97c-58 -54 -131 -81 -218 -81s-152 26 -196 79c-43 53 -59 118 -46 195c12 73 46 134 102 182s121 72 196 72zM205 305h189c-3 46 -30 69 -79 69s-86 -23 -110 -69z" />
    <glyph glyph-name="uni0452" unicode="&#x452;" horiz-adv-x="587" 
d="M402 502c108 0 175 -79 151 -215l-50 -287c-15 -83 -44 -140 -87 -173s-107 -47 -190 -42l27 154c49 -3 77 18 84 61l46 266c9 53 -15 80 -62 80c-49 0 -80 -26 -94 -78l-47 -268h-166l95 539h-58l19 106h57l10 55h166l-10 -55h136l-19 -106h-135l-18 -101
c39 43 87 64 145 64z" />
    <glyph glyph-name="uni0453" unicode="&#x453;" horiz-adv-x="407" 
d="M272 700h198l-136 -145h-163zM64 341l28 159h359l-27 -159h-194l-60 -341h-166z" />
    <glyph glyph-name="uni0454" unicode="&#x454;" horiz-adv-x="532" 
d="M264 136c47 0 84 19 110 57l124 -79c-53 -79 -145 -128 -244 -128c-77 0 -138 27 -182 80c-44 54 -59 119 -46 194s48 136 103 183s121 71 198 71c97 0 180 -53 213 -130l-142 -75c-14 37 -44 55 -89 55c-39 0 -73 -15 -100 -46h133l-24 -136h-135c15 -31 42 -46 81 -46z
" />
    <glyph glyph-name="uni0455" unicode="&#x455;" horiz-adv-x="473" 
d="M210 -14c-111 0 -184 41 -220 123l146 71c15 -38 42 -57 83 -57c29 0 45 8 48 24c4 20 -34 33 -82 46c-68 17 -153 57 -133 170c9 50 34 88 76 113s88 38 139 38c92 0 166 -39 198 -111l-141 -68c-12 30 -33 45 -62 46c-25 1 -40 -8 -44 -27c-7 -37 57 -36 116 -59
c61 -18 116 -59 99 -160c-9 -51 -35 -89 -76 -113s-90 -36 -147 -36z" />
    <glyph glyph-name="uni0456" unicode="&#x456;" horiz-adv-x="262" 
d="M184 541c-52 0 -89 44 -80 96c8 51 56 95 111 95c53 0 89 -43 80 -95c-8 -53 -56 -96 -111 -96zM170 0h-166l88 500h166z" />
    <glyph glyph-name="uni0457" unicode="&#x457;" horiz-adv-x="262" 
d="M111 695c43 0 73 -36 65 -80c-6 -69 -109 -108 -145 -57c-44 46 11 141 80 137zM277 535c-43 0 -73 36 -65 80c6 68 109 109 145 56c44 -45 -11 -140 -80 -136zM170 0h-166l88 500h166z" />
    <glyph glyph-name="uni0458" unicode="&#x458;" horiz-adv-x="277" 
d="M230 732c53 0 89 -43 80 -95c-8 -53 -56 -96 -111 -96c-52 0 -89 44 -80 96c8 51 56 95 111 95zM19 0l88 500h166l-88 -500c-28 -164 -112 -224 -277 -215l27 154c49 -3 77 18 84 61z" />
    <glyph glyph-name="uni0459" unicode="&#x459;" horiz-adv-x="782" 
d="M524 349h74c50 0 91 -18 122 -53s42 -78 32 -131c-20 -108 -98 -165 -215 -165h-241l60 341h-92l-24 -134c-29 -167 -112 -226 -273 -207l26 154c46 -10 75 16 86 77l47 269h425zM592 175c4 21 -9 35 -28 35h-64l-13 -71h64c19 0 37 13 41 36z" />
    <glyph glyph-name="uni045A" unicode="&#x45a;" horiz-adv-x="793" 
d="M534 349h75c50 0 91 -18 122 -53s42 -78 32 -131c-20 -108 -99 -165 -215 -165h-241l35 197h-137l-35 -197h-166l88 500h166l-27 -151h137l27 151h166zM603 175c4 21 -9 35 -29 35h-64l-13 -71h65c19 0 37 13 41 36z" />
    <glyph glyph-name="uni045B" unicode="&#x45b;" horiz-adv-x="587" 
d="M402 502c108 0 175 -79 151 -215l-50 -287h-166l46 266c9 53 -15 80 -62 80c-49 0 -80 -26 -94 -78l-47 -268h-166l95 539h-58l19 106h57l10 55h166l-10 -55h136l-19 -106h-135l-18 -101c39 43 87 64 145 64z" />
    <glyph glyph-name="uni045C" unicode="&#x45c;" horiz-adv-x="537" 
d="M332 700h198l-136 -145h-163zM385 500h188l-209 -250l129 -250h-181l-104 216l-38 -216h-166l88 500h166l-36 -204z" />
    <glyph glyph-name="uni045E" unicode="&#x45e;" horiz-adv-x="549" 
d="M179 694h323l-24 -140h-323zM272 211l130 289h191l-254 -485c-87 -167 -194 -227 -342 -215l28 156c72 0 100 15 131 64l-112 480h176z" />
    <glyph glyph-name="uni045F" unicode="&#x45f;" horiz-adv-x="575" 
d="M345 157l60 343h166l-88 -500h-159l-24 -134h-160l24 134h-160l88 500h166l-60 -343h147z" />
    <glyph glyph-name="uni0490" unicode="&#x490;" horiz-adv-x="475" 
d="M370 700l22 120h178l-52 -293h-235l-93 -527h-179l123 700h236z" />
    <glyph glyph-name="uni0491" unicode="&#x491;" horiz-adv-x="407" 
d="M292 500l18 102h159l-45 -261h-194l-60 -341h-166l60 341l28 159h200z" />
    <glyph glyph-name="Wgrave" unicode="&#x1e80;" horiz-adv-x="1004" 
d="M680 755h-154l-95 145h188zM157 0h189l181 395l43 -395h189l318 700h-196l-188 -441l-48 441h-143l-202 -441l-35 441h-181z" />
    <glyph glyph-name="wgrave" unicode="&#x1e81;" horiz-adv-x="790" 
d="M480 700l61 -145h-154l-95 145h188zM535 233l112 267h181l-241 -500h-162l-27 251l-109 -251h-170l-65 500h166l23 -272l118 272h145z" />
    <glyph glyph-name="Wacute" unicode="&#x1e82;" horiz-adv-x="1004" 
d="M500 755l101 145h198l-136 -145h-163zM157 0h189l181 395l43 -395h189l318 700h-196l-188 -441l-48 441h-143l-202 -441l-35 441h-181z" />
    <glyph glyph-name="wacute" unicode="&#x1e83;" horiz-adv-x="790" 
d="M462 700h198l-136 -145h-163zM535 233l112 267h181l-241 -500h-162l-27 251l-109 -251h-170l-65 500h166l23 -272l118 272h145z" />
    <glyph glyph-name="Wdieresis" unicode="&#x1e84;" horiz-adv-x="1004" 
d="M517 895c43 0 73 -36 65 -80c-6 -69 -109 -108 -145 -57c-44 46 11 141 80 137zM683 735c-43 0 -73 36 -65 80c6 68 109 109 145 56c44 -45 -11 -140 -80 -136zM346 0h-189l-73 700h181l35 -441l202 441h143l48 -441l188 441h196l-318 -700h-189l-43 395z" />
    <glyph glyph-name="wdieresis" unicode="&#x1e85;" horiz-adv-x="790" 
d="M378 695c43 0 73 -36 65 -80c-6 -69 -109 -108 -145 -57c-44 46 11 141 80 137zM544 535c-43 0 -73 36 -65 80c6 68 109 109 145 56c44 -45 -11 -140 -80 -136zM535 233l112 267h181l-241 -500h-162l-27 251l-109 -251h-170l-65 500h166l23 -272l118 272h145z" />
    <glyph glyph-name="Ygrave" unicode="&#x1ef2;" horiz-adv-x="631" 
d="M433 900l61 -145h-154l-95 145h188zM498 700h212l-295 -395l-54 -305h-179l54 305l-157 395h190l75 -225z" />
    <glyph glyph-name="ygrave" unicode="&#x1ef3;" horiz-adv-x="549" 
d="M346 700l61 -145h-154l-95 145h188zM272 211l130 289h191l-254 -485c-87 -167 -194 -227 -342 -215l28 156c72 0 100 15 131 64l-112 480h176z" />
    <glyph glyph-name="endash" unicode="&#x2013;" horiz-adv-x="612" 
d="M552 222h-502l28 158h502z" />
    <glyph glyph-name="emdash" unicode="&#x2014;" horiz-adv-x="712" 
d="M652 222h-602l28 158h602z" />
    <glyph glyph-name="quoteleft" unicode="&#x2018;" horiz-adv-x="302" 
d="M248 386h-184l140 314h134z" />
    <glyph glyph-name="quoteright" unicode="&#x2019;" horiz-adv-x="302" 
d="M157 700h184l-140 -314h-134z" />
    <glyph glyph-name="quotesinglbase" unicode="&#x201a;" horiz-adv-x="302" 
d="M64 174h184l-140 -314h-134z" />
    <glyph glyph-name="quotedblleft" unicode="&#x201c;" horiz-adv-x="525" 
d="M248 386h-184l140 314h134zM471 386h-184l140 314h134z" />
    <glyph glyph-name="quotedblright" unicode="&#x201d;" horiz-adv-x="525" 
d="M157 700h184l-140 -314h-134zM380 700h184l-140 -314h-134z" />
    <glyph glyph-name="quotedblbase" unicode="&#x201e;" horiz-adv-x="525" 
d="M64 174h184l-140 -314h-134zM287 174h184l-140 -314h-134z" />
    <glyph glyph-name="dagger" unicode="&#x2020;" horiz-adv-x="471" 
d="M377 582h117l-28 -158h-116l-75 -424h-167l75 424h-117l28 158h116l21 118h167z" />
    <glyph glyph-name="daggerdbl" unicode="&#x2021;" horiz-adv-x="471" 
d="M494 582l-28 -158h-116l-27 -148h117l-28 -158h-116l-21 -118h-167l21 118h-117l28 158h116l27 148h-117l28 158h116l21 118h167l-21 -118h117z" />
    <glyph glyph-name="bullet" unicode="&#x2022;" horiz-adv-x="399" 
d="M189 186c-45 0 -80 17 -107 50c-27 34 -36 74 -28 120c8 45 30 82 67 112c37 31 78 46 125 46c45 0 80 -17 106 -50c27 -33 36 -71 28 -116c-8 -46 -30 -85 -66 -116s-78 -46 -125 -46z" />
    <glyph glyph-name="ellipsis" unicode="&#x2026;" horiz-adv-x="788" 
d="M98 -14c-57 0 -96 47 -85 106c11 57 62 102 122 102c57 0 96 -49 85 -106c-11 -59 -59 -102 -122 -102zM347 -14c-57 0 -96 47 -85 106c11 57 62 102 122 102c57 0 96 -49 85 -106c-11 -59 -59 -102 -122 -102zM597 -14c-57 0 -96 47 -85 106c11 57 62 102 122 102
c57 0 96 -49 85 -106c-11 -59 -59 -102 -122 -102z" />
    <glyph glyph-name="perthousand" unicode="&#x2030;" horiz-adv-x="1220" 
d="M242 356c-53 0 -94 18 -123 54c-29 37 -40 79 -33 127c8 50 31 92 69 126c39 35 86 52 142 52c53 0 95 -19 124 -58c29 -38 39 -82 30 -132c-10 -48 -34 -88 -72 -121c-37 -32 -83 -48 -137 -48zM178 69l-63 42l546 500l63 -41zM259 483c47 0 78 58 53 90
c-24 33 -89 8 -93 -37c-7 -31 11 -53 40 -53zM564 -14c-53 0 -95 18 -124 55s-40 80 -32 129s31 90 69 124c39 34 86 51 141 51c53 0 94 -19 123 -57c30 -38 40 -82 31 -131c-9 -48 -33 -89 -71 -122c-37 -33 -83 -49 -137 -49zM960 -14c-53 0 -95 18 -124 55
s-40 80 -32 129c9 49 32 91 70 124c38 34 85 51 140 51c53 0 95 -19 124 -57c30 -38 40 -82 30 -131c-9 -48 -33 -89 -71 -122c-37 -33 -83 -49 -137 -49zM580 113c31 0 56 24 61 52c5 31 -11 53 -42 53c-29 0 -54 -22 -59 -53c-7 -29 11 -52 40 -52zM1037 165
c5 31 -12 53 -41 53s-53 -22 -60 -53c-5 -29 12 -52 41 -52s55 24 60 52z" />
    <glyph glyph-name="guilsinglleft" unicode="&#x2039;" horiz-adv-x="364" 
d="M209 504h145l-147 -200l76 -190h-139l-79 195z" />
    <glyph glyph-name="guilsinglright" unicode="&#x203a;" horiz-adv-x="365" 
d="M102 504h139l79 -195l-144 -195h-145l147 200z" />
    <glyph glyph-name="fraction" unicode="&#x2044;" horiz-adv-x="180" 
d="M428 700l-522 -700h-119l522 700h119z" />
    <glyph glyph-name="Euro" unicode="&#x20ac;" horiz-adv-x="632" 
d="M351 159c41 0 77 24 109 72l138 -87c-60 -106 -150 -159 -270 -159c-148 0 -238 104 -245 265h-70l15 84h60c1 13 3 23 4 28l1 7h-59l15 84h66c53 165 170 262 326 262c108 0 186 -56 222 -152l-157 -83c-18 41 -47 61 -88 61c-52 0 -91 -29 -118 -88h166l-15 -84h-178
c-1 -3 -3 -10 -4 -19l-3 -16h179l-15 -84h-167c6 -61 35 -91 88 -91z" />
    <glyph glyph-name="uni20BD" unicode="&#x20bd;" horiz-adv-x="610" 
d="M155 700h272c66 0 120 -24 161 -72c42 -47 57 -105 45 -173c-25 -147 -132 -224 -289 -224h-93l-7 -40h205l-17 -99h-206l-16 -92h-179l16 92h-65l17 99h66l7 40h-65l28 159h65zM455 460c8 43 -17 70 -58 70h-94l-24 -140h93c41 0 76 27 83 70z" />
    <glyph glyph-name="uni2116" unicode="&#x2116;" horiz-adv-x="1055" 
d="M876 366c-50 0 -90 18 -119 53c-29 36 -39 78 -30 126c8 49 31 90 69 122s83 48 135 48c51 0 90 -18 119 -54c29 -35 40 -77 31 -126s-32 -89 -70 -121c-37 -32 -82 -48 -135 -48zM190 0h-179l123 700h139l182 -366l65 366h178l-123 -700h-138l-182 366zM948 540
c17 60 -84 60 -89 0c-4 -27 10 -45 37 -45s48 18 52 45zM1003 166h-328l28 159h328z" />
    <glyph glyph-name="trademark" unicode="&#x2122;" horiz-adv-x="481" 
d="M285 700l-13 -69h-50l-23 -131h-73l23 131h-52l12 69h176zM452 700h78l-35 -200h-70l16 94l-51 -61h-7l-29 60l-16 -93h-70l35 200h70l27 -67z" />
    <glyph glyph-name="estimated" unicode="&#x212e;" horiz-adv-x="780" 
d="M471 710c107 0 190 -35 247 -105c58 -69 78 -154 60 -255c-2 -10 -8 -15 -18 -15h-560c-10 0 -16 -5 -18 -15l-33 -192c-2 -7 -1 -14 3 -19c46 -59 119 -89 218 -89c95 0 179 32 250 97c6 6 12 9 19 9h35c13 0 17 -10 6 -19c-87 -78 -192 -117 -316 -117
c-115 0 -203 36 -263 108c-59 72 -80 159 -62 262c18 101 67 185 146 251c80 66 175 99 286 99zM633 380l35 194c1 7 -1 14 -4 19c-45 58 -111 87 -198 87c-86 0 -162 -30 -229 -89c-6 -6 -9 -12 -10 -19l-34 -192c-2 -10 2 -15 12 -15h410c10 0 16 5 18 15z" />
    <glyph glyph-name="oneeighth" unicode="&#x215b;" horiz-adv-x="804" 
d="M63 0l522 700h119l-522 -700h-119zM117 300l46 256l-81 -20l-11 118l135 46h114l-71 -400h-132zM783 288c-6 -35 -25 -63 -58 -82c32 -25 45 -58 39 -100c-12 -76 -76 -120 -177 -120c-96 0 -153 52 -140 128c7 44 33 77 76 98c-26 21 -36 50 -30 85
c13 75 78 117 163 117c41 0 74 -12 99 -35s35 -54 28 -91zM602 280c-3 -17 8 -27 29 -27c22 0 35 9 38 27c4 19 -5 28 -28 28c-22 0 -35 -9 -39 -28zM647 127c3 22 -7 33 -32 33c-26 0 -41 -11 -44 -33c-5 -23 6 -34 32 -34c25 0 39 11 44 34z" />
    <glyph glyph-name="threeeighths" unicode="&#x215c;" horiz-adv-x="863" 
d="M356 417c-15 -87 -75 -131 -178 -131c-81 0 -132 31 -152 94l111 59c9 -27 27 -40 54 -40c22 0 34 9 36 26c3 17 -6 25 -27 25h-29l-33 68l66 66h-123l21 116h286l-16 -87l-78 -79c47 -20 71 -64 62 -117zM122 0l522 700h119l-522 -700h-119zM842 288
c-6 -35 -25 -63 -58 -82c32 -25 45 -58 39 -100c-12 -76 -76 -120 -177 -120c-96 0 -153 52 -140 128c7 44 33 77 76 98c-26 21 -36 50 -30 85c13 75 78 117 163 117c41 0 74 -12 99 -35s35 -54 28 -91zM661 280c-3 -17 8 -27 29 -27c23 0 35 9 38 27c4 19 -5 28 -28 28
c-22 0 -35 -9 -39 -28zM706 127c3 22 -7 33 -32 33c-26 0 -41 -11 -44 -33c-5 -23 6 -34 32 -34c25 0 39 11 44 34z" />
    <glyph glyph-name="fiveeighths" unicode="&#x215d;" horiz-adv-x="860" 
d="M344 412c-15 -85 -80 -126 -167 -126c-77 0 -126 31 -149 93l113 54c8 -25 24 -38 48 -38c22 0 34 9 36 26c3 19 -5 28 -25 28h-136l60 251h252l-20 -116h-142l-8 -33h18c80 0 136 -50 120 -139zM119 0l522 700h119l-522 -700h-119zM839 288c-6 -35 -25 -63 -58 -82
c32 -25 45 -58 39 -100c-12 -76 -76 -120 -177 -120c-96 0 -153 52 -140 128c7 44 33 77 76 98c-26 21 -36 50 -30 85c13 75 78 117 163 117c41 0 74 -12 99 -35s35 -54 28 -91zM658 280c-3 -17 8 -27 29 -27c22 0 35 9 38 27c4 19 -5 28 -28 28c-22 0 -35 -9 -39 -28z
M703 127c3 22 -7 33 -32 33c-26 0 -41 -11 -44 -33c-5 -23 6 -34 32 -34c25 0 39 11 44 34z" />
    <glyph glyph-name="seveneighths" unicode="&#x215e;" horiz-adv-x="830" 
d="M351 601l-163 -301h-138l154 284h-145l20 116h289zM89 0l522 700h119l-522 -700h-119zM809 288c-6 -35 -25 -63 -58 -82c32 -25 45 -58 39 -100c-12 -76 -76 -120 -177 -120c-96 0 -153 52 -140 128c7 44 33 77 76 98c-26 21 -36 50 -30 85c13 75 78 117 163 117
c41 0 74 -12 99 -35s35 -54 28 -91zM628 280c-3 -17 8 -27 29 -27c22 0 35 9 38 27c4 19 -5 28 -28 28c-22 0 -35 -9 -39 -28zM673 127c3 22 -7 33 -32 33c-26 0 -41 -11 -44 -33c-5 -23 6 -34 32 -34c25 0 39 11 44 34z" />
    <glyph glyph-name="arrowleft" unicode="&#x2190;" horiz-adv-x="785" 
d="M375 429h406l-27 -158h-427l182 -221h-209l-247 300l353 300h229z" />
    <glyph glyph-name="arrowup" unicode="&#x2191;" horiz-adv-x="671" 
d="M414 700l247 -300l-36 -207l-178 216l-72 -409h-167l69 390l-255 -216l40 226z" />
    <glyph glyph-name="arrowright" unicode="&#x2192;" horiz-adv-x="785" 
d="M312 650h209l247 -300l-353 -300h-229l260 221h-407l28 158h427z" />
    <glyph glyph-name="arrowdown" unicode="&#x2193;" horiz-adv-x="671" 
d="M498 700l-68 -390l254 217l-40 -227l-353 -300l-247 300l37 207l178 -216l72 409h167z" />
    <glyph glyph-name="arrowboth" unicode="&#x2194;" horiz-adv-x="1137" 
d="M885 635l235 -285l-335 -285h-225l240 206h-475l169 -206h-206l-235 285l335 285h226l-242 -206h475l-169 206h207z" />
    <glyph glyph-name="arrowupdn" unicode="&#x2195;" horiz-adv-x="640" 
d="M665 594l-36 -206l-166 202l-81 -462l237 201l-40 -223l-334 -285l-234 285l36 206l166 -202l81 462l-237 -201l40 223l334 285z" />
    <glyph glyph-name="uni2196" unicode="&#x2196;" horiz-adv-x="652" 
d="M526 627l127 -153h-319l264 -320l-126 -106l-263 319l-56 -317l-126 153l75 424h424z" />
    <glyph glyph-name="uni2197" unicode="&#x2197;" horiz-adv-x="652" 
d="M79 474l180 153h424l-74 -424l-181 -153l52 296l-357 -302l-105 125l359 305h-298z" />
    <glyph glyph-name="uni2198" unicode="&#x2198;" horiz-adv-x="652" 
d="M477 326l55 316l127 -153l-75 -424h-424l-126 153h318l-264 320l126 106z" />
    <glyph glyph-name="uni2199" unicode="&#x2199;" horiz-adv-x="652" 
d="M563 647l104 -124l-359 -305h299l-180 -153h-424l75 424l179 153l-52 -299z" />
    <glyph glyph-name="partialdiff" unicode="&#x2202;" horiz-adv-x="584" 
d="M322 715c80 0 144 -36 193 -107s64 -160 45 -268c-41 -237 -167 -355 -342 -355c-70 0 -122 22 -157 67s-47 99 -37 160c11 64 39 117 86 159c47 43 104 64 172 64c45 0 83 -9 116 -27c2 99 -40 149 -125 151c-39 1 -79 -10 -121 -31l27 151c42 24 90 36 143 36zM245 139
c57 0 99 43 128 128c-23 16 -52 24 -85 24c-48 0 -90 -32 -99 -84c-7 -41 19 -68 56 -68z" />
    <glyph glyph-name="emptyset" unicode="&#x2205;" horiz-adv-x="804" 
d="M699 720h133l-114 -122c59 -73 79 -159 62 -258c-18 -100 -67 -184 -147 -251c-79 -67 -169 -101 -269 -101c-63 0 -120 16 -171 49l-53 -57h-133l114 122c-59 73 -80 159 -62 258c17 100 66 184 146 251c81 67 171 101 271 101c63 0 119 -16 170 -49zM172 350
c-11 -61 -1 -115 29 -162l364 389c-29 15 -63 23 -101 23c-69 0 -131 -24 -188 -73s-91 -108 -104 -177zM667 350c11 61 1 115 -29 162l-364 -389c29 -15 63 -23 101 -23c69 0 132 24 189 73s91 108 103 177z" />
    <glyph glyph-name="product" unicode="&#x220f;" horiz-adv-x="631" 
d="M143 -200h-167l158 900h520l-158 -900h-166l130 741h-187z" />
    <glyph glyph-name="summation" unicode="&#x2211;" horiz-adv-x="561" 
d="M446 -200h-500l27 152l253 321l-128 301l21 126h470l-28 -163h-267l118 -277l-233 -297h296z" />
    <glyph glyph-name="minus" unicode="&#x2212;" horiz-adv-x="560" 
d="M523 271h-479l29 158h478z" />
    <glyph glyph-name="radical" unicode="&#x221a;" horiz-adv-x="693" 
d="M369 0h-160l-81 179h-110l28 158h194l59 -146l311 609h180z" />
    <glyph glyph-name="infinity" unicode="&#x221e;" horiz-adv-x="819" 
d="M629 542c57 0 101 -19 133 -57c32 -37 43 -85 33 -142c-20 -113 -108 -185 -220 -185c-59 0 -113 29 -163 86c-64 -57 -126 -86 -185 -86c-57 0 -101 19 -134 57s-44 85 -33 142c20 113 108 185 221 185c59 0 113 -29 163 -86c64 57 126 86 185 86zM263 310
c23 0 49 13 76 40c-19 27 -39 40 -62 40c-24 0 -45 -16 -49 -40c-5 -24 11 -40 35 -40zM627 350c4 24 -10 40 -34 40s-49 -13 -76 -40c18 -27 39 -40 62 -40s43 16 48 40z" />
    <glyph glyph-name="integral" unicode="&#x222b;" horiz-adv-x="461" 
d="M-80 -204l29 164c17 -11 37 -11 60 -2c24 9 40 27 49 54l181 521c53 156 166 202 302 169l-30 -164c-17 11 -37 11 -60 2s-40 -27 -49 -54l-180 -521c-18 -53 -43 -95 -76 -124c-65 -60 -141 -62 -226 -45z" />
    <glyph glyph-name="approxequal" unicode="&#x2248;" horiz-adv-x="568" 
d="M312 371c-28 13 -53 21 -75 24c-44 7 -62 -2 -101 -22l-72 38c48 144 149 191 257 138c77 -40 119 -39 144 18l113 -58c-26 -70 -64 -117 -113 -142c-49 -24 -100 -23 -153 4zM139 131l-115 58c55 141 160 191 268 138c29 -13 54 -21 75 -24c43 -5 63 2 100 23l73 -39
c-49 -144 -149 -191 -258 -138c-77 40 -118 39 -143 -18z" />
    <glyph glyph-name="notequal" unicode="&#x2260;" horiz-adv-x="511" 
d="M526 539l-29 -159h-162l-37 -60h189l-28 -159h-259l-69 -111h-86l68 111h-93l28 159h164l37 60h-191l29 159h260l68 111h87l-69 -111h93z" />
    <glyph glyph-name="lessequal" unicode="&#x2264;" horiz-adv-x="521" 
d="M84 526l478 158l-32 -179l-292 -70l268 -69l-30 -166l-422 158zM445 21h-450l28 159h450z" />
    <glyph glyph-name="greaterequal" unicode="&#x2265;" horiz-adv-x="521" 
d="M82 517l30 167l422 -158l-30 -168l-478 -158l32 179l292 69zM445 21h-450l28 159h450z" />
    <glyph glyph-name="lozenge" unicode="&#x25ca;" horiz-adv-x="588" 
d="M323 0h-146l-124 350l247 350h146l125 -350zM234 337l46 -130l110 156l-46 130z" />
    <glyph glyph-name="i.loclTRK" horiz-adv-x="262" 
d="M182 543c-49 0 -83 41 -74 89c9 49 56 90 105 90s83 -41 75 -90c-11 -48 -58 -89 -106 -89zM170 0h-166l88 500h166z" />
    <glyph glyph-name="f_f_j" horiz-adv-x="855" 
d="M571 500h280l-88 -500c-28 -164 -111 -224 -278 -215l28 154c48 -3 76 18 83 61l60 341h-113l-60 -341h-167l60 341h-116l-60 -341h-166l60 341h-62l27 159h63c27 153 123 225 290 215l-27 -154c-56 4 -88 -16 -97 -61h116l2 10c25 148 118 215 290 215
c44 0 86 -5 127 -15l-25 -145c-36 6 -72 9 -109 9c-70 0 -109 -21 -116 -64z" />
    <glyph glyph-name="f_j" horiz-adv-x="572" 
d="M288 500h280l-88 -500c-28 -164 -112 -224 -277 -215l27 154c49 -3 77 18 84 61l60 341h-114l-60 -341h-166l60 341h-62l27 159h63c25 148 118 215 290 215c44 0 86 -5 127 -15l-25 -145c-36 6 -72 9 -109 9c-70 0 -109 -21 -117 -64z" />
    <glyph glyph-name="uni0414.loclBGR" horiz-adv-x="740" 
d="M556 700l78 -527h82l-55 -307h-178l24 134h-362l-24 -134h-179l55 307h82l263 527h214zM419 500l-151 -327h186z" />
    <glyph glyph-name="uni041B.loclBGR" horiz-adv-x="640" 
d="M151 0h-200l341 700h214l95 -700h-188l-44 492z" />
    <glyph glyph-name="uni0424.loclBGR" horiz-adv-x="869" 
d="M616 800l-17 -96c93 -17 164 -58 211 -124c48 -66 64 -146 47 -240c-17 -97 -60 -176 -128 -237c-67 -61 -153 -97 -256 -110l-16 -93h-169l17 96c-93 17 -163 58 -211 124s-64 146 -47 240c17 97 60 176 127 237s153 97 257 110l16 93h169zM679 350
c18 103 -18 166 -109 189l-67 -378c99 21 157 84 176 189zM225 350c-18 -104 18 -167 109 -188l67 376c-100 -22 -159 -85 -176 -188z" />
    <glyph glyph-name="uni0414.ss01" horiz-adv-x="712" 
d="M211 700h487l-93 -527h76l-31 -173h-683l30 173h73c41 50 70 124 88 222zM262 173h165l64 361h-130l-25 -141c-17 -95 -42 -168 -74 -220z" />
    <glyph glyph-name="uni0426.ss01" horiz-adv-x="702" 
d="M683 700l-93 -527h80l-30 -173h-629l123 700h184l-93 -527h182l93 527h183z" />
    <glyph glyph-name="uni0429.ss01" horiz-adv-x="992" 
d="M973 700l-93 -527h80l-30 -173h-919l123 700h179l-93 -527h152l92 527h179l-93 -527h152l92 527h179z" />
    <glyph glyph-name="uni0414.loclBGR.ss01" horiz-adv-x="740" 
d="M556 700l78 -527h82l-31 -173h-719l31 173h82l263 527h214zM419 500l-151 -327h186z" />
    <glyph glyph-name="uni0432.loclBGR" horiz-adv-x="562" 
d="M537 522c-9 -46 -35 -87 -80 -124c64 -40 88 -103 73 -190c-25 -144 -122 -222 -277 -222c-72 0 -128 23 -168 70c-39 47 -53 106 -40 179l42 239c28 157 122 240 266 240c59 0 107 -18 143 -55c37 -37 50 -82 41 -137zM332 560c-39 0 -69 -34 -78 -86l-10 -55l21 4
c16 3 31 5 46 6c36 26 56 52 60 79c7 31 -10 52 -39 52zM364 218c11 57 -32 80 -111 64l-35 -7l-8 -47c-8 -51 17 -84 64 -84c49 0 83 27 90 74z" />
    <glyph glyph-name="uni0433.loclBGR" horiz-adv-x="472" 
d="M210 -14c-63 0 -114 16 -154 49s-55 79 -45 136c12 68 59 111 108 126c74 21 161 23 167 57c2 16 -9 24 -33 24c-28 0 -51 -14 -70 -43l-129 67c44 75 115 112 213 112c56 0 103 -17 141 -52c38 -34 52 -78 43 -131c-18 -105 -110 -132 -181 -141c-48 -8 -87 -17 -91 -37
s12 -30 40 -30c37 0 66 18 86 55l131 -75c-44 -78 -119 -117 -226 -117z" />
    <glyph glyph-name="uni0434.loclBGR" horiz-adv-x="619" 
d="M441 441l10 59h164l-85 -480c-14 -81 -48 -140 -102 -178c-53 -38 -118 -57 -193 -57c-112 0 -199 42 -234 122l147 77c19 -36 53 -54 102 -54c61 0 105 30 116 90l7 38c-39 -35 -87 -52 -142 -52c-153 0 -223 130 -200 261c10 67 39 124 87 173c49 49 109 74 182 74
c65 0 112 -24 141 -73zM284 157c59 0 108 38 123 93l3 20c5 55 -30 93 -89 93c-63 0 -113 -43 -124 -103s24 -103 87 -103z" />
    <glyph glyph-name="uni0436.loclBGR" horiz-adv-x="779" 
d="M140 0h-179l203 261l-101 239h168l84 -203l71 403h165l-73 -408l153 208h184l-199 -258l110 -242h-170l-91 212l-38 -212h-164l36 205z" />
    <glyph glyph-name="uni0438.loclBGR" 
d="M361 233l47 267h166l-88 -500h-166l9 51c-38 -43 -87 -65 -146 -65c-108 0 -174 79 -151 215l53 299h166l-49 -278c-8 -53 17 -79 62 -79c51 0 86 31 97 91v-1z" />
    <glyph glyph-name="uni0439.loclBGR" 
d="M197 694h323l-24 -140h-323zM361 233l47 267h166l-88 -500h-166l9 51c-38 -43 -87 -65 -146 -65c-108 0 -174 79 -151 215l53 299h166l-49 -278c-8 -53 17 -79 62 -79c51 0 86 31 97 91v-1z" />
    <glyph glyph-name="uni043A.loclBGR" horiz-adv-x="537" 
d="M382 500h191l-210 -251l130 -249h-178l-106 220l-39 -220h-166l123 700h166l-70 -398z" />
    <glyph glyph-name="uni043B.loclBGR" horiz-adv-x="533" 
d="M395 500l94 -500h-169l-41 283l-140 -283h-183l270 500h169z" />
    <glyph glyph-name="uni043F.loclBGR" 
d="M395 514c108 0 174 -79 151 -215l-53 -299h-166l49 278c8 53 -17 79 -62 79c-51 0 -86 -31 -97 -91v1l-47 -267h-166l88 500h166l-9 -51c38 43 87 65 146 65z" />
    <glyph glyph-name="uni0442.loclBGR" horiz-adv-x="850" 
d="M662 514c113 0 180 -80 157 -208l-53 -306h-167l50 287c9 47 -8 70 -49 70c-42 0 -69 -23 -81 -68l-51 -289h-166l50 287c7 47 -9 70 -50 70c-43 0 -71 -26 -83 -77l-49 -280h-166l88 500h166l-8 -46c37 40 84 60 139 60c58 0 98 -22 120 -67c43 45 94 67 153 67z" />
    <glyph glyph-name="uni0446.loclBGR" horiz-adv-x="620" 
d="M543 152h45l-51 -286h-158l26 149c-21 10 -37 25 -47 44c-45 -49 -101 -73 -169 -73c-57 0 -100 19 -130 57s-39 91 -27 158l52 299h167l-49 -278c-9 -53 15 -79 62 -79c48 0 79 25 93 76l50 281h167l-56 -318c-3 -20 5 -30 25 -30z" />
    <glyph glyph-name="uni0448.loclBGR" horiz-adv-x="850" 
d="M631 220l49 280h166l-88 -500h-166l8 46c-37 -40 -84 -60 -139 -60c-58 0 -98 22 -120 67c-43 -45 -94 -67 -153 -67c-113 0 -180 80 -157 208l53 306h167l-50 -287c-9 -47 8 -70 49 -70c42 0 69 23 81 68l51 289h166l-50 -287c-7 -47 9 -70 50 -70c43 0 71 26 83 77z
" />
    <glyph glyph-name="uni0449.loclBGR" horiz-adv-x="892" 
d="M815 152h45l-51 -286h-157l26 149c-21 9 -36 23 -46 41c-43 -47 -98 -70 -164 -70c-61 0 -103 22 -126 66c-42 -44 -93 -66 -154 -66c-113 0 -180 80 -157 208l53 306h167l-50 -287c-9 -47 8 -70 49 -70c42 0 69 23 81 68l51 289h166l-50 -287c-7 -47 9 -70 50 -70
c43 0 71 26 83 78l49 279h166l-56 -318c-3 -20 5 -30 25 -30z" />
    <glyph glyph-name="uni044C.loclBGR" horiz-adv-x="495" 
d="M224 373h68c61 0 108 -19 140 -57c33 -38 44 -86 34 -145c-20 -115 -109 -186 -242 -186c-69 0 -122 20 -157 59s-47 90 -36 152l53 304h162zM306 184c7 29 -9 49 -44 49h-63l-7 -40c-7 -35 12 -56 48 -56c35 0 62 20 66 47z" />
    <glyph glyph-name="uni044A.loclBGR" 
d="M307 373h68c63 0 111 -19 142 -57c31 -37 42 -86 32 -145c-20 -115 -109 -186 -242 -186c-69 0 -122 20 -157 59s-47 90 -36 152l26 150h-123l27 154h285zM389 184c7 29 -9 49 -44 49h-63l-7 -40c-7 -35 12 -56 48 -56c35 0 62 20 66 47z" />
    <glyph glyph-name="uni044E.loclBGR" horiz-adv-x="807" 
d="M555 514c169 1 252 -143 226 -276c-11 -69 -44 -128 -99 -178c-55 -49 -121 -74 -198 -74c-132 0 -211 78 -227 186h-57l-30 -172h-166l123 700h166l-65 -372h50c45 109 145 186 277 186zM616 250c11 61 -23 104 -82 104c-57 0 -107 -43 -118 -104
c-9 -61 23 -104 82 -104c57 0 109 43 118 104z" />
    <glyph glyph-name="zero.sinf" horiz-adv-x="409" 
d="M136 -174c-55 0 -97 21 -127 62c-29 41 -38 94 -27 159c24 132 105 207 217 207c54 0 96 -21 126 -62c31 -41 40 -94 28 -159c-23 -132 -104 -207 -217 -207zM218 40c11 55 -1 83 -36 83c-33 0 -55 -28 -66 -83c-9 -55 3 -83 37 -83s56 28 65 83z" />
    <glyph glyph-name="one.sinf" horiz-adv-x="279" 
d="M-10 194l135 46h114l-71 -400h-132l46 256l-81 -20z" />
    <glyph glyph-name="two.sinf" horiz-adv-x="353" 
d="M259 -160h-306l15 89l168 141c24 21 37 36 38 46c3 15 -3 22 -20 22c-19 0 -37 -15 -56 -45l-100 63c42 65 101 98 177 98c41 0 75 -13 101 -38c27 -25 36 -59 28 -101c-8 -43 -34 -75 -87 -118l-49 -40h111z" />
    <glyph glyph-name="three.sinf" horiz-adv-x="342" 
d="M21 240h286l-16 -87l-78 -79c47 -20 71 -64 62 -117c-15 -87 -75 -131 -178 -131c-81 0 -132 31 -152 94l111 59c9 -27 27 -40 54 -40c22 0 34 9 36 26c3 17 -6 25 -27 25h-29l-33 68l66 66h-123z" />
    <glyph glyph-name="four.sinf" horiz-adv-x="362" 
d="M272 11h35l-20 -115h-35l-10 -56h-122l10 56h-184l20 115l152 229h141l-147 -229h39l11 63h121z" />
    <glyph glyph-name="five.sinf" horiz-adv-x="331" 
d="M295 240l-20 -116h-142l-8 -33h18c80 0 136 -50 120 -139c-15 -85 -80 -126 -167 -126c-77 0 -126 31 -149 93l113 54c8 -25 24 -38 48 -38c22 0 34 9 36 26c3 19 -5 28 -25 28h-136l60 251h252z" />
    <glyph glyph-name="six.sinf" horiz-adv-x="343" 
d="M282 240l-98 -128c69 -17 108 -75 96 -147c-15 -85 -82 -139 -179 -139c-47 0 -83 15 -108 44c-26 29 -35 64 -28 107c5 29 16 55 32 76l145 187h140zM160 -29c5 24 -6 36 -31 36s-39 -12 -44 -36s8 -37 31 -37c25 0 40 12 44 37z" />
    <glyph glyph-name="seven.sinf" horiz-adv-x="302" 
d="M-22 124l20 116h289l-17 -99l-163 -301h-138l154 284h-145z" />
    <glyph glyph-name="eight.sinf" horiz-adv-x="349" 
d="M299 128c-6 -35 -25 -63 -58 -82c32 -25 45 -58 39 -100c-12 -76 -76 -120 -177 -120c-96 0 -153 52 -140 128c7 44 33 77 76 98c-26 21 -36 50 -30 85c13 75 78 117 163 117c41 0 74 -12 99 -35s35 -54 28 -91zM118 120c-3 -17 8 -27 29 -27c22 0 35 9 38 27
c4 19 -5 28 -28 28c-22 0 -35 -9 -39 -28zM163 -33c3 22 -7 33 -32 33c-26 0 -41 -11 -44 -33c-5 -23 6 -34 32 -34c25 0 39 11 44 34z" />
    <glyph glyph-name="nine.sinf" horiz-adv-x="343" 
d="M168 254c47 0 83 -15 108 -44c26 -29 35 -64 28 -107c-5 -31 -17 -59 -38 -83l-139 -180h-140l98 128c-69 17 -108 75 -96 147c15 85 82 139 179 139zM109 109c-5 -24 6 -36 31 -36s39 12 44 36s-8 37 -31 37c-25 0 -40 -12 -44 -37z" />
    <glyph glyph-name="zero.tf" horiz-adv-x="589" 
d="M256 -15c-89 0 -155 35 -198 105c-42 70 -53 160 -34 270s59 197 119 260s135 95 226 95c89 0 155 -35 197 -105s53 -160 34 -270s-59 -197 -119 -260c-59 -63 -134 -95 -225 -95zM278 159c75 0 123 64 145 191s-4 191 -77 191c-74 0 -122 -64 -144 -191
c-23 -127 2 -191 76 -191z" />
    <glyph glyph-name="one.tf" horiz-adv-x="589" 
d="M476 700l-93 -527h178l-31 -173h-549l30 173h194l58 331l-127 -31l-16 159l202 68h154z" />
    <glyph glyph-name="two.tf" horiz-adv-x="589" 
d="M510 0h-524l22 130l303 236c55 41 85 78 91 109c7 36 -13 66 -60 66c-49 0 -89 -29 -122 -88l-143 92c63 112 171 170 292 170c69 0 124 -23 167 -69s59 -103 47 -172c-7 -41 -22 -77 -45 -108s-57 -64 -104 -101l-118 -92h224z" />
    <glyph glyph-name="three.tf" horiz-adv-x="589" 
d="M123 700h485l-24 -141l-146 -143c88 -35 136 -110 119 -209c-27 -151 -142 -222 -299 -222c-135 0 -228 59 -256 176l164 85c16 -58 52 -87 109 -87c61 0 95 23 104 68c7 45 -19 68 -80 68h-36l-52 104l133 130h-250z" />
    <glyph glyph-name="four.tf" horiz-adv-x="589" 
d="M508 270h70l-29 -163h-70l-19 -107h-178l19 107h-321l29 163l285 430h206l-286 -430h116l23 131h178z" />
    <glyph glyph-name="five.tf" horiz-adv-x="589" 
d="M606 700l-30 -171h-275l-19 -75h58c75 0 133 -22 176 -65s57 -102 44 -179c-13 -74 -46 -130 -101 -168c-54 -38 -119 -57 -194 -57c-143 0 -230 57 -262 170l166 84c15 -53 52 -80 110 -80c60 0 95 21 104 63c7 41 -20 66 -81 66h-237l101 412h440z" />
    <glyph glyph-name="six.tf" horiz-adv-x="589" 
d="M562 700l-184 -214c71 -10 124 -39 157 -88c34 -49 46 -105 35 -170c-11 -70 -45 -128 -100 -174s-126 -69 -214 -69s-154 26 -197 78s-57 114 -44 186c11 57 35 106 73 146l266 305h208zM394 237c9 56 -26 89 -86 89c-63 0 -107 -33 -116 -89c-11 -56 24 -88 85 -88
s106 32 117 88z" />
    <glyph glyph-name="seven.tf" horiz-adv-x="589" 
d="M69 527l30 173h539l-25 -148l-339 -552h-201l322 527h-326z" />
    <glyph glyph-name="eight.tf" horiz-adv-x="589" 
d="M595 502c-11 -61 -45 -107 -102 -140c60 -43 84 -100 71 -171c-23 -129 -133 -205 -310 -205c-87 0 -152 20 -197 60s-61 92 -50 157c14 75 58 130 131 166c-45 35 -63 83 -53 143c11 65 43 114 96 149s117 53 192 53c73 0 131 -19 174 -58c43 -38 59 -89 48 -154z
M327 432c53 0 89 23 96 60c7 36 -22 60 -75 60c-55 0 -90 -23 -97 -60s21 -60 76 -60zM391 222c7 47 -23 73 -88 73c-67 0 -105 -24 -114 -73c-8 -45 21 -72 88 -72s105 24 114 72z" />
    <glyph glyph-name="nine.tf" horiz-adv-x="589" 
d="M368 715c88 0 154 -26 197 -78s58 -114 45 -186c-11 -58 -36 -108 -76 -149l-264 -302h-208l184 214c-71 10 -124 39 -158 88c-33 49 -45 105 -34 170c12 70 45 128 100 174s127 69 214 69zM316 374c63 0 108 33 117 89s-25 88 -86 88c-63 0 -107 -32 -116 -88
s25 -89 85 -89z" />
    <glyph glyph-name="zero.dnom" horiz-adv-x="409" 
d="M164 -14c-55 0 -97 20 -127 61c-29 41 -38 95 -27 160c24 132 105 207 217 207c54 0 96 -21 126 -62c31 -41 40 -94 28 -159c-23 -132 -104 -207 -217 -207zM246 200c11 55 -1 83 -36 83c-33 0 -55 -28 -66 -83c-9 -55 3 -83 37 -83s56 28 65 83z" />
    <glyph glyph-name="one.dnom" horiz-adv-x="276" 
d="M18 354l135 46h114l-71 -400h-132l46 256l-81 -20z" />
    <glyph glyph-name="two.dnom" horiz-adv-x="356" 
d="M287 0h-306l15 89l168 141c24 21 37 36 38 46c3 15 -3 22 -20 22c-19 0 -37 -15 -56 -45l-100 63c42 65 101 98 177 98c41 0 75 -13 101 -38c27 -25 36 -59 28 -101c-8 -43 -34 -75 -87 -118l-49 -40h111z" />
    <glyph glyph-name="three.dnom" horiz-adv-x="335" 
d="M49 400h286l-16 -87l-78 -79c47 -20 71 -64 62 -117c-15 -87 -75 -131 -178 -131c-81 0 -132 31 -152 94l111 59c9 -27 27 -40 54 -40c22 0 34 9 36 26c3 17 -6 25 -27 25h-29l-33 68l66 66h-123z" />
    <glyph glyph-name="four.dnom" horiz-adv-x="361" 
d="M300 171h35l-20 -115h-35l-10 -56h-122l10 56h-184l20 115l152 229h141l-147 -229h39l11 63h121z" />
    <glyph glyph-name="five.dnom" horiz-adv-x="332" 
d="M323 400l-20 -116h-142l-8 -33h18c80 0 136 -50 120 -139c-15 -85 -80 -126 -167 -126c-77 0 -126 31 -149 93l113 54c8 -25 24 -38 48 -38c22 0 34 9 36 26c3 19 -5 28 -25 28h-136l60 251h252z" />
    <glyph glyph-name="six.dnom" horiz-adv-x="342" 
d="M310 400l-98 -128c69 -17 108 -75 96 -147c-15 -85 -82 -139 -179 -139c-47 0 -83 14 -109 43c-25 29 -34 65 -27 108c5 29 16 55 32 76l145 187h140zM188 131c5 24 -6 36 -31 36s-39 -12 -44 -36s8 -37 31 -37c25 0 40 12 44 37z" />
    <glyph glyph-name="seven.dnom" horiz-adv-x="302" 
d="M6 284l20 116h289l-17 -99l-163 -301h-138l154 284h-145z" />
    <glyph glyph-name="eight.dnom" horiz-adv-x="348" 
d="M327 288c-6 -35 -25 -63 -58 -82c32 -25 45 -58 39 -100c-12 -76 -76 -120 -177 -120c-96 0 -153 52 -140 128c7 44 33 77 76 98c-26 21 -36 50 -30 85c13 75 78 117 163 117c41 0 74 -12 99 -35s35 -54 28 -91zM146 280c-3 -17 8 -27 29 -27c22 0 35 9 38 27
c4 19 -5 28 -28 28c-22 0 -35 -9 -39 -28zM191 127c3 22 -7 33 -32 33c-26 0 -41 -11 -44 -33c-5 -23 6 -34 32 -34c25 0 39 11 44 34z" />
    <glyph glyph-name="nine.dnom" horiz-adv-x="342" 
d="M196 414c47 0 83 -15 108 -44c26 -29 35 -64 28 -107c-5 -31 -17 -59 -38 -83l-139 -180h-140l98 128c-69 17 -108 75 -96 147c15 85 82 139 179 139zM137 269c-5 -24 6 -36 31 -36s39 12 44 36s-8 37 -31 37c-25 0 -40 -12 -44 -37z" />
    <glyph glyph-name="zero.numr" horiz-adv-x="409" 
d="M217 286c-55 0 -97 20 -127 61c-29 41 -38 95 -27 160c24 132 105 207 217 207c54 0 96 -21 126 -62c31 -41 40 -94 28 -159c-23 -132 -104 -207 -217 -207zM299 500c11 55 -1 83 -36 83c-33 0 -55 -28 -66 -83c-9 -55 3 -83 37 -83s56 28 65 83z" />
    <glyph glyph-name="one.numr" horiz-adv-x="276" 
d="M71 654l135 46h114l-71 -400h-132l46 256l-81 -20z" />
    <glyph glyph-name="two.numr" horiz-adv-x="356" 
d="M340 300h-306l15 89l168 141c24 21 37 36 38 46c3 15 -3 22 -20 22c-19 0 -37 -15 -56 -45l-100 63c42 65 101 98 177 98c41 0 75 -13 101 -38c27 -25 36 -59 28 -101c-8 -43 -34 -75 -87 -118l-49 -40h111z" />
    <glyph glyph-name="three.numr" horiz-adv-x="335" 
d="M102 700h286l-16 -87l-78 -79c47 -20 71 -64 62 -117c-15 -87 -75 -131 -178 -131c-81 0 -132 31 -152 94l111 59c9 -27 27 -40 54 -40c22 0 34 9 36 26c3 17 -6 25 -27 25h-29l-33 68l66 66h-123z" />
    <glyph glyph-name="four.numr" horiz-adv-x="361" 
d="M353 471h35l-20 -115h-35l-10 -56h-122l10 56h-184l20 115l152 229h141l-147 -229h39l11 63h121z" />
    <glyph glyph-name="five.numr" horiz-adv-x="332" 
d="M376 700l-20 -116h-142l-8 -33h18c80 0 136 -50 120 -139c-15 -85 -80 -126 -167 -126c-77 0 -126 31 -149 93l113 54c8 -25 24 -38 48 -38c22 0 34 9 36 26c3 19 -5 28 -25 28h-136l60 251h252z" />
    <glyph glyph-name="six.numr" horiz-adv-x="342" 
d="M363 700l-98 -128c69 -17 108 -75 96 -147c-15 -85 -82 -139 -179 -139c-47 0 -83 14 -109 43c-25 29 -34 65 -27 108c5 29 16 55 32 76l145 187h140zM241 431c5 24 -6 36 -31 36s-39 -12 -44 -36s8 -37 31 -37c25 0 40 12 44 37z" />
    <glyph glyph-name="seven.numr" horiz-adv-x="302" 
d="M59 584l20 116h289l-17 -99l-163 -301h-138l154 284h-145z" />
    <glyph glyph-name="eight.numr" horiz-adv-x="349" 
d="M380 588c-6 -35 -25 -63 -58 -82c32 -25 45 -58 39 -100c-12 -76 -76 -120 -177 -120c-96 0 -153 52 -140 128c7 44 33 77 76 98c-26 21 -36 50 -30 85c13 75 78 117 163 117c41 0 74 -12 99 -35s35 -54 28 -91zM199 580c-3 -17 8 -27 29 -27c23 0 35 9 38 27
c4 19 -5 28 -28 28c-22 0 -35 -9 -39 -28zM244 427c3 22 -7 33 -32 33c-26 0 -41 -11 -44 -33c-5 -23 6 -34 32 -34c25 0 39 11 44 34z" />
    <glyph glyph-name="nine.numr" horiz-adv-x="342" 
d="M249 714c47 0 83 -15 108 -44c26 -29 35 -64 28 -107c-5 -31 -17 -59 -38 -83l-139 -180h-140l98 128c-69 17 -108 75 -96 147c15 85 82 139 179 139zM190 569c-5 -24 6 -36 31 -36s39 12 44 36s-8 37 -31 37c-25 0 -40 -12 -44 -37z" />
    <glyph glyph-name="zero.sups" horiz-adv-x="409" 
d="M245 446c-55 0 -97 20 -127 61c-29 41 -38 95 -27 160c24 132 105 207 217 207c54 0 96 -21 126 -62c31 -41 40 -94 28 -159c-23 -132 -104 -207 -217 -207zM327 660c11 55 -1 83 -36 83c-33 0 -55 -28 -66 -83c-9 -55 3 -83 37 -83s56 28 65 83z" />
    <glyph glyph-name="one.sups" horiz-adv-x="276" 
d="M99 814l135 46h114l-71 -400h-132l46 256l-81 -20z" />
    <glyph glyph-name="two.sups" horiz-adv-x="356" 
d="M368 460h-306l15 89l168 141c24 21 37 36 38 46c3 15 -3 22 -20 22c-19 0 -37 -15 -56 -45l-100 63c42 65 101 98 177 98c41 0 75 -13 101 -38c27 -25 36 -59 28 -101c-8 -43 -34 -75 -87 -118l-49 -40h111z" />
    <glyph glyph-name="three.sups" horiz-adv-x="336" 
d="M131 860h286l-16 -87l-78 -79c47 -20 71 -64 62 -117c-15 -87 -75 -131 -178 -131c-81 0 -132 31 -152 94l111 59c9 -27 27 -40 54 -40c22 0 34 9 36 26c3 17 -6 25 -27 25h-29l-33 68l66 66h-123z" />
    <glyph glyph-name="four.sups" horiz-adv-x="361" 
d="M381 631h35l-20 -115h-35l-10 -56h-122l10 56h-184l20 115l152 229h141l-147 -229h39l11 63h121z" />
    <glyph glyph-name="five.sups" horiz-adv-x="331" 
d="M404 860l-20 -116h-142l-8 -33h18c80 0 136 -50 120 -139c-15 -85 -80 -126 -167 -126c-77 0 -126 31 -149 93l113 54c8 -25 24 -38 48 -38c22 0 34 9 36 26c3 19 -5 28 -25 28h-136l60 251h252z" />
    <glyph glyph-name="six.sups" horiz-adv-x="343" 
d="M391 860l-98 -128c69 -17 108 -75 96 -147c-15 -85 -82 -139 -179 -139c-47 0 -83 14 -109 43c-25 29 -34 65 -27 108c5 29 16 55 32 76l145 187h140zM269 591c5 24 -6 36 -31 36s-39 -12 -44 -36s8 -37 31 -37c25 0 40 12 44 37z" />
    <glyph glyph-name="seven.sups" horiz-adv-x="303" 
d="M88 744l20 116h289l-17 -99l-163 -301h-138l154 284h-145z" />
    <glyph glyph-name="eight.sups" horiz-adv-x="348" 
d="M408 748c-6 -35 -25 -63 -58 -82c32 -25 45 -58 39 -100c-12 -76 -76 -120 -177 -120c-96 0 -153 52 -140 128c7 44 33 77 76 98c-26 21 -36 50 -30 85c13 75 78 117 163 117c41 0 74 -12 99 -35s35 -54 28 -91zM227 740c-3 -17 8 -27 29 -27c23 0 35 9 38 27
c4 19 -5 28 -28 28c-22 0 -35 -9 -39 -28zM272 587c3 22 -7 33 -32 33c-26 0 -41 -11 -44 -33c-5 -23 6 -34 32 -34c25 0 39 11 44 34z" />
    <glyph glyph-name="nine.sups" horiz-adv-x="342" 
d="M277 874c47 0 83 -15 108 -44c26 -29 35 -64 28 -107c-5 -31 -17 -59 -38 -83l-139 -180h-140l98 128c-69 17 -108 75 -96 147c15 85 82 139 179 139zM218 729c-5 -24 6 -36 31 -36s39 12 44 36s-8 37 -31 37c-25 0 -40 -12 -44 -37z" />
    <glyph glyph-name="cent.tf" horiz-adv-x="589" 
d="M318 248h2c39 0 70 17 93 50l132 -84c-51 -84 -139 -128 -238 -128c-19 0 -41 2 -66 7l-46 -93h-65l56 113c-87 44 -130 138 -113 247c12 74 46 135 102 182c56 48 121 72 196 72c22 0 42 -2 60 -6l46 92h65l-55 -112c44 -22 77 -57 99 -105l-151 -79
c-7 13 -15 24 -24 31zM239 351c-6 -36 2 -64 24 -83l91 184c-57 -1 -106 -41 -115 -101z" />
    <glyph glyph-name="dollar.tf" horiz-adv-x="589" 
d="M377 421c61 -21 94 -36 135 -72c43 -36 58 -91 45 -164c-23 -124 -121 -193 -264 -200l-15 -85h-70l15 87c-119 13 -193 68 -222 167l159 82c17 -47 48 -75 93 -82l22 124l-14 5c-124 48 -193 113 -172 236c11 63 40 112 89 145s107 50 174 51l15 85h70l-16 -91
c89 -17 150 -67 183 -149l-154 -82c-13 32 -33 53 -59 63l-21 -118c1 0 6 -1 7 -2zM265 503c-4 -21 9 -39 40 -54l17 99c-34 -5 -53 -20 -57 -45zM380 202c3 19 -10 36 -40 51l-17 -99c33 7 52 23 57 48z" />
    <glyph glyph-name="Euro.tf" horiz-adv-x="589" 
d="M321 159c39 0 73 22 102 66l136 -87c-59 -102 -145 -153 -258 -153c-136 0 -214 104 -217 265h-71l15 84h61c1 11 3 19 4 26c1 3 1 8 2 9h-61l15 84h66c53 167 158 262 302 262c103 0 173 -51 211 -154l-158 -83c-13 42 -38 63 -75 63c-41 0 -74 -29 -98 -88h137l-15 -84
h-145c-1 -3 -3 -10 -4 -19l-3 -16h146l-15 -84h-137c1 -61 21 -91 60 -91z" />
    <glyph glyph-name="florin.tf" horiz-adv-x="589" 
d="M282 431l47 106c24 53 54 95 90 124c73 60 150 62 235 45l-28 -164c-68 20 -114 3 -137 -52l-26 -59h108l-28 -159h-149l-133 -303c-34 -79 -80 -131 -137 -156s-120 -30 -188 -13l29 164c65 -19 110 -2 133 52l114 256h-108l29 159h149z" />
    <glyph glyph-name="uni20BD.tf" horiz-adv-x="589" 
d="M152 700h252c66 0 120 -24 161 -72c42 -47 57 -105 45 -173c-25 -145 -133 -224 -289 -224h-72l-7 -40h184l-17 -99h-185l-16 -92h-179l16 92h-63l17 99h64l7 40h-63l28 159h63zM432 460c8 43 -17 70 -58 70h-73l-24 -140h72c41 0 76 27 83 70z" />
    <glyph glyph-name="sterling.tf" horiz-adv-x="589" 
d="M474 272h-204l-18 -99h314l-31 -173h-554l31 173h62l17 99h-51l25 140h51l14 79c27 151 130 224 261 224c112 0 188 -52 227 -156l-161 -82c-17 45 -43 67 -80 67c-36 0 -63 -24 -70 -61l-12 -71h204z" />
    <glyph glyph-name="yen.tf" horiz-adv-x="589" 
d="M459 700h209l-230 -328h120l-16 -94h-153l-7 -41h152l-16 -93h-153l-25 -144h-179l25 144h-152l16 93h153l7 41h-152l16 94h120l-115 328h192l57 -211z" />
    <glyph glyph-name="brevecy" horiz-adv-x="403" 
d="M417 554h-323l24 140h323z" />
    </font>
</defs>
</svg>
